  0
SECTION
  2
HEADER
  9
$ACADVER
  1
AC1015
  9
$ACADMAINTVER
 70
     6
  9
$DWGCODEPAGE
  3
ANSI_949
  9
$INSBASE
 10
0.0
 20
0.0
 30
0.0
  9
$EXTMIN
 10
-75.7214580216121
 20
-49.97073246008785
 30
0.0
  9
$EXTMAX
 10
56.81740776230002
 20
54.43332450504428
 30
0.0
  9
$LIMMIN
 10
0.0
 20
0.0
  9
$LIMMAX
 10
420.0
 20
297.0
  9
$ORTHOMODE
 70
     0
  9
$REGENMODE
 70
     1
  9
$FILLMODE
 70
     1
  9
$QTEXTMODE
 70
     0
  9
$MIRRTEXT
 70
     1
  9
$LTSCALE
 40
1.0
  9
$ATTMODE
 70
     1
  9
$TEXTSIZE
 40
3.5
  9
$TRACEWID
 40
1.0
  9
$TEXTSTYLE
  7
Standard
  9
$CLAYER
  8
0
  9
$CELTYPE
  6
ByLayer
  9
$CECOLOR
 62
   256
  9
$CELTSCALE
 40
1.0
  9
$DISPSILH
 70
     0
  9
$DIMSCALE
 40
1.0
  9
$DIMASZ
 40
3.302
  9
$DIMEXO
 40
1.0
  9
$DIMDLI
 40
3.75
  9
$DIMRND
 40
0.0
  9
$DIMDLE
 40
0.0
  9
$DIMEXE
 40
1.0
  9
$DIMTP
 40
0.0
  9
$DIMTM
 40
0.0
  9
$DIMTXT
 40
3.5
  9
$DIMCEN
 40
2.5
  9
$DIMTSZ
 40
0.0
  9
$DIMTOL
 70
     0
  9
$DIMLIM
 70
     0
  9
$DIMTIH
 70
     1
  9
$DIMTOH
 70
     1
  9
$DIMSE1
 70
     0
  9
$DIMSE2
 70
     0
  9
$DIMTAD
 70
     1
  9
$DIMZIN
 70
     0
  9
$DIMBLK
  1

  9
$DIMASO
 70
     1
  9
$DIMSHO
 70
     1
  9
$DIMPOST
  1

  9
$DIMAPOST
  1

  9
$DIMALT
 70
     0
  9
$DIMALTD
 70
     3
  9
$DIMALTF
 40
0.0393700787401575
  9
$DIMLFAC
 40
1.0
  9
$DIMTOFL
 70
     1
  9
$DIMTVP
 40
0.0
  9
$DIMTIX
 70
     0
  9
$DIMSOXD
 70
     0
  9
$DIMSAH
 70
     0
  9
$DIMBLK1
  1

  9
$DIMBLK2
  1

  9
$DIMSTYLE
  2
ISO-25
  9
$DIMCLRD
 70
     0
  9
$DIMCLRE
 70
     0
  9
$DIMCLRT
 70
     0
  9
$DIMTFAC
 40
1.0
  9
$DIMGAP
 40
1.524
  9
$DIMJUST
 70
     0
  9
$DIMSD1
 70
     0
  9
$DIMSD2
 70
     0
  9
$DIMTOLJ
 70
     0
  9
$DIMTZIN
 70
     0
  9
$DIMALTZ
 70
     0
  9
$DIMALTTZ
 70
     0
  9
$DIMUPT
 70
     0
  9
$DIMDEC
 70
     2
  9
$DIMTDEC
 70
     2
  9
$DIMALTU
 70
     2
  9
$DIMALTTD
 70
     3
  9
$DIMTXSTY
  7
Standard
  9
$DIMAUNIT
 70
     0
  9
$DIMADEC
 70
     2
  9
$DIMALTRND
 40
0.0
  9
$DIMAZIN
 70
     0
  9
$DIMDSEP
 70
    44
  9
$DIMATFIT
 70
     3
  9
$DIMFRAC
 70
     0
  9
$DIMLDRBLK
  1

  9
$DIMLUNIT
 70
     2
  9
$DIMLWD
 70
    -2
  9
$DIMLWE
 70
    -2
  9
$DIMTMOVE
 70
     0
  9
$LUNITS
 70
     2
  9
$LUPREC
 70
     2
  9
$SKETCHINC
 40
1.0
  9
$FILLETRAD
 40
10.0
  9
$AUNITS
 70
     0
  9
$AUPREC
 70
     2
  9
$MENU
  1
.
  9
$ELEVATION
 40
0.0
  9
$PELEVATION
 40
0.0
  9
$THICKNESS
 40
0.0
  9
$LIMCHECK
 70
     0
  9
$CHAMFERA
 40
0.0
  9
$CHAMFERB
 40
0.0
  9
$CHAMFERC
 40
0.0
  9
$CHAMFERD
 40
0.0
  9
$SKPOLY
 70
     0
  9
$TDCREATE
 40
2458263.812298924
  9
$TDUCREATE
 40
2458263.437298924
  9
$TDUPDATE
 40
2459577.350358021
  9
$TDUUPDATE
 40
2459576.975358021
  9
$TDINDWG
 40
0.000787419
  9
$TDUSRTIMER
 40
0.0005653935
  9
$USRTIMER
 70
     1
  9
$ANGBASE
 50
0.0
  9
$ANGDIR
 70
     0
  9
$PDMODE
 70
     0
  9
$PDSIZE
 40
-1.0
  9
$PLINEWID
 40
0.0
  9
$SPLFRAME
 70
     0
  9
$SPLINETYPE
 70
     6
  9
$SPLINESEGS
 70
     8
  9
$HANDSEED
  5
2DE
  9
$SURFTAB1
 70
     6
  9
$SURFTAB2
 70
     6
  9
$SURFTYPE
 70
     6
  9
$SURFU
 70
     6
  9
$SURFV
 70
     6
  9
$UCSBASE
  2

  9
$UCSNAME
  2

  9
$UCSORG
 10
0.0
 20
0.0
 30
0.0
  9
$UCSXDIR
 10
1.0
 20
0.0
 30
0.0
  9
$UCSYDIR
 10
0.0
 20
1.0
 30
0.0
  9
$UCSORTHOREF
  2

  9
$UCSORTHOVIEW
 70
     0
  9
$UCSORGTOP
 10
0.0
 20
0.0
 30
0.0
  9
$UCSORGBOTTOM
 10
0.0
 20
0.0
 30
0.0
  9
$UCSORGLEFT
 10
0.0
 20
0.0
 30
0.0
  9
$UCSORGRIGHT
 10
0.0
 20
0.0
 30
0.0
  9
$UCSORGFRONT
 10
0.0
 20
0.0
 30
0.0
  9
$UCSORGBACK
 10
0.0
 20
0.0
 30
0.0
  9
$PUCSBASE
  2

  9
$PUCSNAME
  2

  9
$PUCSORG
 10
0.0
 20
0.0
 30
0.0
  9
$PUCSXDIR
 10
1.0
 20
0.0
 30
0.0
  9
$PUCSYDIR
 10
0.0
 20
1.0
 30
0.0
  9
$PUCSORTHOREF
  2

  9
$PUCSORTHOVIEW
 70
     0
  9
$PUCSORGTOP
 10
0.0
 20
0.0
 30
0.0
  9
$PUCSORGBOTTOM
 10
0.0
 20
0.0
 30
0.0
  9
$PUCSORGLEFT
 10
0.0
 20
0.0
 30
0.0
  9
$PUCSORGRIGHT
 10
0.0
 20
0.0
 30
0.0
  9
$PUCSORGFRONT
 10
0.0
 20
0.0
 30
0.0
  9
$PUCSORGBACK
 10
0.0
 20
0.0
 30
0.0
  9
$USERI1
 70
     0
  9
$USERI2
 70
     0
  9
$USERI3
 70
     0
  9
$USERI4
 70
     0
  9
$USERI5
 70
     0
  9
$USERR1
 40
0.0
  9
$USERR2
 40
0.0
  9
$USERR3
 40
0.0
  9
$USERR4
 40
0.0
  9
$USERR5
 40
0.0
  9
$WORLDVIEW
 70
     1
  9
$SHADEDGE
 70
     3
  9
$SHADEDIF
 70
    70
  9
$TILEMODE
 70
     1
  9
$MAXACTVP
 70
    64
  9
$PINSBASE
 10
0.0
 20
0.0
 30
0.0
  9
$PLIMCHECK
 70
     0
  9
$PEXTMIN
 10
1.000000000000000E+20
 20
1.000000000000000E+20
 30
1.000000000000000E+20
  9
$PEXTMAX
 10
-1.000000000000000E+20
 20
-1.000000000000000E+20
 30
-1.000000000000000E+20
  9
$PLIMMIN
 10
0.0
 20
0.0
  9
$PLIMMAX
 10
0.0
 20
0.0
  9
$UNITMODE
 70
     0
  9
$VISRETAIN
 70
     1
  9
$PLINEGEN
 70
     0
  9
$PSLTSCALE
 70
     1
  9
$TREEDEPTH
 70
  3020
  9
$CMLSTYLE
  2
Standard
  9
$CMLJUST
 70
     0
  9
$CMLSCALE
 40
20.0
  9
$PROXYGRAPHICS
 70
     1
  9
$MEASUREMENT
 70
     1
  9
$CELWEIGHT
370
    -1
  9
$ENDCAPS
280
     0
  9
$JOINSTYLE
280
     0
  9
$LWDISPLAY
290
     1
  9
$INSUNITS
 70
     4
  9
$HYPERLINKBASE
  1

  9
$STYLESHEET
  1

  9
$XEDIT
290
     1
  9
$CEPSNTYPE
380
     0
  9
$PSTYLEMODE
290
     1
  9
$FINGERPRINTGUID
  2
{E4591F0A-68DD-4910-A7C9-EBDA54D18336}
  9
$VERSIONGUID
  2
{FAEB1C32-E019-11D5-929B-00C0DF256EC4}
  9
$EXTNAMES
290
     1
  9
$PSVPSCALE
 40
0.0
  9
$OLESTARTUP
290
     0
  0
ENDSEC
  0
SECTION
  2
CLASSES
  0
CLASS
  1
ACDBDICTIONARYWDFLT
  2
AcDbDictionaryWithDefault
  3
ObjectDBX Classes
 90
        0
280
     0
281
     0
  0
CLASS
  1
VISUALSTYLE
  2
AcDbVisualStyle
  3
ObjectDBX Classes
 90
     4095
280
     0
281
     0
  0
CLASS
  1
MATERIAL
  2
AcDbMaterial
  3
ObjectDBX Classes
 90
     1153
280
     0
281
     0
  0
CLASS
  1
SCALE
  2
AcDbScale
  3
ObjectDBX Classes
 90
     1153
280
     0
281
     0
  0
CLASS
  1
TABLESTYLE
  2
AcDbTableStyle
  3
ObjectDBX Classes
 90
     4095
280
     0
281
     0
  0
CLASS
  1
MLEADERSTYLE
  2
AcDbMLeaderStyle
  3
ACDB_MLEADERSTYLE_CLASS
 90
     4095
280
     0
281
     0
  0
CLASS
  1
SUN
  2
AcDbSun
  3
SCENEOE
 90
     1153
280
     0
281
     0
  0
CLASS
  1
ACDBPLACEHOLDER
  2
AcDbPlaceHolder
  3
ObjectDBX Classes
 90
        0
280
     0
281
     0
  0
CLASS
  1
LAYOUT
  2
AcDbLayout
  3
ObjectDBX Classes
 90
        0
280
     0
281
     0
  0
CLASS
  1
RASTERVARIABLES
  2
AcDbRasterVariables
  3
ISM
 90
        0
280
     0
281
     0
  0
CLASS
  1
DIMASSOC
  2
AcDbDimAssoc
  3
"AcDbDimAssoc|Product Desc:     AcDim ARX App For Dimension|Company:          Autodesk, Inc.|WEB Address:      www.autodesk.com"
 90
        0
280
     0
281
     0
  0
ENDSEC
  0
SECTION
  2
TABLES
  0
TABLE
  2
VPORT
  5
8
330
0
100
AcDbSymbolTable
 70
     1
  0
VPORT
  5
29
330
8
100
AcDbSymbolTableRecord
100
AcDbViewportTableRecord
  2
*Active
 70
     0
 10
0.0
 20
0.0
 11
1.0
 21
1.0
 12
-9.452025129656036
 22
2.231296022478212
 13
0.0
 23
0.0
 14
10.0
 24
10.0
 15
10.0
 25
10.0
 16
0.0
 26
0.0
 36
1.0
 17
0.0
 27
0.0
 37
0.0
 40
106.4921381044348
 41
2.070175438596491
 42
50.0
 43
0.0
 44
0.0
 50
0.0
 51
0.0
 71
    16
 72
  2000
 73
     1
 74
     3
 75
     0
 76
     0
 77
     0
 78
     0
281
     0
 65
     1
110
0.0
120
0.0
130
0.0
111
1.0
121
0.0
131
0.0
112
0.0
122
1.0
132
0.0
 79
     0
146
0.0
  0
ENDTAB
  0
TABLE
  2
LTYPE
  5
5
330
0
100
AcDbSymbolTable
 70
     6
  0
LTYPE
  5
14
330
5
100
AcDbSymbolTableRecord
100
AcDbLinetypeTableRecord
  2
ByBlock
 70
     0
  3

 72
    65
 73
     0
 40
0.0
  0
LTYPE
  5
15
330
5
100
AcDbSymbolTableRecord
100
AcDbLinetypeTableRecord
  2
ByLayer
 70
     0
  3

 72
    65
 73
     0
 40
0.0
  0
LTYPE
  5
16
330
5
100
AcDbSymbolTableRecord
100
AcDbLinetypeTableRecord
  2
Continuous
 70
     0
  3
Solid line
 72
    65
 73
     0
 40
0.0
  0
LTYPE
  5
6E
330
5
100
AcDbSymbolTableRecord
100
AcDbLinetypeTableRecord
  2
HIDDEN
 70
     0
  3
Hidden __ __ __ __ __ __ __ __ __ __ __ __ __ __
 72
    65
 73
     2
 40
1.905
 49
1.27
 74
     0
 49
-0.635
 74
     0
  0
LTYPE
  5
6F
330
5
100
AcDbSymbolTableRecord
100
AcDbLinetypeTableRecord
  2
PHANTOM
 70
     0
  3
Phantom ______  __  __  ______  __  __  ______
 72
    65
 73
     6
 40
12.7
 49
6.35
 74
     0
 49
-1.27
 74
     0
 49
1.27
 74
     0
 49
-1.27
 74
     0
 49
1.27
 74
     0
 49
-1.27
 74
     0
  0
LTYPE
  5
70
330
5
100
AcDbSymbolTableRecord
100
AcDbLinetypeTableRecord
  2
CENTER
 70
     0
  3
Center ____ _ ____ _ ____ _ ____ _ ____ _ ____
 72
    65
 73
     4
 40
10.16
 49
6.35
 74
     0
 49
-1.27
 74
     0
 49
1.27
 74
     0
 49
-1.27
 74
     0
  0
LTYPE
  5
71
330
5
100
AcDbSymbolTableRecord
100
AcDbLinetypeTableRecord
  2
CENTERX2
 70
     0
  3
Center (2x) ________  __  ________  __  _____
 72
    65
 73
     4
 40
20.32
 49
12.7
 74
     0
 49
-2.54
 74
     0
 49
2.54
 74
     0
 49
-2.54
 74
     0
  0
LTYPE
  5
72
330
5
100
AcDbSymbolTableRecord
100
AcDbLinetypeTableRecord
  2
DOT2
 70
     0
  3
Dot (.5x) ........................................
 72
    65
 73
     2
 40
0.635
 49
0.0
 74
     0
 49
-0.635
 74
     0
  0
ENDTAB
  0
TABLE
  2
LAYER
  5
2
330
0
100
AcDbSymbolTable
 70
    17
  0
LAYER
  5
10
330
2
100
AcDbSymbolTableRecord
100
AcDbLayerTableRecord
  2
0
 70
     0
 62
     7
  6
Continuous
370
    -3
390
F
  0
LAYER
  5
73
330
2
100
AcDbSymbolTableRecord
100
AcDbLayerTableRecord
  2
FORMAT
 70
     0
 62
     2
  6
Continuous
370
    -3
390
F
  0
LAYER
  5
74
330
2
100
AcDbSymbolTableRecord
100
AcDbLayerTableRecord
  2
외형선
 70
     0
 62
   100
  6
Continuous
370
    35
390
F
  0
LAYER
  5
75
330
2
100
AcDbSymbolTableRecord
100
AcDbLayerTableRecord
  2
숨은선
 70
     0
 62
     2
  6
HIDDEN
370
    25
390
F
  0
LAYER
  5
76
330
2
100
AcDbSymbolTableRecord
100
AcDbLayerTableRecord
  2
중심선
 70
     0
 62
     1
  6
CENTERX2
370
    -3
390
F
  0
LAYER
  5
77
330
2
100
AcDbSymbolTableRecord
100
AcDbLayerTableRecord
  2
파단선
 70
     0
 62
     4
  6
Continuous
370
    -3
390
F
  0
LAYER
  5
78
330
2
100
AcDbSymbolTableRecord
100
AcDbLayerTableRecord
  2
해칭선
 70
     0
 62
     4
  6
Continuous
370
    -3
390
F
  0
LAYER
  5
79
330
2
100
AcDbSymbolTableRecord
100
AcDbLayerTableRecord
  2
가는실선
 70
     0
 62
     4
  6
Continuous
370
    -3
390
F
  0
LAYER
  5
7A
330
2
100
AcDbSymbolTableRecord
100
AcDbLayerTableRecord
  2
치수_보조선
 70
     0
 62
     4
  6
Continuous
370
    -3
390
F
  0
LAYER
  5
7B
330
2
100
AcDbSymbolTableRecord
100
AcDbLayerTableRecord
  2
치수문자_일반주서
 70
     0
 62
     7
  6
Continuous
370
    25
390
F
  0
LAYER
  5
7C
330
2
100
AcDbSymbolTableRecord
100
AcDbLayerTableRecord
  2
개별주서
 70
     0
 62
   100
  6
Continuous
370
    35
390
F
  0
LAYER
  5
7D
330
2
100
AcDbSymbolTableRecord
100
AcDbLayerTableRecord
  2
중간선
 70
     0
 62
     2
  6
Continuous
370
    25
390
F
  0
LAYER
  5
7E
330
2
100
AcDbSymbolTableRecord
100
AcDbLayerTableRecord
  2
윤곽선
 70
     0
 62
     3
  6
Continuous
370
    50
390
F
  0
LAYER
  5
7F
330
2
100
AcDbSymbolTableRecord
100
AcDbLayerTableRecord
  2
중심마크
 70
     0
 62
   100
  6
Continuous
370
    35
390
F
  0
LAYER
  5
80
330
2
100
AcDbSymbolTableRecord
100
AcDbLayerTableRecord
  2
가상선
 70
     0
 62
     4
  6
PHANTOM
370
    -3
390
F
  0
LAYER
  5
81
330
2
100
AcDbSymbolTableRecord
100
AcDbLayerTableRecord
  2
특수지정선
 70
     0
 62
     5
  6
CENTERX2
370
    70
390
F
  0
LAYER
  5
138
330
2
100
AcDbSymbolTableRecord
100
AcDbLayerTableRecord
  2
Defpoints
 70
     0
 62
     7
  6
Continuous
290
     0
370
    -3
390
F
  0
ENDTAB
  0
TABLE
  2
STYLE
  5
3
330
0
100
AcDbSymbolTable
 70
     2
  0
STYLE
  5
11
330
3
100
AcDbSymbolTableRecord
100
AcDbTextStyleTableRecord
  2
Standard
 70
     0
 40
0.0
 41
1.0
 50
0.0
 71
     0
 42
3.5
  3
txt
  4

  0
STYLE
  5
97
330
3
100
AcDbSymbolTableRecord
100
AcDbTextStyleTableRecord
  2
SLDTEXTSTYLE0
 70
     0
 40
0.0
 41
0.75
 50
0.0
 71
     0
 42
3.5
  3
TXT
  4

  0
ENDTAB
  0
TABLE
  2
VIEW
  5
6
330
0
100
AcDbSymbolTable
 70
     0
  0
ENDTAB
  0
TABLE
  2
UCS
  5
7
330
0
100
AcDbSymbolTable
 70
     0
  0
ENDTAB
  0
TABLE
  2
APPID
  5
9
330
0
100
AcDbSymbolTable
 70
     3
  0
APPID
  5
12
330
9
100
AcDbSymbolTableRecord
100
AcDbRegAppTableRecord
  2
ACAD
 70
     0
  0
APPID
  5
143
330
9
100
AcDbSymbolTableRecord
100
AcDbRegAppTableRecord
  2
ACAD_DSTYLE_DIMRADIAL_EXTENSION
 70
     0
  0
APPID
  5
2DA
330
9
100
AcDbSymbolTableRecord
100
AcDbRegAppTableRecord
  2
PE_URL
 70
     0
  0
ENDTAB
  0
TABLE
  2
DIMSTYLE
  5
A
330
0
100
AcDbSymbolTable
 70
     3
100
AcDbDimStyleTable
  0
DIMSTYLE
105
27
330
A
100
AcDbSymbolTableRecord
100
AcDbDimStyleTableRecord
  2
ISO-25
 70
     0
 41
2.5
 42
0.625
 43
3.75
 44
1.25
 73
     0
 74
     0
 77
     1
 78
     8
140
2.5
141
2.5
143
0.03937007874016
147
0.625
171
     3
172
     1
178
     0
271
     2
272
     2
274
     3
278
    44
283
     0
284
     8
340
11
  0
DIMSTYLE
105
D1
102
{ACAD_REACTORS
330
254
330
257
102
}
330
A
100
AcDbSymbolTableRecord
100
AcDbDimStyleTableRecord
  2
SLDDIMSTYLE0
 70
     0
 41
3.302
 44
0.0
 45
0.000000001
 73
     0
 74
     0
 77
     1
 78
    12
 79
     3
140
3.5
147
0.875
172
     1
173
     1
178
     0
271
     2
272
     2
276
     2
284
    12
289
     0
340
97
  0
DIMSTYLE
105
DF
102
{ACAD_REACTORS
330
255
330
256
330
258
330
2AA
102
}
330
A
100
AcDbSymbolTableRecord
100
AcDbDimStyleTableRecord
  2
SLDDIMSTYLE1
 70
     0
 41
3.302
 44
0.0
 45
0.000000001
 73
     0
 74
     0
 77
     1
 78
    12
 79
     3
140
3.5
147
0.875
173
     1
178
     0
271
     2
272
     2
276
     2
284
    12
340
97
  0
ENDTAB
  0
TABLE
  2
BLOCK_RECORD
  5
1
330
0
100
AcDbSymbolTable
 70
    21
  0
BLOCK_RECORD
  5
1F
330
1
100
AcDbSymbolTableRecord
100
AcDbBlockTableRecord
  2
*Model_Space
340
22
  0
BLOCK_RECORD
  5
1B
330
1
100
AcDbSymbolTableRecord
100
AcDbBlockTableRecord
  2
*Paper_Space
340
1E
  0
BLOCK_RECORD
  5
23
330
1
100
AcDbSymbolTableRecord
100
AcDbBlockTableRecord
  2
*Paper_Space0
340
26
  0
BLOCK_RECORD
  5
82
330
1
100
AcDbSymbolTableRecord
100
AcDbBlockTableRecord
  2
블럭10
340
0
102
{BLKREFS
331
C9
102
}
  0
BLOCK_RECORD
  5
D2
330
1
100
AcDbSymbolTableRecord
100
AcDbBlockTableRecord
  2
_D
340
0
  0
BLOCK_RECORD
  5
E0
330
1
100
AcDbSymbolTableRecord
100
AcDbBlockTableRecord
  2
_D_1
340
0
  0
BLOCK_RECORD
  5
EB
330
1
100
AcDbSymbolTableRecord
100
AcDbBlockTableRecord
  2
_D_2
340
0
  0
BLOCK_RECORD
  5
F5
330
1
100
AcDbSymbolTableRecord
100
AcDbBlockTableRecord
  2
_D_3
340
0
  0
BLOCK_RECORD
  5
101
330
1
100
AcDbSymbolTableRecord
100
AcDbBlockTableRecord
  2
_D_4
340
0
  0
BLOCK_RECORD
  5
10C
330
1
100
AcDbSymbolTableRecord
100
AcDbBlockTableRecord
  2
SW_DOWELSYMBOL_0
340
0
102
{BLKREFS
331
259
102
}
  0
BLOCK_RECORD
  5
1DD
330
1
100
AcDbSymbolTableRecord
100
AcDbBlockTableRecord
  2
*D8
340
0
  0
BLOCK_RECORD
  5
1E9
330
1
100
AcDbSymbolTableRecord
100
AcDbBlockTableRecord
  2
*D9
340
0
  0
BLOCK_RECORD
  5
1F5
330
1
100
AcDbSymbolTableRecord
100
AcDbBlockTableRecord
  2
*D10
340
0
  0
BLOCK_RECORD
  5
201
330
1
100
AcDbSymbolTableRecord
100
AcDbBlockTableRecord
  2
*D11
340
0
  0
BLOCK_RECORD
  5
20D
330
1
100
AcDbSymbolTableRecord
100
AcDbBlockTableRecord
  2
*D12
340
0
  0
BLOCK_RECORD
  5
219
330
1
100
AcDbSymbolTableRecord
100
AcDbBlockTableRecord
  2
*D13
340
0
  0
BLOCK_RECORD
  5
25F
330
1
100
AcDbSymbolTableRecord
100
AcDbBlockTableRecord
  2
*D14
340
0
  0
BLOCK_RECORD
  5
26B
330
1
100
AcDbSymbolTableRecord
100
AcDbBlockTableRecord
  2
*D15
340
0
  0
BLOCK_RECORD
  5
277
330
1
100
AcDbSymbolTableRecord
100
AcDbBlockTableRecord
  2
*D16
340
0
  0
BLOCK_RECORD
  5
283
330
1
100
AcDbSymbolTableRecord
100
AcDbBlockTableRecord
  2
*D17
340
0
  0
BLOCK_RECORD
  5
28F
330
1
100
AcDbSymbolTableRecord
100
AcDbBlockTableRecord
  2
*D18
340
0
  0
BLOCK_RECORD
  5
29B
330
1
100
AcDbSymbolTableRecord
100
AcDbBlockTableRecord
  2
*D19
340
0
  0
BLOCK_RECORD
  5
2AD
330
1
100
AcDbSymbolTableRecord
100
AcDbBlockTableRecord
  2
*D20
340
0
  0
ENDTAB
  0
ENDSEC
  0
SECTION
  2
BLOCKS
  0
BLOCK
  5
20
330
1F
100
AcDbEntity
  8
0
100
AcDbBlockBegin
  2
*Model_Space
 70
     0
 10
0.0
 20
0.0
 30
0.0
  3
*Model_Space
  1
*Model_Space
  0
ENDBLK
  5
21
330
1F
100
AcDbEntity
  8
0
100
AcDbBlockEnd
  0
BLOCK
  5
1C
330
1B
100
AcDbEntity
 67
     1
  8
0
100
AcDbBlockBegin
  2
*Paper_Space
 70
     0
 10
0.0
 20
0.0
 30
0.0
  3
*Paper_Space
  1
*Paper_Space
  0
ENDBLK
  5
1D
330
1B
100
AcDbEntity
 67
     1
  8
0
100
AcDbBlockEnd
  0
BLOCK
  5
24
330
23
100
AcDbEntity
  8
0
100
AcDbBlockBegin
  2
*Paper_Space0
 70
     0
 10
0.0
 20
0.0
 30
0.0
  3
*Paper_Space0
  1
*Paper_Space0
  0
ENDBLK
  5
25
330
23
100
AcDbEntity
  8
0
100
AcDbBlockEnd
  0
BLOCK
  5
83
330
82
100
AcDbEntity
  8
0
100
AcDbBlockBegin
  2
블럭10
 70
     2
 10
0.0
 20
0.0
 30
0.0
  3
블럭10
  1
블럭10
  0
ELLIPSE
  5
85
330
82
100
AcDbEntity
  8
중심선
100
AcDbEllipse
 10
20.54032771741204
 20
12.0471743016438
 30
0.0
 11
6.600054785286829
 21
-1.261213355974178E-13
 31
0.0
210
0.0
220
0.0
230
1.0
 40
0.636358354079598
 41
0.9219305317359503
 42
6.513795318482858
  0
ELLIPSE
  5
86
330
82
100
AcDbEntity
  8
중심선
100
AcDbEllipse
 10
20.54032771746488
 20
12.04717430159265
 30
0.0
 11
3.960054785062283
 21
1.540847449632565E-10
 31
0.0
210
0.0
220
0.0
230
1.0
 40
0.3939339440162632
 41
1.131841032648279
 42
5.62031148352944
  0
LINE
  5
87
330
82
100
AcDbEntity
  8
중심선
100
AcDbLine
 10
2.268634060543552
 20
16.24717430164393
 30
0.0
 11
5.714909304380834
 21
16.24717430164393
 31
0.0
  0
LINE
  5
88
330
82
100
AcDbEntity
  8
중심선
100
AcDbLine
 10
5.245725140726316
 20
7.84717430164391
 30
0.0
 11
8.692000384563599
 21
7.84717430164391
 31
0.0
  0
LINE
  5
89
330
82
100
AcDbEntity
  8
중심선
100
AcDbLine
 10
15.74043728645272
 20
16.24717430164393
 30
0.0
 11
8.692000384563599
 21
7.84717430164391
 31
0.0
  0
LINE
  5
8A
330
82
100
AcDbEntity
  8
중심선
100
AcDbLine
 10
0.1404042013395286
 20
13.71084872107135
 30
0.0
 11
3.58671253028996
 21
13.71088815037384
 31
0.0
  0
LINE
  5
8B
330
82
100
AcDbEntity
  8
중심선
100
AcDbLine
 10
2.750260043222114
 20
10.84717430164391
 30
0.0
 11
6.196535287059397
 21
10.84717430164391
 31
0.0
  0
LINE
  5
8C
330
82
100
AcDbEntity
  8
중심선
100
AcDbLine
 10
12.29416204261559
 20
16.24717430164393
 30
0.0
 11
5.245725140726316
 21
7.84717430164391
 31
0.0
  0
LINE
  5
8D
330
82
100
AcDbEntity
  8
중심선
100
AcDbLine
 10
10.72767329541681
 20
16.24717430164393
 30
0.0
 11
6.196535287059397
 21
10.84717430164391
 31
0.0
  0
LINE
  5
8E
330
82
100
AcDbEntity
  8
중심선
100
AcDbLine
 10
7.28139805157953
 20
16.24717430164393
 30
0.0
 11
2.750260043222114
 21
10.84717430164391
 31
0.0
  0
LINE
  5
8F
330
82
100
AcDbEntity
  8
중심선
100
AcDbLine
 10
5.714909304380834
 20
16.24717430164393
 30
0.0
 11
3.58671253028996
 21
13.71088815037384
 31
0.0
  0
LINE
  5
90
330
82
100
AcDbEntity
  8
중심선
100
AcDbLine
 10
2.268634060543552
 20
16.24717430164393
 30
0.0
 11
0.1404042013395286
 21
13.71084872107135
 31
0.0
  0
LINE
  5
91
330
82
100
AcDbEntity
  8
중심선
100
AcDbLine
 10
7.28139805157953
 20
16.24717430164393
 30
0.0
 11
10.72767329541681
 21
16.24717430164393
 31
0.0
  0
LINE
  5
92
330
82
100
AcDbEntity
  8
중심선
100
AcDbLine
 10
12.29416204261559
 20
16.24717430164393
 30
0.0
 11
15.74043728645272
 21
16.24717430164393
 31
0.0
  0
LINE
  5
93
330
82
100
AcDbEntity
  8
중심선
100
AcDbLine
 10
19.22036997980202
 20
11.08717430171403
 30
0.0
 11
23.66174974927406
 21
11.08717430171406
 31
0.0
  0
LINE
  5
94
330
82
100
AcDbEntity
  8
중심선
100
AcDbLine
 10
19.22039502424796
 20
13.00717430171391
 30
0.0
 11
19.22036997980202
 21
11.08717430171403
 31
0.0
  0
LINE
  5
95
330
82
100
AcDbEntity
  8
중심선
100
AcDbLine
 10
19.22039502424796
 20
13.00717430171391
 30
0.0
 11
26.96566020931264
 21
13.00717430171391
 31
0.0
  0
LINE
  5
96
330
82
100
AcDbEntity
  8
중심선
100
AcDbLine
 10
22.22332737316547
 20
13.45928029700563
 30
0.0
 11
24.52862924686651
 21
15.39360700705356
 31
0.0
  0
ATTDEF
  5
98
330
82
100
AcDbEntity
  8
FORMAT
 62
     2
100
AcDbText
 10
-16.11926103943555
 20
2.075366912832191
 30
0.0
 40
4.233333333333333
  1
SEME6120010E [ 2 FLUTE ]
 41
0.75
  7
SLDTEXTSTYLE0
 11
-16.11926103943555
 21
-0.0412997538344756
 31
0.0
100
AcDbAttributeDefinition
  3

  2
AUTOATTR0
 70
     0
 74
     1
  0
ENDBLK
  5
84
330
82
100
AcDbEntity
  8
0
100
AcDbBlockEnd
  0
BLOCK
  5
D3
330
D2
100
AcDbEntity
  8
0
100
AcDbBlockBegin
  2
_D
 70
     0
 10
0.0
 20
0.0
 30
0.0
  3
_D
  1
_D
  0
SOLID
  5
D5
330
D2
100
AcDbEntity
  8
치수문자_일반주서
100
AcDbTrace
 10
-61.00250885508846
 20
10.00107492872388
 30
0.0
 11
-60.49450885508845
 21
13.30307492872388
 31
0.0
 12
-61.51050885508846
 22
13.30307492872388
 32
0.0
 13
-61.51050885508846
 23
13.30307492872388
 33
0.0
  0
SOLID
  5
D6
330
D2
100
AcDbEntity
  8
치수문자_일반주서
100
AcDbTrace
 10
-61.00250885508846
 20
-9.998925071276105
 30
0.0
 11
-61.51050885508846
 21
-13.3009250712761
 31
0.0
 12
-60.49450885508845
 22
-13.3009250712761
 32
0.0
 13
-60.49450885508845
 23
-13.3009250712761
 33
0.0
  0
LINE
  5
D7
330
D2
100
AcDbEntity
  8
치수문자_일반주서
100
AcDbLine
 10
-49.50605083347638
 20
10.00107492872388
 30
0.0
 11
-62.00250885508846
 21
10.00107492872388
 31
0.0
  0
LINE
  5
D8
330
D2
100
AcDbEntity
  8
치수문자_일반주서
100
AcDbLine
 10
-49.50605083347638
 20
-9.998925071276105
 30
0.0
 11
-62.00250885508846
 21
-9.998925071276105
 31
0.0
  0
LINE
  5
D9
330
D2
100
AcDbEntity
  8
치수문자_일반주서
100
AcDbLine
 10
-61.00250885508846
 20
10.00107492872388
 30
0.0
 11
-61.00250885508846
 21
16.35107492872388
 31
0.0
  0
LINE
  5
DA
330
D2
100
AcDbEntity
  8
치수문자_일반주서
100
AcDbLine
 10
-61.00250885508846
 20
10.00107492872388
 30
0.0
 11
-61.00250885508846
 21
-9.998925071276105
 31
0.0
  0
LINE
  5
DB
330
D2
100
AcDbEntity
  8
치수문자_일반주서
100
AcDbLine
 10
-61.00250885508846
 20
-9.998925071276105
 30
0.0
 11
-61.00250885508846
 21
-16.3489250712761
 31
0.0
  0
MTEXT
  5
DC
330
D2
100
AcDbEntity
  8
치수문자_일반주서
100
AcDbMText
 10
-65.51424594429031
 20
-5.224255196816678
 30
0.0
 40
3.5
 41
0.0
 71
     1
 72
     1
  1
%%c
  7
SLDTEXTSTYLE0
 11
-7.044195017643634E-15
 21
1.0
 31
0.0
 73
     1
 44
1.0
  0
MTEXT
  5
DD
330
D2
100
AcDbEntity
  8
치수문자_일반주서
100
AcDbMText
 10
-65.56771812095019
 20
0.0541822015574028
 30
0.0
 40
3.5
 41
0.0
 71
     1
 72
     1
  1
20
  7
SLDTEXTSTYLE0
 11
-7.044195017643634E-15
 21
1.0
 31
0.0
 73
     1
 44
1.0
  0
ENDBLK
  5
D4
330
D2
100
AcDbEntity
  8
0
100
AcDbBlockEnd
  0
BLOCK
  5
E1
330
E0
100
AcDbEntity
  8
0
100
AcDbBlockBegin
  2
_D_1
 70
     0
 10
0.0
 20
0.0
 30
0.0
  3
_D_1
  1
_D_1
  0
SOLID
  5
E3
330
E0
100
AcDbEntity
  8
치수문자_일반주서
100
AcDbTrace
 10
50.49394916652362
 20
27.50107492872354
 30
0.0
 11
47.19194916652362
 21
28.00907492872354
 31
0.0
 12
47.19194916652362
 22
26.99307492872354
 32
0.0
 13
47.19194916652362
 23
26.99307492872354
 33
0.0
  0
SOLID
  5
E4
330
E0
100
AcDbEntity
  8
치수문자_일반주서
100
AcDbTrace
 10
25.49394916652362
 20
27.50107492872354
 30
0.0
 11
28.79594916652362
 21
26.99307492872354
 31
0.0
 12
28.79594916652362
 22
28.00907492872354
 32
0.0
 13
28.79594916652362
 23
28.00907492872354
 33
0.0
  0
LINE
  5
E5
330
E0
100
AcDbEntity
  8
치수문자_일반주서
100
AcDbLine
 10
50.49394916652362
 20
10.00107492872389
 30
0.0
 11
50.49394916652362
 21
28.50107492872354
 31
0.0
  0
LINE
  5
E6
330
E0
100
AcDbEntity
  8
치수문자_일반주서
100
AcDbLine
 10
25.49394916652362
 20
8.93616759927593
 30
0.0
 11
25.49394916652362
 21
28.50107492872354
 31
0.0
  0
LINE
  5
E7
330
E0
100
AcDbEntity
  8
치수문자_일반주서
100
AcDbLine
 10
50.49394916652362
 20
27.50107492872354
 30
0.0
 11
80.42485596456287
 21
27.50107492872354
 31
0.0
  0
LINE
  5
E8
330
E0
100
AcDbEntity
  8
치수문자_일반주서
100
AcDbLine
 10
50.49394916652362
 20
27.50107492872354
 30
0.0
 11
25.49394916652362
 21
27.50107492872354
 31
0.0
  0
MTEXT
  5
E9
330
E0
100
AcDbEntity
  8
치수문자_일반주서
100
AcDbMText
 10
75.25263357751724
 20
32.01281184330242
 30
0.0
 40
3.5
 41
0.0
 71
     1
 72
     1
  1
25
  7
SLDTEXTSTYLE0
 73
     1
 44
1.0
  0
ENDBLK
  5
E2
330
E0
100
AcDbEntity
  8
0
100
AcDbBlockEnd
  0
BLOCK
  5
EC
330
EB
100
AcDbEntity
  8
0
100
AcDbBlockBegin
  2
_D_2
 70
     0
 10
0.0
 20
0.0
 30
0.0
  3
_D_2
  1
_D_2
  0
SOLID
  5
EE
330
EB
100
AcDbEntity
  8
치수문자_일반주서
100
AcDbTrace
 10
50.49394916652362
 20
49.55939943376816
 30
0.0
 11
47.19194916652362
 21
50.06739943376817
 31
0.0
 12
47.19194916652362
 22
49.05139943376816
 32
0.0
 13
47.19194916652362
 23
49.05139943376816
 33
0.0
  0
SOLID
  5
EF
330
EB
100
AcDbEntity
  8
치수문자_일반주서
100
AcDbTrace
 10
-49.50605083347639
 20
49.55939943376818
 30
0.0
 11
-46.20405083347639
 21
49.05139943376818
 31
0.0
 12
-46.20405083347639
 22
50.06739943376818
 32
0.0
 13
-46.20405083347639
 23
50.06739943376818
 33
0.0
  0
LINE
  5
F0
330
EB
100
AcDbEntity
  8
치수문자_일반주서
100
AcDbLine
 10
50.49394916652362
 20
10.00107492872389
 30
0.0
 11
50.49394916652362
 21
50.55939943376816
 31
0.0
  0
LINE
  5
F1
330
EB
100
AcDbEntity
  8
치수문자_일반주서
100
AcDbLine
 10
-49.50605083347639
 20
10.00107492872388
 30
0.0
 11
-49.50605083347639
 21
50.55939943376818
 31
0.0
  0
LINE
  5
F2
330
EB
100
AcDbEntity
  8
치수문자_일반주서
100
AcDbLine
 10
50.49394916652362
 20
49.55939943376816
 30
0.0
 11
-49.50605083347639
 21
49.55939943376818
 31
0.0
  0
MTEXT
  5
F3
330
EB
100
AcDbEntity
  8
치수문자_일반주서
100
AcDbMText
 10
-3.385217507345287
 20
54.07113634834706
 30
0.0
 40
3.5
 41
0.0
 71
     1
 72
     1
  1
100
  7
SLDTEXTSTYLE0
 73
     1
 44
1.0
  0
ENDBLK
  5
ED
330
EB
100
AcDbEntity
  8
0
100
AcDbBlockEnd
  0
BLOCK
  5
F6
330
F5
100
AcDbEntity
  8
0
100
AcDbBlockBegin
  2
_D_3
 70
     0
 10
0.0
 20
0.0
 30
0.0
  3
_D_3
  1
_D_3
  0
SOLID
  5
F8
330
F5
100
AcDbEntity
  8
치수문자_일반주서
100
AcDbTrace
 10
14.49394916652476
 20
30.32107492872395
 30
0.0
 11
17.79594916652475
 21
29.81307492872382
 31
0.0
 12
17.79594916652478
 22
30.82907492872382
 32
0.0
 13
17.79594916652478
 23
30.82907492872382
 33
0.0
  0
SOLID
  5
F9
330
F5
100
AcDbEntity
  8
치수문자_일반주서
100
AcDbTrace
 10
10.2140453559571
 20
30.32107492872411
 30
0.0
 11
6.912045355957115
 21
30.82907492872424
 31
0.0
 12
6.912045355957076
 22
29.81307492872424
 32
0.0
 13
6.912045355957076
 23
29.81307492872424
 33
0.0
  0
LINE
  5
FA
330
F5
100
AcDbEntity
  8
치수문자_일반주서
100
AcDbLine
 10
14.49394916652365
 20
1.401074928723893
 30
0.0
 11
14.4939491665248
 21
31.32107492872394
 31
0.0
  0
LINE
  5
FB
330
F5
100
AcDbEntity
  8
치수문자_일반주서
100
AcDbLine
 10
10.21404535595599
 20
1.551074928723894
 30
0.0
 11
10.21404535595713
 21
31.32107492872411
 31
0.0
  0
LINE
  5
FC
330
F5
100
AcDbEntity
  8
치수문자_일반주서
100
AcDbLine
 10
14.49394916652476
 20
30.32107492872395
 30
0.0
 11
55.42440269528608
 21
30.32107492872239
 31
0.0
  0
LINE
  5
FD
330
F5
100
AcDbEntity
  8
치수문자_일반주서
100
AcDbLine
 10
14.49394916652476
 20
30.32107492872395
 30
0.0
 11
10.2140453559571
 21
30.32107492872411
 31
0.0
  0
LINE
  5
FE
330
F5
100
AcDbEntity
  8
치수문자_일반주서
100
AcDbLine
 10
10.2140453559571
 20
30.32107492872411
 30
0.0
 11
3.864045355957095
 21
30.32107492872435
 31
0.0
  0
MTEXT
  5
FF
330
F5
100
AcDbEntity
  8
치수문자_일반주서
100
AcDbMText
 10
46.3730136343715
 20
34.83281184330144
 30
0.0
 40
3.5
 41
0.0
 71
     1
 72
     1
  1
4.28
  7
SLDTEXTSTYLE0
 73
     1
 44
1.0
  0
ENDBLK
  5
F7
330
F5
100
AcDbEntity
  8
0
100
AcDbBlockEnd
  0
BLOCK
  5
102
330
101
100
AcDbEntity
  8
0
100
AcDbBlockBegin
  2
_D_4
 70
     0
 10
0.0
 20
0.0
 30
0.0
  3
_D_4
  1
_D_4
  0
SOLID
  5
104
330
101
100
AcDbEntity
  8
치수문자_일반주서
100
AcDbTrace
 10
57.35059833193548
 20
5.001074928723893
 30
0.0
 11
56.84259833193548
 21
1.699074928723894
 31
0.0
 12
57.85859833193548
 22
1.699074928723894
 32
0.0
 13
57.85859833193548
 23
1.699074928723894
 33
0.0
  0
SOLID
  5
105
330
101
100
AcDbEntity
  8
치수문자_일반주서
100
AcDbTrace
 10
57.35059833193547
 20
-4.937756798710939
 30
0.0
 11
57.85859833193548
 21
-1.635756798710939
 31
0.0
 12
56.84259833193547
 22
-1.635756798710939
 32
0.0
 13
56.84259833193547
 23
-1.635756798710939
 33
0.0
  0
LINE
  5
106
330
101
100
AcDbEntity
  8
치수문자_일반주서
100
AcDbLine
 10
40.49394916652361
 20
5.001074928723894
 30
0.0
 11
58.35059833193548
 21
5.001074928723893
 31
0.0
  0
LINE
  5
107
330
101
100
AcDbEntity
  8
치수문자_일반주서
100
AcDbLine
 10
40.49394916652361
 20
-4.937756798710938
 30
0.0
 11
58.35059833193547
 21
-4.937756798710939
 31
0.0
  0
LINE
  5
108
330
101
100
AcDbEntity
  8
치수문자_일반주서
100
AcDbLine
 10
57.35059833193548
 20
5.001074928723893
 30
0.0
 11
57.35059833193547
 21
-4.937756798710939
 31
0.0
  0
LINE
  5
109
330
101
100
AcDbEntity
  8
치수문자_일반주서
100
AcDbLine
 10
57.35059833193547
 20
-4.937756798710939
 30
0.0
 11
57.35059833193545
 21
-31.02355930264757
 31
0.0
  0
MTEXT
  5
10A
330
101
100
AcDbEntity
  8
치수문자_일반주서
100
AcDbMText
 10
52.83886124273366
 20
-31.02355930264756
 30
0.0
 40
3.5
 41
0.0
 71
     1
 72
     1
  1
%%c
  7
SLDTEXTSTYLE0
 11
-7.044195017643634E-15
 21
1.0
 31
0.0
 73
     1
 44
1.0
  0
MTEXT
  5
10B
330
101
100
AcDbEntity
  8
치수문자_일반주서
100
AcDbMText
 10
52.78538906607378
 20
-25.74512190427348
 30
0.0
 40
3.5
 41
0.0
 71
     1
 72
     1
  1
9.94
  7
SLDTEXTSTYLE0
 11
-7.044195017643634E-15
 21
1.0
 31
0.0
 73
     1
 44
1.0
  0
ENDBLK
  5
103
330
101
100
AcDbEntity
  8
0
100
AcDbBlockEnd
  0
BLOCK
  5
10D
330
10C
100
AcDbEntity
  8
0
100
AcDbBlockBegin
  2
SW_DOWELSYMBOL_0
 70
     0
 10
0.0
 20
0.0
 30
0.0
  3
SW_DOWELSYMBOL_0
  1
SW_DOWELSYMBOL_0
  0
CIRCLE
  5
10F
330
10C
100
AcDbEntity
  8
외형선
 62
     0
100
AcDbCircle
 10
0.0
 20
0.0
 30
0.0
 40
3.000000000000004
  0
HATCH
  5
110
330
10C
100
AcDbEntity
  8
0
  6
Continuous
 62
     0
370
    35
100
AcDbHatch
 10
0.0
 20
0.0
 30
0.0
210
0.0
220
0.0
230
1.0
  2
SOLID
 70
     1
 71
     0
 91
        1
 92
        0
 93
        3
 72
     2
 10
0.0000000000000104
 20
0.0
 40
3.000000000000004
 50
0.0
 51
90.0
 73
     1
 72
     1
 10
0.0000000000000104
 20
3.000000000000004
 11
0.0000000000000104
 21
0.0
 72
     1
 10
0.0000000000000104
 20
0.0
 11
3.000000000000015
 21
0.0
 97
        0
 75
     0
 76
     1
 98
        1
 10
0.0
 20
0.0
  0
HATCH
  5
111
330
10C
100
AcDbEntity
  8
0
  6
Continuous
 62
     0
370
    35
100
AcDbHatch
 10
0.0
 20
0.0
 30
0.0
210
0.0
220
0.0
230
1.0
  2
SOLID
 70
     1
 71
     0
 91
        1
 92
        0
 93
        3
 72
     2
 10
0.0000000000000104
 20
0.0
 40
3.000000000000004
 50
180.0
 51
270.0000000000007
 73
     1
 72
     1
 10
0.0000000000000104
 20
-3.000000000000004
 11
0.0000000000000104
 21
0.0
 72
     1
 10
0.0000000000000104
 20
0.0
 11
-2.999999999999994
 21
0.0
 97
        0
 75
     0
 76
     1
 98
        1
 10
0.0
 20
0.0
  0
ENDBLK
  5
10E
330
10C
100
AcDbEntity
  8
0
100
AcDbBlockEnd
  0
BLOCK
  5
1DE
330
1DD
100
AcDbEntity
  8
0
100
AcDbBlockBegin
  2
*D8
 70
     1
 10
0.0
 20
0.0
 30
0.0
  3
*D8
  1
*D9
  0
LINE
  5
1DF
330
1DD
100
AcDbEntity
  8
치수문자_일반주서
 62
     0
370
    -2
100
AcDbLine
 10
117.9201426497202
 20
15.95625963797208
 30
0.0
 11
132.3348801375525
 21
-0.0000000000000364
 31
0.0
  0
MTEXT
  5
1E0
330
1DD
100
AcDbEntity
  8
치수문자_일반주서
 62
     0
100
AcDbMText
 10
131.2033026030889
 20
5.168432677901183
 30
0.0
 40
3.5
 41
0.0
 71
     5
 72
     1
  1
\A1;R0.5
  7
SLDTEXTSTYLE0
 11
0.6703536633635259
 21
-0.7420417549000196
 31
0.0
 73
     1
 44
1.0
  0
SOLID
  5
1E1
330
1DD
100
AcDbEntity
  8
치수문자_일반주서
 62
     0
100
AcDbTrace
 10
118.3285129621669
 20
16.32517760404314
 30
0.0
 11
117.5117723372736
 21
15.58734167190102
 31
0.0
 12
115.7066348532938
 22
18.40648151265194
 32
0.0
 13
115.7066348532938
 23
18.40648151265194
 33
0.0
  0
LINE
  5
1E2
330
1DD
100
AcDbEntity
  8
치수문자_일반주서
 62
     0
100
AcDbLine
 10
115.2814580216121
 20
18.77750239010195
 30
0.0
 11
115.4614580216121
 21
18.77750239010195
 31
0.0
  0
LINE
  5
1E3
330
1DD
100
AcDbEntity
  8
치수문자_일반주서
 62
     0
100
AcDbLine
 10
115.3714580216121
 20
18.68750239010195
 30
0.0
 11
115.3714580216121
 21
18.86750239010195
 31
0.0
  0
POINT
  5
1E4
330
1DD
100
AcDbEntity
  8
Defpoints
 62
     0
100
AcDbPoint
 10
115.7066348532938
 20
18.40648151265194
 30
0.0
  0
POINT
  5
1E5
330
1DD
100
AcDbEntity
  8
Defpoints
 62
     0
100
AcDbPoint
 10
115.3714580216121
 20
18.77750239010195
 30
0.0
  0
ENDBLK
  5
1E6
330
1DD
100
AcDbEntity
  8
0
100
AcDbBlockEnd
  0
BLOCK
  5
1EA
330
1E9
100
AcDbEntity
  8
0
100
AcDbBlockBegin
  2
*D9
 70
     1
 10
0.0
 20
0.0
 30
0.0
  3
*D9
  1
*D10
  0
LINE
  5
1EC
330
1E9
100
AcDbEntity
  8
치수문자_일반주서
 62
     0
370
    -2
100
AcDbLine
 10
16.80895802161209
 20
38.25298983531793
 30
0.0
 11
4.37499999999998
 21
38.25298983531788
 31
0.0
  0
LINE
  5
1ED
330
1E9
100
AcDbEntity
  8
치수문자_일반주서
 62
     0
370
    -2
100
AcDbLine
 10
16.80895802161209
 20
18.25298983531794
 30
0.0
 11
4.37500000000005
 21
18.25298983531789
 31
0.0
  0
LINE
  5
1EE
330
1E9
100
AcDbEntity
  8
치수문자_일반주서
 62
     0
370
    -2
100
AcDbLine
 10
4.374999999999991
 20
34.95098983531788
 30
0.0
 11
4.375000000000038
 21
21.55498983531789
 31
0.0
  0
SOLID
  5
1EF
330
1E9
100
AcDbEntity
  8
치수문자_일반주서
 62
     0
100
AcDbTrace
 10
4.925333333333325
 20
34.95098983531788
 30
0.0
 11
3.824666666666658
 21
34.95098983531788
 31
0.0
 12
4.37499999999998
 22
38.25298983531788
 32
0.0
 13
4.37499999999998
 23
38.25298983531788
 33
0.0
  0
SOLID
  5
1F0
330
1E9
100
AcDbEntity
  8
치수문자_일반주서
 62
     0
100
AcDbTrace
 10
3.824666666666705
 20
21.55498983531788
 30
0.0
 11
4.925333333333372
 21
21.55498983531789
 31
0.0
 12
4.37500000000005
 22
18.25298983531789
 32
0.0
 13
4.37500000000005
 23
18.25298983531789
 33
0.0
  0
MTEXT
  5
1F1
330
1E9
100
AcDbEntity
  8
치수문자_일반주서
 62
     0
100
AcDbMText
 10
0.0000000000000142
 20
28.25298983531792
 30
0.0
 40
3.5
 41
0.0
 71
     2
 72
     1
  1
\A1;%%c20
  7
SLDTEXTSTYLE0
 11
-3.508304757815497E-15
 21
1.0
 31
0.0
 73
     1
 44
1.0
  0
POINT
  5
1F2
330
1E9
100
AcDbEntity
  8
Defpoints
 62
     0
100
AcDbPoint
 10
16.87145802161209
 20
38.25298983531793
 30
0.0
  0
POINT
  5
1F3
330
1E9
100
AcDbEntity
  8
Defpoints
 62
     0
100
AcDbPoint
 10
16.87145802161209
 20
18.25298983531794
 30
0.0
  0
POINT
  5
1F4
330
1E9
100
AcDbEntity
  8
Defpoints
 62
     0
100
AcDbPoint
 10
4.375000000000057
 20
18.25298983531789
 30
0.0
  0
ENDBLK
  5
1EB
330
1E9
100
AcDbEntity
  8
0
100
AcDbBlockEnd
  0
BLOCK
  5
1F6
330
1F5
100
AcDbEntity
  8
0
100
AcDbBlockBegin
  2
*D10
 70
     1
 10
0.0
 20
0.0
 30
0.0
  3
*D10
  1
*D11
  0
LINE
  5
1F8
330
1F5
100
AcDbEntity
  8
치수문자_일반주서
 62
     0
370
    -2
100
AcDbLine
 10
115.8714580216121
 20
37.81548983531793
 30
0.0
 11
115.8714580216121
 21
56.2529898353176
 31
0.0
  0
LINE
  5
1F9
330
1F5
100
AcDbEntity
  8
치수문자_일반주서
 62
     0
370
    -2
100
AcDbLine
 10
90.87145802161209
 20
36.25058250586997
 30
0.0
 11
90.87145802161209
 21
56.2529898353176
 31
0.0
  0
LINE
  5
1FA
330
1F5
100
AcDbEntity
  8
치수문자_일반주서
 62
     0
370
    -2
100
AcDbLine
 10
112.5694580216121
 20
56.2529898353176
 30
0.0
 11
94.17345802161208
 21
56.2529898353176
 31
0.0
  0
SOLID
  5
1FB
330
1F5
100
AcDbEntity
  8
치수문자_일반주서
 62
     0
100
AcDbTrace
 10
112.5694580216121
 20
55.70265650198426
 30
0.0
 11
112.5694580216121
 21
56.80332316865093
 31
0.0
 12
115.8714580216121
 22
56.2529898353176
 32
0.0
 13
115.8714580216121
 23
56.2529898353176
 33
0.0
  0
SOLID
  5
1FC
330
1F5
100
AcDbEntity
  8
치수문자_일반주서
 62
     0
100
AcDbTrace
 10
94.17345802161208
 20
56.80332316865093
 30
0.0
 11
94.17345802161208
 21
55.70265650198426
 31
0.0
 12
90.87145802161209
 22
56.2529898353176
 32
0.0
 13
90.87145802161209
 23
56.2529898353176
 33
0.0
  0
MTEXT
  5
1FD
330
1F5
100
AcDbEntity
  8
치수문자_일반주서
 62
     0
100
AcDbMText
 10
103.3714580216121
 20
60.6279898353176
 30
0.0
 40
3.5
 41
0.0
 71
     2
 72
     1
  1
\A1;25
  7
SLDTEXTSTYLE0
 73
     1
 44
1.0
  0
POINT
  5
1FE
330
1F5
100
AcDbEntity
  8
Defpoints
 62
     0
100
AcDbPoint
 10
115.8714580216121
 20
37.75298983531793
 30
0.0
  0
POINT
  5
1FF
330
1F5
100
AcDbEntity
  8
Defpoints
 62
     0
100
AcDbPoint
 10
90.87145802161209
 20
36.18808250586997
 30
0.0
  0
POINT
  5
200
330
1F5
100
AcDbEntity
  8
Defpoints
 62
     0
100
AcDbPoint
 10
90.87145802161209
 20
56.2529898353176
 30
0.0
  0
ENDBLK
  5
1F7
330
1F5
100
AcDbEntity
  8
0
100
AcDbBlockEnd
  0
BLOCK
  5
202
330
201
100
AcDbEntity
  8
0
100
AcDbBlockBegin
  2
*D11
 70
     1
 10
0.0
 20
0.0
 30
0.0
  3
*D11
  1
*D12
  0
LINE
  5
204
330
201
100
AcDbEntity
  8
치수문자_일반주서
 62
     0
370
    -2
100
AcDbLine
 10
115.8714580216121
 20
37.81548983531793
 30
0.0
 11
115.8714580216121
 21
78.31131434036222
 31
0.0
  0
LINE
  5
205
330
201
100
AcDbEntity
  8
치수문자_일반주서
 62
     0
370
    -2
100
AcDbLine
 10
15.87145802161209
 20
37.31548983531793
 30
0.0
 11
15.87145802161209
 21
78.31131434036222
 31
0.0
  0
LINE
  5
206
330
201
100
AcDbEntity
  8
치수문자_일반주서
 62
     0
370
    -2
100
AcDbLine
 10
112.5694580216121
 20
78.31131434036222
 30
0.0
 11
19.17345802161208
 21
78.31131434036222
 31
0.0
  0
SOLID
  5
207
330
201
100
AcDbEntity
  8
치수문자_일반주서
 62
     0
100
AcDbTrace
 10
112.5694580216121
 20
77.76098100702889
 30
0.0
 11
112.5694580216121
 21
78.86164767369554
 31
0.0
 12
115.8714580216121
 22
78.31131434036222
 32
0.0
 13
115.8714580216121
 23
78.31131434036222
 33
0.0
  0
SOLID
  5
208
330
201
100
AcDbEntity
  8
치수문자_일반주서
 62
     0
100
AcDbTrace
 10
19.17345802161208
 20
78.86164767369554
 30
0.0
 11
19.17345802161208
 21
77.76098100702889
 31
0.0
 12
15.87145802161209
 22
78.31131434036222
 32
0.0
 13
15.87145802161209
 23
78.31131434036222
 33
0.0
  0
MTEXT
  5
209
330
201
100
AcDbEntity
  8
치수문자_일반주서
 62
     0
100
AcDbMText
 10
65.87145802161209
 20
82.68631434036222
 30
0.0
 40
3.5
 41
0.0
 71
     2
 72
     1
  1
\A1;100
  7
SLDTEXTSTYLE0
 73
     1
 44
1.0
  0
POINT
  5
20A
330
201
100
AcDbEntity
  8
Defpoints
 62
     0
100
AcDbPoint
 10
115.8714580216121
 20
37.75298983531793
 30
0.0
  0
POINT
  5
20B
330
201
100
AcDbEntity
  8
Defpoints
 62
     0
100
AcDbPoint
 10
15.87145802161209
 20
37.25298983531793
 30
0.0
  0
POINT
  5
20C
330
201
100
AcDbEntity
  8
Defpoints
 62
     0
100
AcDbPoint
 10
15.87145802161209
 20
78.31131434036222
 30
0.0
  0
ENDBLK
  5
203
330
201
100
AcDbEntity
  8
0
100
AcDbBlockEnd
  0
BLOCK
  5
20E
330
20D
100
AcDbEntity
  8
0
100
AcDbBlockBegin
  2
*D12
 70
     1
 10
0.0
 20
0.0
 30
0.0
  3
*D12
  1
*D13
  0
LINE
  5
210
330
20D
100
AcDbEntity
  8
치수문자_일반주서
 62
     0
370
    -2
100
AcDbLine
 10
115.8714580216121
 20
36.49661573277844
 30
0.0
 11
115.8714580216121
 21
64.65015607282736
 31
0.0
  0
LINE
  5
211
330
20D
100
AcDbEntity
  8
치수문자_일반주서
 62
     0
370
    -2
100
AcDbLine
 10
75.87145802161209
 20
38.16548983531793
 30
0.0
 11
75.87145802161209
 21
64.65015607282736
 31
0.0
  0
LINE
  5
212
330
20D
100
AcDbEntity
  8
치수문자_일반주서
 62
     0
370
    -2
100
AcDbLine
 10
112.5694580216121
 20
64.65015607282736
 30
0.0
 11
79.17345802161208
 21
64.65015607282736
 31
0.0
  0
SOLID
  5
213
330
20D
100
AcDbEntity
  8
치수문자_일반주서
 62
     0
100
AcDbTrace
 10
112.5694580216121
 20
64.09982273949403
 30
0.0
 11
112.5694580216121
 21
65.20048940616068
 31
0.0
 12
115.8714580216121
 22
64.65015607282736
 32
0.0
 13
115.8714580216121
 23
64.65015607282736
 33
0.0
  0
SOLID
  5
214
330
20D
100
AcDbEntity
  8
치수문자_일반주서
 62
     0
100
AcDbTrace
 10
79.17345802161208
 20
65.20048940616068
 30
0.0
 11
79.17345802161208
 21
64.09982273949403
 31
0.0
 12
75.87145802161209
 22
64.65015607282736
 32
0.0
 13
75.87145802161209
 23
64.65015607282736
 33
0.0
  0
MTEXT
  5
215
330
20D
100
AcDbEntity
  8
치수문자_일반주서
 62
     0
100
AcDbMText
 10
95.87145802161209
 20
69.02515607282736
 30
0.0
 40
3.5
 41
0.0
 71
     2
 72
     1
  1
\A1;40
  7
SLDTEXTSTYLE0
 73
     1
 44
1.0
  0
POINT
  5
216
330
20D
100
AcDbEntity
  8
Defpoints
 62
     0
100
AcDbPoint
 10
115.8714580216121
 20
36.43411573277844
 30
0.0
  0
POINT
  5
217
330
20D
100
AcDbEntity
  8
Defpoints
 62
     0
100
AcDbPoint
 10
75.87145802161209
 20
38.10298983531793
 30
0.0
  0
POINT
  5
218
330
20D
100
AcDbEntity
  8
Defpoints
 62
     0
100
AcDbPoint
 10
75.87145802161209
 20
64.65015607282736
 30
0.0
  0
ENDBLK
  5
20F
330
20D
100
AcDbEntity
  8
0
100
AcDbBlockEnd
  0
BLOCK
  5
21A
330
219
100
AcDbEntity
  8
0
100
AcDbBlockBegin
  2
*D13
 70
     1
 10
0.0
 20
0.0
 30
0.0
  3
*D13
  1
*D14
  0
LINE
  5
21C
330
219
100
AcDbEntity
  8
치수문자_일반주서
 62
     0
370
    -2
100
AcDbLine
 10
115.4339580216121
 20
38.22847728053393
 30
0.0
 11
131.9885324505787
 21
38.22847728053399
 31
0.0
  0
LINE
  5
21D
330
219
100
AcDbEntity
  8
치수문자_일반주서
 62
     0
370
    -2
100
AcDbLine
 10
116.3712391876321
 20
18.22781540562448
 30
0.0
 11
131.9885324505788
 21
18.22781540562454
 31
0.0
  0
LINE
  5
21E
330
219
100
AcDbEntity
  8
치수문자_일반주서
 62
     0
370
    -2
100
AcDbLine
 10
131.9885324505787
 20
34.92647728053399
 30
0.0
 11
131.9885324505788
 21
21.52981540562454
 31
0.0
  0
SOLID
  5
21F
330
219
100
AcDbEntity
  8
치수문자_일반주서
 62
     0
100
AcDbTrace
 10
132.5388657839121
 20
34.92647728053399
 30
0.0
 11
131.4381991172454
 21
34.92647728053399
 31
0.0
 12
131.9885324505787
 22
38.22847728053399
 32
0.0
 13
131.9885324505787
 23
38.22847728053399
 33
0.0
  0
SOLID
  5
220
330
219
100
AcDbEntity
  8
치수문자_일반주서
 62
     0
100
AcDbTrace
 10
131.4381991172455
 20
21.52981540562454
 30
0.0
 11
132.5388657839121
 21
21.52981540562454
 31
0.0
 12
131.9885324505788
 22
18.22781540562454
 32
0.0
 13
131.9885324505788
 23
18.22781540562454
 33
0.0
  0
MTEXT
  5
221
330
219
100
AcDbEntity
  8
치수문자_일반주서
 62
     0
100
AcDbMText
 10
127.6135324505788
 20
28.25298983531798
 30
0.0
 40
3.5
 41
0.0
 71
     2
 72
     1
  1
\A1;%%c20
  7
SLDTEXTSTYLE0
 11
-2.842076888071253E-15
 21
1.0
 31
0.0
 73
     1
 44
1.0
  0
POINT
  5
222
330
219
100
AcDbEntity
  8
Defpoints
 62
     0
100
AcDbPoint
 10
115.3714580216121
 20
38.22847728053393
 30
0.0
  0
POINT
  5
223
330
219
100
AcDbEntity
  8
Defpoints
 62
     0
100
AcDbPoint
 10
116.3087391876321
 20
18.22781540562448
 30
0.0
  0
POINT
  5
224
330
219
100
AcDbEntity
  8
Defpoints
 62
     0
100
AcDbPoint
 10
131.9885324505788
 20
18.22781540562454
 30
0.0
  0
ENDBLK
  5
21B
330
219
100
AcDbEntity
  8
0
100
AcDbBlockEnd
  0
BLOCK
  5
260
330
25F
100
AcDbEntity
  8
0
100
AcDbBlockBegin
  2
*D14
 70
     1
 10
0.0
 20
0.0
 30
0.0
  3
*D14
  1
*D15
  0
LINE
  5
262
330
25F
100
AcDbEntity
  8
치수문자_일반주서
 62
     0
370
    -2
100
AcDbLine
 10
-58.9125
 20
9.99999999999999
 30
0.0
 11
-71.34645802161211
 21
9.999999999999943
 31
0.0
  0
LINE
  5
263
330
25F
100
AcDbEntity
  8
치수문자_일반주서
 62
     0
370
    -2
100
AcDbLine
 10
-58.9125
 20
-10.0
 30
0.0
 11
-71.34645802161204
 21
-10.00000000000005
 31
0.0
  0
LINE
  5
264
330
25F
100
AcDbEntity
  8
치수문자_일반주서
 62
     0
370
    -2
100
AcDbLine
 10
-71.3464580216121
 20
6.697999999999944
 30
0.0
 11
-71.34645802161205
 21
-6.698000000000047
 31
0.0
  0
SOLID
  5
265
330
25F
100
AcDbEntity
  8
치수문자_일반주서
 62
     0
100
AcDbTrace
 10
-70.79612468827877
 20
6.697999999999945
 30
0.0
 11
-71.89679135494542
 21
6.697999999999942
 31
0.0
 12
-71.34645802161211
 22
9.999999999999943
 32
0.0
 13
-71.34645802161211
 23
9.999999999999943
 33
0.0
  0
SOLID
  5
266
330
25F
100
AcDbEntity
  8
치수문자_일반주서
 62
     0
100
AcDbTrace
 10
-71.89679135494538
 20
-6.698000000000048
 30
0.0
 11
-70.79612468827872
 21
-6.698000000000045
 31
0.0
 12
-71.34645802161204
 22
-10.00000000000005
 32
0.0
 13
-71.34645802161204
 23
-10.00000000000005
 33
0.0
  0
MTEXT
  5
267
330
25F
100
AcDbEntity
  8
치수문자_일반주서
 62
     0
100
AcDbMText
 10
-75.72145802161208
 20
-0.0000000000000189
 30
0.0
 40
3.5
 41
0.0
 71
     2
 72
     1
  1
\A1;%%c20
  7
SLDTEXTSTYLE0
 11
-3.552713678800503E-15
 21
1.0
 31
0.0
 73
     1
 44
1.0
  0
POINT
  5
268
330
25F
100
AcDbEntity
  8
Defpoints
 62
     0
100
AcDbPoint
 10
-58.85
 20
9.99999999999999
 30
0.0
  0
POINT
  5
269
330
25F
100
AcDbEntity
  8
Defpoints
 62
     0
100
AcDbPoint
 10
-58.85
 20
-10.0
 30
0.0
  0
POINT
  5
26A
330
25F
100
AcDbEntity
  8
Defpoints
 62
     0
100
AcDbPoint
 10
-71.34645802161204
 20
-10.00000000000005
 30
0.0
  0
ENDBLK
  5
261
330
25F
100
AcDbEntity
  8
0
100
AcDbBlockEnd
  0
BLOCK
  5
26C
330
26B
100
AcDbEntity
  8
0
100
AcDbBlockBegin
  2
*D15
 70
     1
 10
0.0
 20
0.0
 30
0.0
  3
*D15
  1
*D16
  0
LINE
  5
26E
330
26B
100
AcDbEntity
  8
치수문자_일반주서
 62
     0
370
    -2
100
AcDbLine
 10
40.15
 20
9.562499999999996
 30
0.0
 11
40.15
 21
27.99999999999966
 31
0.0
  0
LINE
  5
26F
330
26B
100
AcDbEntity
  8
치수문자_일반주서
 62
     0
370
    -2
100
AcDbLine
 10
15.15
 20
7.997592670552033
 30
0.0
 11
15.15
 21
27.99999999999966
 31
0.0
  0
LINE
  5
270
330
26B
100
AcDbEntity
  8
치수문자_일반주서
 62
     0
370
    -2
100
AcDbLine
 10
36.848
 20
27.99999999999966
 30
0.0
 11
18.45199999999999
 21
27.99999999999966
 31
0.0
  0
SOLID
  5
271
330
26B
100
AcDbEntity
  8
치수문자_일반주서
 62
     0
100
AcDbTrace
 10
36.848
 20
27.44966666666633
 30
0.0
 11
36.848
 21
28.550333333333
 31
0.0
 12
40.15
 22
27.99999999999966
 32
0.0
 13
40.15
 23
27.99999999999966
 33
0.0
  0
SOLID
  5
272
330
26B
100
AcDbEntity
  8
치수문자_일반주서
 62
     0
100
AcDbTrace
 10
18.45199999999999
 20
28.550333333333
 30
0.0
 11
18.45199999999999
 21
27.44966666666633
 31
0.0
 12
15.15
 22
27.99999999999966
 32
0.0
 13
15.15
 23
27.99999999999966
 33
0.0
  0
MTEXT
  5
273
330
26B
100
AcDbEntity
  8
치수문자_일반주서
 62
     0
100
AcDbMText
 10
27.65
 20
32.37499999999966
 30
0.0
 40
3.5
 41
0.0
 71
     2
 72
     1
  1
\A1;25
  7
SLDTEXTSTYLE0
 73
     1
 44
1.0
  0
POINT
  5
274
330
26B
100
AcDbEntity
  8
Defpoints
 62
     0
100
AcDbPoint
 10
40.15
 20
9.499999999999996
 30
0.0
  0
POINT
  5
275
330
26B
100
AcDbEntity
  8
Defpoints
 62
     0
100
AcDbPoint
 10
15.15
 20
7.935092670552033
 30
0.0
  0
POINT
  5
276
330
26B
100
AcDbEntity
  8
Defpoints
 62
     0
100
AcDbPoint
 10
15.15
 20
27.99999999999966
 30
0.0
  0
ENDBLK
  5
26D
330
26B
100
AcDbEntity
  8
0
100
AcDbBlockEnd
  0
BLOCK
  5
278
330
277
100
AcDbEntity
  8
0
100
AcDbBlockBegin
  2
*D16
 70
     1
 10
0.0
 20
0.0
 30
0.0
  3
*D16
  1
*D17
  0
LINE
  5
27A
330
277
100
AcDbEntity
  8
치수문자_일반주서
 62
     0
370
    -2
100
AcDbLine
 10
40.15
 20
9.562499999999996
 30
0.0
 11
40.14999999999999
 21
50.05832450504428
 31
0.0
  0
LINE
  5
27B
330
277
100
AcDbEntity
  8
치수문자_일반주서
 62
     0
370
    -2
100
AcDbLine
 10
-59.85
 20
9.06249999999999
 30
0.0
 11
-59.85000000000001
 21
50.05832450504428
 31
0.0
  0
LINE
  5
27C
330
277
100
AcDbEntity
  8
치수문자_일반주서
 62
     0
370
    -2
100
AcDbLine
 10
36.84799999999999
 20
50.05832450504428
 30
0.0
 11
-56.54800000000001
 21
50.05832450504428
 31
0.0
  0
SOLID
  5
27D
330
277
100
AcDbEntity
  8
치수문자_일반주서
 62
     0
100
AcDbTrace
 10
36.84799999999999
 20
49.50799117171094
 30
0.0
 11
36.84799999999999
 21
50.60865783837761
 31
0.0
 12
40.14999999999999
 22
50.05832450504428
 32
0.0
 13
40.14999999999999
 23
50.05832450504428
 33
0.0
  0
SOLID
  5
27E
330
277
100
AcDbEntity
  8
치수문자_일반주서
 62
     0
100
AcDbTrace
 10
-56.54800000000001
 20
50.60865783837761
 30
0.0
 11
-56.54800000000001
 21
49.50799117171094
 31
0.0
 12
-59.85000000000001
 22
50.05832450504428
 32
0.0
 13
-59.85000000000001
 23
50.05832450504428
 33
0.0
  0
MTEXT
  5
27F
330
277
100
AcDbEntity
  8
치수문자_일반주서
 62
     0
100
AcDbMText
 10
-9.850000000000005
 20
54.43332450504428
 30
0.0
 40
3.5
 41
0.0
 71
     2
 72
     1
  1
\A1;100
  7
SLDTEXTSTYLE0
 73
     1
 44
1.0
  0
POINT
  5
280
330
277
100
AcDbEntity
  8
Defpoints
 62
     0
100
AcDbPoint
 10
40.15
 20
9.499999999999996
 30
0.0
  0
POINT
  5
281
330
277
100
AcDbEntity
  8
Defpoints
 62
     0
100
AcDbPoint
 10
-59.85
 20
8.99999999999999
 30
0.0
  0
POINT
  5
282
330
277
100
AcDbEntity
  8
Defpoints
 62
     0
100
AcDbPoint
 10
-59.85
 20
50.05832450504428
 30
0.0
  0
ENDBLK
  5
279
330
277
100
AcDbEntity
  8
0
100
AcDbBlockEnd
  0
BLOCK
  5
284
330
283
100
AcDbEntity
  8
0
100
AcDbBlockBegin
  2
*D17
 70
     1
 10
0.0
 20
0.0
 30
0.0
  3
*D17
  1
*D18
  0
LINE
  5
286
330
283
100
AcDbEntity
  8
치수문자_일반주서
 62
     0
370
    -2
100
AcDbLine
 10
40.15
 20
8.243625897460507
 30
0.0
 11
40.15
 21
36.39716623750941
 31
0.0
  0
LINE
  5
287
330
283
100
AcDbEntity
  8
치수문자_일반주서
 62
     0
370
    -2
100
AcDbLine
 10
0.1499999999999955
 20
9.912499999999998
 30
0.0
 11
0.149999999999995
 21
36.39716623750941
 31
0.0
  0
LINE
  5
288
330
283
100
AcDbEntity
  8
치수문자_일반주서
 62
     0
370
    -2
100
AcDbLine
 10
36.848
 20
36.39716623750941
 30
0.0
 11
3.451999999999995
 21
36.39716623750941
 31
0.0
  0
SOLID
  5
289
330
283
100
AcDbEntity
  8
치수문자_일반주서
 62
     0
100
AcDbTrace
 10
36.848
 20
35.84683290417608
 30
0.0
 11
36.848
 21
36.94749957084274
 31
0.0
 12
40.15
 22
36.39716623750941
 32
0.0
 13
40.15
 23
36.39716623750941
 33
0.0
  0
SOLID
  5
28A
330
283
100
AcDbEntity
  8
치수문자_일반주서
 62
     0
100
AcDbTrace
 10
3.451999999999995
 20
36.94749957084274
 30
0.0
 11
3.451999999999995
 21
35.84683290417608
 31
0.0
 12
0.149999999999995
 22
36.39716623750941
 32
0.0
 13
0.149999999999995
 23
36.39716623750941
 33
0.0
  0
MTEXT
  5
28B
330
283
100
AcDbEntity
  8
치수문자_일반주서
 62
     0
100
AcDbMText
 10
20.15
 20
40.77216623750941
 30
0.0
 40
3.5
 41
0.0
 71
     2
 72
     1
  1
\A1;40
  7
SLDTEXTSTYLE0
 73
     1
 44
1.0
  0
POINT
  5
28C
330
283
100
AcDbEntity
  8
Defpoints
 62
     0
100
AcDbPoint
 10
40.15
 20
8.181125897460507
 30
0.0
  0
POINT
  5
28D
330
283
100
AcDbEntity
  8
Defpoints
 62
     0
100
AcDbPoint
 10
0.1499999999999955
 20
9.849999999999998
 30
0.0
  0
POINT
  5
28E
330
283
100
AcDbEntity
  8
Defpoints
 62
     0
100
AcDbPoint
 10
0.1499999999999955
 20
36.39716623750941
 30
0.0
  0
ENDBLK
  5
285
330
283
100
AcDbEntity
  8
0
100
AcDbBlockEnd
  0
BLOCK
  5
290
330
28F
100
AcDbEntity
  8
0
100
AcDbBlockBegin
  2
*D18
 70
     1
 10
0.0
 20
0.0
 30
0.0
  3
*D18
  1
*D19
  0
LINE
  5
292
330
28F
100
AcDbEntity
  8
치수문자_일반주서
 62
     0
370
    -2
100
AcDbLine
 10
39.7125
 20
9.975487445215993
 30
0.0
 11
56.26707442896663
 21
9.975487445216052
 31
0.0
  0
LINE
  5
293
330
28F
100
AcDbEntity
  8
치수문자_일반주서
 62
     0
370
    -2
100
AcDbLine
 10
40.64978116602
 20
-10.02517442969346
 30
0.0
 11
56.2670744289667
 21
-10.0251744296934
 31
0.0
  0
LINE
  5
294
330
28F
100
AcDbEntity
  8
치수문자_일반주서
 62
     0
370
    -2
100
AcDbLine
 10
56.26707442896664
 20
6.673487445216052
 30
0.0
 11
56.26707442896669
 21
-6.723174429693403
 31
0.0
  0
SOLID
  5
295
330
28F
100
AcDbEntity
  8
치수문자_일반주서
 62
     0
100
AcDbTrace
 10
56.81740776229998
 20
6.673487445216054
 30
0.0
 11
55.71674109563331
 21
6.67348744521605
 31
0.0
 12
56.26707442896663
 22
9.975487445216052
 32
0.0
 13
56.26707442896663
 23
9.975487445216052
 33
0.0
  0
SOLID
  5
296
330
28F
100
AcDbEntity
  8
치수문자_일반주서
 62
     0
100
AcDbTrace
 10
55.71674109563335
 20
-6.723174429693405
 30
0.0
 11
56.81740776230002
 21
-6.723174429693401
 31
0.0
 12
56.2670744289667
 22
-10.0251744296934
 32
0.0
 13
56.2670744289667
 23
-10.0251744296934
 33
0.0
  0
MTEXT
  5
297
330
28F
100
AcDbEntity
  8
치수문자_일반주서
 62
     0
100
AcDbMText
 10
51.89207442896667
 20
0.0000000000000414
 30
0.0
 40
3.5
 41
0.0
 71
     2
 72
     1
  1
\A1;%%c20
  7
SLDTEXTSTYLE0
 11
-3.552596110089067E-15
 21
1.0
 31
0.0
 73
     1
 44
1.0
  0
POINT
  5
298
330
28F
100
AcDbEntity
  8
Defpoints
 62
     0
100
AcDbPoint
 10
39.65
 20
9.975487445215993
 30
0.0
  0
POINT
  5
299
330
28F
100
AcDbEntity
  8
Defpoints
 62
     0
100
AcDbPoint
 10
40.58728116602
 20
-10.02517442969346
 30
0.0
  0
POINT
  5
29A
330
28F
100
AcDbEntity
  8
Defpoints
 62
     0
100
AcDbPoint
 10
56.26707442896671
 20
-10.0251744296934
 30
0.0
  0
ENDBLK
  5
291
330
28F
100
AcDbEntity
  8
0
100
AcDbBlockEnd
  0
BLOCK
  5
29C
330
29B
100
AcDbEntity
  8
0
100
AcDbBlockBegin
  2
*D19
 70
     1
 10
0.0
 20
0.0
 30
0.0
  3
*D19
  1
*D20
  0
LINE
  5
29E
330
29B
100
AcDbEntity
  8
치수문자_일반주서
 62
     0
370
    -2
100
AcDbLine
 10
44.60849224924345
 20
-12.29673019734585
 30
0.0
 11
59.02322973707575
 21
-28.25298983531798
 31
0.0
  0
MTEXT
  5
29F
330
29B
100
AcDbEntity
  8
치수문자_일반주서
 62
     0
100
AcDbMText
 10
57.8916522026121
 20
-23.08455715741676
 30
0.0
 40
3.5
 41
0.0
 71
     5
 72
     1
  1
\A1;R0.5
  7
SLDTEXTSTYLE0
 11
0.6703536633635259
 21
-0.7420417549000196
 31
0.0
 73
     1
 44
1.0
  0
SOLID
  5
2A0
330
29B
100
AcDbEntity
  8
치수문자_일반주서
 62
     0
100
AcDbTrace
 10
45.01686256169009
 20
-11.92781223127479
 30
0.0
 11
44.2001219367968
 21
-12.66564816341691
 31
0.0
 12
42.39498445281708
 22
-9.84650832266599
 32
0.0
 13
42.39498445281708
 23
-9.84650832266599
 33
0.0
  0
LINE
  5
2A1
330
29B
100
AcDbEntity
  8
치수문자_일반주서
 62
     0
100
AcDbLine
 10
41.96980762113532
 20
-9.475487445215979
 30
0.0
 11
42.14980762113532
 21
-9.475487445215979
 31
0.0
  0
LINE
  5
2A2
330
29B
100
AcDbEntity
  8
치수문자_일반주서
 62
     0
100
AcDbLine
 10
42.05980762113532
 20
-9.565487445215979
 30
0.0
 11
42.05980762113532
 21
-9.385487445215979
 31
0.0
  0
POINT
  5
2A3
330
29B
100
AcDbEntity
  8
Defpoints
 62
     0
100
AcDbPoint
 10
42.39498445281708
 20
-9.84650832266599
 30
0.0
  0
POINT
  5
2A4
330
29B
100
AcDbEntity
  8
Defpoints
 62
     0
100
AcDbPoint
 10
42.05980762113532
 20
-9.475487445215979
 30
0.0
  0
ENDBLK
  5
29D
330
29B
100
AcDbEntity
  8
0
100
AcDbBlockEnd
  0
BLOCK
  5
2AE
330
2AD
100
AcDbEntity
  8
0
100
AcDbBlockBegin
  2
*D20
 70
     1
 10
0.0
 20
0.0
 30
0.0
  3
*D20
  1
*D21
  0
LINE
  5
2B0
330
2AD
100
AcDbEntity
  8
치수문자_일반주서
 62
     0
370
    -2
100
AcDbLine
 10
41.48966321200628
 20
-12.58573016469274
 30
0.0
 11
52.38583206594084
 21
-29.39638403459257
 31
0.0
  0
MTEXT
  5
2B1
330
2AD
100
AcDbEntity
  8
치수문자_일반주서
 62
     0
100
AcDbMText
 10
53.16082610856152
 20
-25.76586971374181
 30
0.0
 40
3.5
 41
0.0
 71
     5
 72
     1
  1
\A1;R1
  7
SLDTEXTSTYLE0
 11
0.5439086244247754
 21
-0.8391444501850372
 31
0.0
 73
     1
 44
1.0
  0
SOLID
  5
2B2
330
2AD
100
AcDbEntity
  8
치수문자_일반주서
 62
     0
100
AcDbTrace
 10
41.95147237442477
 20
-12.28639911838431
 30
0.0
 11
41.02785404958778
 21
-12.88506121100118
 31
0.0
 12
39.69367693415567
 22
-9.814875190181748
 32
0.0
 13
39.69367693415567
 23
-9.814875190181748
 33
0.0
  0
LINE
  5
2B3
330
2AD
100
AcDbEntity
  8
치수문자_일반주서
 62
     0
100
AcDbLine
 10
39.05949198914733
 20
-8.97530443147032
 30
0.0
 11
39.23949198914733
 21
-8.97530443147032
 31
0.0
  0
LINE
  5
2B4
330
2AD
100
AcDbEntity
  8
치수문자_일반주서
 62
     0
100
AcDbLine
 10
39.14949198914733
 20
-9.06530443147032
 30
0.0
 11
39.14949198914733
 21
-8.88530443147032
 31
0.0
  0
POINT
  5
2B5
330
2AD
100
AcDbEntity
  8
Defpoints
 62
     0
100
AcDbPoint
 10
39.69367693415567
 20
-9.814875190181748
 30
0.0
  0
POINT
  5
2B6
330
2AD
100
AcDbEntity
  8
Defpoints
 62
     0
100
AcDbPoint
 10
39.14949198914733
 20
-8.97530443147032
 30
0.0
  0
ENDBLK
  5
2AF
330
2AD
100
AcDbEntity
  8
0
100
AcDbBlockEnd
  0
ENDSEC
  0
SECTION
  2
ENTITIES
  0
INSERT
  5
C9
330
1F
100
AcDbEntity
  8
0
  6
Continuous
 62
     7
100
AcDbBlockReference
 66
     1
  2
블럭10
 10
-22.93944368806589
 20
-52.04609937292004
 30
0.0
  0
ATTRIB
  5
CA
330
C9
100
AcDbEntity
  8
FORMAT
 62
     2
100
AcDbText
 10
-39.05870472750145
 20
-49.97073246008785
 30
0.0
 40
4.233333333333333
  1
SEME6120010E [ 2 FLUTE ]
 41
0.75
  7
SLDTEXTSTYLE0
 11
-39.05870472750145
 21
-52.08739912675452
 31
0.0
100
AcDbAttribute
  2
AUTOATTR0
 70
     0
 74
     1
  0
SEQEND
  5
CB
330
C9
100
AcDbEntity
  8
0
  6
Continuous
 62
     7
  0
HATCH
  5
CC
330
1F
100
AcDbEntity
  8
중심선
100
AcDbHatch
 10
0.0
 20
0.0
 30
0.0
210
0.0
220
0.0
230
1.0
  2
SOLID
 70
     1
 71
     0
 91
        1
 92
        0
 93
        4
 72
     1
 10
-17.22453438368504
 20
-35.7989250712761
 11
-20.67080962752232
 21
-35.7989250712761
 72
     1
 10
-20.67080962752232
 20
-35.7989250712761
 11
-22.79903948672635
 21
-38.3352506518487
 72
     1
 10
-22.79903948672635
 20
-38.3352506518487
 11
-19.35273115777591
 21
-38.33521122254621
 72
     1
 10
-19.35273115777591
 20
-38.33521122254621
 11
-17.22453438368504
 21
-35.7989250712761
 97
        0
 75
     0
 76
     1
 98
        1
 10
0.0
 20
0.0
  0
HATCH
  5
CD
330
1F
100
AcDbEntity
  8
중심선
100
AcDbHatch
 10
0.0
 20
0.0
 30
0.0
210
0.0
220
0.0
230
1.0
  2
SOLID
 70
     1
 71
     0
 91
        1
 92
        0
 93
        4
 72
     1
 10
-12.21177039264909
 20
-35.7989250712761
 11
-15.65804563648637
 21
-35.7989250712761
 72
     1
 10
-15.65804563648637
 20
-35.7989250712761
 11
-20.18918364484376
 21
-41.19892507127612
 72
     1
 10
-20.18918364484376
 20
-41.19892507127612
 11
-16.74290840100648
 21
-41.19892507127612
 72
     1
 10
-16.74290840100648
 20
-41.19892507127612
 11
-12.21177039264909
 21
-35.7989250712761
 97
        0
 75
     0
 76
     1
 98
        1
 10
0.0
 20
0.0
  0
HATCH
  5
CE
330
1F
100
AcDbEntity
  8
중심선
100
AcDbHatch
 10
0.0
 20
0.0
 30
0.0
210
0.0
220
0.0
230
1.0
  2
SOLID
 70
     1
 71
     0
 91
        1
 92
        0
 93
        4
 72
     1
 10
-7.199006401613195
 20
-35.79892507127613
 11
-10.64528164545031
 21
-35.7989250712761
 72
     1
 10
-10.64528164545031
 20
-35.7989250712761
 11
-17.69371854733956
 21
-44.19892507127612
 72
     1
 10
-17.69371854733956
 20
-44.19892507127612
 11
-14.24744330350228
 21
-44.19892507127612
 72
     1
 10
-14.24744330350228
 20
-44.19892507127612
 11
-7.199006401613195
 21
-35.79892507127613
 97
        0
 75
     0
 76
     1
 98
        1
 10
0.0
 20
0.0
  0
HATCH
  5
CF
330
1F
100
AcDbEntity
  8
중심선
100
AcDbHatch
 10
0.0
 20
0.0
 30
0.0
210
0.0
220
0.0
230
1.0
  2
SOLID
 70
     1
 71
     0
 91
        1
 92
        0
 93
        6
 72
     3
 10
-2.399115970600996
 20
-39.99892507132738
 11
3.960054785062284
 21
1.540850780301639E-10
 40
0.3939339440162633
 50
17.09539180608433
 51
320.0019657685079
 73
     0
 72
     1
 10
-0.7161163149004002
 20
-38.58681907591441
 11
1.589185558800638
 21
-36.65249236586649
 72
     3
 10
-2.399115970653842
 20
-39.99892507127625
 11
6.600054785286829
 21
-1.249000902703301E-13
 40
0.6363583540795982
 50
39.99873849337408
 51
368.4976242363724
 73
     1
 72
     1
 10
4.026216521246767
 20
-39.03892507120613
 11
-3.71904866381792
 21
-39.0389250712061
 72
     1
 10
-3.71904866381792
 20
-39.0389250712061
 11
-3.719073708263854
 21
-40.95892507120602
 72
     1
 10
-3.719073708263854
 20
-40.95892507120602
 11
0.7223060612081835
 21
-40.95892507120599
 97
        0
 75
     0
 76
     1
 98
        1
 10
0.0
 20
0.0
  0
LINE
  5
226
330
1F
100
AcDbEntity
  8
0
  6
Continuous
 62
     4
370
    25
100
AcDbLine
 10
0.0000000000000004
 20
9.999999999999993
 30
0.0
 11
-58.85
 21
9.99999999999999
 31
0.0
  0
LINE
  5
227
330
1F
100
AcDbEntity
  8
0
  6
Continuous
 62
     4
370
    25
100
AcDbLine
 10
-58.85
 20
-10.0
 30
0.0
 11
0.0000000000000115
 21
-9.999999999999996
 31
0.0
1001
PE_URL
1000

  0
LINE
  5
22A
330
1F
100
AcDbEntity
  8
0
  6
Continuous
 62
     4
370
    25
100
AcDbLine
 10
-58.85
 20
9.99999999999999
 30
0.0
 11
-59.85
 21
8.99999999999999
 31
0.0
  0
LINE
  5
22B
330
1F
100
AcDbEntity
  8
0
  6
Continuous
 62
     4
370
    25
100
AcDbLine
 10
-59.85
 20
-9.0
 30
0.0
 11
-58.85
 21
-10.0
 31
0.0
  0
LINE
  5
22C
330
1F
100
AcDbEntity
  8
0
  6
Continuous
 62
     4
370
    25
100
AcDbLine
 10
12.09987825354363
 20
9.849999999999998
 30
0.0
 11
0.1499999999999955
 21
9.849999999999998
 31
0.0
  0
LINE
  5
22D
330
1F
100
AcDbEntity
  8
0
  6
Continuous
 62
     4
370
    25
100
AcDbLine
 10
0.1499999999999955
 20
-9.849999999999998
 30
0.0
 11
12.09987825354363
 21
-9.849999999999998
 31
0.0
  0
SPLINE
  5
22E
330
1F
100
AcDbEntity
  8
0
  6
Continuous
 62
     4
370
    25
100
AcDbSpline
210
0.0
220
0.0
230
1.0
 70
     8
 71
     3
 72
     9
 73
     5
 74
     0
 42
0.000000001
 43
0.00000001
 40
0.0
 40
0.0
 40
0.0
 40
0.0
 40
0.468851250540008
 40
1.0
 40
1.0
 40
1.0
 40
1.0
 10
14.28152574540328
 20
2.544361835673126
 30
0.0
 10
13.94227496052437
 20
2.705001384194912
 30
0.0
 10
13.21869624661849
 20
3.047625080594926
 30
0.0
 10
12.48790801412678
 20
3.420518619690299
 30
0.0
 10
12.09975075831873
 20
3.618580556662515
 30
0.0
  0
SPLINE
  5
22F
330
1F
100
AcDbEntity
  8
0
  6
Continuous
 62
     1
370
    25
100
AcDbSpline
210
0.0
220
0.0
230
1.0
 70
     8
 71
     3
 72
    32
 73
    28
 74
     0
 42
0.000000001
 43
0.00000001
 40
0.0
 40
0.0
 40
0.0
 40
0.0
 40
0.0555114986183368
 40
0.1017116039402731
 40
0.1389108795996812
 40
0.1702643459990583
 40
0.1969029699962611
 40
0.218880180211812
 40
0.2524474745911054
 40
0.2890655642393884
 40
0.3274981019967663
 40
0.3628559792533306
 40
0.3910208397389351
 40
0.4148729577201097
 40
0.4450883980750164
 40
0.4825991223640393
 40
0.5528955988153411
 40
0.617618128578757
 40
0.6752113361461075
 40
0.737324232008604
 40
0.7772468068035076
 40
0.8145848110245681
 40
0.8468787120005788
 40
0.8681166571598835
 40
0.9005646126954934
 40
0.9445321190595669
 40
1.0
 40
1.0
 40
1.0
 40
1.0
 10
36.43501071978687
 20
6.839531148131011
 30
0.0
 10
36.12237069349643
 20
6.813647366665624
 30
0.0
 10
35.54953228485322
 20
6.766221500054005
 30
0.0
 10
34.74865542690264
 20
6.712251384989454
 30
0.0
 10
34.06698439134251
 20
6.674136789827774
 30
0.0
 10
33.50213668663856
 20
6.647228029094133
 30
0.0
 10
33.02962111739628
 20
6.628115532231188
 30
0.0
 10
32.5493126187535
 20
6.611679051525551
 30
0.0
 10
32.01274551573038
 20
6.597129981954449
 30
0.0
 10
31.37833505266203
 20
6.585612384191005
 30
0.0
 10
30.73300119562321
 20
6.580116306380244
 30
0.0
 10
30.13828286409104
 20
6.580739461381196
 30
0.0
 10
29.6294571841334
 20
6.585448543333573
 30
0.0
 10
29.15231703387141
 20
6.593041521832905
 30
0.0
 10
28.61984431433784
 20
6.605174770855474
 30
0.0
 10
27.81707398136335
 20
6.630393010940818
 30
0.0
 10
26.81351398741371
 20
6.67588803442194
 30
0.0
 10
25.69159932320758
 20
6.745543372881112
 30
0.0
 10
24.61555922874171
 20
6.828601308783181
 30
0.0
 10
23.68598898578573
 20
6.914294967908614
 30
0.0
 10
22.8743092610158
 20
6.998616059489787
 30
0.0
 10
22.23559679501852
 20
7.070660747507393
 30
0.0
 10
21.70445152982678
 20
7.134848283677155
 30
0.0
 10
21.20243696078239
 20
7.198602358967161
 30
0.0
 10
20.63444730139587
 20
7.274437934887228
 30
0.0
 10
19.86687284476157
 20
7.382403546627298
 30
0.0
 10
19.28752760285134
 20
7.471594555307217
 30
0.0
 10
18.96435238552882
 20
7.521347831123041
 30
0.0
  0
SPLINE
  5
230
330
1F
100
AcDbEntity
  8
0
  6
Continuous
 62
     1
370
    25
100
AcDbSpline
210
0.0
220
0.0
230
1.0
 70
     8
 71
     3
 72
    17
 73
    13
 74
     0
 42
0.000000001
 43
0.00000001
 40
0.0
 40
0.0
 40
0.0
 40
0.0
 40
0.1329991572397065
 40
0.2457144540170335
 40
0.3398513156306332
 40
0.4190855023020014
 40
0.4836607374182106
 40
0.5543844897538626
 40
0.634215671763646
 40
0.7246725060989794
 40
0.9789557039292964
 40
1.0
 40
1.0
 40
1.0
 40
1.0
 10
18.96435238552882
 20
-7.521347831123041
 30
0.0
 10
19.28310125354308
 20
-7.472018736560365
 30
0.0
 10
19.87198621866747
 20
-7.380883786616447
 30
0.0
 10
20.71345645600887
 20
-7.261951425326853
 30
0.0
 10
21.4404673565539
 20
-7.167280408587629
 30
0.0
 10
22.04212689987795
 20
-7.093655773949184
 30
0.0
 10
22.58251069895057
 20
-7.031210382184781
 30
0.0
 10
23.11682844554626
 20
-6.973082274472816
 30
0.0
 10
23.71747841696417
 20
-6.911959071116776
 30
0.0
 10
24.77519278437036
 20
-6.814780265177678
 30
0.0
 10
25.68662733798782
 20
-6.737807281700711
 30
0.0
 10
26.37127295211263
 20
-6.705533525798476
 30
0.0
 10
26.42360294212929
 20
-6.703066723573617
 30
0.0
  0
LINE
  5
232
330
1F
100
AcDbEntity
  8
0
  6
Continuous
 62
     4
370
    25
100
AcDbLine
 10
-58.85
 20
9.99999999999999
 30
0.0
 11
-58.85
 21
-10.00000000000001
 31
0.0
  0
LINE
  5
233
330
1F
100
AcDbEntity
  8
0
  6
Continuous
 62
     4
370
    25
100
AcDbLine
 10
0.1499999999999955
 20
9.849999999999998
 30
0.0
 11
0.1499999999999955
 21
-9.850000000000012
 31
0.0
1001
PE_URL
1000

  0
LINE
  5
234
330
1F
100
AcDbEntity
  8
0
  6
Continuous
 62
     4
370
    25
100
AcDbLine
 10
-59.85
 20
8.99999999999999
 30
0.0
 11
-59.85
 21
-8.999999999999982
 31
0.0
  0
SPLINE
  5
235
330
1F
100
AcDbEntity
  8
0
  6
Continuous
 62
     4
370
    25
100
AcDbSpline
210
0.0
220
0.0
230
1.0
 70
     8
 71
     3
 72
    10
 73
     6
 74
     0
 42
0.000000001
 43
0.00000001
 40
0.0
 40
0.0
 40
0.0
 40
0.0
 40
0.5
 40
0.5
 40
1.0
 40
1.0
 40
1.0
 40
1.0
 10
15.15
 20
-0.8898815860289346
 30
0.0
 10
14.64180875399202
 20
-0.6861199051044764
 30
0.0
 10
14.13627113686324
 20
-0.4815650066319819
 30
0.0
 10
13.11856913610309
 20
-0.0708506497878467
 30
0.0
 10
12.6083904546572
 20
0.1350423413521291
 30
0.0
 10
12.09984753413845
 20
0.3402751878754629
 30
0.0
  0
SPLINE
  5
236
330
1F
100
AcDbEntity
  8
0
  6
Continuous
 62
     4
370
    25
100
AcDbSpline
210
0.0
220
0.0
230
1.0
 70
     8
 71
     3
 72
    10
 73
     6
 74
     0
 42
0.000000001
 43
0.00000001
 40
0.0
 40
0.0
 40
0.0
 40
0.0
 40
0.5
 40
0.5
 40
1.0
 40
1.0
 40
1.0
 40
1.0
 10
12.09987825354363
 20
0.9245106513888608
 30
0.0
 10
12.60841611997527
 20
0.6366561683620056
 30
0.0
 10
13.11858965483594
 20
0.3472966489498788
 30
0.0
 10
14.13628135614287
 20
-0.2310716598498814
 30
0.0
 10
14.64181387035192
 20
-0.5197029608538344
 30
0.0
 10
15.15
 20
-0.8077934675519884
 30
0.0
  0
SPLINE
  5
237
330
1F
100
AcDbEntity
  8
0
  6
Continuous
 62
     4
370
    25
100
AcDbSpline
210
0.0
220
0.0
230
1.0
 70
     8
 71
     3
 72
    10
 73
     6
 74
     0
 42
0.000000001
 43
0.00000001
 40
0.0
 40
0.0
 40
0.0
 40
0.0
 40
0.5
 40
0.5
 40
1.0
 40
1.0
 40
1.0
 40
1.0
 10
15.1500000000006
 20
1.955676980764778
 30
0.0
 10
14.64179263583986
 20
2.238998216442472
 30
0.0
 10
14.13623894289378
 20
2.519305385252153
 30
0.0
 10
13.11850449559801
 20
3.073905642941451
 30
0.0
 10
12.60830960078665
 20
3.347822908993042
 30
0.0
 10
12.09975075831873
 20
3.616768602545886
 30
0.0
  0
LINE
  5
238
330
1F
100
AcDbEntity
  8
0
  6
Continuous
 62
     4
370
    25
100
AcDbLine
 10
12.09987825354363
 20
3.617190445390399
 30
0.0
 11
12.09987825354363
 21
9.849999999999998
 31
0.0
  0
LINE
  5
239
330
1F
100
AcDbEntity
  8
0
  6
Continuous
 62
     4
370
    25
100
AcDbLine
 10
12.09987825354363
 20
-9.849999999999998
 30
0.0
 11
12.09987825354363
 21
0.9245656617925384
 31
0.0
  0
LINE
  5
23A
330
1F
100
AcDbEntity
  8
0
  6
Continuous
 62
     4
370
    25
100
AcDbLine
 10
15.15000000000002
 20
2.133989393348902
 30
0.0
 11
14.24330919400624
 21
2.552661356363984
 31
0.0
  0
SPLINE
  5
23B
330
1F
100
AcDbEntity
  8
0
  6
Continuous
 62
     4
370
    25
100
AcDbSpline
210
0.0
220
0.0
230
1.0
 70
    24
 71
     3
 72
     8
 73
     4
 74
     0
 42
0.000000001
 43
0.00000001
 40
0.0
 40
0.0
 40
0.0
 40
0.0
 40
1.0
 40
1.0
 40
1.0
 40
1.0
 10
15.15000000000002
 20
2.133989393348902
 30
0.0
 10
15.15000000000002
 20
2.10892464991694
 30
0.0
 10
15.15000000000002
 20
2.049336037254278
 30
0.0
 10
15.15000000000002
 20
1.955676980766217
 30
0.0
  0
SPLINE
  5
23C
330
1F
100
AcDbEntity
  8
0
  6
Continuous
 62
     4
370
    25
100
AcDbSpline
210
0.0
220
0.0
230
1.0
 70
     8
 71
     3
 72
    10
 73
     6
 74
     0
 42
0.000000001
 43
0.00000001
 40
0.0
 40
0.0
 40
0.0
 40
0.0
 40
0.5
 40
0.5
 40
1.0
 40
1.0
 40
1.0
 40
1.0
 10
15.15000000000002
 20
7.935092670552033
 30
0.0
 10
14.64180611577589
 20
7.964938859243428
 30
0.0
 10
14.13626586736105
 20
7.984502128435086
 30
0.0
 10
13.11855855575813
 20
8.003037673250478
 30
0.0
 10
12.60837722051103
 20
8.001957544012424
 30
0.0
 10
12.09983169388817
 20
7.990542037424927
 30
0.0
  0
SPLINE
  5
23D
330
1F
100
AcDbEntity
  8
0
  6
Continuous
 62
     4
370
    25
100
AcDbSpline
210
0.0
220
0.0
230
1.0
 70
    24
 71
     3
 72
    14
 73
    10
 74
     0
 42
0.000000001
 43
0.00000001
 40
0.0
 40
0.0
 40
0.0
 40
0.0
 40
0.2500000000000001
 40
0.2500000000000001
 40
0.5000000000000001
 40
0.5000000000000001
 40
0.7500000000000001
 40
0.7500000000000001
 40
1.0
 40
1.0
 40
1.0
 40
1.0
 10
15.15
 20
7.935092670552041
 30
0.0
 10
15.15000000000002
 20
7.749296787584232
 30
0.0
 10
15.15
 20
7.479494782204885
 30
0.0
 10
15.15
 20
6.773192229275662
 30
0.0
 10
15.15
 20
6.336702333370862
 30
0.0
 10
15.15
 20
5.322815805983421
 30
0.0
 10
15.15
 20
4.745711954152238
 30
0.0
 10
15.15
 20
3.496753199343374
 30
0.0
 10
15.15
 20
2.825336258177718
 30
0.0
 10
15.15
 20
2.133989393348916
 30
0.0
  0
SPLINE
  5
23E
330
1F
100
AcDbEntity
  8
0
  6
Continuous
 62
     4
370
    25
100
AcDbSpline
210
0.0
220
0.0
230
1.0
 70
     8
 71
     3
 72
    10
 73
     6
 74
     0
 42
0.000000001
 43
0.00000001
 40
0.0
 40
0.0
 40
0.0
 40
0.0
 40
0.5
 40
0.5
 40
1.0
 40
1.0
 40
1.0
 40
1.0
 10
15.15000000000002
 20
-7.935092670552038
 30
0.0
 10
14.64180611577589
 20
-7.964938859243428
 30
0.0
 10
14.13626586736103
 20
-7.984502128435086
 30
0.0
 10
13.11855855575813
 20
-8.003037673250478
 30
0.0
 10
12.60837722051103
 20
-8.001957544012427
 30
0.0
 10
12.09983169388817
 20
-7.99054203742493
 30
0.0
  0
SPLINE
  5
23F
330
1F
100
AcDbEntity
  8
0
  6
Continuous
 62
     4
370
    25
100
AcDbSpline
210
0.0
220
0.0
230
1.0
 70
    24
 71
     3
 72
    14
 73
    10
 74
     0
 42
0.000000001
 43
0.00000001
 40
0.0
 40
0.0
 40
0.0
 40
0.0
 40
0.2499999999999998
 40
0.2499999999999998
 40
0.4999999999999998
 40
0.4999999999999998
 40
0.7499999999999999
 40
0.7499999999999999
 40
1.0
 40
1.0
 40
1.0
 40
1.0
 10
15.15
 20
-0.8898815860289346
 30
0.0
 10
15.15
 20
-1.724421663267495
 30
0.0
 10
15.15000000000002
 20
-2.549343906947921
 30
0.0
 10
15.15
 20
-4.09351700886085
 30
0.0
 10
15.15
 20
-4.811811700963382
 30
0.0
 10
15.15
 20
-6.063948831939495
 30
0.0
 10
15.15
 20
-6.597124079800064
 30
0.0
 10
15.15
 20
-7.435932285862442
 30
0.0
 10
15.15
 20
-7.741599800990226
 30
0.0
 10
15.15
 20
-7.935092670552038
 30
0.0
  0
SPLINE
  5
240
330
1F
100
AcDbEntity
  8
0
  6
Continuous
 62
     1
370
    25
100
AcDbSpline
210
0.0
220
0.0
230
1.0
 70
     8
 71
     3
 72
    34
 73
    30
 74
     0
 42
0.000000001
 43
0.00000001
 40
0.0
 40
0.0
 40
0.0
 40
0.0
 40
0.1250000000000004
 40
0.1250000000000004
 40
0.2500000000000008
 40
0.2500000000000008
 40
0.3125000000000011
 40
0.3125000000000011
 40
0.3750000000000012
 40
0.3750000000000012
 40
0.4375000000000011
 40
0.4375000000000011
 40
0.500000000000001
 40
0.500000000000001
 40
0.5625000000000009
 40
0.5625000000000009
 40
0.6250000000000008
 40
0.6250000000000008
 40
0.6875000000000007
 40
0.6875000000000007
 40
0.7500000000000004
 40
0.7500000000000004
 40
0.8125000000000003
 40
0.8125000000000003
 40
0.8750000000000002
 40
0.8750000000000002
 40
0.9375000000000001
 40
0.9375000000000001
 40
1.0
 40
1.0
 40
1.0
 40
1.0
 10
40.15
 20
-7.889722643682159
 30
0.0
 10
39.11283102091954
 20
-7.69979999802235
 30
0.0
 10
38.06264687045728
 20
-7.466066710650491
 30
0.0
 10
35.98707628628613
 20
-6.92224318735451
 30
0.0
 10
34.93813904666828
 20
-6.610152252908534
 30
0.0
 10
33.38058103295674
 20
-6.092500794740719
 30
0.0
 10
32.86018017208047
 20
-5.911331642049216
 30
0.0
 10
31.81643574235138
 20
-5.533085163969705
 30
0.0
 10
31.29417875342555
 20
-5.336129578909027
 30
0.0
 10
30.25524967933658
 20
-4.929020881711285
 30
0.0
 10
29.73545039113266
 20
-4.718473778641549
 30
0.0
 10
28.69179648035309
 20
-4.284590349875099
 30
0.0
 10
28.16942916663989
 20
-4.061449409352455
 30
0.0
 10
27.12997273306609
 20
-3.605533315688337
 30
0.0
 10
26.61069782700856
 20
-3.372452023017299
 30
0.0
 10
25.56716459459408
 20
-2.897022621715465
 30
0.0
 10
25.04470208759954
 20
-2.654938084169128
 30
0.0
 10
24.00474805054676
 20
-2.165005233646248
 30
0.0
 10
23.48592028580252
 20
-1.916956869487055
 30
0.0
 10
22.4425378795428
 20
-1.41542111662746
 30
0.0
 10
21.91999531999063
 20
-1.162251022398447
 30
0.0
 10
20.87957348318433
 20
-0.6542019654613362
 30
0.0
 10
20.36111557601394
 20
-0.3992328218054695
 30
0.0
 10
19.31791412917066
 20
0.1121229935575236
 30
0.0
 10
18.79530666553775
 20
0.3681596902956272
 30
0.0
 10
17.75444687759035
 20
0.87783113943647
 30
0.0
 10
17.23628150875724
 20
1.131455018817981
 30
0.0
 10
16.19329113716514
 20
1.636027405980229
 30
0.0
 10
15.67063392421542
 20
1.886617967533063
 30
0.0
 10
15.15000000000002
 20
2.133989393348902
 30
0.0
  0
SPLINE
  5
241
330
1F
100
AcDbEntity
  8
0
  6
Continuous
 62
     1
370
    25
100
AcDbSpline
210
0.0
220
0.0
230
1.0
 70
    24
 71
     3
 72
     8
 73
     4
 74
     0
 42
0.000000001
 43
0.00000001
 40
0.0
 40
0.0
 40
0.0
 40
0.0
 40
1.0
 40
1.0
 40
1.0
 40
1.0
 10
40.15
 20
-8.949853084970268
 30
0.0
 10
40.15
 20
-8.595789301879108
 30
0.0
 10
40.15
 20
-8.241421910933571
 30
0.0
 10
40.15
 20
-7.889722643682159
 30
0.0
  0
SPLINE
  5
242
330
1F
100
AcDbEntity
  8
0
  6
Continuous
 62
     1
370
    25
100
AcDbSpline
210
0.0
220
0.0
230
1.0
 70
     8
 71
     3
 72
    14
 73
    10
 74
     0
 42
0.000000001
 43
0.00000001
 40
0.0
 40
0.0
 40
0.0
 40
0.0
 40
0.25
 40
0.25
 40
0.5
 40
0.5
 40
0.75
 40
0.75
 40
1.0
 40
1.0
 40
1.0
 40
1.0
 10
40.15
 20
-8.94985308496172
 30
0.0
 10
40.15
 20
-9.018796414340951
 30
0.0
 10
40.13741529962331
 20
-9.087436646391975
 30
0.0
 10
40.08568859599623
 20
-9.211715137575528
 30
0.0
 10
40.04598662894329
 20
-9.267391220267637
 30
0.0
 10
39.94850713668531
 20
-9.350898708811958
 30
0.0
 10
39.89058614850094
 20
-9.379159385107386
 30
0.0
 10
39.77096086737589
 20
-9.406465098871589
 30
0.0
 10
39.70970973962141
 20
-9.40606340776053
 30
0.0
 10
39.65
 20
-9.394240380410217
 30
0.0
  0
SPLINE
  5
243
330
1F
100
AcDbEntity
  8
0
  6
Continuous
 62
     1
370
    25
100
AcDbSpline
210
0.0
220
0.0
230
1.0
 70
     8
 71
     3
 72
    32
 73
    28
 74
     0
 42
0.000000001
 43
0.00000001
 40
0.0
 40
0.0
 40
0.0
 40
0.0
 40
0.0625000000000004
 40
0.0625000000000004
 40
0.1250000000000008
 40
0.1250000000000008
 40
0.1875000000000012
 40
0.1875000000000012
 40
0.2500000000000016
 40
0.2500000000000016
 40
0.3750000000000017
 40
0.3750000000000017
 40
0.5000000000000016
 40
0.5000000000000016
 40
0.6250000000000011
 40
0.6250000000000011
 40
0.6875000000000009
 40
0.6875000000000009
 40
0.7500000000000008
 40
0.7500000000000008
 40
0.8125000000000006
 40
0.8125000000000006
 40
0.8750000000000004
 40
0.8750000000000004
 40
0.9375000000000002
 40
0.9375000000000002
 40
1.0
 40
1.0
 40
1.0
 40
1.0
 10
39.65000000000003
 20
-9.394240380409876
 30
0.0
 10
39.14008987936483
 20
-9.293273915965504
 30
0.0
 10
38.62802896081848
 20
-9.179914404890905
 30
0.0
 10
37.60559749742907
 20
-8.92967490247841
 30
0.0
 10
37.09713664600209
 20
-8.792986428454089
 30
0.0
 10
36.07814298762355
 20
-8.496940152907701
 30
0.0
 10
35.56622576450774
 20
-8.337414876367422
 30
0.0
 10
34.54353691928497
 20
-7.997147780368653
 30
0.0
 10
34.03419570093359
 20
-7.81658776678346
 30
0.0
 10
32.507090875572
 20
-7.245282063953201
 30
0.0
 10
31.47959885721285
 20
-6.823318995637866
 30
0.0
 10
29.44550043391865
 20
-5.915801043978799
 30
0.0
 10
28.41661593111603
 20
-5.426942313513205
 30
0.0
 10
26.38301608380223
 20
-4.40176998333872
 30
0.0
 10
25.355015462359
 20
-3.861602073649838
 30
0.0
 10
23.82825109245177
 20
-3.028115398850819
 30
0.0
 10
23.31867004465819
 20
-2.745867819490858
 30
0.0
 10
22.29593576792998
 20
-2.174287425331226
 30
0.0
 10
21.78405872200008
 20
-1.885189098263524
 30
0.0
 10
20.76526964385791
 20
-1.303779544787325
 30
0.0
 10
20.25662852767984
 20
-1.011144853529174
 30
0.0
 10
19.23412893524672
 20
-0.4230046760775714
 30
0.0
 10
18.72209679510663
 20
-0.1278489143931729
 30
0.0
 10
17.70245867869347
 20
0.4611770447753933
 30
0.0
 10
17.19449930006092
 20
0.7551163512881942
 30
0.0
 10
16.17233270560259
 20
1.341461968071379
 30
0.0
 10
15.66019487846147
 20
1.633466214843736
 30
0.0
 10
15.15
 20
1.922595905095705
 30
0.0
  0
SPLINE
  5
244
330
1F
100
AcDbEntity
  8
0
  6
Continuous
 62
     4
370
    25
100
AcDbSpline
210
0.0
220
0.0
230
1.0
 70
    24
 71
     3
 72
     8
 73
     4
 74
     0
 42
0.000000001
 43
0.00000001
 40
0.0
 40
0.0
 40
0.0
 40
0.0
 40
1.0
 40
1.0
 40
1.0
 40
1.0
 10
15.15000000000002
 20
2.133989393348902
 30
0.0
 10
15.15000000000002
 20
2.106089478162435
 30
0.0
 10
15.15000000000002
 20
2.03536097727763
 30
0.0
 10
15.15000000000002
 20
1.922595905096262
 30
0.0
  0
SPLINE
  5
245
330
1F
100
AcDbEntity
  8
0
  6
Continuous
 62
     1
370
    25
100
AcDbSpline
210
0.0
220
0.0
230
1.0
 70
     8
 71
     3
 72
    32
 73
    28
 74
     0
 42
0.000000001
 43
0.00000001
 40
0.0
 40
0.0
 40
0.0
 40
0.0
 40
0.0625000000000001
 40
0.0625000000000001
 40
0.1250000000000002
 40
0.1250000000000002
 40
0.1875000000000003
 40
0.1875000000000003
 40
0.2500000000000004
 40
0.2500000000000004
 40
0.3125000000000006
 40
0.3125000000000006
 40
0.3750000000000007
 40
0.3750000000000007
 40
0.500000000000001
 40
0.500000000000001
 40
0.6250000000000013
 40
0.6250000000000013
 40
0.7500000000000013
 40
0.7500000000000013
 40
0.812500000000001
 40
0.812500000000001
 40
0.8750000000000007
 40
0.8750000000000007
 40
0.9375000000000003
 40
0.9375000000000003
 40
0.9866786019398548
 40
0.9866786019398548
 40
0.9866786019398548
 40
0.9866786019398548
 10
15.15
 20
-0.8624658555420126
 30
0.0
 10
15.66019487846147
 20
-1.155994231773615
 30
0.0
 10
16.17233270560259
 20
-1.448769299244617
 30
0.0
 10
17.19449930006092
 20
-2.02937918818299
 30
0.0
 10
17.70245867869347
 20
-2.316828447831114
 30
0.0
 10
18.72209679510663
 20
-2.885656287000827
 30
0.0
 10
19.23412893524672
 20
-3.16708911362571
 30
0.0
 10
20.25662852767984
 20
-3.720676271376451
 30
0.0
 10
20.76526964385788
 20
-3.992511408952744
 30
0.0
 10
21.78405872200004
 20
-4.525372346712114
 30
0.0
 10
22.29593576793
 20
-4.786684525589338
 30
0.0
 10
23.31867004465817
 20
-5.295967724547072
 30
0.0
 10
23.82825109245177
 20
-5.54373647305183
 30
0.0
 10
25.355015462359
 20
-6.264170916182266
 30
0.0
 10
26.38301608380223
 20
-6.715745548129124
 30
0.0
 10
28.41661593111601
 20
-7.541279496760051
 30
0.0
 10
29.44550043391865
 20
-7.918333371309561
 30
0.0
 10
31.47959885721285
 20
-8.583463652613016
 30
0.0
 10
32.50709087557197
 20
-8.873977899246395
 30
0.0
 10
34.03419570093356
 20
-9.237041920961197
 30
0.0
 10
34.54353691928497
 20
-9.346237145597076
 30
0.0
 10
35.56622576450768
 20
-9.540255582827815
 30
0.0
 10
36.07814298762352
 20
-9.624962394890293
 30
0.0
 10
37.09713664600206
 20
-9.768870012310156
 30
0.0
 10
37.60559749742901
 20
-9.828173355020116
 30
0.0
 10
38.51906722871423
 20
-9.911307379558975
 30
0.0
 10
38.9218445214601
 20
-9.939945055209844
 30
0.0
 10
39.323685526758
 20
-9.960531778183604
 30
0.0
  0
LINE
  5
246
330
1F
100
AcDbEntity
  8
0
  6
Continuous
 62
     4
370
    25
100
AcDbLine
 10
15.15
 20
-0.8624658555420126
 30
0.0
 11
15.15
 21
1.922595905095697
 31
0.0
  0
LINE
  5
247
330
1F
100
AcDbEntity
  8
0
  6
Continuous
 62
     1
370
    25
100
AcDbLine
 10
15.3061063338608
 20
-0.9515527581335199
 30
0.0
 11
15.15
 21
-0.8898815860289346
 31
0.0
  0
SPLINE
  5
248
330
1F
100
AcDbEntity
  8
0
  6
Continuous
 62
     1
370
    25
100
AcDbSpline
210
0.0
220
0.0
230
1.0
 70
     8
 71
     3
 72
    34
 73
    30
 74
     0
 42
0.000000001
 43
0.00000001
 40
0.0
 40
0.0
 40
0.0
 40
0.0
 40
0.1249999999999995
 40
0.1249999999999995
 40
0.249999999999999
 40
0.249999999999999
 40
0.3124999999999991
 40
0.3124999999999991
 40
0.3749999999999992
 40
0.3749999999999992
 40
0.4374999999999992
 40
0.4374999999999992
 40
0.4999999999999993
 40
0.4999999999999993
 40
0.5624999999999994
 40
0.5624999999999994
 40
0.6249999999999994
 40
0.6249999999999994
 40
0.6874999999999996
 40
0.6874999999999996
 40
0.7499999999999997
 40
0.7499999999999997
 40
0.8124999999999998
 40
0.8124999999999998
 40
0.8749999999999998
 40
0.8749999999999998
 40
0.9374999999999999
 40
0.9374999999999999
 40
1.0
 40
1.0
 40
1.0
 40
1.0
 10
40.15
 20
0.0000000000000036
 30
0.0
 10
39.11283102091954
 20
0.4804158288637908
 30
0.0
 10
38.06264687045728
 20
0.9628176465627902
 30
0.0
 10
35.98707628628613
 20
1.908240703408364
 30
0.0
 10
34.93813904666828
 20
2.374799514457042
 30
0.0
 10
33.38058103295674
 20
3.04927680449903
 30
0.0
 10
32.86018017208044
 20
3.270453457401814
 30
0.0
 10
31.81643574235134
 20
3.703739503358481
 30
0.0
 10
31.29417875342555
 20
3.915689476559155
 30
0.0
 10
30.25524967933658
 20
4.327669096335416
 30
0.0
 10
29.73545039113263
 20
4.528123689114022
 30
0.0
 10
28.69179648035309
 20
4.916712768063586
 30
0.0
 10
28.16942916663987
 20
5.104647574578291
 30
0.0
 10
27.12997273306609
 20
5.465562531217554
 30
0.0
 10
26.61069782700854
 20
5.638814500677423
 30
0.0
 10
25.56716459459408
 20
5.970092931623501
 30
0.0
 10
25.04470208759954
 20
6.127907409521281
 30
0.0
 10
24.00474805054672
 20
6.426019943472571
 30
0.0
 10
23.48592028580252
 20
6.566471945358439
 30
0.0
 10
22.44253787954278
 20
6.829688815834874
 30
0.0
 10
21.9199953199906
 20
6.952255627109043
 30
0.0
 10
20.87957348318431
 20
7.177865119322281
 30
0.0
 10
20.36111557601392
 20
7.280982743799843
 30
0.0
 10
19.31791412917064
 20
7.467599216236078
 30
0.0
 10
18.79530666553773
 20
7.550935618617029
 30
0.0
 10
17.75444687759033
 20
7.696694576523978
 30
0.0
 10
17.23628150875722
 20
7.759151827270241
 30
0.0
 10
16.1932911371651
 20
7.863118471385878
 30
0.0
 10
15.67063392421538
 20
7.904515879245313
 30
0.0
 10
15.15000000000002
 20
7.935092670552033
 30
0.0
  0
SPLINE
  5
249
330
1F
100
AcDbEntity
  8
0
  6
Continuous
 62
     1
370
    25
100
AcDbSpline
210
0.0
220
0.0
230
1.0
 70
    24
 71
     3
 72
    14
 73
    10
 74
     0
 42
0.000000001
 43
0.00000001
 40
0.0
 40
0.0
 40
0.0
 40
0.0
 40
0.25
 40
0.25
 40
0.5
 40
0.5
 40
0.75
 40
0.75
 40
1.0
 40
1.0
 40
1.0
 40
1.0
 10
40.15
 20
-7.889722643682155
 30
0.0
 10
40.15
 20
-7.462824157686004
 30
0.0
 10
40.15000000000003
 20
-6.957489687530376
 30
0.0
 10
40.15
 20
-5.809896021957769
 30
0.0
 10
40.15
 20
-5.167798560973775
 30
0.0
 10
40.15
 20
-3.788874051098531
 30
0.0
 10
40.15
 20
-3.052445193746966
 30
0.0
 10
40.15
 20
-1.540808592794409
 30
0.0
 10
40.15
 20
-0.7660492462443713
 30
0.0
 10
40.15
 20
0.0000000000000036
 30
0.0
  0
SPLINE
  5
24A
330
1F
100
AcDbEntity
  8
0
  6
Continuous
 62
     4
370
    25
100
AcDbSpline
210
0.0
220
0.0
230
1.0
 70
    24
 71
     3
 72
    14
 73
    10
 74
     0
 42
0.000000001
 43
0.00000001
 40
0.0
 40
0.0
 40
0.0
 40
0.0
 40
0.25
 40
0.25
 40
0.5
 40
0.5
 40
0.75
 40
0.75
 40
1.0
 40
1.0
 40
1.0
 40
1.0
 10
15.15000000000002
 20
7.935092670552033
 30
0.0
 10
15.15000000000002
 20
7.749296787584225
 30
0.0
 10
15.15000000000002
 20
7.479494782204885
 30
0.0
 10
15.15000000000002
 20
6.773192229275653
 30
0.0
 10
15.15000000000002
 20
6.336702333370862
 30
0.0
 10
15.15000000000002
 20
5.322815805983421
 30
0.0
 10
15.15000000000002
 20
4.745711954152238
 30
0.0
 10
15.15000000000002
 20
3.49675319934337
 30
0.0
 10
15.15000000000002
 20
2.825336258177718
 30
0.0
 10
15.15000000000002
 20
2.133989393348912
 30
0.0
  0
SPLINE
  5
24B
330
1F
100
AcDbEntity
  8
0
  6
Continuous
 62
     1
370
    25
100
AcDbSpline
210
0.0
220
0.0
230
1.0
 70
     8
 71
     3
 72
     9
 73
     5
 74
     0
 42
0.000000001
 43
0.00000001
 40
0.0
 40
0.0
 40
0.0
 40
0.0
 40
0.7541556750283828
 40
1.0
 40
1.0
 40
1.0
 40
1.0
 10
40.15
 20
7.000000000000004
 30
0.0
 10
39.21465554360867
 20
6.992196705222343
 30
0.0
 10
37.9744017241885
 20
6.981849644216187
 30
0.0
 10
36.73420638719213
 20
6.851590608913288
 30
0.0
 10
36.4293114017353
 20
6.819567164307788
 30
0.0
  0
SPLINE
  5
24C
330
1F
100
AcDbEntity
  8
0
  6
Continuous
 62
     1
370
    25
100
AcDbSpline
210
0.0
220
0.0
230
1.0
 70
    24
 71
     3
 72
    14
 73
    10
 74
     0
 42
0.000000001
 43
0.00000001
 40
0.0
 40
0.0
 40
0.0
 40
0.0
 40
0.25
 40
0.25
 40
0.5
 40
0.5
 40
0.75
 40
0.75
 40
1.0
 40
1.0
 40
1.0
 40
1.0
 10
40.15
 20
0.0000000000000036
 30
0.0
 10
40.15
 20
0.8328435170139592
 30
0.0
 10
40.15
 20
1.655435763754543
 30
0.0
 10
40.15
 20
3.193725499577553
 30
0.0
 10
40.15
 20
3.908467303747667
 30
0.0
 10
40.15
 20
5.152569121518266
 30
0.0
 10
40.15
 20
5.681266225656561
 30
0.0
 10
40.15
 20
6.510665542113561
 30
0.0
 10
40.15
 20
6.811407744363901
 30
0.0
 10
40.15
 20
7.000000000000004
 30
0.0
  0
SPLINE
  5
24D
330
1F
100
AcDbEntity
  8
0
  6
Continuous
 62
     1
370
    25
100
AcDbSpline
210
0.0
220
0.0
230
1.0
 70
     8
 71
     3
 72
     9
 73
     5
 74
     0
 42
0.000000001
 43
0.00000001
 40
0.0
 40
0.0
 40
0.0
 40
0.0
 40
0.2822693170246065
 40
1.0
 40
1.0
 40
1.0
 40
1.0
 10
18.97363504857707
 20
-7.497559230224635
 30
0.0
 10
18.61386005589878
 20
-7.560361056959493
 30
0.0
 10
17.33927946573523
 20
-7.782850087637197
 30
0.0
 10
16.06476100516782
 20
-7.871480153120531
 30
0.0
 10
15.15000000000002
 20
-7.935092670552038
 30
0.0
  0
SPLINE
  5
24E
330
1F
100
AcDbEntity
  8
0
  6
Continuous
 62
     4
370
    25
100
AcDbSpline
210
0.0
220
0.0
230
1.0
 70
    24
 71
     3
 72
    14
 73
    10
 74
     0
 42
0.000000001
 43
0.00000001
 40
0.0
 40
0.0
 40
0.0
 40
0.0
 40
0.25
 40
0.25
 40
0.5
 40
0.5
 40
0.75
 40
0.75
 40
1.0
 40
1.0
 40
1.0
 40
1.0
 10
15.15
 20
-0.8898815860289346
 30
0.0
 10
15.15
 20
-1.724421663267495
 30
0.0
 10
15.15
 20
-2.549343906947921
 30
0.0
 10
15.15
 20
-4.09351700886085
 30
0.0
 10
15.15
 20
-4.811811700963387
 30
0.0
 10
15.15
 20
-6.063948831939495
 30
0.0
 10
15.15
 20
-6.597124079800061
 30
0.0
 10
15.15
 20
-7.435932285862439
 30
0.0
 10
15.15000000000002
 20
-7.741599800990226
 30
0.0
 10
15.15
 20
-7.935092670552038
 30
0.0
  0
LINE
  5
24F
330
1F
100
AcDbEntity
  8
0
  6
Continuous
 62
     1
370
    25
100
AcDbLine
 10
40.15
 20
-8.949853084970268
 30
0.0
 11
40.15
 21
-8.975487445215986
 31
0.0
  0
SPLINE
  5
250
330
1F
100
AcDbEntity
  8
0
  6
Continuous
 62
     1
370
    25
100
AcDbSpline
210
0.0
220
0.0
230
1.0
 70
     8
 71
     3
 72
    16
 73
    12
 74
     0
 42
0.000000001
 43
0.00000001
 40
0.0
 40
0.0
 40
0.0
 40
0.0
 40
0.063407390810363
 40
0.1781925507410478
 40
0.2929777721468956
 40
0.4086529300566155
 40
0.5243281309778993
 40
0.642757540447111
 40
0.7611869687577998
 40
0.880593478884309
 40
0.9763029786215477
 40
0.9763029786215477
 40
0.9763029786215477
 40
0.9763029786215477
 10
26.42334593116814
 20
6.703133554732812
 30
0.0
 10
26.70298739301272
 20
6.828539951918234
 30
0.0
 10
27.48885832607277
 20
7.18096709815659
 30
0.0
 10
28.78025726080718
 20
7.670441955753095
 30
0.0
 10
30.3026499090944
 20
8.209745920218946
 30
0.0
 10
31.82850404442233
 20
8.681421764161936
 30
0.0
 10
33.37078164035901
 20
9.091018058651347
 30
0.0
 10
34.92492744296606
 20
9.431178284469436
 30
0.0
 10
36.4957040630887
 20
9.69613608721087
 30
0.0
 10
37.96618681458409
 20
9.87499149991364
 30
0.0
 10
38.91459943117938
 20
9.933924938460427
 30
0.0
 10
39.33656923225801
 20
9.957929261088445
 30
0.0
  0
SPLINE
  5
251
330
1F
100
AcDbEntity
  8
0
  6
Continuous
 62
     1
370
    25
100
AcDbSpline
210
0.0
220
0.0
230
1.0
 70
    24
 71
     3
 72
    10
 73
     6
 74
     0
 42
0.000000001
 43
0.00000001
 40
0.0
 40
0.0
 40
0.0
 40
0.0
 40
0.4999999999999996
 40
0.4999999999999996
 40
1.0
 40
1.0
 40
1.0
 40
1.0
 10
40.15
 20
7.000000000000004
 30
0.0
 10
40.15000000000003
 20
7.354436148611274
 30
0.0
 10
40.15000000000003
 20
7.756311195895268
 30
0.0
 10
40.15
 20
8.605940599025747
 30
0.0
 10
40.15
 20
9.052725087124596
 30
0.0
 10
40.15000000000001
 20
8.830453376138943
 30
0.0
  0
LINE
  5
252
330
1F
100
AcDbEntity
  8
중심선
100
AcDbLine
 10
-62.85
 20
-0.0000000000000071
 30
0.0
 11
47.15
 21
0.0000000000000036
 31
0.0
  0
CIRCLE
  5
253
330
1F
100
AcDbEntity
  8
외형선
100
AcDbCircle
 10
0.0
 20
0.0
 30
0.0
 40
3.000000000000005
  0
DIMENSION
  5
254
330
1F
100
AcDbEntity
  8
치수문자_일반주서
100
AcDbDimension
  2
*D14
 10
-71.34645802161204
 20
-10.00000000000005
 30
0.0
 11
-71.34645802161208
 21
-0.0000000000000035
 31
0.0
 70
   160
  1
%%c<>
 71
     2
 42
19.99999999999999
 52
-270.0
  3
SLDDIMSTYLE0
100
AcDbAlignedDimension
 13
-58.85
 23
9.99999999999999
 33
0.0
 14
-58.85
 24
-10.0
 34
0.0
 50
90.0000000000002
100
AcDbRotatedDimension
  0
DIMENSION
  5
255
330
1F
100
AcDbEntity
  8
치수문자_일반주서
100
AcDbDimension
  2
*D15
 10
15.15
 20
27.99999999999966
 30
0.0
 11
27.65
 21
27.99999999999966
 31
0.0
 70
   160
  1
<>
 71
     2
 42
25.0
  3
SLDDIMSTYLE1
100
AcDbAlignedDimension
 13
40.15
 23
9.499999999999996
 33
0.0
 14
15.15
 24
7.935092670552033
 34
0.0
 50
0.0000000000000081
100
AcDbRotatedDimension
  0
DIMENSION
  5
256
330
1F
100
AcDbEntity
  8
치수문자_일반주서
100
AcDbDimension
  2
*D16
 10
-59.85000000000001
 20
50.05832450504428
 30
0.0
 11
-9.850000000000005
 21
50.05832450504428
 31
0.0
 70
   160
  1
<>
 71
     2
 42
100.0
  3
SLDDIMSTYLE1
100
AcDbAlignedDimension
 13
40.15
 23
9.499999999999996
 33
0.0
 14
-59.85
 24
8.99999999999999
 34
0.0
100
AcDbRotatedDimension
  0
DIMENSION
  5
257
330
1F
100
AcDbEntity
  8
치수문자_일반주서
100
AcDbDimension
  2
*D17
 10
0.149999999999995
 20
36.39716623750941
 30
0.0
 11
20.15
 21
36.39716623750941
 31
0.0
 70
   160
  1
<>
 71
     2
 42
40.00000000000006
  3
SLDDIMSTYLE0
100
AcDbAlignedDimension
 13
40.15
 23
8.181125897460507
 33
0.0
 14
0.1499999999999955
 24
9.849999999999998
 34
0.0
 50
-0.0000000000022354
100
AcDbRotatedDimension
  0
DIMENSION
  5
258
330
1F
100
AcDbEntity
  8
치수문자_일반주서
100
AcDbDimension
  2
*D18
 10
56.2670744289667
 20
-10.0251744296934
 30
0.0
 11
56.26707442896667
 21
0.0000000000000568
 31
0.0
 70
   160
  1
%%c<>
 71
     2
 42
20.00066187490945
 52
-270.0
  3
SLDDIMSTYLE1
100
AcDbAlignedDimension
 13
39.65
 23
9.975487445215993
 33
0.0
 14
40.58728116602
 24
-10.02517442969346
 34
0.0
 50
90.0000000000002
100
AcDbRotatedDimension
  0
INSERT
  5
259
330
1F
100
AcDbEntity
  8
외형선
100
AcDbBlockReference
  2
SW_DOWELSYMBOL_0
 10
0.0
 20
0.0
 30
0.0
  0
ARC
  5
2A7
330
1F
100
AcDbEntity
  8
0
  6
Continuous
 62
     1
370
    25
100
AcDbCircle
 10
39.15
 20
8.975487445215993
 30
0.0
 40
0.9999999999999997
100
AcDbArc
 50
359.9999972787683
 51
79.24736417671988
  0
ARC
  5
2A8
330
1F
100
AcDbEntity
  8
0
  6
Continuous
 62
     1
370
    25
100
AcDbCircle
 10
39.14949198914733
 20
-8.97530443147032
 30
0.0
 40
1.000508027582495
100
AcDbArc
 50
280.0265839423745
 51
359.9895221290012
  0
LINE
  5
2A9
330
1F
100
AcDbEntity
  8
0
  6
Continuous
 62
     1
370
    25
100
AcDbLine
 10
40.15
 20
-9.475487445215986
 30
0.0
 11
40.15
 21
-9.486504053201855
 31
0.0
  0
DIMENSION
  5
2AA
330
1F
100
AcDbEntity
  8
치수문자_일반주서
100
AcDbDimension
  2
*D20
 10
39.14949198914733
 20
-8.97530443147032
 30
0.0
 11
50.9580719268258
 21
-27.19362985285684
 31
0.0
 70
   164
  1
<>
 71
     5
 42
1.000508027582494
  3
SLDDIMSTYLE1
100
AcDbRadialDimension
 15
39.69367693415567
 25
-9.814875190181748
 35
0.0
 40
0.0
1001
ACAD_DSTYLE_DIMRADIAL_EXTENSION
1070
   387
1070
     1
1070
   388
1040
4.887385882906718
1070
   390
1040
6.283002433832058
  0
LINE
  5
2D9
330
1F
100
AcDbEntity
  8
0
  6
Continuous
 62
     4
370
    25
100
AcDbLine
 10
0.1499999999999955
 20
9.849999999999998
 30
0.0
 11
0.0000000000000004
 21
9.999999999999993
 31
0.0
1001
PE_URL
1000

  0
LINE
  5
2DB
330
1F
100
AcDbEntity
  8
0
  6
Continuous
 62
     4
370
    25
100
AcDbLine
 10
0.0000000000000004
 20
9.999999999999993
 30
0.0
 11
-0.0000000000000004
 21
-9.999999999999993
 31
0.0
1001
PE_URL
1000

  0
LINE
  5
2DC
330
1F
100
AcDbEntity
  8
0
  6
Continuous
 62
     4
370
    25
100
AcDbLine
 10
-0.0000000000000004
 20
-9.999999999999993
 30
0.0
 11
0.1499999999999955
 21
-9.850000000000012
 31
0.0
1001
PE_URL
1000

  0
ENDSEC
  0
SECTION
  2
OBJECTS
  0
DICTIONARY
  5
C
330
0
100
AcDbDictionary
281
     1
  3
ACAD_GROUP
350
D
  3
ACAD_IMAGE_VARS
350
136
  3
ACAD_LAYOUT
350
1A
  3
ACAD_MLINESTYLE
350
17
  3
ACAD_PLOTSETTINGS
350
19
  3
ACAD_PLOTSTYLENAME
350
E
  3
ACAD_SCALELIST
350
47
  3
APPDATA
350
134
  3
DWGPROPS
350
2DD
  0
DICTIONARY
  5
D
102
{ACAD_REACTORS
330
C
102
}
330
C
100
AcDbDictionary
281
     1
  0
RASTERVARIABLES
  5
136
102
{ACAD_REACTORS
330
C
102
}
330
C
100
AcDbRasterVariables
 90
        0
 70
     1
 71
     1
 72
     1
  0
DICTIONARY
  5
1A
102
{ACAD_REACTORS
330
C
102
}
330
C
100
AcDbDictionary
281
     1
  3
Layout1
350
1E
  3
Layout2
350
26
  3
Model
350
22
  0
DICTIONARY
  5
17
102
{ACAD_REACTORS
330
C
102
}
330
C
100
AcDbDictionary
281
     1
  3
Standard
350
18
  0
DICTIONARY
  5
19
102
{ACAD_REACTORS
330
C
102
}
330
C
100
AcDbDictionary
281
     1
  0
ACDBDICTIONARYWDFLT
  5
E
102
{ACAD_REACTORS
330
C
102
}
330
C
100
AcDbDictionary
281
     1
  3
Normal
350
F
100
AcDbDictionaryWithDefault
340
F
  0
DICTIONARY
  5
47
102
{ACAD_REACTORS
330
C
102
}
330
C
100
AcDbDictionary
281
     1
  3
A0
350
48
  3
A1
350
49
  3
A2
350
4A
  3
A3
350
4B
  3
A4
350
4C
  3
A5
350
4D
  3
A6
350
4E
  3
A7
350
4F
  3
A8
350
50
  3
A9
350
51
  3
B0
350
52
  3
B1
350
53
  3
B2
350
54
  3
B3
350
55
  3
B4
350
56
  3
B5
350
57
  3
B6
350
58
  3
B7
350
59
  3
B8
350
5A
  3
B9
350
5B
  3
C0
350
5C
  3
C1
350
5D
  3
C2
350
5E
  3
C3
350
5F
  3
C4
350
60
  3
C5
350
61
  3
C6
350
62
  3
C7
350
63
  3
C8
350
64
  3
C9
350
65
  3
D0
350
66
  3
D1
350
67
  3
D2
350
68
  0
DICTIONARY
  5
134
102
{ACAD_REACTORS
330
C
102
}
330
C
100
AcDbDictionary
281
     1
  0
XRECORD
  5
2DD
102
{ACAD_REACTORS
330
C
102
}
330
C
100
AcDbXrecord
280
     1
  1
DWGPROPS COOKIE
  2

  3

  4

  6

  7

  8
12014102
  9

300
=
301
=
302
=
303
=
304
=
305
=
306
=
307
=
308
=
309
=
 40
0.0
 41
2458263.437298924
 42
2459576.975358021
  1

 90
        0
  0
LAYOUT
  5
1E
102
{ACAD_REACTORS
330
1A
102
}
330
1A
100
AcDbPlotSettings
  1

  2
none_device
  4

  6

 40
0.0
 41
0.0
 42
0.0
 43
0.0
 44
0.0
 45
0.0
 46
0.0
 47
0.0
 48
0.0
 49
0.0
140
0.0
141
0.0
142
1.0
143
1.0
 70
   688
 72
     1
 73
     0
 74
     5
  7

 75
    16
147
1.0
148
0.0
149
0.0
100
AcDbLayout
  1
Layout1
 70
     1
 71
     1
 10
0.0
 20
0.0
 11
420.0
 21
297.0
 12
0.0
 22
0.0
 32
0.0
 14
1.000000000000000E+20
 24
1.000000000000000E+20
 34
1.000000000000000E+20
 15
-1.000000000000000E+20
 25
-1.000000000000000E+20
 35
-1.000000000000000E+20
146
0.0
 13
0.0
 23
0.0
 33
0.0
 16
1.0
 26
0.0
 36
0.0
 17
0.0
 27
1.0
 37
0.0
 76
     0
330
1B
  0
LAYOUT
  5
26
102
{ACAD_REACTORS
330
1A
102
}
330
1A
100
AcDbPlotSettings
  1

  2
none_device
  4

  6

 40
0.0
 41
0.0
 42
0.0
 43
0.0
 44
0.0
 45
0.0
 46
0.0
 47
0.0
 48
0.0
 49
0.0
140
0.0
141
0.0
142
1.0
143
1.0
 70
   688
 72
     1
 73
     0
 74
     5
  7

 75
    16
147
1.0
148
0.0
149
0.0
100
AcDbLayout
  1
Layout2
 70
     1
 71
     2
 10
0.0
 20
0.0
 11
0.0
 21
0.0
 12
0.0
 22
0.0
 32
0.0
 14
0.0
 24
0.0
 34
0.0
 15
0.0
 25
0.0
 35
0.0
146
0.0
 13
0.0
 23
0.0
 33
0.0
 16
1.0
 26
0.0
 36
0.0
 17
0.0
 27
1.0
 37
0.0
 76
     0
330
23
  0
LAYOUT
  5
22
102
{ACAD_REACTORS
330
1A
102
}
330
1A
100
AcDbPlotSettings
  1

  2
none_device
  4
ANSI_A_(11.00_x_8.50_Inches)
  6

 40
6.35
 41
19.05
 42
6.35000508
 43
19.05000254
 44
279.4
 45
215.9
 46
119.2753998439486
 47
85.72034751540595
 48
0.0
 49
0.0
140
0.0
141
0.0
142
0.0745928350685928
143
1.0
 70
  1696
 72
     0
 73
     0
 74
     0
  7

 75
     0
147
0.0235690232323232
148
0.0
149
0.0
100
AcDbLayout
  1
Model
 70
     1
 71
     0
 10
0.0
 20
0.0
 11
420.0
 21
297.0
 12
0.0
 22
0.0
 32
0.0
 14
-75.7214580216121
 24
-49.97073246008785
 34
0.0
 15
56.81740776230002
 25
54.43332450504428
 35
0.0
146
0.0
 13
0.0
 23
0.0
 33
0.0
 16
1.0
 26
0.0
 36
0.0
 17
0.0
 27
1.0
 37
0.0
 76
     0
330
1F
331
29
  0
MLINESTYLE
  5
18
102
{ACAD_REACTORS
330
17
102
}
330
17
100
AcDbMlineStyle
  2
Standard
 70
     0
  3

 62
   256
 51
90.0
 52
90.0
 71
     2
 49
0.5
 62
   256
  6
BYLAYER
 49
-0.5
 62
   256
  6
BYLAYER
  0
ACDBPLACEHOLDER
  5
F
102
{ACAD_REACTORS
330
E
102
}
330
E
  0
SCALE
  5
48
102
{ACAD_REACTORS
330
47
102
}
330
47
100
AcDbScale
 70
     0
300
1:1
140
1.0
141
1.0
290
     1
  0
SCALE
  5
49
102
{ACAD_REACTORS
330
47
102
}
330
47
100
AcDbScale
 70
     0
300
1:2
140
1.0
141
2.0
290
     0
  0
SCALE
  5
4A
102
{ACAD_REACTORS
330
47
102
}
330
47
100
AcDbScale
 70
     0
300
1:4
140
1.0
141
4.0
290
     0
  0
SCALE
  5
4B
102
{ACAD_REACTORS
330
47
102
}
330
47
100
AcDbScale
 70
     0
300
1:5
140
1.0
141
5.0
290
     0
  0
SCALE
  5
4C
102
{ACAD_REACTORS
330
47
102
}
330
47
100
AcDbScale
 70
     0
300
1:8
140
1.0
141
8.0
290
     0
  0
SCALE
  5
4D
102
{ACAD_REACTORS
330
47
102
}
330
47
100
AcDbScale
 70
     0
300
1:10
140
1.0
141
10.0
290
     0
  0
SCALE
  5
4E
102
{ACAD_REACTORS
330
47
102
}
330
47
100
AcDbScale
 70
     0
300
1:16
140
1.0
141
16.0
290
     0
  0
SCALE
  5
4F
102
{ACAD_REACTORS
330
47
102
}
330
47
100
AcDbScale
 70
     0
300
1:20
140
1.0
141
20.0
290
     0
  0
SCALE
  5
50
102
{ACAD_REACTORS
330
47
102
}
330
47
100
AcDbScale
 70
     0
300
1:30
140
1.0
141
30.0
290
     0
  0
SCALE
  5
51
102
{ACAD_REACTORS
330
47
102
}
330
47
100
AcDbScale
 70
     0
300
1:40
140
1.0
141
40.0
290
     0
  0
SCALE
  5
52
102
{ACAD_REACTORS
330
47
102
}
330
47
100
AcDbScale
 70
     0
300
1:50
140
1.0
141
50.0
290
     0
  0
SCALE
  5
53
102
{ACAD_REACTORS
330
47
102
}
330
47
100
AcDbScale
 70
     0
300
1:100
140
1.0
141
100.0
290
     0
  0
SCALE
  5
54
102
{ACAD_REACTORS
330
47
102
}
330
47
100
AcDbScale
 70
     0
300
2:1
140
2.0
141
1.0
290
     0
  0
SCALE
  5
55
102
{ACAD_REACTORS
330
47
102
}
330
47
100
AcDbScale
 70
     0
300
4:1
140
4.0
141
1.0
290
     0
  0
SCALE
  5
56
102
{ACAD_REACTORS
330
47
102
}
330
47
100
AcDbScale
 70
     0
300
8:1
140
8.0
141
1.0
290
     0
  0
SCALE
  5
57
102
{ACAD_REACTORS
330
47
102
}
330
47
100
AcDbScale
 70
     0
300
10:1
140
10.0
141
1.0
290
     0
  0
SCALE
  5
58
102
{ACAD_REACTORS
330
47
102
}
330
47
100
AcDbScale
 70
     0
300
100:1
140
100.0
141
1.0
290
     0
  0
SCALE
  5
59
102
{ACAD_REACTORS
330
47
102
}
330
47
100
AcDbScale
 70
     0
300
1/128" = 1'-0"
140
0.0078125
141
12.0
290
     0
  0
SCALE
  5
5A
102
{ACAD_REACTORS
330
47
102
}
330
47
100
AcDbScale
 70
     0
300
1/64" = 1'-0"
140
0.015625
141
12.0
290
     0
  0
SCALE
  5
5B
102
{ACAD_REACTORS
330
47
102
}
330
47
100
AcDbScale
 70
     0
300
1/32" = 1'-0"
140
0.03125
141
12.0
290
     0
  0
SCALE
  5
5C
102
{ACAD_REACTORS
330
47
102
}
330
47
100
AcDbScale
 70
     0
300
1/16" = 1'-0"
140
0.0625
141
12.0
290
     0
  0
SCALE
  5
5D
102
{ACAD_REACTORS
330
47
102
}
330
47
100
AcDbScale
 70
     0
300
3/32" = 1'-0"
140
0.09375
141
12.0
290
     0
  0
SCALE
  5
5E
102
{ACAD_REACTORS
330
47
102
}
330
47
100
AcDbScale
 70
     0
300
1/8" = 1'-0"
140
0.125
141
12.0
290
     0
  0
SCALE
  5
5F
102
{ACAD_REACTORS
330
47
102
}
330
47
100
AcDbScale
 70
     0
300
3/16" = 1'-0"
140
0.1875
141
12.0
290
     0
  0
SCALE
  5
60
102
{ACAD_REACTORS
330
47
102
}
330
47
100
AcDbScale
 70
     0
300
1/4" = 1'-0"
140
0.25
141
12.0
290
     0
  0
SCALE
  5
61
102
{ACAD_REACTORS
330
47
102
}
330
47
100
AcDbScale
 70
     0
300
3/8" = 1'-0"
140
0.375
141
12.0
290
     0
  0
SCALE
  5
62
102
{ACAD_REACTORS
330
47
102
}
330
47
100
AcDbScale
 70
     0
300
1/2" = 1'-0"
140
0.5
141
12.0
290
     0
  0
SCALE
  5
63
102
{ACAD_REACTORS
330
47
102
}
330
47
100
AcDbScale
 70
     0
300
3/4" = 1'-0"
140
0.75
141
12.0
290
     0
  0
SCALE
  5
64
102
{ACAD_REACTORS
330
47
102
}
330
47
100
AcDbScale
 70
     0
300
1" = 1'-0"
140
1.0
141
12.0
290
     0
  0
SCALE
  5
65
102
{ACAD_REACTORS
330
47
102
}
330
47
100
AcDbScale
 70
     0
300
1-1/2" = 1'-0"
140
1.5
141
12.0
290
     0
  0
SCALE
  5
66
102
{ACAD_REACTORS
330
47
102
}
330
47
100
AcDbScale
 70
     0
300
3" = 1'-0"
140
3.0
141
12.0
290
     0
  0
SCALE
  5
67
102
{ACAD_REACTORS
330
47
102
}
330
47
100
AcDbScale
 70
     0
300
6" = 1'-0"
140
6.0
141
12.0
290
     0
  0
SCALE
  5
68
102
{ACAD_REACTORS
330
47
102
}
330
47
100
AcDbScale
 70
     0
300
1'-0" = 1'-0"
140
12.0
141
12.0
290
     0
  0
ENDSEC
  0
EOF
