  0
SECTION
  2
HEADER
  9
$ACADVER
  1
AC1015
  9
$ACADMAINTVER
 70
     6
  9
$DWGCODEPAGE
  3
ANSI_949
  9
$INSBASE
 10
0.0
 20
0.0
 30
0.0
  9
$EXTMIN
 10
-75.72145802161208
 20
-49.97073246008785
 30
0.0
  9
$EXTMAX
 10
66.17404559814773
 20
50.6333245050443
 30
0.0
  9
$LIMMIN
 10
0.0
 20
0.0
  9
$LIMMAX
 10
420.0
 20
297.0
  9
$ORTHOMODE
 70
     0
  9
$REGENMODE
 70
     1
  9
$FILLMODE
 70
     1
  9
$QTEXTMODE
 70
     0
  9
$MIRRTEXT
 70
     1
  9
$LTSCALE
 40
1.0
  9
$ATTMODE
 70
     1
  9
$TEXTSIZE
 40
3.5
  9
$TRACEWID
 40
1.0
  9
$TEXTSTYLE
  7
Standard
  9
$CLAYER
  8
0
  9
$CELTYPE
  6
ByLayer
  9
$CECOLOR
 62
   256
  9
$CELTSCALE
 40
1.0
  9
$DISPSILH
 70
     0
  9
$DIMSCALE
 40
1.0
  9
$DIMASZ
 40
3.302
  9
$DIMEXO
 40
1.0
  9
$DIMDLI
 40
3.75
  9
$DIMRND
 40
0.0
  9
$DIMDLE
 40
0.0
  9
$DIMEXE
 40
1.0
  9
$DIMTP
 40
0.0
  9
$DIMTM
 40
0.0
  9
$DIMTXT
 40
3.5
  9
$DIMCEN
 40
2.5
  9
$DIMTSZ
 40
0.0
  9
$DIMTOL
 70
     0
  9
$DIMLIM
 70
     0
  9
$DIMTIH
 70
     1
  9
$DIMTOH
 70
     1
  9
$DIMSE1
 70
     0
  9
$DIMSE2
 70
     0
  9
$DIMTAD
 70
     1
  9
$DIMZIN
 70
     0
  9
$DIMBLK
  1

  9
$DIMASO
 70
     1
  9
$DIMSHO
 70
     1
  9
$DIMPOST
  1

  9
$DIMAPOST
  1

  9
$DIMALT
 70
     0
  9
$DIMALTD
 70
     3
  9
$DIMALTF
 40
0.0393700787401575
  9
$DIMLFAC
 40
1.0
  9
$DIMTOFL
 70
     1
  9
$DIMTVP
 40
0.0
  9
$DIMTIX
 70
     0
  9
$DIMSOXD
 70
     0
  9
$DIMSAH
 70
     0
  9
$DIMBLK1
  1

  9
$DIMBLK2
  1

  9
$DIMSTYLE
  2
ISO-25
  9
$DIMCLRD
 70
     0
  9
$DIMCLRE
 70
     0
  9
$DIMCLRT
 70
     0
  9
$DIMTFAC
 40
1.0
  9
$DIMGAP
 40
1.524
  9
$DIMJUST
 70
     0
  9
$DIMSD1
 70
     0
  9
$DIMSD2
 70
     0
  9
$DIMTOLJ
 70
     0
  9
$DIMTZIN
 70
     0
  9
$DIMALTZ
 70
     0
  9
$DIMALTTZ
 70
     0
  9
$DIMUPT
 70
     0
  9
$DIMDEC
 70
     2
  9
$DIMTDEC
 70
     2
  9
$DIMALTU
 70
     2
  9
$DIMALTTD
 70
     3
  9
$DIMTXSTY
  7
Standard
  9
$DIMAUNIT
 70
     0
  9
$DIMADEC
 70
     2
  9
$DIMALTRND
 40
0.0
  9
$DIMAZIN
 70
     0
  9
$DIMDSEP
 70
    44
  9
$DIMATFIT
 70
     3
  9
$DIMFRAC
 70
     0
  9
$DIMLDRBLK
  1

  9
$DIMLUNIT
 70
     2
  9
$DIMLWD
 70
    -2
  9
$DIMLWE
 70
    -2
  9
$DIMTMOVE
 70
     0
  9
$LUNITS
 70
     2
  9
$LUPREC
 70
     2
  9
$SKETCHINC
 40
1.0
  9
$FILLETRAD
 40
10.0
  9
$AUNITS
 70
     0
  9
$AUPREC
 70
     2
  9
$MENU
  1
.
  9
$ELEVATION
 40
0.0
  9
$PELEVATION
 40
0.0
  9
$THICKNESS
 40
0.0
  9
$LIMCHECK
 70
     0
  9
$CHAMFERA
 40
0.0
  9
$CHAMFERB
 40
0.0
  9
$CHAMFERC
 40
0.0
  9
$CHAMFERD
 40
0.0
  9
$SKPOLY
 70
     0
  9
$TDCREATE
 40
2458263.809841574
  9
$TDUCREATE
 40
2458263.434841574
  9
$TDUPDATE
 40
2459577.327731805
  9
$TDUUPDATE
 40
2459576.952731805
  9
$TDINDWG
 40
0.0015901968
  9
$TDUSRTIMER
 40
0.0007724537
  9
$USRTIMER
 70
     1
  9
$ANGBASE
 50
0.0
  9
$ANGDIR
 70
     0
  9
$PDMODE
 70
     0
  9
$PDSIZE
 40
-1.0
  9
$PLINEWID
 40
0.0
  9
$SPLFRAME
 70
     0
  9
$SPLINETYPE
 70
     6
  9
$SPLINESEGS
 70
     8
  9
$HANDSEED
  5
303
  9
$SURFTAB1
 70
     6
  9
$SURFTAB2
 70
     6
  9
$SURFTYPE
 70
     6
  9
$SURFU
 70
     6
  9
$SURFV
 70
     6
  9
$UCSBASE
  2

  9
$UCSNAME
  2

  9
$UCSORG
 10
0.0
 20
0.0
 30
0.0
  9
$UCSXDIR
 10
1.0
 20
0.0
 30
0.0
  9
$UCSYDIR
 10
0.0
 20
1.0
 30
0.0
  9
$UCSORTHOREF
  2

  9
$UCSORTHOVIEW
 70
     0
  9
$UCSORGTOP
 10
0.0
 20
0.0
 30
0.0
  9
$UCSORGBOTTOM
 10
0.0
 20
0.0
 30
0.0
  9
$UCSORGLEFT
 10
0.0
 20
0.0
 30
0.0
  9
$UCSORGRIGHT
 10
0.0
 20
0.0
 30
0.0
  9
$UCSORGFRONT
 10
0.0
 20
0.0
 30
0.0
  9
$UCSORGBACK
 10
0.0
 20
0.0
 30
0.0
  9
$PUCSBASE
  2

  9
$PUCSNAME
  2

  9
$PUCSORG
 10
0.0
 20
0.0
 30
0.0
  9
$PUCSXDIR
 10
1.0
 20
0.0
 30
0.0
  9
$PUCSYDIR
 10
0.0
 20
1.0
 30
0.0
  9
$PUCSORTHOREF
  2

  9
$PUCSORTHOVIEW
 70
     0
  9
$PUCSORGTOP
 10
0.0
 20
0.0
 30
0.0
  9
$PUCSORGBOTTOM
 10
0.0
 20
0.0
 30
0.0
  9
$PUCSORGLEFT
 10
0.0
 20
0.0
 30
0.0
  9
$PUCSORGRIGHT
 10
0.0
 20
0.0
 30
0.0
  9
$PUCSORGFRONT
 10
0.0
 20
0.0
 30
0.0
  9
$PUCSORGBACK
 10
0.0
 20
0.0
 30
0.0
  9
$USERI1
 70
     0
  9
$USERI2
 70
     0
  9
$USERI3
 70
     0
  9
$USERI4
 70
     0
  9
$USERI5
 70
     0
  9
$USERR1
 40
0.0
  9
$USERR2
 40
0.0
  9
$USERR3
 40
0.0
  9
$USERR4
 40
0.0
  9
$USERR5
 40
0.0
  9
$WORLDVIEW
 70
     1
  9
$SHADEDGE
 70
     3
  9
$SHADEDIF
 70
    70
  9
$TILEMODE
 70
     1
  9
$MAXACTVP
 70
    64
  9
$PINSBASE
 10
0.0
 20
0.0
 30
0.0
  9
$PLIMCHECK
 70
     0
  9
$PEXTMIN
 10
1.000000000000000E+20
 20
1.000000000000000E+20
 30
1.000000000000000E+20
  9
$PEXTMAX
 10
-1.000000000000000E+20
 20
-1.000000000000000E+20
 30
-1.000000000000000E+20
  9
$PLIMMIN
 10
0.0
 20
0.0
  9
$PLIMMAX
 10
0.0
 20
0.0
  9
$UNITMODE
 70
     0
  9
$VISRETAIN
 70
     1
  9
$PLINEGEN
 70
     0
  9
$PSLTSCALE
 70
     1
  9
$TREEDEPTH
 70
  3020
  9
$CMLSTYLE
  2
Standard
  9
$CMLJUST
 70
     0
  9
$CMLSCALE
 40
20.0
  9
$PROXYGRAPHICS
 70
     1
  9
$MEASUREMENT
 70
     1
  9
$CELWEIGHT
370
    -1
  9
$ENDCAPS
280
     0
  9
$JOINSTYLE
280
     0
  9
$LWDISPLAY
290
     1
  9
$INSUNITS
 70
     4
  9
$HYPERLINKBASE
  1

  9
$STYLESHEET
  1

  9
$XEDIT
290
     1
  9
$CEPSNTYPE
380
     0
  9
$PSTYLEMODE
290
     1
  9
$FINGERPRINTGUID
  2
{9EC4EDF2-085C-4BC0-863A-CFC9CC73BE47}
  9
$VERSIONGUID
  2
{FAEB1C32-E019-11D5-929B-00C0DF256EC4}
  9
$EXTNAMES
290
     1
  9
$PSVPSCALE
 40
0.0
  9
$OLESTARTUP
290
     0
  0
ENDSEC
  0
SECTION
  2
CLASSES
  0
CLASS
  1
ACDBDICTIONARYWDFLT
  2
AcDbDictionaryWithDefault
  3
ObjectDBX Classes
 90
        0
280
     0
281
     0
  0
CLASS
  1
VISUALSTYLE
  2
AcDbVisualStyle
  3
ObjectDBX Classes
 90
     4095
280
     0
281
     0
  0
CLASS
  1
MATERIAL
  2
AcDbMaterial
  3
ObjectDBX Classes
 90
     1153
280
     0
281
     0
  0
CLASS
  1
SCALE
  2
AcDbScale
  3
ObjectDBX Classes
 90
     1153
280
     0
281
     0
  0
CLASS
  1
TABLESTYLE
  2
AcDbTableStyle
  3
ObjectDBX Classes
 90
     4095
280
     0
281
     0
  0
CLASS
  1
MLEADERSTYLE
  2
AcDbMLeaderStyle
  3
ACDB_MLEADERSTYLE_CLASS
 90
     4095
280
     0
281
     0
  0
CLASS
  1
SUN
  2
AcDbSun
  3
SCENEOE
 90
     1153
280
     0
281
     0
  0
CLASS
  1
ACDBPLACEHOLDER
  2
AcDbPlaceHolder
  3
ObjectDBX Classes
 90
        0
280
     0
281
     0
  0
CLASS
  1
LAYOUT
  2
AcDbLayout
  3
ObjectDBX Classes
 90
        0
280
     0
281
     0
  0
CLASS
  1
RASTERVARIABLES
  2
AcDbRasterVariables
  3
ISM
 90
        0
280
     0
281
     0
  0
CLASS
  1
DIMASSOC
  2
AcDbDimAssoc
  3
"AcDbDimAssoc|Product Desc:     AcDim ARX App For Dimension|Company:          Autodesk, Inc.|WEB Address:      www.autodesk.com"
 90
        0
280
     0
281
     0
  0
ENDSEC
  0
SECTION
  2
TABLES
  0
TABLE
  2
VPORT
  5
8
330
0
100
AcDbSymbolTable
 70
     1
  0
VPORT
  5
29
330
8
100
AcDbSymbolTableRecord
100
AcDbViewportTableRecord
  2
*Active
 70
     0
 10
0.0
 20
0.0
 11
1.0
 21
1.0
 12
-4.773706211732176
 22
0.3312960224782273
 13
0.0
 23
0.0
 14
10.0
 24
10.0
 15
10.0
 25
10.0
 16
0.0
 26
0.0
 36
1.0
 17
0.0
 27
0.0
 37
0.0
 40
102.6161381044348
 41
2.070175438596491
 42
50.0
 43
0.0
 44
0.0
 50
0.0
 51
0.0
 71
    16
 72
  2000
 73
     1
 74
     3
 75
     0
 76
     0
 77
     0
 78
     0
281
     0
 65
     1
110
0.0
120
0.0
130
0.0
111
1.0
121
0.0
131
0.0
112
0.0
122
1.0
132
0.0
 79
     0
146
0.0
  0
ENDTAB
  0
TABLE
  2
LTYPE
  5
5
330
0
100
AcDbSymbolTable
 70
     6
  0
LTYPE
  5
14
330
5
100
AcDbSymbolTableRecord
100
AcDbLinetypeTableRecord
  2
ByBlock
 70
     0
  3

 72
    65
 73
     0
 40
0.0
  0
LTYPE
  5
15
330
5
100
AcDbSymbolTableRecord
100
AcDbLinetypeTableRecord
  2
ByLayer
 70
     0
  3

 72
    65
 73
     0
 40
0.0
  0
LTYPE
  5
16
330
5
100
AcDbSymbolTableRecord
100
AcDbLinetypeTableRecord
  2
Continuous
 70
     0
  3
Solid line
 72
    65
 73
     0
 40
0.0
  0
LTYPE
  5
6E
330
5
100
AcDbSymbolTableRecord
100
AcDbLinetypeTableRecord
  2
HIDDEN
 70
     0
  3
Hidden __ __ __ __ __ __ __ __ __ __ __ __ __ __
 72
    65
 73
     2
 40
1.905
 49
1.27
 74
     0
 49
-0.635
 74
     0
  0
LTYPE
  5
6F
330
5
100
AcDbSymbolTableRecord
100
AcDbLinetypeTableRecord
  2
PHANTOM
 70
     0
  3
Phantom ______  __  __  ______  __  __  ______
 72
    65
 73
     6
 40
12.7
 49
6.35
 74
     0
 49
-1.27
 74
     0
 49
1.27
 74
     0
 49
-1.27
 74
     0
 49
1.27
 74
     0
 49
-1.27
 74
     0
  0
LTYPE
  5
70
330
5
100
AcDbSymbolTableRecord
100
AcDbLinetypeTableRecord
  2
CENTER
 70
     0
  3
Center ____ _ ____ _ ____ _ ____ _ ____ _ ____
 72
    65
 73
     4
 40
10.16
 49
6.35
 74
     0
 49
-1.27
 74
     0
 49
1.27
 74
     0
 49
-1.27
 74
     0
  0
LTYPE
  5
71
330
5
100
AcDbSymbolTableRecord
100
AcDbLinetypeTableRecord
  2
CENTERX2
 70
     0
  3
Center (2x) ________  __  ________  __  _____
 72
    65
 73
     4
 40
20.32
 49
12.7
 74
     0
 49
-2.54
 74
     0
 49
2.54
 74
     0
 49
-2.54
 74
     0
  0
LTYPE
  5
72
330
5
100
AcDbSymbolTableRecord
100
AcDbLinetypeTableRecord
  2
DOT2
 70
     0
  3
Dot (.5x) ........................................
 72
    65
 73
     2
 40
0.635
 49
0.0
 74
     0
 49
-0.635
 74
     0
  0
ENDTAB
  0
TABLE
  2
LAYER
  5
2
330
0
100
AcDbSymbolTable
 70
    17
  0
LAYER
  5
10
330
2
100
AcDbSymbolTableRecord
100
AcDbLayerTableRecord
  2
0
 70
     0
 62
     7
  6
Continuous
370
    -3
390
F
  0
LAYER
  5
73
330
2
100
AcDbSymbolTableRecord
100
AcDbLayerTableRecord
  2
FORMAT
 70
     0
 62
     2
  6
Continuous
370
    -3
390
F
  0
LAYER
  5
74
330
2
100
AcDbSymbolTableRecord
100
AcDbLayerTableRecord
  2
외형선
 70
     0
 62
   100
  6
Continuous
370
    35
390
F
  0
LAYER
  5
75
330
2
100
AcDbSymbolTableRecord
100
AcDbLayerTableRecord
  2
숨은선
 70
     0
 62
     2
  6
HIDDEN
370
    25
390
F
  0
LAYER
  5
76
330
2
100
AcDbSymbolTableRecord
100
AcDbLayerTableRecord
  2
중심선
 70
     0
 62
     1
  6
CENTERX2
370
    -3
390
F
  0
LAYER
  5
77
330
2
100
AcDbSymbolTableRecord
100
AcDbLayerTableRecord
  2
파단선
 70
     0
 62
     4
  6
Continuous
370
    -3
390
F
  0
LAYER
  5
78
330
2
100
AcDbSymbolTableRecord
100
AcDbLayerTableRecord
  2
해칭선
 70
     0
 62
     4
  6
Continuous
370
    -3
390
F
  0
LAYER
  5
79
330
2
100
AcDbSymbolTableRecord
100
AcDbLayerTableRecord
  2
가는실선
 70
     0
 62
     4
  6
Continuous
370
    -3
390
F
  0
LAYER
  5
7A
330
2
100
AcDbSymbolTableRecord
100
AcDbLayerTableRecord
  2
치수_보조선
 70
     0
 62
     4
  6
Continuous
370
    -3
390
F
  0
LAYER
  5
7B
330
2
100
AcDbSymbolTableRecord
100
AcDbLayerTableRecord
  2
치수문자_일반주서
 70
     0
 62
     7
  6
Continuous
370
    25
390
F
  0
LAYER
  5
7C
330
2
100
AcDbSymbolTableRecord
100
AcDbLayerTableRecord
  2
개별주서
 70
     0
 62
   100
  6
Continuous
370
    35
390
F
  0
LAYER
  5
7D
330
2
100
AcDbSymbolTableRecord
100
AcDbLayerTableRecord
  2
중간선
 70
     0
 62
     2
  6
Continuous
370
    25
390
F
  0
LAYER
  5
7E
330
2
100
AcDbSymbolTableRecord
100
AcDbLayerTableRecord
  2
윤곽선
 70
     0
 62
     3
  6
Continuous
370
    50
390
F
  0
LAYER
  5
7F
330
2
100
AcDbSymbolTableRecord
100
AcDbLayerTableRecord
  2
중심마크
 70
     0
 62
   100
  6
Continuous
370
    35
390
F
  0
LAYER
  5
80
330
2
100
AcDbSymbolTableRecord
100
AcDbLayerTableRecord
  2
가상선
 70
     0
 62
     4
  6
PHANTOM
370
    -3
390
F
  0
LAYER
  5
81
330
2
100
AcDbSymbolTableRecord
100
AcDbLayerTableRecord
  2
특수지정선
 70
     0
 62
     5
  6
CENTERX2
370
    70
390
F
  0
LAYER
  5
143
330
2
100
AcDbSymbolTableRecord
100
AcDbLayerTableRecord
  2
Defpoints
 70
     0
 62
     7
  6
Continuous
290
     0
370
    -3
390
F
  0
ENDTAB
  0
TABLE
  2
STYLE
  5
3
330
0
100
AcDbSymbolTable
 70
     2
  0
STYLE
  5
11
330
3
100
AcDbSymbolTableRecord
100
AcDbTextStyleTableRecord
  2
Standard
 70
     0
 40
0.0
 41
1.0
 50
0.0
 71
     0
 42
3.5
  3
txt
  4

  0
STYLE
  5
97
330
3
100
AcDbSymbolTableRecord
100
AcDbTextStyleTableRecord
  2
SLDTEXTSTYLE0
 70
     0
 40
0.0
 41
0.75
 50
0.0
 71
     0
 42
3.5
  3
TXT
  4

  0
ENDTAB
  0
TABLE
  2
VIEW
  5
6
330
0
100
AcDbSymbolTable
 70
     0
  0
ENDTAB
  0
TABLE
  2
UCS
  5
7
330
0
100
AcDbSymbolTable
 70
     0
  0
ENDTAB
  0
TABLE
  2
APPID
  5
9
330
0
100
AcDbSymbolTable
 70
     3
  0
APPID
  5
12
330
9
100
AcDbSymbolTableRecord
100
AcDbRegAppTableRecord
  2
ACAD
 70
     0
  0
APPID
  5
14E
330
9
100
AcDbSymbolTableRecord
100
AcDbRegAppTableRecord
  2
ACAD_DSTYLE_DIMRADIAL_EXTENSION
 70
     0
  0
APPID
  5
2FF
330
9
100
AcDbSymbolTableRecord
100
AcDbRegAppTableRecord
  2
PE_URL
 70
     0
  0
ENDTAB
  0
TABLE
  2
DIMSTYLE
  5
A
330
0
100
AcDbSymbolTable
 70
     3
100
AcDbDimStyleTable
  0
DIMSTYLE
105
27
330
A
100
AcDbSymbolTableRecord
100
AcDbDimStyleTableRecord
  2
ISO-25
 70
     0
 41
2.5
 42
0.625
 43
3.75
 44
1.25
 73
     0
 74
     0
 77
     1
 78
     8
140
2.5
141
2.5
143
0.03937007874016
147
0.625
171
     3
172
     1
178
     0
271
     2
272
     2
274
     3
278
    44
283
     0
284
     8
340
11
  0
DIMSTYLE
105
DC
102
{ACAD_REACTORS
330
276
330
279
102
}
330
A
100
AcDbSymbolTableRecord
100
AcDbDimStyleTableRecord
  2
SLDDIMSTYLE0
 70
     0
 41
3.302
 44
0.0
 45
0.000000001
 73
     0
 74
     0
 77
     1
 78
    12
 79
     3
140
3.5
147
0.875
172
     1
173
     1
178
     0
271
     2
272
     2
276
     2
284
    12
289
     0
340
97
  0
DIMSTYLE
105
EA
102
{ACAD_REACTORS
330
277
330
278
330
27A
330
2CF
102
}
330
A
100
AcDbSymbolTableRecord
100
AcDbDimStyleTableRecord
  2
SLDDIMSTYLE1
 70
     0
 41
3.302
 44
0.0
 45
0.000000001
 73
     0
 74
     0
 77
     1
 78
    12
 79
     3
140
3.5
147
0.875
173
     1
178
     0
271
     2
272
     2
276
     2
284
    12
340
97
  0
ENDTAB
  0
TABLE
  2
BLOCK_RECORD
  5
1
330
0
100
AcDbSymbolTable
 70
    21
  0
BLOCK_RECORD
  5
1F
330
1
100
AcDbSymbolTableRecord
100
AcDbBlockTableRecord
  2
*Model_Space
340
22
  0
BLOCK_RECORD
  5
1B
330
1
100
AcDbSymbolTableRecord
100
AcDbBlockTableRecord
  2
*Paper_Space
340
1E
  0
BLOCK_RECORD
  5
23
330
1
100
AcDbSymbolTableRecord
100
AcDbBlockTableRecord
  2
*Paper_Space0
340
26
  0
BLOCK_RECORD
  5
82
330
1
100
AcDbSymbolTableRecord
100
AcDbBlockTableRecord
  2
블럭10
340
0
102
{BLKREFS
331
D4
102
}
  0
BLOCK_RECORD
  5
DD
330
1
100
AcDbSymbolTableRecord
100
AcDbBlockTableRecord
  2
_D
340
0
  0
BLOCK_RECORD
  5
EB
330
1
100
AcDbSymbolTableRecord
100
AcDbBlockTableRecord
  2
_D_1
340
0
  0
BLOCK_RECORD
  5
F6
330
1
100
AcDbSymbolTableRecord
100
AcDbBlockTableRecord
  2
_D_2
340
0
  0
BLOCK_RECORD
  5
100
330
1
100
AcDbSymbolTableRecord
100
AcDbBlockTableRecord
  2
_D_3
340
0
  0
BLOCK_RECORD
  5
10C
330
1
100
AcDbSymbolTableRecord
100
AcDbBlockTableRecord
  2
_D_4
340
0
  0
BLOCK_RECORD
  5
117
330
1
100
AcDbSymbolTableRecord
100
AcDbBlockTableRecord
  2
SW_DOWELSYMBOL_0
340
0
102
{BLKREFS
331
27B
102
}
  0
BLOCK_RECORD
  5
1F4
330
1
100
AcDbSymbolTableRecord
100
AcDbBlockTableRecord
  2
*D8
340
0
  0
BLOCK_RECORD
  5
200
330
1
100
AcDbSymbolTableRecord
100
AcDbBlockTableRecord
  2
*D9
340
0
  0
BLOCK_RECORD
  5
20C
330
1
100
AcDbSymbolTableRecord
100
AcDbBlockTableRecord
  2
*D10
340
0
  0
BLOCK_RECORD
  5
218
330
1
100
AcDbSymbolTableRecord
100
AcDbBlockTableRecord
  2
*D11
340
0
  0
BLOCK_RECORD
  5
224
330
1
100
AcDbSymbolTableRecord
100
AcDbBlockTableRecord
  2
*D12
340
0
  0
BLOCK_RECORD
  5
230
330
1
100
AcDbSymbolTableRecord
100
AcDbBlockTableRecord
  2
*D13
340
0
  0
BLOCK_RECORD
  5
282
330
1
100
AcDbSymbolTableRecord
100
AcDbBlockTableRecord
  2
*D14
340
0
  0
BLOCK_RECORD
  5
28E
330
1
100
AcDbSymbolTableRecord
100
AcDbBlockTableRecord
  2
*D15
340
0
  0
BLOCK_RECORD
  5
29A
330
1
100
AcDbSymbolTableRecord
100
AcDbBlockTableRecord
  2
*D16
340
0
  0
BLOCK_RECORD
  5
2A6
330
1
100
AcDbSymbolTableRecord
100
AcDbBlockTableRecord
  2
*D17
340
0
  0
BLOCK_RECORD
  5
2B2
330
1
100
AcDbSymbolTableRecord
100
AcDbBlockTableRecord
  2
*D18
340
0
  0
BLOCK_RECORD
  5
2BE
330
1
100
AcDbSymbolTableRecord
100
AcDbBlockTableRecord
  2
*D19
340
0
  0
BLOCK_RECORD
  5
2D2
330
1
100
AcDbSymbolTableRecord
100
AcDbBlockTableRecord
  2
*D20
340
0
  0
ENDTAB
  0
ENDSEC
  0
SECTION
  2
BLOCKS
  0
BLOCK
  5
20
330
1F
100
AcDbEntity
  8
0
100
AcDbBlockBegin
  2
*Model_Space
 70
     0
 10
0.0
 20
0.0
 30
0.0
  3
*Model_Space
  1
*Model_Space
  0
ENDBLK
  5
21
330
1F
100
AcDbEntity
  8
0
100
AcDbBlockEnd
  0
BLOCK
  5
1C
330
1B
100
AcDbEntity
 67
     1
  8
0
100
AcDbBlockBegin
  2
*Paper_Space
 70
     0
 10
0.0
 20
0.0
 30
0.0
  3
*Paper_Space
  1
*Paper_Space
  0
ENDBLK
  5
1D
330
1B
100
AcDbEntity
 67
     1
  8
0
100
AcDbBlockEnd
  0
BLOCK
  5
24
330
23
100
AcDbEntity
  8
0
100
AcDbBlockBegin
  2
*Paper_Space0
 70
     0
 10
0.0
 20
0.0
 30
0.0
  3
*Paper_Space0
  1
*Paper_Space0
  0
ENDBLK
  5
25
330
23
100
AcDbEntity
  8
0
100
AcDbBlockEnd
  0
BLOCK
  5
83
330
82
100
AcDbEntity
  8
0
100
AcDbBlockBegin
  2
블럭10
 70
     2
 10
0.0
 20
0.0
 30
0.0
  3
블럭10
  1
블럭10
  0
ELLIPSE
  5
85
330
82
100
AcDbEntity
  8
중심선
100
AcDbEllipse
 10
20.54032771741204
 20
12.0471743016438
 30
0.0
 11
6.600054785286829
 21
-1.261213355974178E-13
 31
0.0
210
0.0
220
0.0
230
1.0
 40
0.636358354079598
 41
0.9219305317359503
 42
6.513795318482858
  0
ELLIPSE
  5
86
330
82
100
AcDbEntity
  8
중심선
100
AcDbEllipse
 10
20.54032771746488
 20
12.04717430159265
 30
0.0
 11
3.960054785062283
 21
1.540847449632565E-10
 31
0.0
210
0.0
220
0.0
230
1.0
 40
0.3939339440162632
 41
1.131841032648279
 42
5.62031148352944
  0
LINE
  5
87
330
82
100
AcDbEntity
  8
중심선
100
AcDbLine
 10
2.268634060543552
 20
16.24717430164393
 30
0.0
 11
5.714909304380834
 21
16.24717430164393
 31
0.0
  0
LINE
  5
88
330
82
100
AcDbEntity
  8
중심선
100
AcDbLine
 10
5.245725140726316
 20
7.84717430164391
 30
0.0
 11
8.692000384563599
 21
7.84717430164391
 31
0.0
  0
LINE
  5
89
330
82
100
AcDbEntity
  8
중심선
100
AcDbLine
 10
15.74043728645272
 20
16.24717430164393
 30
0.0
 11
8.692000384563599
 21
7.84717430164391
 31
0.0
  0
LINE
  5
8A
330
82
100
AcDbEntity
  8
중심선
100
AcDbLine
 10
0.1404042013395286
 20
13.71084872107135
 30
0.0
 11
3.58671253028996
 21
13.71088815037384
 31
0.0
  0
LINE
  5
8B
330
82
100
AcDbEntity
  8
중심선
100
AcDbLine
 10
2.750260043222114
 20
10.84717430164391
 30
0.0
 11
6.196535287059397
 21
10.84717430164391
 31
0.0
  0
LINE
  5
8C
330
82
100
AcDbEntity
  8
중심선
100
AcDbLine
 10
12.29416204261559
 20
16.24717430164393
 30
0.0
 11
5.245725140726316
 21
7.84717430164391
 31
0.0
  0
LINE
  5
8D
330
82
100
AcDbEntity
  8
중심선
100
AcDbLine
 10
10.72767329541681
 20
16.24717430164393
 30
0.0
 11
6.196535287059397
 21
10.84717430164391
 31
0.0
  0
LINE
  5
8E
330
82
100
AcDbEntity
  8
중심선
100
AcDbLine
 10
7.28139805157953
 20
16.24717430164393
 30
0.0
 11
2.750260043222114
 21
10.84717430164391
 31
0.0
  0
LINE
  5
8F
330
82
100
AcDbEntity
  8
중심선
100
AcDbLine
 10
5.714909304380834
 20
16.24717430164393
 30
0.0
 11
3.58671253028996
 21
13.71088815037384
 31
0.0
  0
LINE
  5
90
330
82
100
AcDbEntity
  8
중심선
100
AcDbLine
 10
2.268634060543552
 20
16.24717430164393
 30
0.0
 11
0.1404042013395286
 21
13.71084872107135
 31
0.0
  0
LINE
  5
91
330
82
100
AcDbEntity
  8
중심선
100
AcDbLine
 10
7.28139805157953
 20
16.24717430164393
 30
0.0
 11
10.72767329541681
 21
16.24717430164393
 31
0.0
  0
LINE
  5
92
330
82
100
AcDbEntity
  8
중심선
100
AcDbLine
 10
12.29416204261559
 20
16.24717430164393
 30
0.0
 11
15.74043728645272
 21
16.24717430164393
 31
0.0
  0
LINE
  5
93
330
82
100
AcDbEntity
  8
중심선
100
AcDbLine
 10
19.22036997980202
 20
11.08717430171403
 30
0.0
 11
23.66174974927406
 21
11.08717430171406
 31
0.0
  0
LINE
  5
94
330
82
100
AcDbEntity
  8
중심선
100
AcDbLine
 10
19.22039502424796
 20
13.00717430171391
 30
0.0
 11
19.22036997980202
 21
11.08717430171403
 31
0.0
  0
LINE
  5
95
330
82
100
AcDbEntity
  8
중심선
100
AcDbLine
 10
19.22039502424796
 20
13.00717430171391
 30
0.0
 11
26.96566020931264
 21
13.00717430171391
 31
0.0
  0
LINE
  5
96
330
82
100
AcDbEntity
  8
중심선
100
AcDbLine
 10
22.22332737316547
 20
13.45928029700563
 30
0.0
 11
24.52862924686651
 21
15.39360700705356
 31
0.0
  0
ATTDEF
  5
98
330
82
100
AcDbEntity
  8
FORMAT
 62
     2
100
AcDbText
 10
-20.85824753159254
 20
2.075366912832191
 30
0.0
 40
4.233333333333333
  1
SEME6112005110E [ 2 FLUTE ]
 41
0.75
  7
SLDTEXTSTYLE0
 11
-20.85824753159254
 21
-0.0412997538344756
 31
0.0
100
AcDbAttributeDefinition
  3

  2
AUTOATTR0
 70
     0
 74
     1
  0
ENDBLK
  5
84
330
82
100
AcDbEntity
  8
0
100
AcDbBlockEnd
  0
BLOCK
  5
DE
330
DD
100
AcDbEntity
  8
0
100
AcDbBlockBegin
  2
_D
 70
     0
 10
0.0
 20
0.0
 30
0.0
  3
_D
  1
_D
  0
SOLID
  5
E0
330
DD
100
AcDbEntity
  8
치수문자_일반주서
100
AcDbTrace
 10
-61.00250885508846
 20
6.001074928723886
 30
0.0
 11
-60.49450885508845
 21
9.303074928723886
 31
0.0
 12
-61.51050885508846
 22
9.303074928723886
 32
0.0
 13
-61.51050885508846
 23
9.303074928723886
 33
0.0
  0
SOLID
  5
E1
330
DD
100
AcDbEntity
  8
치수문자_일반주서
100
AcDbTrace
 10
-61.00250885508846
 20
-5.998925071276107
 30
0.0
 11
-61.51050885508846
 21
-9.300925071276106
 31
0.0
 12
-60.49450885508845
 22
-9.300925071276106
 32
0.0
 13
-60.49450885508845
 23
-9.300925071276106
 33
0.0
  0
LINE
  5
E2
330
DD
100
AcDbEntity
  8
치수문자_일반주서
100
AcDbLine
 10
-49.50605083347638
 20
6.001074928723886
 30
0.0
 11
-62.00250885508846
 21
6.001074928723886
 31
0.0
  0
LINE
  5
E3
330
DD
100
AcDbEntity
  8
치수문자_일반주서
100
AcDbLine
 10
-49.50605083347638
 20
-5.998925071276107
 30
0.0
 11
-62.00250885508846
 21
-5.998925071276107
 31
0.0
  0
LINE
  5
E4
330
DD
100
AcDbEntity
  8
치수문자_일반주서
100
AcDbLine
 10
-61.00250885508846
 20
6.001074928723886
 30
0.0
 11
-61.00250885508846
 21
12.35107492872389
 31
0.0
  0
LINE
  5
E5
330
DD
100
AcDbEntity
  8
치수문자_일반주서
100
AcDbLine
 10
-61.00250885508846
 20
6.001074928723886
 30
0.0
 11
-61.00250885508846
 21
-5.998925071276107
 31
0.0
  0
LINE
  5
E6
330
DD
100
AcDbEntity
  8
치수문자_일반주서
100
AcDbLine
 10
-61.00250885508846
 20
-5.998925071276107
 30
0.0
 11
-61.00250885508846
 21
-12.34892507127611
 31
0.0
  0
MTEXT
  5
E7
330
DD
100
AcDbEntity
  8
치수문자_일반주서
100
AcDbMText
 10
-65.51424594429031
 20
-5.224255196816678
 30
0.0
 40
3.5
 41
0.0
 71
     1
 72
     1
  1
%%c
  7
SLDTEXTSTYLE0
 11
-7.044195017643634E-15
 21
1.0
 31
0.0
 73
     1
 44
1.0
  0
MTEXT
  5
E8
330
DD
100
AcDbEntity
  8
치수문자_일반주서
100
AcDbMText
 10
-65.56771812095019
 20
0.0541822015574028
 30
0.0
 40
3.5
 41
0.0
 71
     1
 72
     1
  1
12
  7
SLDTEXTSTYLE0
 11
-7.044195017643634E-15
 21
1.0
 31
0.0
 73
     1
 44
1.0
  0
ENDBLK
  5
DF
330
DD
100
AcDbEntity
  8
0
100
AcDbBlockEnd
  0
BLOCK
  5
EC
330
EB
100
AcDbEntity
  8
0
100
AcDbBlockBegin
  2
_D_1
 70
     0
 10
0.0
 20
0.0
 30
0.0
  3
_D_1
  1
_D_1
  0
SOLID
  5
EE
330
EB
100
AcDbEntity
  8
치수문자_일반주서
100
AcDbTrace
 10
60.49394916652361
 20
24.00107492872355
 30
0.0
 11
57.19194916652361
 21
24.50907492872355
 31
0.0
 12
57.19194916652361
 22
23.49307492872355
 32
0.0
 13
57.19194916652361
 23
23.49307492872355
 33
0.0
  0
SOLID
  5
EF
330
EB
100
AcDbEntity
  8
치수문자_일반주서
100
AcDbTrace
 10
30.49394916652362
 20
24.00107492872355
 30
0.0
 11
33.79594916652362
 21
23.49307492872355
 31
0.0
 12
33.79594916652362
 22
24.50907492872355
 32
0.0
 13
33.79594916652362
 23
24.50907492872355
 33
0.0
  0
LINE
  5
F0
330
EB
100
AcDbEntity
  8
치수문자_일반주서
100
AcDbLine
 10
60.49394916652361
 20
6.501074928723892
 30
0.0
 11
60.49394916652361
 21
25.00107492872355
 31
0.0
  0
LINE
  5
F1
330
EB
100
AcDbEntity
  8
치수문자_일반주서
100
AcDbLine
 10
30.49394916652362
 20
7.00107492872389
 30
0.0
 11
30.49394916652362
 21
25.00107492872355
 31
0.0
  0
LINE
  5
F2
330
EB
100
AcDbEntity
  8
치수문자_일반주서
100
AcDbLine
 10
60.49394916652361
 20
24.00107492872355
 30
0.0
 11
95.89381508546613
 21
24.00107492872356
 31
0.0
  0
LINE
  5
F3
330
EB
100
AcDbEntity
  8
치수문자_일반주서
100
AcDbLine
 10
60.49394916652361
 20
24.00107492872355
 30
0.0
 11
30.49394916652362
 21
24.00107492872355
 31
0.0
  0
MTEXT
  5
F4
330
EB
100
AcDbEntity
  8
치수문자_일반주서
100
AcDbMText
 10
90.72159269842051
 20
28.51281184330245
 30
0.0
 40
3.5
 41
0.0
 71
     1
 72
     1
  1
30
  7
SLDTEXTSTYLE0
 73
     1
 44
1.0
  0
ENDBLK
  5
ED
330
EB
100
AcDbEntity
  8
0
100
AcDbBlockEnd
  0
BLOCK
  5
F7
330
F6
100
AcDbEntity
  8
0
100
AcDbBlockBegin
  2
_D_2
 70
     0
 10
0.0
 20
0.0
 30
0.0
  3
_D_2
  1
_D_2
  0
SOLID
  5
F9
330
F6
100
AcDbEntity
  8
치수문자_일반주서
100
AcDbTrace
 10
60.49394916652361
 20
46.05939943376818
 30
0.0
 11
57.19194916652361
 21
46.56739943376818
 31
0.0
 12
57.19194916652361
 22
45.55139943376818
 32
0.0
 13
57.19194916652361
 23
45.55139943376818
 33
0.0
  0
SOLID
  5
FA
330
F6
100
AcDbEntity
  8
치수문자_일반주서
100
AcDbTrace
 10
-49.50605083347638
 20
46.05939943376818
 30
0.0
 11
-46.20405083347638
 21
45.55139943376818
 31
0.0
 12
-46.20405083347638
 22
46.56739943376818
 32
0.0
 13
-46.20405083347638
 23
46.56739943376818
 33
0.0
  0
LINE
  5
FB
330
F6
100
AcDbEntity
  8
치수문자_일반주서
100
AcDbLine
 10
60.49394916652361
 20
6.501074928723892
 30
0.0
 11
60.49394916652361
 21
47.05939943376818
 31
0.0
  0
LINE
  5
FC
330
F6
100
AcDbEntity
  8
치수문자_일반주서
100
AcDbLine
 10
-49.50605083347638
 20
6.001074928723887
 30
0.0
 11
-49.50605083347638
 21
47.05939943376818
 31
0.0
  0
LINE
  5
FD
330
F6
100
AcDbEntity
  8
치수문자_일반주서
100
AcDbLine
 10
60.49394916652361
 20
46.05939943376818
 30
0.0
 11
-49.50605083347638
 21
46.05939943376818
 31
0.0
  0
MTEXT
  5
FE
330
F6
100
AcDbEntity
  8
치수문자_일반주서
100
AcDbMText
 10
1.614782492654717
 20
50.57113634834706
 30
0.0
 40
3.5
 41
0.0
 71
     1
 72
     1
  1
110
  7
SLDTEXTSTYLE0
 73
     1
 44
1.0
  0
ENDBLK
  5
F8
330
F6
100
AcDbEntity
  8
0
100
AcDbBlockEnd
  0
BLOCK
  5
101
330
100
100
AcDbEntity
  8
0
100
AcDbBlockBegin
  2
_D_3
 70
     0
 10
0.0
 20
0.0
 30
0.0
  3
_D_3
  1
_D_3
  0
SOLID
  5
103
330
100
100
AcDbEntity
  8
치수문자_일반주서
100
AcDbTrace
 10
14.49394916652476
 20
30.32107492872395
 30
0.0
 11
17.79594916652475
 21
29.81307492872382
 31
0.0
 12
17.79594916652478
 22
30.82907492872382
 32
0.0
 13
17.79594916652478
 23
30.82907492872382
 33
0.0
  0
SOLID
  5
104
330
100
100
AcDbEntity
  8
치수문자_일반주서
100
AcDbTrace
 10
10.2140453559571
 20
30.32107492872411
 30
0.0
 11
6.912045355957115
 21
30.82907492872424
 31
0.0
 12
6.912045355957076
 22
29.81307492872424
 32
0.0
 13
6.912045355957076
 23
29.81307492872424
 33
0.0
  0
LINE
  5
105
330
100
100
AcDbEntity
  8
치수문자_일반주서
100
AcDbLine
 10
14.49394916652365
 20
1.401074928723893
 30
0.0
 11
14.4939491665248
 21
31.32107492872394
 31
0.0
  0
LINE
  5
106
330
100
100
AcDbEntity
  8
치수문자_일반주서
100
AcDbLine
 10
10.21404535595599
 20
1.551074928723894
 30
0.0
 11
10.21404535595713
 21
31.32107492872411
 31
0.0
  0
LINE
  5
107
330
100
100
AcDbEntity
  8
치수문자_일반주서
100
AcDbLine
 10
14.49394916652476
 20
30.32107492872395
 30
0.0
 11
55.42440269528608
 21
30.32107492872239
 31
0.0
  0
LINE
  5
108
330
100
100
AcDbEntity
  8
치수문자_일반주서
100
AcDbLine
 10
14.49394916652476
 20
30.32107492872395
 30
0.0
 11
10.2140453559571
 21
30.32107492872411
 31
0.0
  0
LINE
  5
109
330
100
100
AcDbEntity
  8
치수문자_일반주서
100
AcDbLine
 10
10.2140453559571
 20
30.32107492872411
 30
0.0
 11
3.864045355957095
 21
30.32107492872435
 31
0.0
  0
MTEXT
  5
10A
330
100
100
AcDbEntity
  8
치수문자_일반주서
100
AcDbMText
 10
46.3730136343715
 20
34.83281184330144
 30
0.0
 40
3.5
 41
0.0
 71
     1
 72
     1
  1
4.28
  7
SLDTEXTSTYLE0
 73
     1
 44
1.0
  0
ENDBLK
  5
102
330
100
100
AcDbEntity
  8
0
100
AcDbBlockEnd
  0
BLOCK
  5
10D
330
10C
100
AcDbEntity
  8
0
100
AcDbBlockBegin
  2
_D_4
 70
     0
 10
0.0
 20
0.0
 30
0.0
  3
_D_4
  1
_D_4
  0
SOLID
  5
10F
330
10C
100
AcDbEntity
  8
치수문자_일반주서
100
AcDbTrace
 10
57.35059833193548
 20
5.001074928723893
 30
0.0
 11
56.84259833193548
 21
1.699074928723894
 31
0.0
 12
57.85859833193548
 22
1.699074928723894
 32
0.0
 13
57.85859833193548
 23
1.699074928723894
 33
0.0
  0
SOLID
  5
110
330
10C
100
AcDbEntity
  8
치수문자_일반주서
100
AcDbTrace
 10
57.35059833193547
 20
-4.937756798710939
 30
0.0
 11
57.85859833193548
 21
-1.635756798710939
 31
0.0
 12
56.84259833193547
 22
-1.635756798710939
 32
0.0
 13
56.84259833193547
 23
-1.635756798710939
 33
0.0
  0
LINE
  5
111
330
10C
100
AcDbEntity
  8
치수문자_일반주서
100
AcDbLine
 10
40.49394916652361
 20
5.001074928723894
 30
0.0
 11
58.35059833193548
 21
5.001074928723893
 31
0.0
  0
LINE
  5
112
330
10C
100
AcDbEntity
  8
치수문자_일반주서
100
AcDbLine
 10
40.49394916652361
 20
-4.937756798710938
 30
0.0
 11
58.35059833193547
 21
-4.937756798710939
 31
0.0
  0
LINE
  5
113
330
10C
100
AcDbEntity
  8
치수문자_일반주서
100
AcDbLine
 10
57.35059833193548
 20
5.001074928723893
 30
0.0
 11
57.35059833193547
 21
-4.937756798710939
 31
0.0
  0
LINE
  5
114
330
10C
100
AcDbEntity
  8
치수문자_일반주서
100
AcDbLine
 10
57.35059833193547
 20
-4.937756798710939
 30
0.0
 11
57.35059833193545
 21
-31.02355930264757
 31
0.0
  0
MTEXT
  5
115
330
10C
100
AcDbEntity
  8
치수문자_일반주서
100
AcDbMText
 10
52.83886124273366
 20
-31.02355930264756
 30
0.0
 40
3.5
 41
0.0
 71
     1
 72
     1
  1
%%c
  7
SLDTEXTSTYLE0
 11
-7.044195017643634E-15
 21
1.0
 31
0.0
 73
     1
 44
1.0
  0
MTEXT
  5
116
330
10C
100
AcDbEntity
  8
치수문자_일반주서
100
AcDbMText
 10
52.78538906607378
 20
-25.74512190427348
 30
0.0
 40
3.5
 41
0.0
 71
     1
 72
     1
  1
9.94
  7
SLDTEXTSTYLE0
 11
-7.044195017643634E-15
 21
1.0
 31
0.0
 73
     1
 44
1.0
  0
ENDBLK
  5
10E
330
10C
100
AcDbEntity
  8
0
100
AcDbBlockEnd
  0
BLOCK
  5
118
330
117
100
AcDbEntity
  8
0
100
AcDbBlockBegin
  2
SW_DOWELSYMBOL_0
 70
     0
 10
0.0
 20
0.0
 30
0.0
  3
SW_DOWELSYMBOL_0
  1
SW_DOWELSYMBOL_0
  0
CIRCLE
  5
11A
330
117
100
AcDbEntity
  8
외형선
 62
     0
100
AcDbCircle
 10
0.0
 20
0.0
 30
0.0
 40
3.000000000000004
  0
HATCH
  5
11B
330
117
100
AcDbEntity
  8
0
  6
Continuous
 62
     0
370
    35
100
AcDbHatch
 10
0.0
 20
0.0
 30
0.0
210
0.0
220
0.0
230
1.0
  2
SOLID
 70
     1
 71
     0
 91
        1
 92
        0
 93
        3
 72
     2
 10
0.0000000000000104
 20
0.0
 40
3.000000000000004
 50
0.0
 51
90.0
 73
     1
 72
     1
 10
0.0000000000000104
 20
3.000000000000004
 11
0.0000000000000104
 21
0.0
 72
     1
 10
0.0000000000000104
 20
0.0
 11
3.000000000000015
 21
0.0
 97
        0
 75
     0
 76
     1
 98
        1
 10
0.0
 20
0.0
  0
HATCH
  5
11C
330
117
100
AcDbEntity
  8
0
  6
Continuous
 62
     0
370
    35
100
AcDbHatch
 10
0.0
 20
0.0
 30
0.0
210
0.0
220
0.0
230
1.0
  2
SOLID
 70
     1
 71
     0
 91
        1
 92
        0
 93
        3
 72
     2
 10
0.0000000000000104
 20
0.0
 40
3.000000000000004
 50
180.0
 51
270.0000000000007
 73
     1
 72
     1
 10
0.0000000000000104
 20
-3.000000000000004
 11
0.0000000000000104
 21
0.0
 72
     1
 10
0.0000000000000104
 20
0.0
 11
-2.999999999999994
 21
0.0
 97
        0
 75
     0
 76
     1
 98
        1
 10
0.0
 20
0.0
  0
ENDBLK
  5
119
330
117
100
AcDbEntity
  8
0
100
AcDbBlockEnd
  0
BLOCK
  5
1F5
330
1F4
100
AcDbEntity
  8
0
100
AcDbBlockBegin
  2
*D8
 70
     1
 10
0.0
 20
0.0
 30
0.0
  3
*D8
  1
*D9
  0
LINE
  5
1F6
330
1F4
100
AcDbEntity
  8
치수문자_일반주서
 62
     0
370
    -2
100
AcDbLine
 10
127.5842279937846
 20
17.75888380593254
 30
0.0
 11
139.5502678482148
 21
0.0000000000000249
 31
0.0
  0
MTEXT
  5
1F7
330
1F4
100
AcDbEntity
  8
치수문자_일반주서
 62
     0
100
AcDbMText
 10
139.1602480909294
 20
5.276461754947845
 30
0.0
 40
3.5
 41
0.0
 71
     5
 72
     1
  1
\A1;R0.3
  7
SLDTEXTSTYLE0
 11
0.5587923298646548
 21
-0.8293076221067975
 31
0.0
 73
     1
 44
1.0
  0
SOLID
  5
1F8
330
1F4
100
AcDbEntity
  8
치수문자_일반주서
 62
     0
100
AcDbTrace
 10
128.0406236218173
 20
18.06640585146805
 30
0.0
 11
127.1278323657518
 21
17.45136176039703
 31
0.0
 12
125.7390957205715
 22
20.49725757412919
 32
0.0
 13
125.7390957205715
 23
20.49725757412919
 33
0.0
  0
LINE
  5
1F9
330
1F4
100
AcDbEntity
  8
치수문자_일반주서
 62
     0
100
AcDbLine
 10
125.4814580216121
 20
20.74604986076123
 30
0.0
 11
125.6614580216121
 21
20.74604986076123
 31
0.0
  0
LINE
  5
1FA
330
1F4
100
AcDbEntity
  8
치수문자_일반주서
 62
     0
100
AcDbLine
 10
125.5714580216121
 20
20.65604986076123
 30
0.0
 11
125.5714580216121
 21
20.83604986076123
 31
0.0
  0
POINT
  5
1FB
330
1F4
100
AcDbEntity
  8
Defpoints
 62
     0
100
AcDbPoint
 10
125.7390957205715
 20
20.49725757412919
 30
0.0
  0
POINT
  5
1FC
330
1F4
100
AcDbEntity
  8
Defpoints
 62
     0
100
AcDbPoint
 10
125.5714580216121
 20
20.74604986076123
 30
0.0
  0
ENDBLK
  5
1FD
330
1F4
100
AcDbEntity
  8
0
100
AcDbBlockEnd
  0
BLOCK
  5
201
330
200
100
AcDbEntity
  8
0
100
AcDbBlockBegin
  2
*D9
 70
     1
 10
0.0
 20
0.0
 30
0.0
  3
*D9
  1
*D10
  0
LINE
  5
203
330
200
100
AcDbEntity
  8
치수문자_일반주서
 62
     0
370
    -2
100
AcDbLine
 10
16.8089580216121
 20
32.43133464221594
 30
0.0
 11
4.375000000000008
 21
32.4313346422159
 31
0.0
  0
LINE
  5
204
330
200
100
AcDbEntity
  8
치수문자_일반주서
 62
     0
370
    -2
100
AcDbLine
 10
16.8089580216121
 20
20.43133464221595
 30
0.0
 11
4.37500000000005
 21
20.43133464221591
 31
0.0
  0
LINE
  5
205
330
200
100
AcDbEntity
  8
치수문자_일반주서
 62
     0
370
    -2
100
AcDbLine
 10
4.37500000000002
 20
29.1293346422159
 30
0.0
 11
4.375000000000038
 21
23.73333464221591
 31
0.0
  0
SOLID
  5
206
330
200
100
AcDbEntity
  8
치수문자_일반주서
 62
     0
100
AcDbTrace
 10
4.925333333333353
 20
29.12933464221591
 30
0.0
 11
3.824666666666686
 21
29.1293346422159
 31
0.0
 12
4.375000000000008
 22
32.4313346422159
 32
0.0
 13
4.375000000000008
 23
32.4313346422159
 33
0.0
  0
SOLID
  5
207
330
200
100
AcDbEntity
  8
치수문자_일반주서
 62
     0
100
AcDbTrace
 10
3.824666666666705
 20
23.73333464221591
 30
0.0
 11
4.925333333333372
 21
23.73333464221592
 31
0.0
 12
4.37500000000005
 22
20.43133464221591
 32
0.0
 13
4.37500000000005
 23
20.43133464221591
 33
0.0
  0
MTEXT
  5
208
330
200
100
AcDbEntity
  8
치수문자_일반주서
 62
     0
100
AcDbMText
 10
0.0000000000000284
 20
26.43133464221593
 30
0.0
 40
3.5
 41
0.0
 71
     2
 72
     1
  1
\A1;%%c12
  7
SLDTEXTSTYLE0
 11
-3.478698810492159E-15
 21
1.0
 31
0.0
 73
     1
 44
1.0
  0
POINT
  5
209
330
200
100
AcDbEntity
  8
Defpoints
 62
     0
100
AcDbPoint
 10
16.8714580216121
 20
32.43133464221594
 30
0.0
  0
POINT
  5
20A
330
200
100
AcDbEntity
  8
Defpoints
 62
     0
100
AcDbPoint
 10
16.8714580216121
 20
20.43133464221595
 30
0.0
  0
POINT
  5
20B
330
200
100
AcDbEntity
  8
Defpoints
 62
     0
100
AcDbPoint
 10
4.375000000000057
 20
20.43133464221591
 30
0.0
  0
ENDBLK
  5
202
330
200
100
AcDbEntity
  8
0
100
AcDbBlockEnd
  0
BLOCK
  5
20D
330
20C
100
AcDbEntity
  8
0
100
AcDbBlockBegin
  2
*D10
 70
     1
 10
0.0
 20
0.0
 30
0.0
  3
*D10
  1
*D11
  0
LINE
  5
20F
330
20C
100
AcDbEntity
  8
치수문자_일반주서
 62
     0
370
    -2
100
AcDbLine
 10
125.8714580216121
 20
32.19383464221595
 30
0.0
 11
125.8714580216121
 21
50.63133464221561
 31
0.0
  0
LINE
  5
210
330
20C
100
AcDbEntity
  8
치수문자_일반주서
 62
     0
370
    -2
100
AcDbLine
 10
95.8714580216121
 20
32.49383464221595
 30
0.0
 11
95.8714580216121
 21
50.63133464221561
 31
0.0
  0
LINE
  5
211
330
20C
100
AcDbEntity
  8
치수문자_일반주서
 62
     0
370
    -2
100
AcDbLine
 10
122.5694580216121
 20
50.63133464221561
 30
0.0
 11
99.1734580216121
 21
50.63133464221561
 31
0.0
  0
SOLID
  5
212
330
20C
100
AcDbEntity
  8
치수문자_일반주서
 62
     0
100
AcDbTrace
 10
122.5694580216121
 20
50.08100130888227
 30
0.0
 11
122.5694580216121
 21
51.18166797554894
 31
0.0
 12
125.8714580216121
 22
50.63133464221561
 32
0.0
 13
125.8714580216121
 23
50.63133464221561
 33
0.0
  0
SOLID
  5
213
330
20C
100
AcDbEntity
  8
치수문자_일반주서
 62
     0
100
AcDbTrace
 10
99.1734580216121
 20
51.18166797554894
 30
0.0
 11
99.1734580216121
 21
50.08100130888227
 31
0.0
 12
95.8714580216121
 22
50.63133464221561
 32
0.0
 13
95.8714580216121
 23
50.63133464221561
 33
0.0
  0
MTEXT
  5
214
330
20C
100
AcDbEntity
  8
치수문자_일반주서
 62
     0
100
AcDbMText
 10
110.8714580216121
 20
55.00633464221561
 30
0.0
 40
3.5
 41
0.0
 71
     2
 72
     1
  1
\A1;30
  7
SLDTEXTSTYLE0
 73
     1
 44
1.0
  0
POINT
  5
215
330
20C
100
AcDbEntity
  8
Defpoints
 62
     0
100
AcDbPoint
 10
125.8714580216121
 20
32.13133464221595
 30
0.0
  0
POINT
  5
216
330
20C
100
AcDbEntity
  8
Defpoints
 62
     0
100
AcDbPoint
 10
95.8714580216121
 20
32.43133464221595
 30
0.0
  0
POINT
  5
217
330
20C
100
AcDbEntity
  8
Defpoints
 62
     0
100
AcDbPoint
 10
95.8714580216121
 20
50.63133464221561
 30
0.0
  0
ENDBLK
  5
20E
330
20C
100
AcDbEntity
  8
0
100
AcDbBlockEnd
  0
BLOCK
  5
219
330
218
100
AcDbEntity
  8
0
100
AcDbBlockBegin
  2
*D11
 70
     1
 10
0.0
 20
0.0
 30
0.0
  3
*D11
  1
*D12
  0
LINE
  5
21B
330
218
100
AcDbEntity
  8
치수문자_일반주서
 62
     0
370
    -2
100
AcDbLine
 10
125.8714580216121
 20
32.19383464221595
 30
0.0
 11
125.8714580216121
 21
72.68965914726024
 31
0.0
  0
LINE
  5
21C
330
218
100
AcDbEntity
  8
치수문자_일반주서
 62
     0
370
    -2
100
AcDbLine
 10
15.87145802161209
 20
31.49383464221595
 30
0.0
 11
15.87145802161208
 21
72.68965914726024
 31
0.0
  0
LINE
  5
21D
330
218
100
AcDbEntity
  8
치수문자_일반주서
 62
     0
370
    -2
100
AcDbLine
 10
122.5694580216121
 20
72.68965914726024
 30
0.0
 11
19.17345802161208
 21
72.68965914726024
 31
0.0
  0
SOLID
  5
21E
330
218
100
AcDbEntity
  8
치수문자_일반주서
 62
     0
100
AcDbTrace
 10
122.5694580216121
 20
72.13932581392692
 30
0.0
 11
122.5694580216121
 21
73.23999248059357
 31
0.0
 12
125.8714580216121
 22
72.68965914726024
 32
0.0
 13
125.8714580216121
 23
72.68965914726024
 33
0.0
  0
SOLID
  5
21F
330
218
100
AcDbEntity
  8
치수문자_일반주서
 62
     0
100
AcDbTrace
 10
19.17345802161208
 20
73.23999248059357
 30
0.0
 11
19.17345802161208
 21
72.13932581392692
 31
0.0
 12
15.87145802161208
 22
72.68965914726024
 32
0.0
 13
15.87145802161208
 23
72.68965914726024
 33
0.0
  0
MTEXT
  5
220
330
218
100
AcDbEntity
  8
치수문자_일반주서
 62
     0
100
AcDbMText
 10
70.87145802161209
 20
77.06465914726024
 30
0.0
 40
3.5
 41
0.0
 71
     2
 72
     1
  1
\A1;110
  7
SLDTEXTSTYLE0
 73
     1
 44
1.0
  0
POINT
  5
221
330
218
100
AcDbEntity
  8
Defpoints
 62
     0
100
AcDbPoint
 10
125.8714580216121
 20
32.13133464221595
 30
0.0
  0
POINT
  5
222
330
218
100
AcDbEntity
  8
Defpoints
 62
     0
100
AcDbPoint
 10
15.87145802161209
 20
31.43133464221595
 30
0.0
  0
POINT
  5
223
330
218
100
AcDbEntity
  8
Defpoints
 62
     0
100
AcDbPoint
 10
15.87145802161209
 20
72.68965914726024
 30
0.0
  0
ENDBLK
  5
21A
330
218
100
AcDbEntity
  8
0
100
AcDbBlockEnd
  0
BLOCK
  5
225
330
224
100
AcDbEntity
  8
0
100
AcDbBlockBegin
  2
*D12
 70
     1
 10
0.0
 20
0.0
 30
0.0
  3
*D12
  1
*D13
  0
LINE
  5
227
330
224
100
AcDbEntity
  8
치수문자_일반주서
 62
     0
370
    -2
100
AcDbLine
 10
125.8714580216121
 20
32.25633464221595
 30
0.0
 11
125.8714580216121
 21
56.75133464221462
 31
0.0
  0
LINE
  5
228
330
224
100
AcDbEntity
  8
치수문자_일반주서
 62
     0
370
    -2
100
AcDbLine
 10
75.8714580216121
 20
32.34383464221595
 30
0.0
 11
75.8714580216121
 21
56.75133464221462
 31
0.0
  0
LINE
  5
229
330
224
100
AcDbEntity
  8
치수문자_일반주서
 62
     0
370
    -2
100
AcDbLine
 10
122.5694580216121
 20
56.75133464221462
 30
0.0
 11
79.1734580216121
 21
56.75133464221462
 31
0.0
  0
SOLID
  5
22A
330
224
100
AcDbEntity
  8
치수문자_일반주서
 62
     0
100
AcDbTrace
 10
122.5694580216121
 20
56.20100130888128
 30
0.0
 11
122.5694580216121
 21
57.30166797554795
 31
0.0
 12
125.8714580216121
 22
56.75133464221462
 32
0.0
 13
125.8714580216121
 23
56.75133464221462
 33
0.0
  0
SOLID
  5
22B
330
224
100
AcDbEntity
  8
치수문자_일반주서
 62
     0
100
AcDbTrace
 10
79.1734580216121
 20
57.30166797554795
 30
0.0
 11
79.1734580216121
 21
56.20100130888128
 31
0.0
 12
75.8714580216121
 22
56.75133464221462
 32
0.0
 13
75.8714580216121
 23
56.75133464221462
 33
0.0
  0
MTEXT
  5
22C
330
224
100
AcDbEntity
  8
치수문자_일반주서
 62
     0
100
AcDbMText
 10
100.8714580216121
 20
61.12633464221462
 30
0.0
 40
3.5
 41
0.0
 71
     2
 72
     1
  1
\A1;50
  7
SLDTEXTSTYLE0
 73
     1
 44
1.0
  0
POINT
  5
22D
330
224
100
AcDbEntity
  8
Defpoints
 62
     0
100
AcDbPoint
 10
125.8714580216121
 20
32.19383464221595
 30
0.0
  0
POINT
  5
22E
330
224
100
AcDbEntity
  8
Defpoints
 62
     0
100
AcDbPoint
 10
75.8714580216121
 20
32.28133464221595
 30
0.0
  0
POINT
  5
22F
330
224
100
AcDbEntity
  8
Defpoints
 62
     0
100
AcDbPoint
 10
75.8714580216121
 20
56.75133464221462
 30
0.0
  0
ENDBLK
  5
226
330
224
100
AcDbEntity
  8
0
100
AcDbBlockEnd
  0
BLOCK
  5
231
330
230
100
AcDbEntity
  8
0
100
AcDbBlockBegin
  2
*D13
 70
     1
 10
0.0
 20
0.0
 30
0.0
  3
*D13
  1
*D14
  0
LINE
  5
233
330
230
100
AcDbEntity
  8
치수문자_일반주서
 62
     0
370
    -2
100
AcDbLine
 10
96.61942134754901
 20
32.43133464221596
 30
0.0
 11
141.3451702864265
 21
32.43133464221613
 31
0.0
  0
LINE
  5
234
330
230
100
AcDbEntity
  8
치수문자_일반주서
 62
     0
370
    -2
100
AcDbLine
 10
96.61942134754901
 20
20.43133464221596
 30
0.0
 11
141.3451702864265
 21
20.43133464221613
 31
0.0
  0
LINE
  5
235
330
230
100
AcDbEntity
  8
치수문자_일반주서
 62
     0
370
    -2
100
AcDbLine
 10
141.3451702864265
 20
29.12933464221613
 30
0.0
 11
141.3451702864265
 21
23.73333464221613
 31
0.0
  0
SOLID
  5
236
330
230
100
AcDbEntity
  8
치수문자_일반주서
 62
     0
100
AcDbTrace
 10
141.8955036197598
 20
29.12933464221613
 30
0.0
 11
140.7948369530932
 21
29.12933464221613
 31
0.0
 12
141.3451702864265
 22
32.43133464221613
 32
0.0
 13
141.3451702864265
 23
32.43133464221613
 33
0.0
  0
SOLID
  5
237
330
230
100
AcDbEntity
  8
치수문자_일반주서
 62
     0
100
AcDbTrace
 10
140.7948369530932
 20
23.73333464221613
 30
0.0
 11
141.8955036197598
 21
23.73333464221613
 31
0.0
 12
141.3451702864265
 22
20.43133464221613
 32
0.0
 13
141.3451702864265
 23
20.43133464221613
 33
0.0
  0
MTEXT
  5
238
330
230
100
AcDbEntity
  8
치수문자_일반주서
 62
     0
100
AcDbMText
 10
136.9701702864265
 20
26.43133464221608
 30
0.0
 40
3.5
 41
0.0
 71
     2
 72
     1
  1
\A1;%%c12
  7
SLDTEXTSTYLE0
 11
-2.368475785867000E-15
 21
1.0
 31
0.0
 73
     1
 44
1.0
  0
POINT
  5
239
330
230
100
AcDbEntity
  8
Defpoints
 62
     0
100
AcDbPoint
 10
96.55692134754901
 20
32.43133464221596
 30
0.0
  0
POINT
  5
23A
330
230
100
AcDbEntity
  8
Defpoints
 62
     0
100
AcDbPoint
 10
96.55692134754901
 20
20.43133464221596
 30
0.0
  0
POINT
  5
23B
330
230
100
AcDbEntity
  8
Defpoints
 62
     0
100
AcDbPoint
 10
141.3451702864265
 20
20.43133464221613
 30
0.0
  0
ENDBLK
  5
232
330
230
100
AcDbEntity
  8
0
100
AcDbBlockEnd
  0
BLOCK
  5
283
330
282
100
AcDbEntity
  8
0
100
AcDbBlockBegin
  2
*D14
 70
     1
 10
0.0
 20
0.0
 30
0.0
  3
*D14
  1
*D15
  0
LINE
  5
285
330
282
100
AcDbEntity
  8
치수문자_일반주서
 62
     0
370
    -2
100
AcDbLine
 10
-58.9125
 20
5.999999999999989
 30
0.0
 11
-71.34645802161208
 21
5.999999999999942
 31
0.0
  0
LINE
  5
286
330
282
100
AcDbEntity
  8
치수문자_일반주서
 62
     0
370
    -2
100
AcDbLine
 10
-58.9125
 20
-5.999999999999996
 30
0.0
 11
-71.34645802161204
 21
-6.000000000000044
 31
0.0
  0
LINE
  5
287
330
282
100
AcDbEntity
  8
치수문자_일반주서
 62
     0
370
    -2
100
AcDbLine
 10
-71.34645802161207
 20
2.697999999999942
 30
0.0
 11
-71.34645802161205
 21
-2.698000000000043
 31
0.0
  0
SOLID
  5
288
330
282
100
AcDbEntity
  8
치수문자_일반주서
 62
     0
100
AcDbTrace
 10
-70.79612468827874
 20
2.697999999999944
 30
0.0
 11
-71.89679135494539
 21
2.69799999999994
 31
0.0
 12
-71.34645802161208
 22
5.999999999999942
 32
0.0
 13
-71.34645802161208
 23
5.999999999999942
 33
0.0
  0
SOLID
  5
289
330
282
100
AcDbEntity
  8
치수문자_일반주서
 62
     0
100
AcDbTrace
 10
-71.89679135494538
 20
-2.698000000000045
 30
0.0
 11
-70.79612468827872
 21
-2.698000000000042
 31
0.0
 12
-71.34645802161204
 22
-6.000000000000044
 32
0.0
 13
-71.34645802161204
 23
-6.000000000000044
 33
0.0
  0
MTEXT
  5
28A
330
282
100
AcDbEntity
  8
치수문자_일반주서
 62
     0
100
AcDbMText
 10
-75.72145802161207
 20
-0.000000000000019
 30
0.0
 40
3.5
 41
0.0
 71
     2
 72
     1
  1
\A1;%%c12
  7
SLDTEXTSTYLE0
 11
-3.552713678800505E-15
 21
1.0
 31
0.0
 73
     1
 44
1.0
  0
POINT
  5
28B
330
282
100
AcDbEntity
  8
Defpoints
 62
     0
100
AcDbPoint
 10
-58.85
 20
5.999999999999989
 30
0.0
  0
POINT
  5
28C
330
282
100
AcDbEntity
  8
Defpoints
 62
     0
100
AcDbPoint
 10
-58.85
 20
-5.999999999999996
 30
0.0
  0
POINT
  5
28D
330
282
100
AcDbEntity
  8
Defpoints
 62
     0
100
AcDbPoint
 10
-71.34645802161204
 20
-6.000000000000044
 30
0.0
  0
ENDBLK
  5
284
330
282
100
AcDbEntity
  8
0
100
AcDbBlockEnd
  0
BLOCK
  5
28F
330
28E
100
AcDbEntity
  8
0
100
AcDbBlockBegin
  2
*D15
 70
     1
 10
0.0
 20
0.0
 30
0.0
  3
*D15
  1
*D16
  0
LINE
  5
291
330
28E
100
AcDbEntity
  8
치수문자_일반주서
 62
     0
370
    -2
100
AcDbLine
 10
50.15
 20
5.762499999999999
 30
0.0
 11
50.15
 21
24.19999999999965
 31
0.0
  0
LINE
  5
292
330
28E
100
AcDbEntity
  8
치수문자_일반주서
 62
     0
370
    -2
100
AcDbLine
 10
20.15
 20
6.062499999999996
 30
0.0
 11
20.15
 21
24.19999999999965
 31
0.0
  0
LINE
  5
293
330
28E
100
AcDbEntity
  8
치수문자_일반주서
 62
     0
370
    -2
100
AcDbLine
 10
46.848
 20
24.19999999999965
 30
0.0
 11
23.452
 21
24.19999999999965
 31
0.0
  0
SOLID
  5
294
330
28E
100
AcDbEntity
  8
치수문자_일반주서
 62
     0
100
AcDbTrace
 10
46.848
 20
23.64966666666632
 30
0.0
 11
46.848
 21
24.75033333333299
 31
0.0
 12
50.15
 22
24.19999999999965
 32
0.0
 13
50.15
 23
24.19999999999965
 33
0.0
  0
SOLID
  5
295
330
28E
100
AcDbEntity
  8
치수문자_일반주서
 62
     0
100
AcDbTrace
 10
23.452
 20
24.75033333333299
 30
0.0
 11
23.452
 21
23.64966666666632
 31
0.0
 12
20.15
 22
24.19999999999965
 32
0.0
 13
20.15
 23
24.19999999999965
 33
0.0
  0
MTEXT
  5
296
330
28E
100
AcDbEntity
  8
치수문자_일반주서
 62
     0
100
AcDbMText
 10
35.15
 20
28.57499999999965
 30
0.0
 40
3.5
 41
0.0
 71
     2
 72
     1
  1
\A1;30
  7
SLDTEXTSTYLE0
 73
     1
 44
1.0
  0
POINT
  5
297
330
28E
100
AcDbEntity
  8
Defpoints
 62
     0
100
AcDbPoint
 10
50.15
 20
5.699999999999999
 30
0.0
  0
POINT
  5
298
330
28E
100
AcDbEntity
  8
Defpoints
 62
     0
100
AcDbPoint
 10
20.15
 20
5.999999999999996
 30
0.0
  0
POINT
  5
299
330
28E
100
AcDbEntity
  8
Defpoints
 62
     0
100
AcDbPoint
 10
20.15
 20
24.19999999999965
 30
0.0
  0
ENDBLK
  5
290
330
28E
100
AcDbEntity
  8
0
100
AcDbBlockEnd
  0
BLOCK
  5
29B
330
29A
100
AcDbEntity
  8
0
100
AcDbBlockBegin
  2
*D16
 70
     1
 10
0.0
 20
0.0
 30
0.0
  3
*D16
  1
*D17
  0
LINE
  5
29D
330
29A
100
AcDbEntity
  8
치수문자_일반주서
 62
     0
370
    -2
100
AcDbLine
 10
50.15
 20
5.762499999999999
 30
0.0
 11
50.15
 21
46.2583245050443
 31
0.0
  0
LINE
  5
29E
330
29A
100
AcDbEntity
  8
치수문자_일반주서
 62
     0
370
    -2
100
AcDbLine
 10
-59.85
 20
5.062499999999989
 30
0.0
 11
-59.85
 21
46.2583245050443
 31
0.0
  0
LINE
  5
29F
330
29A
100
AcDbEntity
  8
치수문자_일반주서
 62
     0
370
    -2
100
AcDbLine
 10
46.848
 20
46.2583245050443
 30
0.0
 11
-56.548
 21
46.2583245050443
 31
0.0
  0
SOLID
  5
2A0
330
29A
100
AcDbEntity
  8
치수문자_일반주서
 62
     0
100
AcDbTrace
 10
46.848
 20
45.70799117171097
 30
0.0
 11
46.848
 21
46.80865783837763
 31
0.0
 12
50.15
 22
46.2583245050443
 32
0.0
 13
50.15
 23
46.2583245050443
 33
0.0
  0
SOLID
  5
2A1
330
29A
100
AcDbEntity
  8
치수문자_일반주서
 62
     0
100
AcDbTrace
 10
-56.548
 20
46.80865783837763
 30
0.0
 11
-56.548
 21
45.70799117171097
 31
0.0
 12
-59.85
 22
46.2583245050443
 32
0.0
 13
-59.85
 23
46.2583245050443
 33
0.0
  0
MTEXT
  5
2A2
330
29A
100
AcDbEntity
  8
치수문자_일반주서
 62
     0
100
AcDbMText
 10
-4.850000000000029
 20
50.6333245050443
 30
0.0
 40
3.5
 41
0.0
 71
     2
 72
     1
  1
\A1;110
  7
SLDTEXTSTYLE0
 73
     1
 44
1.0
  0
POINT
  5
2A3
330
29A
100
AcDbEntity
  8
Defpoints
 62
     0
100
AcDbPoint
 10
50.15
 20
5.699999999999999
 30
0.0
  0
POINT
  5
2A4
330
29A
100
AcDbEntity
  8
Defpoints
 62
     0
100
AcDbPoint
 10
-59.85
 20
4.999999999999989
 30
0.0
  0
POINT
  5
2A5
330
29A
100
AcDbEntity
  8
Defpoints
 62
     0
100
AcDbPoint
 10
-59.85
 20
46.2583245050443
 30
0.0
  0
ENDBLK
  5
29C
330
29A
100
AcDbEntity
  8
0
100
AcDbBlockEnd
  0
BLOCK
  5
2A7
330
2A6
100
AcDbEntity
  8
0
100
AcDbBlockBegin
  2
*D17
 70
     1
 10
0.0
 20
0.0
 30
0.0
  3
*D17
  1
*D18
  0
LINE
  5
2A9
330
2A6
100
AcDbEntity
  8
치수문자_일반주서
 62
     0
370
    -2
100
AcDbLine
 10
50.15
 20
5.824999999999999
 30
0.0
 11
50.15
 21
30.31999999999866
 31
0.0
  0
LINE
  5
2AA
330
2A6
100
AcDbEntity
  8
치수문자_일반주서
 62
     0
370
    -2
100
AcDbLine
 10
0.149999999999999
 20
5.912499999999998
 30
0.0
 11
0.1499999999999986
 21
30.31999999999866
 31
0.0
  0
LINE
  5
2AB
330
2A6
100
AcDbEntity
  8
치수문자_일반주서
 62
     0
370
    -2
100
AcDbLine
 10
46.848
 20
30.31999999999866
 30
0.0
 11
3.451999999999999
 21
30.31999999999866
 31
0.0
  0
SOLID
  5
2AC
330
2A6
100
AcDbEntity
  8
치수문자_일반주서
 62
     0
100
AcDbTrace
 10
46.848
 20
29.76966666666533
 30
0.0
 11
46.848
 21
30.870333333332
 31
0.0
 12
50.15
 22
30.31999999999866
 32
0.0
 13
50.15
 23
30.31999999999866
 33
0.0
  0
SOLID
  5
2AD
330
2A6
100
AcDbEntity
  8
치수문자_일반주서
 62
     0
100
AcDbTrace
 10
3.451999999999999
 20
30.870333333332
 30
0.0
 11
3.451999999999999
 21
29.76966666666533
 31
0.0
 12
0.1499999999999986
 22
30.31999999999866
 32
0.0
 13
0.1499999999999986
 23
30.31999999999866
 33
0.0
  0
MTEXT
  5
2AE
330
2A6
100
AcDbEntity
  8
치수문자_일반주서
 62
     0
100
AcDbMText
 10
25.15
 20
34.69499999999866
 30
0.0
 40
3.5
 41
0.0
 71
     2
 72
     1
  1
\A1;50
  7
SLDTEXTSTYLE0
 73
     1
 44
1.0
  0
POINT
  5
2AF
330
2A6
100
AcDbEntity
  8
Defpoints
 62
     0
100
AcDbPoint
 10
50.15
 20
5.762499999999999
 30
0.0
  0
POINT
  5
2B0
330
2A6
100
AcDbEntity
  8
Defpoints
 62
     0
100
AcDbPoint
 10
0.149999999999999
 20
5.849999999999998
 30
0.0
  0
POINT
  5
2B1
330
2A6
100
AcDbEntity
  8
Defpoints
 62
     0
100
AcDbPoint
 10
0.149999999999999
 20
30.31999999999866
 30
0.0
  0
ENDBLK
  5
2A8
330
2A6
100
AcDbEntity
  8
0
100
AcDbBlockEnd
  0
BLOCK
  5
2B3
330
2B2
100
AcDbEntity
  8
0
100
AcDbBlockBegin
  2
*D18
 70
     1
 10
0.0
 20
0.0
 30
0.0
  3
*D18
  1
*D19
  0
LINE
  5
2B5
330
2B2
100
AcDbEntity
  8
치수문자_일반주서
 62
     0
370
    -2
100
AcDbLine
 10
20.89796332593692
 20
6.000000000000004
 30
0.0
 11
65.62371226481437
 21
6.000000000000171
 31
0.0
  0
LINE
  5
2B6
330
2B2
100
AcDbEntity
  8
치수문자_일반주서
 62
     0
370
    -2
100
AcDbLine
 10
20.89796332593692
 20
-5.999999999999996
 30
0.0
 11
65.62371226481442
 21
-5.999999999999829
 31
0.0
  0
LINE
  5
2B7
330
2B2
100
AcDbEntity
  8
치수문자_일반주서
 62
     0
370
    -2
100
AcDbLine
 10
65.62371226481439
 20
2.69800000000017
 30
0.0
 11
65.6237122648144
 21
-2.697999999999829
 31
0.0
  0
SOLID
  5
2B8
330
2B2
100
AcDbEntity
  8
치수문자_일반주서
 62
     0
100
AcDbTrace
 10
66.17404559814771
 20
2.698000000000172
 30
0.0
 11
65.07337893148106
 21
2.698000000000169
 31
0.0
 12
65.62371226481437
 22
6.000000000000171
 32
0.0
 13
65.62371226481437
 23
6.000000000000171
 33
0.0
  0
SOLID
  5
2B9
330
2B2
100
AcDbEntity
  8
치수문자_일반주서
 62
     0
100
AcDbTrace
 10
65.07337893148107
 20
-2.697999999999831
 30
0.0
 11
66.17404559814773
 21
-2.697999999999828
 31
0.0
 12
65.62371226481442
 22
-5.999999999999829
 32
0.0
 13
65.62371226481442
 23
-5.999999999999829
 33
0.0
  0
MTEXT
  5
2BA
330
2B2
100
AcDbEntity
  8
치수문자_일반주서
 62
     0
100
AcDbMText
 10
61.2487122648144
 20
0.0000000000001231
 30
0.0
 40
3.5
 41
0.0
 71
     2
 72
     1
  1
\A1;%%c12
  7
SLDTEXTSTYLE0
 11
-3.552713678800501E-15
 21
1.0
 31
0.0
 73
     1
 44
1.0
  0
POINT
  5
2BB
330
2B2
100
AcDbEntity
  8
Defpoints
 62
     0
100
AcDbPoint
 10
20.83546332593692
 20
6.000000000000004
 30
0.0
  0
POINT
  5
2BC
330
2B2
100
AcDbEntity
  8
Defpoints
 62
     0
100
AcDbPoint
 10
20.83546332593692
 20
-5.999999999999996
 30
0.0
  0
POINT
  5
2BD
330
2B2
100
AcDbEntity
  8
Defpoints
 62
     0
100
AcDbPoint
 10
65.62371226481442
 20
-5.999999999999829
 30
0.0
  0
ENDBLK
  5
2B4
330
2B2
100
AcDbEntity
  8
0
100
AcDbBlockEnd
  0
BLOCK
  5
2BF
330
2BE
100
AcDbEntity
  8
0
100
AcDbBlockBegin
  2
*D19
 70
     1
 10
0.0
 20
0.0
 30
0.0
  3
*D19
  1
*D20
  0
LINE
  5
2C1
330
2BE
100
AcDbEntity
  8
치수문자_일반주서
 62
     0
370
    -2
100
AcDbLine
 10
54.27257759330801
 20
-8.672450836283272
 30
0.0
 11
66.23861744773964
 21
-26.43133464221484
 31
0.0
  0
MTEXT
  5
2C2
330
2BE
100
AcDbEntity
  8
치수문자_일반주서
 62
     0
100
AcDbMText
 10
65.84859769045381
 20
-21.15487288726705
 30
0.0
 40
3.5
 41
0.0
 71
     5
 72
     1
  1
\A1;R0.3
  7
SLDTEXTSTYLE0
 11
0.5587923298647198
 21
-0.8293076221067536
 31
0.0
 73
     1
 44
1.0
  0
SOLID
  5
2C3
330
2BE
100
AcDbEntity
  8
치수문자_일반주서
 62
     0
100
AcDbTrace
 10
54.72897322134076
 20
-8.36492879074772
 30
0.0
 11
53.81618196527526
 21
-8.979972881818822
 31
0.0
 12
52.42744532009471
 22
-5.934077068086772
 32
0.0
 13
52.42744532009471
 23
-5.934077068086772
 33
0.0
  0
LINE
  5
2C4
330
2BE
100
AcDbEntity
  8
치수문자_일반주서
 62
     0
100
AcDbLine
 10
52.16980762113528
 20
-5.685284781454733
 30
0.0
 11
52.34980762113528
 21
-5.685284781454733
 31
0.0
  0
LINE
  5
2C5
330
2BE
100
AcDbEntity
  8
치수문자_일반주서
 62
     0
100
AcDbLine
 10
52.25980762113528
 20
-5.775284781454733
 30
0.0
 11
52.25980762113528
 21
-5.595284781454733
 31
0.0
  0
POINT
  5
2C6
330
2BE
100
AcDbEntity
  8
Defpoints
 62
     0
100
AcDbPoint
 10
52.42744532009471
 20
-5.934077068086772
 30
0.0
  0
POINT
  5
2C7
330
2BE
100
AcDbEntity
  8
Defpoints
 62
     0
100
AcDbPoint
 10
52.25980762113528
 20
-5.685284781454733
 30
0.0
  0
ENDBLK
  5
2C0
330
2BE
100
AcDbEntity
  8
0
100
AcDbBlockEnd
  0
BLOCK
  5
2D3
330
2D2
100
AcDbEntity
  8
0
100
AcDbBlockBegin
  2
*D20
 70
     1
 10
0.0
 20
0.0
 30
0.0
  3
*D20
  1
*D21
  0
LINE
  5
2D5
330
2D2
100
AcDbEntity
  8
치수문자_일반주서
 62
     0
370
    -2
100
AcDbLine
 10
51.69692754070019
 20
-8.689283150700126
 30
0.0
 11
61.26482622888694
 21
-23.66416460188771
 31
0.0
  0
MTEXT
  5
2D6
330
2D2
100
AcDbEntity
  8
치수문자_일반주서
 62
     0
100
AcDbMText
 10
61.00352447715755
 20
-18.37976440346943
 30
0.0
 40
3.5
 41
0.0
 71
     5
 72
     1
  1
\A1;R0.5
  7
SLDTEXTSTYLE0
 11
0.5384137859230207
 21
-0.842680600896947
 31
0.0
 73
     1
 44
1.0
  0
SOLID
  5
2D7
330
2D2
100
AcDbEntity
  8
치수문자_일반주서
 62
     0
100
AcDbTrace
 10
52.16068276472715
 20
-8.39297609718049
 30
0.0
 11
51.23317231667324
 21
-8.985590204219761
 31
0.0
 12
49.91908521958238
 22
-5.906751806538407
 32
0.0
 13
49.91908521958238
 23
-5.906751806538407
 33
0.0
  0
LINE
  5
2D8
330
2D2
100
AcDbEntity
  8
치수문자_일반주서
 62
     0
100
AcDbLine
 10
49.55973639100304
 20
-5.485189360233257
 30
0.0
 11
49.73973639100304
 21
-5.485189360233257
 31
0.0
  0
LINE
  5
2D9
330
2D2
100
AcDbEntity
  8
치수문자_일반주서
 62
     0
100
AcDbLine
 10
49.64973639100304
 20
-5.575189360233257
 30
0.0
 11
49.64973639100304
 21
-5.395189360233257
 31
0.0
  0
POINT
  5
2DA
330
2D2
100
AcDbEntity
  8
Defpoints
 62
     0
100
AcDbPoint
 10
49.91908521958238
 20
-5.906751806538407
 30
0.0
  0
POINT
  5
2DB
330
2D2
100
AcDbEntity
  8
Defpoints
 62
     0
100
AcDbPoint
 10
49.64973639100304
 20
-5.485189360233257
 30
0.0
  0
ENDBLK
  5
2D4
330
2D2
100
AcDbEntity
  8
0
100
AcDbBlockEnd
  0
ENDSEC
  0
SECTION
  2
ENTITIES
  0
INSERT
  5
D4
330
1F
100
AcDbEntity
  8
0
  6
Continuous
 62
     7
100
AcDbBlockReference
 66
     1
  2
블럭10
 10
-22.93944368806589
 20
-52.04609937292004
 30
0.0
  0
ATTRIB
  5
D5
330
D4
100
AcDbEntity
  8
FORMAT
 62
     2
100
AcDbText
 10
-43.79769121965843
 20
-49.97073246008785
 30
0.0
 40
4.233333333333333
  1
SEME6112005110E [ 2 FLUTE ]
 41
0.75
  7
SLDTEXTSTYLE0
 11
-43.79769121965843
 21
-52.08739912675452
 31
0.0
100
AcDbAttribute
  2
AUTOATTR0
 70
     0
 74
     1
  0
SEQEND
  5
D6
330
D4
100
AcDbEntity
  8
0
  6
Continuous
 62
     7
  0
HATCH
  5
D7
330
1F
100
AcDbEntity
  8
중심선
100
AcDbHatch
 10
0.0
 20
0.0
 30
0.0
210
0.0
220
0.0
230
1.0
  2
SOLID
 70
     1
 71
     0
 91
        1
 92
        0
 93
        4
 72
     1
 10
-17.22453438368504
 20
-35.7989250712761
 11
-20.67080962752232
 21
-35.7989250712761
 72
     1
 10
-20.67080962752232
 20
-35.7989250712761
 11
-22.79903948672635
 21
-38.3352506518487
 72
     1
 10
-22.79903948672635
 20
-38.3352506518487
 11
-19.35273115777591
 21
-38.33521122254621
 72
     1
 10
-19.35273115777591
 20
-38.33521122254621
 11
-17.22453438368504
 21
-35.7989250712761
 97
        0
 75
     0
 76
     1
 98
        1
 10
0.0
 20
0.0
  0
HATCH
  5
D8
330
1F
100
AcDbEntity
  8
중심선
100
AcDbHatch
 10
0.0
 20
0.0
 30
0.0
210
0.0
220
0.0
230
1.0
  2
SOLID
 70
     1
 71
     0
 91
        1
 92
        0
 93
        4
 72
     1
 10
-12.21177039264909
 20
-35.7989250712761
 11
-15.65804563648637
 21
-35.7989250712761
 72
     1
 10
-15.65804563648637
 20
-35.7989250712761
 11
-20.18918364484376
 21
-41.19892507127612
 72
     1
 10
-20.18918364484376
 20
-41.19892507127612
 11
-16.74290840100648
 21
-41.19892507127612
 72
     1
 10
-16.74290840100648
 20
-41.19892507127612
 11
-12.21177039264909
 21
-35.7989250712761
 97
        0
 75
     0
 76
     1
 98
        1
 10
0.0
 20
0.0
  0
HATCH
  5
D9
330
1F
100
AcDbEntity
  8
중심선
100
AcDbHatch
 10
0.0
 20
0.0
 30
0.0
210
0.0
220
0.0
230
1.0
  2
SOLID
 70
     1
 71
     0
 91
        1
 92
        0
 93
        4
 72
     1
 10
-7.199006401613195
 20
-35.79892507127613
 11
-10.64528164545031
 21
-35.7989250712761
 72
     1
 10
-10.64528164545031
 20
-35.7989250712761
 11
-17.69371854733956
 21
-44.19892507127612
 72
     1
 10
-17.69371854733956
 20
-44.19892507127612
 11
-14.24744330350228
 21
-44.19892507127612
 72
     1
 10
-14.24744330350228
 20
-44.19892507127612
 11
-7.199006401613195
 21
-35.79892507127613
 97
        0
 75
     0
 76
     1
 98
        1
 10
0.0
 20
0.0
  0
HATCH
  5
DA
330
1F
100
AcDbEntity
  8
중심선
100
AcDbHatch
 10
0.0
 20
0.0
 30
0.0
210
0.0
220
0.0
230
1.0
  2
SOLID
 70
     1
 71
     0
 91
        1
 92
        0
 93
        6
 72
     3
 10
-2.399115970600996
 20
-39.99892507132738
 11
3.960054785062284
 21
1.540850780301639E-10
 40
0.3939339440162633
 50
17.09539180608433
 51
320.0019657685079
 73
     0
 72
     1
 10
-0.7161163149004002
 20
-38.58681907591441
 11
1.589185558800638
 21
-36.65249236586649
 72
     3
 10
-2.399115970653842
 20
-39.99892507127625
 11
6.600054785286829
 21
-1.249000902703301E-13
 40
0.6363583540795982
 50
39.99873849337408
 51
368.4976242363724
 73
     1
 72
     1
 10
4.026216521246767
 20
-39.03892507120613
 11
-3.71904866381792
 21
-39.0389250712061
 72
     1
 10
-3.71904866381792
 20
-39.0389250712061
 11
-3.719073708263854
 21
-40.95892507120602
 72
     1
 10
-3.719073708263854
 20
-40.95892507120602
 11
0.7223060612081835
 21
-40.95892507120599
 97
        0
 75
     0
 76
     1
 98
        1
 10
0.0
 20
0.0
  0
LINE
  5
23D
330
1F
100
AcDbEntity
  8
0
  6
Continuous
 62
     4
370
    25
100
AcDbLine
 10
0.0000000000000004
 20
5.999999999999996
 30
0.0
 11
-58.85
 21
5.999999999999996
 31
0.0
  0
LINE
  5
23E
330
1F
100
AcDbEntity
  8
0
  6
Continuous
 62
     4
370
    25
100
AcDbLine
 10
-58.85
 20
-6.000000000000004
 30
0.0
 11
0.0000000000000151
 21
-5.999999999999996
 31
0.0
1001
PE_URL
1000

  0
LINE
  5
241
330
1F
100
AcDbEntity
  8
0
  6
Continuous
 62
     4
370
    25
100
AcDbLine
 10
-58.85
 20
5.999999999999989
 30
0.0
 11
-59.85
 21
4.999999999999989
 31
0.0
  0
LINE
  5
242
330
1F
100
AcDbEntity
  8
0
  6
Continuous
 62
     4
370
    25
100
AcDbLine
 10
-59.85
 20
-4.999999999999996
 30
0.0
 11
-58.85
 21
-5.999999999999996
 31
0.0
  0
LINE
  5
243
330
1F
100
AcDbEntity
  8
0
  6
Continuous
 62
     4
370
    25
100
AcDbLine
 10
17.10010623277491
 20
5.849999999999998
 30
0.0
 11
0.149999999999999
 21
5.849999999999998
 31
0.0
  0
LINE
  5
244
330
1F
100
AcDbEntity
  8
0
  6
Continuous
 62
     4
370
    25
100
AcDbLine
 10
20.15
 20
5.849999999999998
 30
0.0
 11
18.00026052962294
 21
5.849999999999998
 31
0.0
  0
LINE
  5
245
330
1F
100
AcDbEntity
  8
0
  6
Continuous
 62
     4
370
    25
100
AcDbLine
 10
18.00026052962294
 20
-5.849999999999998
 30
0.0
 11
20.15
 21
-5.849999999999998
 31
0.0
  0
LINE
  5
246
330
1F
100
AcDbEntity
  8
0
  6
Continuous
 62
     4
370
    25
100
AcDbLine
 10
0.149999999999999
 20
-5.849999999999998
 30
0.0
 11
17.10010623277491
 21
-5.849999999999998
 31
0.0
  0
SPLINE
  5
247
330
1F
100
AcDbEntity
  8
0
  6
Continuous
 62
     1
370
    25
100
AcDbSpline
210
0.0
220
0.0
230
1.0
 70
     8
 71
     3
 72
     9
 73
     5
 74
     0
 42
0.000000001
 43
0.00000001
 40
0.0
 40
0.0
 40
0.0
 40
0.0
 40
0.4992195541575838
 40
1.0
 40
1.0
 40
1.0
 40
1.0
 10
34.60605231787695
 20
1.537482835613847
 30
0.0
 10
34.32890195471276
 20
1.669478754653281
 30
0.0
 10
33.7737346723897
 20
1.933883299587752
 30
0.0
 10
33.21850010245191
 20
2.224505367305046
 30
0.0
 10
32.94044948697137
 20
2.370043215948161
 30
0.0
  0
LINE
  5
248
330
1F
100
AcDbEntity
  8
0
  6
Continuous
 62
     4
370
    25
100
AcDbLine
 10
20.83546332593692
 20
6.000000000000004
 30
0.0
 11
20.15
 21
6.000000000000004
 31
0.0
  0
SPLINE
  5
249
330
1F
100
AcDbEntity
  8
0
  6
Continuous
 62
     1
370
    25
100
AcDbSpline
210
0.0
220
0.0
230
1.0
 70
     8
 71
     3
 72
    19
 73
    15
 74
     0
 42
0.000000001
 43
0.00000001
 40
0.0
 40
0.0
 40
0.0
 40
0.0
 40
0.1503025614899029
 40
0.2583401832241616
 40
0.3236041396590255
 40
0.3708504612798842
 40
0.4364510763143683
 40
0.5151313741261093
 40
0.582778979510879
 40
0.6777518627057059
 40
0.7662900537984523
 40
0.8929530656193904
 40
0.9981336631833195
 40
1.0
 40
1.0
 40
1.0
 40
1.0
 10
32.62236154381071
 20
4.767832902937233
 30
0.0
 10
32.37392660500324
 20
4.755441503615007
 30
0.0
 10
31.94691639989031
 20
4.734143154873824
 30
0.0
 10
31.41336873550306
 20
4.715300351479488
 30
0.0
 10
31.05225257186742
 20
4.705000543357836
 30
0.0
 10
30.76352405081013
 20
4.698164798006932
 30
0.0
 10
30.44823660995959
 20
4.692179510286653
 30
0.0
 10
30.09896566582688
 20
4.687804787813253
 30
0.0
 10
29.70146924398005
 20
4.685363553945702
 30
0.0
 10
29.28836918744536
 20
4.685781309228698
 30
0.0
 10
28.7779314967812
 20
4.690278441197368
 30
0.0
 10
28.25098690692766
 20
4.700350005596736
 30
0.0
 10
27.86651631168353
 20
4.710473486743343
 30
0.0
 10
27.69035985373201
 20
4.716835989302826
 30
0.0
 10
27.6872886094701
 20
4.716946917960814
 30
0.0
  0
SPLINE
  5
24A
330
1F
100
AcDbEntity
  8
0
  6
Continuous
 62
     1
370
    25
100
AcDbSpline
210
0.0
220
0.0
230
1.0
 70
     8
 71
     3
 72
    26
 73
    22
 74
     0
 42
0.000000001
 43
0.00000001
 40
0.0
 40
0.0
 40
0.0
 40
0.0
 40
0.0703292966045282
 40
0.1296222707928698
 40
0.1737330713933676
 40
0.2016842641520245
 40
0.2400696159457608
 40
0.2852937248800177
 40
0.3215355496720791
 40
0.3488103574622777
 40
0.3824035730036228
 40
0.4239730498061774
 40
0.4768096086976418
 40
0.5552376047053633
 40
0.6086756848672817
 40
0.6826723266271613
 40
0.738440052242078
 40
0.791104807501256
 40
0.8531834160553801
 40
0.9261698441545178
 40
1.0
 40
1.0
 40
1.0
 40
1.0
 10
47.93302026496257
 20
4.10478046854605
 30
0.0
 10
47.70133410088186
 20
4.085181000902975
 30
0.0
 10
47.27431878650571
 20
4.04905768352484
 30
0.0
 10
46.63941965550225
 20
4.011760830398668
 30
0.0
 10
46.16386618746986
 20
3.988183475833641
 30
0.0
 10
45.78688644924986
 20
3.973402418800017
 30
0.0
 10
45.39602970332344
 20
3.961091625672286
 30
0.0
 10
44.97541525459092
 20
3.95251107828238
 30
0.0
 10
44.59414606801635
 20
3.948703165987919
 30
0.0
 10
44.25406258265928
 20
3.94808757604665
 30
0.0
 10
43.89482578477543
 20
3.950247660934156
 30
0.0
 10
43.44610941941334
 20
3.957339084894481
 30
0.0
 10
42.84007376341753
 20
3.974275761188946
 30
0.0
 10
42.19221942575853
 20
4.003141509932622
 30
0.0
 10
41.46994916544531
 20
4.047480178693238
 30
0.0
 10
40.82858973867183
 20
4.097111219188964
 30
0.0
 10
40.18664754680679
 20
4.156735460061757
 30
0.0
 10
39.59534242684992
 20
4.219091168048966
 30
0.0
 10
38.92719923087957
 20
4.299356034986094
 30
0.0
 10
38.16711780945382
 20
4.39916490729971
 30
0.0
 10
37.6820510318646
 20
4.474789494675402
 30
0.0
 10
37.43812384855408
 20
4.512819088619661
 30
0.0
  0
SPLINE
  5
24B
330
1F
100
AcDbEntity
  8
0
  6
Continuous
 62
     1
370
    25
100
AcDbSpline
210
0.0
220
0.0
230
1.0
 70
     8
 71
     3
 72
    27
 73
    23
 74
     0
 42
0.000000001
 43
0.00000001
 40
0.0
 40
0.0
 40
0.0
 40
0.0
 40
0.0710180153487835
 40
0.1227926715131299
 40
0.1560953859143957
 40
0.187209250331096
 40
0.2221166149703108
 40
0.2584947377309672
 40
0.289259955175136
 40
0.3521161369957036
 40
0.4358999853477317
 40
0.5041038681713964
 40
0.5433821040474961
 40
0.5905158152257793
 40
0.650661598481192
 40
0.7002050122976119
 40
0.7260412743204111
 40
0.7521451367576716
 40
0.7812135242573757
 40
0.8301357676293812
 40
0.903209200212303
 40
1.0
 40
1.0
 40
1.0
 40
1.0
 10
23.59864269115965
 20
-4.992826527996225
 30
0.0
 10
23.81166971152794
 20
-4.972027299395226
 30
0.0
 10
24.18000099770983
 20
-4.936064694233902
 30
0.0
 10
24.64850031180077
 20
-4.895607445257551
 30
0.0
 10
24.99975547201609
 20
-4.867306328667109
 30
0.0
 10
25.29999488734483
 20
-4.844545324614511
 30
0.0
 10
25.6085922602636
 20
-4.822617192010494
 30
0.0
 10
25.91554697936237
 20
-4.802407249545571
 30
0.0
 10
26.30654857718906
 20
-4.77855768521864
 30
0.0
 10
26.84053284842013
 20
-4.749855171689288
 30
0.0
 10
27.48702555756659
 20
-4.722535871136297
 30
0.0
 10
28.06288059255646
 20
-4.705013700402969
 30
0.0
 10
28.5273671066082
 20
-4.694779179148806
 30
0.0
 10
28.97216326776054
 20
-4.688115389222073
 30
0.0
 10
29.44961473659765
 20
-4.684756241135549
 30
0.0
 10
29.8605918961432
 20
-4.685808069839344
 30
0.0
 10
30.15338535985671
 20
-4.688585135256336
 30
0.0
 10
30.39338353274456
 20
-4.691549249894461
 30
0.0
 10
30.70662607941619
 20
-4.696824750395958
 30
0.0
 10
31.16060571185164
 20
-4.707362489735527
 30
0.0
 10
31.81892240478762
 20
-4.728306836386314
 30
0.0
 10
32.33072813184264
 20
-4.753485678499128
 30
0.0
 10
32.62236154381071
 20
-4.767832902937226
 30
0.0
  0
SPLINE
  5
24C
330
1F
100
AcDbEntity
  8
0
  6
Continuous
 62
     1
370
    25
100
AcDbSpline
210
0.0
220
0.0
230
1.0
 70
     8
 71
     3
 72
    13
 73
     9
 74
     0
 42
0.000000001
 43
0.00000001
 40
0.0
 40
0.0
 40
0.0
 40
0.0
 40
0.1965907635531869
 40
0.3871875253100117
 40
0.5410504611876695
 40
0.67895692272382
 40
0.867092933185614
 40
1.0
 40
1.0
 40
1.0
 40
1.0
 10
37.43812384855411
 20
-4.512819088619661
 30
0.0
 10
37.71848935758788
 20
-4.469365491893971
 30
0.0
 10
38.27067210342528
 20
-4.383783187425802
 30
0.0
 10
39.11782433439816
 20
-4.275216605963291
 30
0.0
 10
39.84267275539241
 20
-4.191604501635151
 30
0.0
 10
40.56109484031318
 20
-4.120537995971798
 30
0.0
 10
41.25150461850881
 20
-4.062234057472207
 30
0.0
 10
41.7336238096654
 20
-4.03244817667095
 30
0.0
 10
41.93321399580236
 20
-4.020117264310638
 30
0.0
  0
LINE
  5
24D
330
1F
100
AcDbEntity
  8
0
  6
Continuous
 62
     4
370
    25
100
AcDbLine
 10
20.15
 20
-5.999999999999996
 30
0.0
 11
20.83546332593692
 21
-5.999999999999996
 31
0.0
  0
LINE
  5
24F
330
1F
100
AcDbEntity
  8
0
  6
Continuous
 62
     4
370
    25
100
AcDbLine
 10
-58.85
 20
5.999999999999989
 30
0.0
 11
-58.85
 21
-5.999999999999996
 31
0.0
  0
LINE
  5
250
330
1F
100
AcDbEntity
  8
0
  6
Continuous
 62
     4
370
    25
100
AcDbLine
 10
0.149999999999999
 20
5.849999999999998
 30
0.0
 11
0.149999999999999
 21
-5.849999999999998
 31
0.0
1001
PE_URL
1000

  0
LINE
  5
251
330
1F
100
AcDbEntity
  8
0
  6
Continuous
 62
     4
370
    25
100
AcDbLine
 10
-59.85
 20
4.999999999999989
 30
0.0
 11
-59.85
 21
-4.999999999999996
 31
0.0
  0
LINE
  5
252
330
1F
100
AcDbEntity
  8
0
  6
Continuous
 62
     4
370
    25
100
AcDbLine
 10
20.15
 20
5.849999999999998
 30
0.0
 11
20.15
 21
5.725123994794952
 31
0.0
  0
SPLINE
  5
253
330
1F
100
AcDbEntity
  8
0
  6
Continuous
 62
     4
370
    25
100
AcDbSpline
210
0.0
220
0.0
230
1.0
 70
     8
 71
     3
 72
    14
 73
    10
 74
     0
 42
0.000000001
 43
0.00000001
 40
0.0
 40
0.0
 40
0.0
 40
0.0
 40
0.25
 40
0.25
 40
0.5
 40
0.5
 40
0.75
 40
0.75
 40
1.0
 40
1.0
 40
1.0
 40
1.0
 10
20.15000000001185
 20
5.725123994793581
 30
0.0
 10
19.89562413330139
 20
5.754550243964739
 30
0.0
 10
19.64303483640895
 20
5.778774813683118
 30
0.0
 10
19.13519704723796
 20
5.816906889507141
 30
0.0
 10
18.88020122711171
 20
5.830789248743447
 30
0.0
 10
18.37011228549982
 20
5.848028257438646
 30
0.0
 10
18.11502101883274
 20
5.851384837172088
 30
0.0
 10
17.60680400552826
 20
5.847583617524496
 30
0.0
 10
17.35432026253079
 20
5.840447551321436
 30
0.0
 10
17.10010623277494
 20
5.82806163966946
 30
0.0
  0
SPLINE
  5
254
330
1F
100
AcDbEntity
  8
0
  6
Continuous
 62
     4
370
    25
100
AcDbSpline
210
0.0
220
0.0
230
1.0
 70
     8
 71
     3
 72
    14
 73
    10
 74
     0
 42
0.000000001
 43
0.00000001
 40
0.0
 40
0.0
 40
0.0
 40
0.0
 40
0.25
 40
0.25
 40
0.5
 40
0.5
 40
0.75
 40
0.75
 40
1.0
 40
1.0
 40
1.0
 40
1.0
 10
20.15000000001185
 20
-5.832819442317682
 30
0.0
 10
19.89563340678029
 20
-5.8218544277867
 30
0.0
 10
19.64305327163395
 20
-5.80568613323501
 30
0.0
 10
19.135234152922
 20
-5.762916550392408
 30
0.0
 10
18.88024770942911
 20
-5.736303494000413
 30
0.0
 10
18.37017737742172
 20
-5.672790195968258
 30
0.0
 10
18.11509534338779
 20
-5.63589017836544
 30
0.0
 10
17.60689642822083
 20
-5.552138869234849
 30
0.0
 10
17.35442193606951
 20
-5.505342079721441
 30
0.0
 10
17.10021744366392
 20
-5.453542004055262
 30
0.0
  0
LINE
  5
255
330
1F
100
AcDbEntity
  8
0
  6
Continuous
 62
     4
370
    25
100
AcDbLine
 10
17.10010623277494
 20
-5.82806163966946
 30
0.0
 11
18.00026052962294
 21
-5.830291897925431
 31
0.0
  0
LINE
  5
256
330
1F
100
AcDbEntity
  8
0
  6
Continuous
 62
     4
370
    25
100
AcDbLine
 10
17.10010623277494
 20
-5.849999999999998
 30
0.0
 11
17.10010623277494
 21
-5.828056706184721
 31
0.0
  0
LINE
  5
257
330
1F
100
AcDbEntity
  8
0
  6
Continuous
 62
     4
370
    25
100
AcDbLine
 10
17.10010623277491
 20
-5.453443069296863
 30
0.0
 11
17.10010623277494
 21
5.849999999999998
 31
0.0
  0
SPLINE
  5
258
330
1F
100
AcDbEntity
  8
0
  6
Continuous
 62
     4
370
    25
100
AcDbSpline
210
0.0
220
0.0
230
1.0
 70
     8
 71
     3
 72
    14
 73
    10
 74
     0
 42
0.000000001
 43
0.00000001
 40
0.0
 40
0.0
 40
0.0
 40
0.0
 40
0.25
 40
0.25
 40
0.5
 40
0.5
 40
0.75
 40
0.75
 40
1.0
 40
1.0
 40
1.0
 40
1.0
 10
20.1500000000002
 20
-5.059358906871029
 30
0.0
 10
19.89563340676966
 20
-5.043632388280447
 30
0.0
 10
19.64305327162429
 20
-5.023407122850582
 30
0.0
 10
19.13523415291427
 20
-4.973918810668561
 30
0.0
 10
18.88024770942229
 20
-4.944647658237113
 30
0.0
 10
18.37017737741689
 20
-4.877248446924906
 30
0.0
 10
18.11509534338392
 20
-4.839120627167869
 30
0.0
 10
17.60689642821893
 20
-4.754348692709993
 30
0.0
 10
17.35442193606854
 20
-4.707756765499401
 30
0.0
 10
17.10021744366392
 20
-4.656877373397908
 30
0.0
  0
SPLINE
  5
259
330
1F
100
AcDbEntity
  8
0
  6
Continuous
 62
     4
370
    25
100
AcDbSpline
210
0.0
220
0.0
230
1.0
 70
     8
 71
     3
 72
    14
 73
    10
 74
     0
 42
0.000000001
 43
0.00000001
 40
0.0
 40
0.0
 40
0.0
 40
0.0
 40
0.25
 40
0.25
 40
0.5
 40
0.5
 40
0.75
 40
0.75
 40
1.0
 40
1.0
 40
1.0
 40
1.0
 10
20.15000000000003
 20
-1.21038321211277
 30
0.0
 10
19.8956275203244
 20
-1.096698536724499
 30
0.0
 10
19.64304156965823
 20
-0.9821949171996884
 30
0.0
 10
19.13521059966495
 20
-0.7512331475181604
 30
0.0
 10
18.8802182042495
 20
-0.6348102424464805
 30
0.0
 10
18.37013605958571
 20
-0.401015336060322
 30
0.0
 10
18.11504816503253
 20
-0.2836441842357367
 30
0.0
 10
17.60683776186181
 20
-0.0489051978042915
 30
0.0
 10
17.35435739766199
 20
0.0683633095383876
 30
0.0
 10
17.10014685131426
 20
0.1857315378670741
 30
0.0
  0
SPLINE
  5
25A
330
1F
100
AcDbEntity
  8
0
  6
Continuous
 62
     4
370
    25
100
AcDbSpline
210
0.0
220
0.0
230
1.0
 70
    24
 71
     3
 72
    14
 73
    10
 74
     0
 42
0.000000001
 43
0.00000001
 40
0.0
 40
0.0
 40
0.0
 40
0.0
 40
0.2499999999999998
 40
0.2499999999999998
 40
0.4999999999999999
 40
0.4999999999999999
 40
0.75
 40
0.75
 40
1.0
 40
1.0
 40
1.0
 40
1.0
 10
20.15
 20
-1.210383212112756
 30
0.0
 10
20.15
 20
-1.64167386883575
 30
0.0
 10
20.15
 20
-2.065376688982947
 30
0.0
 10
20.15
 20
-2.864625553100562
 30
0.0
 10
20.15
 20
-3.239904182672834
 30
0.0
 10
20.14999999999997
 20
-3.912608048589628
 30
0.0
 10
20.15
 20
-4.209839028478331
 30
0.0
 10
20.14999999999997
 20
-4.707887056136375
 30
0.0
 10
20.15
 20
-4.908673867631155
 30
0.0
 10
20.15
 20
-5.059358906871015
 30
0.0
  0
SPLINE
  5
25B
330
1F
100
AcDbEntity
  8
0
  6
Continuous
 62
     4
370
    25
100
AcDbSpline
210
0.0
220
0.0
230
1.0
 70
     8
 71
     3
 72
    14
 73
    10
 74
     0
 42
0.000000001
 43
0.00000001
 40
0.0
 40
0.0
 40
0.0
 40
0.0
 40
0.25
 40
0.25
 40
0.5
 40
0.5
 40
0.75
 40
0.75
 40
1.0
 40
1.0
 40
1.0
 40
1.0
 10
20.15
 20
4.064275864760429
 30
0.0
 10
19.89562636798001
 20
4.090197339898769
 30
0.0
 10
19.64303927885356
 20
4.11241441638391
 30
0.0
 10
19.13520598882479
 20
4.149515086704586
 30
0.0
 10
18.88021242824674
 20
4.164379127435343
 30
0.0
 10
18.3701279711102
 20
4.186581566035333
 30
0.0
 10
18.11503892928874
 20
4.19391987813707
 30
0.0
 10
17.60682627720268
 20
4.201039031843781
 30
0.0
 10
17.35434476346478
 20
4.200831326415322
 30
0.0
 10
17.10013303198394
 20
4.196854420763447
 30
0.0
  0
SPLINE
  5
25C
330
1F
100
AcDbEntity
  8
0
  6
Continuous
 62
     4
370
    25
100
AcDbSpline
210
0.0
220
0.0
230
1.0
 70
    24
 71
     3
 72
    14
 73
    10
 74
     0
 42
0.000000001
 43
0.00000001
 40
0.0
 40
0.0
 40
0.0
 40
0.0
 40
0.2500000000000001
 40
0.2500000000000001
 40
0.5000000000000001
 40
0.5000000000000001
 40
0.75
 40
0.75
 40
1.0
 40
1.0
 40
1.0
 40
1.0
 10
20.15
 20
4.064275864760429
 30
0.0
 10
20.15000000000003
 20
3.823823148078678
 30
0.0
 10
20.15
 20
3.517547293879641
 30
0.0
 10
20.15
 20
2.784364806032447
 30
0.0
 10
20.15000000000003
 20
2.357580027607884
 30
0.0
 10
20.15000000000003
 20
1.420121035371001
 30
0.0
 10
20.15
 20
0.9099463389032572
 30
0.0
 10
20.15
 20
-0.1409786805098427
 30
0.0
 10
20.15
 20
-0.6811608617014251
 30
0.0
 10
20.15
 20
-1.210383212112756
 30
0.0
  0
SPLINE
  5
25D
330
1F
100
AcDbEntity
  8
0
  6
Continuous
 62
     4
370
    25
100
AcDbSpline
210
0.0
220
0.0
230
1.0
 70
    24
 71
     3
 72
     8
 73
     4
 74
     0
 42
0.000000001
 43
0.00000001
 40
0.0
 40
0.0
 40
0.0
 40
0.0
 40
1.0
 40
1.0
 40
1.0
 40
1.0
 10
20.15
 20
-5.059358906871015
 30
0.0
 10
20.15
 20
-5.320320778426851
 30
0.0
 10
20.15
 20
-5.579299476517537
 30
0.0
 10
20.15
 20
-5.832819442305632
 30
0.0
  0
SPLINE
  5
25E
330
1F
100
AcDbEntity
  8
0
  6
Continuous
 62
     4
370
    25
100
AcDbSpline
210
0.0
220
0.0
230
1.0
 70
    24
 71
     3
 72
    10
 73
     6
 74
     0
 42
0.000000001
 43
0.00000001
 40
0.0
 40
0.0
 40
0.0
 40
0.0
 40
0.5
 40
0.5
 40
1.0
 40
1.0
 40
1.0
 40
1.0
 10
20.14999999999997
 20
5.725123994794924
 30
0.0
 10
20.14999999999997
 20
5.466090239649279
 30
0.0
 10
20.15
 20
5.180284731226987
 30
0.0
 10
20.15
 20
4.60876211021041
 30
0.0
 10
20.15
 20
4.324135111276849
 30
0.0
 10
20.15
 20
4.064275864760429
 30
0.0
  0
SPLINE
  5
25F
330
1F
100
AcDbEntity
  8
0
  6
Continuous
 62
     1
370
    25
100
AcDbSpline
210
0.0
220
0.0
230
1.0
 70
     8
 71
     3
 72
    56
 73
    52
 74
     0
 42
0.000000001
 43
0.00000001
 40
0.0042188544840666
 40
0.0042188544840666
 40
0.0042188544840666
 40
0.0042188544840666
 40
0.0625000000000002
 40
0.0625000000000002
 40
0.1250000000000004
 40
0.1250000000000004
 40
0.1562500000000004
 40
0.1562500000000004
 40
0.1875000000000006
 40
0.1875000000000006
 40
0.2187500000000006
 40
0.2187500000000006
 40
0.2500000000000007
 40
0.2500000000000007
 40
0.3125000000000009
 40
0.3125000000000009
 40
0.3437500000000011
 40
0.3437500000000011
 40
0.3750000000000012
 40
0.3750000000000012
 40
0.4062500000000012
 40
0.4062500000000012
 40
0.4375000000000014
 40
0.4375000000000014
 40
0.5000000000000017
 40
0.5000000000000017
 40
0.562500000000002
 40
0.562500000000002
 40
0.5937500000000018
 40
0.5937500000000018
 40
0.6250000000000017
 40
0.6250000000000017
 40
0.6562500000000016
 40
0.6562500000000016
 40
0.6875000000000014
 40
0.6875000000000014
 40
0.7500000000000009
 40
0.7500000000000009
 40
0.7812500000000007
 40
0.7812500000000007
 40
0.8125000000000004
 40
0.8125000000000004
 40
0.8437500000000002
 40
0.8437500000000002
 40
0.875
 40
0.875
 40
0.9374999999999998
 40
0.9374999999999998
 40
0.9687499999999999
 40
0.9687499999999999
 40
1.0
 40
1.0
 40
1.0
 40
1.0
 10
49.72482419274045
 20
-5.979785669987071
 30
0.0
 10
49.14805917023403
 20
-5.952445347240876
 30
0.0
 10
48.56670085796908
 20
-5.897257213888408
 30
0.0
 10
47.37725884694395
 20
-5.727641955208899
 30
0.0
 10
46.75365247574387
 20
-5.608444521399174
 30
0.0
 10
45.82666521143346
 20
-5.386466912336171
 30
0.0
 10
45.51943168109596
 20
-5.305379524350858
 30
0.0
 10
44.90010612004982
 20
-5.128897564744374
 30
0.0
 10
44.58944281642186
 20
-5.033608940086619
 30
0.0
 10
43.96982888055111
 20
-4.830069233394465
 30
0.0
 10
43.66229591152546
 20
-4.721999214812644
 30
0.0
 10
43.04479041644111
 20
-4.493349008030474
 30
0.0
 10
42.73439980582173
 20
-4.372693418942429
 30
0.0
 10
41.80386874484258
 20
-3.993815697759378
 30
0.0
 10
41.18917200908333
 20
-3.719413575721913
 30
0.0
 10
40.2588595517717
 20
-3.279176110566478
 30
0.0
 10
39.94833015670184
 20
-3.127793789519647
 30
0.0
 10
39.33012928868242
 20
-2.817592591074924
 30
0.0
 10
39.02298851018645
 20
-2.658880036026143
 30
0.0
 10
38.40381108830831
 20
-2.333975385291193
 30
0.0
 10
38.09315539140334
 20
-2.168010429493204
 30
0.0
 10
37.473423441534
 20
-1.831033856971398
 30
0.0
 10
37.16570685982094
 20
-1.66027926105551
 30
0.0
 10
36.23980742415664
 20
-1.141592040340083
 30
0.0
 10
35.61572747759231
 20
-0.7865870128686332
 30
0.0
 10
34.38355836635179
 20
-0.0750182302588236
 30
0.0
 10
33.7612102651613
 20
0.2842589252314234
 30
0.0
 10
32.83360909673109
 20
0.8169349818923699
 30
0.0
 10
32.52653236687038
 20
0.9932403846795843
 30
0.0
 10
31.90751258169808
 20
1.343670281857176
 30
0.0
 10
31.596869295021
 20
1.517541949656544
 30
0.0
 10
30.97702885712192
 20
1.860515313696613
 30
0.0
 10
30.66909998892197
 20
2.02938889735145
 30
0.0
 10
30.05208230291213
 20
2.361523897986725
 30
0.0
 10
29.74180409319683
 20
2.524989838668847
 30
0.0
 10
28.81120904487562
 20
3.004602355337151
 30
0.0
 10
28.19638800096225
 20
3.309101295178781
 30
0.0
 10
27.26628762648732
 20
3.738382345570972
 30
0.0
 10
26.95569536436289
 20
3.87676622510109
 30
0.0
 10
26.33710413224659
 20
4.142484537331729
 30
0.0
 10
26.03006274454327
 20
4.269706702065167
 30
0.0
 10
25.4112100855383
 20
4.513131693879455
 30
0.0
 10
25.10058401195311
 20
4.629151723452612
 30
0.0
 10
24.48064461755899
 20
4.848398798193732
 30
0.0
 10
24.17247479991163
 20
4.951507617818824
 30
0.0
 10
23.24733525820175
 20
5.240827841363863
 30
0.0
 10
22.62323130717078
 20
5.407469069966201
 30
0.0
 10
21.69827536373747
 20
5.612148884246
 30
0.0
 10
21.38998451030192
 20
5.6730256380939
 30
0.0
 10
20.77000260493807
 20
5.779740215269737
 30
0.0
 10
20.45938610888083
 20
5.825496303660312
 30
0.0
 10
20.15000000000003
 20
5.863392775280904
 30
0.0
  0
SPLINE
  5
260
330
1F
100
AcDbEntity
  8
0
  6
Continuous
 62
     1
370
    25
100
AcDbSpline
210
0.0
220
0.0
230
1.0
 70
     8
 71
     3
 72
    13
 73
     9
 74
     0
 42
0.000000001
 43
0.00000001
 40
0.0
 40
0.0
 40
0.0
 40
0.0
 40
0.1069880372198999
 40
0.2895593089450239
 40
0.4719790467214053
 40
0.6545402383207812
 40
0.8272844794705155
 40
1.0
 40
1.0
 40
1.0
 40
1.0
 10
35.23832397579724
 20
-0.564717364142755
 30
0.0
 10
34.70020412982034
 20
-0.34966309916501
 30
0.0
 10
33.2438019489821
 20
0.2323736029818627
 30
0.0
 10
30.86989067893193
 20
1.192769481742797
 30
0.0
 10
28.11634208306202
 20
2.219968247167618
 30
0.0
 10
25.41172783513786
 20
3.071955118255933
 30
0.0
 10
22.75609151171261
 20
3.724536262918978
 30
0.0
 10
21.01864902176407
 20
3.951035607667482
 30
0.0
 10
20.15
 20
4.064275864760429
 30
0.0
  0
SPLINE
  5
261
330
1F
100
AcDbEntity
  8
0
  6
Continuous
 62
     4
370
    25
100
AcDbSpline
210
0.0
220
0.0
230
1.0
 70
    24
 71
     3
 72
    10
 73
     6
 74
     0
 42
0.000000001
 43
0.00000001
 40
0.0
 40
0.0
 40
0.0
 40
0.0
 40
0.5
 40
0.5
 40
1.0
 40
1.0
 40
1.0
 40
1.0
 10
20.15
 20
5.863392775280897
 30
0.0
 10
20.15
 20
5.592002895222559
 30
0.0
 10
20.14999999999997
 20
5.283778606257155
 30
0.0
 10
20.15
 20
4.660775881209422
 30
0.0
 10
20.15
 20
4.347707522332303
 30
0.0
 10
20.15
 20
4.064275864760429
 30
0.0
  0
SPLINE
  5
262
330
1F
100
AcDbEntity
  8
0
  6
Continuous
 62
     1
370
    25
100
AcDbSpline
210
0.0
220
0.0
230
1.0
 70
     8
 71
     3
 72
    15
 73
    11
 74
     0
 42
0.000000001
 43
0.00000001
 40
0.0
 40
0.0
 40
0.0
 40
0.0
 40
0.1327039164217282
 40
0.2653985251788515
 40
0.3980848695433174
 40
0.5307639973127559
 40
0.6634369602426854
 40
0.7961048134741116
 40
0.9287686149571712
 40
1.0
 40
1.0
 40
1.0
 40
1.0
 10
50.15
 20
-4.73383358620929
 30
0.0
 10
49.4612650147103
 20
-4.59003815344516
 30
0.0
 10
48.08384335102649
 20
-4.302457373524728
 30
0.0
 10
46.01780579450507
 20
-3.651684117297509
 30
0.0
 10
43.95191426442443
 20
-2.870440921316333
 30
0.0
 10
41.88615223357356
 20
-1.972798453059429
 30
0.0
 10
39.82050022592403
 20
-0.9976519646270354
 30
0.0
 10
37.7549398887167
 20
0.0140661173376238
 30
0.0
 10
36.00825547168585
 20
0.8784239882710843
 30
0.0
 10
34.95009081411035
 20
1.369798002355044
 30
0.0
 10
34.58041786867818
 20
1.541460964064103
 30
0.0
  0
SPLINE
  5
263
330
1F
100
AcDbEntity
  8
0
  6
Continuous
 62
     1
370
    25
100
AcDbSpline
210
0.0
220
0.0
230
1.0
 70
    24
 71
     3
 72
     8
 73
     4
 74
     0
 42
0.000000001
 43
0.00000001
 40
0.0
 40
0.0
 40
0.0
 40
0.0
 40
1.0
 40
1.0
 40
1.0
 40
1.0
 10
50.15
 20
-5.369911850982017
 30
0.0
 10
50.15
 20
-5.157473581127373
 30
0.0
 10
50.15
 20
-4.944853146560089
 30
0.0
 10
50.15
 20
-4.73383358620929
 30
0.0
  0
SPLINE
  5
264
330
1F
100
AcDbEntity
  8
0
  6
Continuous
 62
     1
370
    25
100
AcDbSpline
210
0.0
220
0.0
230
1.0
 70
     8
 71
     3
 72
    10
 73
     6
 74
     0
 42
0.000000001
 43
0.00000001
 40
0.0
 40
0.0
 40
0.0
 40
0.0
 40
0.5
 40
0.5
 40
1.0
 40
1.0
 40
1.0
 40
1.0
 10
50.15
 20
-5.369911850976901
 30
0.0
 10
50.15000000000003
 20
-5.452647218094636
 30
0.0
 10
50.116830312209
 20
-5.535387237476325
 30
0.0
 10
49.99984765282789
 20
-5.635576256646797
 30
0.0
 10
49.92164626196458
 20
-5.650700284322316
 30
0.0
 10
49.84999999999968
 20
-5.63650658563672
 30
0.0
  0
SPLINE
  5
265
330
1F
100
AcDbEntity
  8
0
  6
Continuous
 62
     1
370
    25
100
AcDbSpline
210
0.0
220
0.0
230
1.0
 70
     8
 71
     3
 72
    21
 73
    17
 74
     0
 42
0.000000001
 43
0.00000001
 40
0.0
 40
0.0
 40
0.0
 40
0.0
 40
0.0716565768438582
 40
0.1433165199505901
 40
0.2149801959723049
 40
0.2866444825261198
 40
0.3583050040050426
 40
0.429962099877147
 40
0.5016161379917782
 40
0.5732674874856828
 40
0.6483270022119298
 40
0.7233865165388506
 40
0.7984460304656104
 40
0.8735055439913731
 40
0.948565057115304
 40
1.0
 40
1.0
 40
1.0
 40
1.0
 10
49.85000000000002
 20
-5.636506585636578
 30
0.0
 10
49.15698296064721
 20
-5.477589741243587
 30
0.0
 10
47.77091632557858
 20
-5.15974858690598
 30
0.0
 10
45.69174101316036
 20
-4.416949652806021
 30
0.0
 10
43.61246602911336
 20
-3.514118356806019
 30
0.0
 10
41.5331791489819
 20
-2.466805256707869
 30
0.0
 10
39.45398501619746
 20
-1.322245794801563
 30
0.0
 10
37.37491069114042
 20
-0.1246670667337035
 30
0.0
 10
35.29593227891513
 20
1.077795977182735
 30
0.0
 10
33.18410557599412
 20
2.255616336105949
 30
0.0
 10
31.03919536649593
 20
3.357800633664706
 30
0.0
 10
28.86136364121966
 20
4.329265391911367
 30
0.0
 10
26.68352082681013
 20
5.113944205961072
 30
0.0
 10
24.50568100315842
 20
5.665007767588929
 30
0.0
 10
22.55632818317599
 20
5.969279326466019
 30
0.0
 10
21.3329223529156
 20
5.970943939505627
 30
0.0
 10
20.83546332593692
 20
5.971620801396011
 30
0.0
  0
LINE
  5
266
330
1F
100
AcDbEntity
  8
0
  6
Continuous
 62
     4
370
    25
100
AcDbLine
 10
20.15
 20
5.863392775280904
 30
0.0
 11
20.15
 21
5.999999999999996
 31
0.0
  0
SPLINE
  5
267
330
1F
100
AcDbEntity
  8
0
  6
Continuous
 62
     1
370
    25
100
AcDbSpline
210
0.0
220
0.0
230
1.0
 70
     8
 71
     3
 72
    16
 73
    12
 74
     0
 42
0.000000001
 43
0.00000001
 40
0.0
 40
0.0
 40
0.0
 40
0.0
 40
0.1178508868979031
 40
0.2356933931143833
 40
0.3535284579354937
 40
0.4713570247366083
 40
0.5891800404694251
 40
0.7069984551447895
 40
0.8248132213119505
 40
0.9426252935348367
 40
1.0
 40
1.0
 40
1.0
 40
1.0
 10
50.15
 20
0.0000000000000036
 30
0.0
 10
49.46126369511546
 20
0.3180534130348072
 30
0.0
 10
48.08384006316663
 20
0.9541376215034738
 30
0.0
 10
46.01779785586984
 20
1.870721198166326
 30
0.0
 10
43.95190183179363
 20
2.713552756663165
 30
0.0
 10
41.88613523204602
 20
3.449696809534036
 30
0.0
 10
39.82047874680642
 20
4.049257224840237
 30
0.0
 10
37.75491360418129
 20
4.492044196991589
 30
0.0
 10
35.68942105576326
 20
4.747898420311902
 30
0.0
 10
33.97715914956057
 20
4.836074416889038
 30
0.0
 10
32.95339330973314
 20
4.766816839640843
 30
0.0
 10
32.61810394035813
 20
4.744134573348479
 30
0.0
  0
SPLINE
  5
268
330
1F
100
AcDbEntity
  8
0
  6
Continuous
 62
     1
370
    25
100
AcDbSpline
210
0.0
220
0.0
230
1.0
 70
    24
 71
     3
 72
    14
 73
    10
 74
     0
 42
0.000000001
 43
0.00000001
 40
0.0
 40
0.0
 40
0.0
 40
0.0
 40
0.2499999999999999
 40
0.2499999999999999
 40
0.5000000000000001
 40
0.5000000000000001
 40
0.75
 40
0.75
 40
1.0
 40
1.0
 40
1.0
 40
1.0
 10
50.15
 20
-4.73383358620929
 30
0.0
 10
50.15000000000003
 20
-4.477694494611595
 30
0.0
 10
50.15000000000003
 20
-4.174493812518218
 30
0.0
 10
50.15
 20
-3.485937613174652
 30
0.0
 10
50.15
 20
-3.100679136584259
 30
0.0
 10
50.15
 20
-2.273324430659112
 30
0.0
 10
50.15
 20
-1.831467116248173
 30
0.0
 10
50.15
 20
-0.9244851556766385
 30
0.0
 10
50.15
 20
-0.4596295477466121
 30
0.0
 10
50.15
 20
0.0000000000000036
 30
0.0
  0
LINE
  5
269
330
1F
100
AcDbEntity
  8
0
  6
Continuous
 62
     1
370
    25
100
AcDbLine
 10
50.15
 20
4.200000000000006
 30
0.0
 11
47.92841954666704
 21
4.081702486672679
 31
0.0
  0
SPLINE
  5
26A
330
1F
100
AcDbEntity
  8
0
  6
Continuous
 62
     1
370
    25
100
AcDbSpline
210
0.0
220
0.0
230
1.0
 70
    24
 71
     3
 72
    14
 73
    10
 74
     0
 42
0.000000001
 43
0.00000001
 40
0.0
 40
0.0
 40
0.0
 40
0.0
 40
0.25
 40
0.25
 40
0.5
 40
0.5
 40
0.75
 40
0.75
 40
1.0
 40
1.0
 40
1.0
 40
1.0
 10
50.15
 20
0.0000000000000107
 30
0.0
 10
50.15000000000003
 20
0.4997061102083826
 30
0.0
 10
50.15
 20
0.9932614582527357
 30
0.0
 10
50.14999999999997
 20
1.916235299746536
 30
0.0
 10
50.15
 20
2.345080382248608
 30
0.0
 10
50.14999999999997
 20
3.091541472910964
 30
0.0
 10
50.15
 20
3.408759735393946
 30
0.0
 10
50.15
 20
3.906399325268143
 30
0.0
 10
50.15
 20
4.086844646618349
 30
0.0
 10
50.15
 20
4.200000000000006
 30
0.0
  0
SPLINE
  5
26B
330
1F
100
AcDbEntity
  8
0
  6
Continuous
 62
     1
370
    25
100
AcDbSpline
210
0.0
220
0.0
230
1.0
 70
     8
 71
     3
 72
     9
 73
     5
 74
     0
 42
0.000000001
 43
0.00000001
 40
0.0
 40
0.0
 40
0.0
 40
0.0
 40
0.4961106098833515
 40
1.0
 40
1.0
 40
1.0
 40
1.0
 10
23.59893929811579
 20
-4.991713544563037
 30
0.0
 10
23.02857679802457
 20
-5.037956435829155
 30
0.0
 10
21.87890878301217
 20
-5.131167285072994
 30
0.0
 10
20.72928382098098
 20
-5.083418841155588
 30
0.0
 10
20.1500000000002
 20
-5.059358906871029
 30
0.0
  0
SPLINE
  5
26C
330
1F
100
AcDbEntity
  8
0
  6
Continuous
 62
     1
370
    25
100
AcDbSpline
210
0.0
220
0.0
230
1.0
 70
     8
 71
     3
 72
    16
 73
    12
 74
     0
 42
0.000000001
 43
0.00000001
 40
0.0
 40
0.0
 40
0.0
 40
0.0
 40
0.1013779995275721
 40
0.2208177854549445
 40
0.3402558094795337
 40
0.4596930418369166
 40
0.5791304532004531
 40
0.6985690141445083
 40
0.7989899559806096
 40
0.8995035523717634
 40
0.9999999999999999
 40
0.9999999999999999
 40
0.9999999999999999
 40
0.9999999999999999
 10
37.44250885808185
 20
-4.50053297445832
 30
0.0
 10
36.85814098316575
 20
-4.584900303582994
 30
0.0
 10
35.58529262719792
 20
-4.76866607987446
 30
0.0
 10
33.62398144934149
 20
-4.827762888675328
 30
0.0
 10
31.55857879630309
 20
-4.718008212234376
 30
0.0
 10
29.49318150182958
 20
-4.417641281512569
 30
0.0
 10
27.42781932177911
 20
-3.944549499674078
 30
0.0
 10
25.47193024632991
 20
-3.349424369063104
 30
0.0
 10
23.62556749860539
 20
-2.679264419741951
 30
0.0
 10
21.88791482308221
 20
-1.977128704519383
 30
0.0
 10
20.72927199194219
 20
-1.465950506205668
 30
0.0
 10
20.15000000000003
 20
-1.21038321211277
 30
0.0
  0
SPLINE
  5
26D
330
1F
100
AcDbEntity
  8
0
  6
Continuous
 62
     4
370
    25
100
AcDbSpline
210
0.0
220
0.0
230
1.0
 70
    24
 71
     3
 72
    14
 73
    10
 74
     0
 42
0.000000001
 43
0.00000001
 40
0.0
 40
0.0
 40
0.0
 40
0.0
 40
0.2500000000000001
 40
0.2500000000000001
 40
0.5000000000000002
 40
0.5000000000000002
 40
0.7500000000000001
 40
0.7500000000000001
 40
1.0
 40
1.0
 40
1.0
 40
1.0
 10
20.15
 20
-1.210383212112756
 30
0.0
 10
20.15
 20
-1.64167386883575
 30
0.0
 10
20.15
 20
-2.065376688982947
 30
0.0
 10
20.15
 20
-2.864625553100562
 30
0.0
 10
20.15
 20
-3.239904182672834
 30
0.0
 10
20.15
 20
-3.912608048589628
 30
0.0
 10
20.14999999999997
 20
-4.209839028478331
 30
0.0
 10
20.14999999999997
 20
-4.707887056136375
 30
0.0
 10
20.15
 20
-4.908673867631155
 30
0.0
 10
20.15
 20
-5.059358906871008
 30
0.0
  0
SPLINE
  5
26E
330
1F
100
AcDbEntity
  8
0
  6
Continuous
 62
     4
370
    25
100
AcDbSpline
210
0.0
220
0.0
230
1.0
 70
    24
 71
     3
 72
    14
 73
    10
 74
     0
 42
0.000000001
 43
0.00000001
 40
0.0
 40
0.0
 40
0.0
 40
0.0
 40
0.25
 40
0.25
 40
0.4999999999999999
 40
0.4999999999999999
 40
0.75
 40
0.75
 40
1.0
 40
1.0
 40
1.0
 40
1.0
 10
20.15
 20
4.064275864760429
 30
0.0
 10
20.15
 20
3.823823148078678
 30
0.0
 10
20.15
 20
3.517547293879641
 30
0.0
 10
20.15
 20
2.784364806032447
 30
0.0
 10
20.15
 20
2.357580027607884
 30
0.0
 10
20.15
 20
1.420121035371008
 30
0.0
 10
20.15
 20
0.9099463389032572
 30
0.0
 10
20.14999999999997
 20
-0.1409786805098427
 30
0.0
 10
20.15
 20
-0.6811608617014251
 30
0.0
 10
20.15
 20
-1.210383212112756
 30
0.0
  0
LINE
  5
26F
330
1F
100
AcDbEntity
  8
0
  6
Continuous
 62
     1
370
    25
100
AcDbLine
 10
50.15
 20
-5.369911850982017
 30
0.0
 11
50.15
 21
-5.485284781456283
 31
0.0
  0
SPLINE
  5
270
330
1F
100
AcDbEntity
  8
0
  6
Continuous
 62
     1
370
    25
100
AcDbSpline
210
0.0
220
0.0
230
1.0
 70
     8
 71
     3
 72
    11
 73
     7
 74
     0
 42
0.000000001
 43
0.00000001
 40
0.0
 40
0.0
 40
0.0
 40
0.0
 40
0.1329671860082947
 40
0.4219781255538261
 40
0.7109890635521332
 40
1.0
 40
1.0
 40
1.0
 40
1.0
 10
27.68549486925317
 20
-4.717586776586902
 30
0.0
 10
27.35150368593679
 20
-4.841345873632218
 30
0.0
 10
26.29156568380011
 20
-5.234101660673968
 30
0.0
 10
24.50568086924692
 20
-5.660732018981182
 30
0.0
 10
22.3278404291961
 20
-5.995523539695764
 30
0.0
 10
20.87594680844085
 20
-5.989793723185425
 30
0.0
 10
20.15000000001043
 20
-5.986928814937951
 30
0.0
  0
SPLINE
  5
271
330
1F
100
AcDbEntity
  8
0
  6
Continuous
 62
     4
370
    25
100
AcDbSpline
210
0.0
220
0.0
230
1.0
 70
    24
 71
     3
 72
     8
 73
     4
 74
     0
 42
0.000000001
 43
0.00000001
 40
0.0
 40
0.0
 40
0.0
 40
0.0
 40
1.0
 40
1.0
 40
1.0
 40
1.0
 10
20.15
 20
-5.059358906871015
 30
0.0
 10
20.15
 20
-5.373440453737285
 30
0.0
 10
20.15
 20
-5.684639302019914
 30
0.0
 10
20.15
 20
-5.986928814922739
 30
0.0
  0
SPLINE
  5
272
330
1F
100
AcDbEntity
  8
0
  6
Continuous
 62
     1
370
    25
100
AcDbSpline
210
0.0
220
0.0
230
1.0
 70
     8
 71
     3
 72
    11
 73
     7
 74
     0
 42
0.000000001
 43
0.00000001
 40
0.0
 40
0.0
 40
0.0
 40
0.0
 40
0.1746835748737273
 40
0.4497890517995546
 40
0.724894526842662
 40
0.9861407935829948
 40
0.9861407935829948
 40
0.9861407935829948
 40
0.9861407935829948
 10
41.93362429220175
 20
4.020287463174416
 30
0.0
 10
42.39457789624168
 20
4.218482456002047
 30
0.0
 10
43.58147760695902
 20
4.728810561891788
 30
0.0
 10
45.49432341597528
 20
5.327443766282745
 30
0.0
 10
47.63559015325132
 20
5.813968502625856
 30
0.0
 10
49.05091078344331
 20
5.925334234902562
 30
0.0
 10
49.7402853152253
 20
5.977065791515376
 30
0.0
  0
SPLINE
  5
273
330
1F
100
AcDbEntity
  8
0
  6
Continuous
 62
     1
370
    25
100
AcDbSpline
210
0.0
220
0.0
230
1.0
 70
    24
 71
     3
 72
    10
 73
     6
 74
     0
 42
0.000000001
 43
0.00000001
 40
0.0
 40
0.0
 40
0.0
 40
0.0
 40
0.5
 40
0.5
 40
0.8684814920648357
 40
0.8684814920648357
 40
0.8684814920648357
 40
0.8684814920648357
 10
50.15
 20
4.200000000000006
 30
0.0
 10
50.15000000000003
 20
4.412661689166743
 30
0.0
 10
50.15
 20
4.653786717537091
 30
0.0
 10
50.14999999999997
 20
5.096519164576778
 30
0.0
 10
50.14999999999999
 20
5.291522055663131
 30
0.0
 10
50.15
 20
5.485284781456288
 30
0.0
  0
LINE
  5
274
330
1F
100
AcDbEntity
  8
중심선
100
AcDbLine
 10
-62.85
 20
-0.0000000000000035
 30
0.0
 11
53.15000000000003
 21
0.0000000000000036
 31
0.0
  0
CIRCLE
  5
275
330
1F
100
AcDbEntity
  8
외형선
100
AcDbCircle
 10
0.0
 20
0.0
 30
0.0
 40
3.000000000000005
  0
DIMENSION
  5
276
330
1F
100
AcDbEntity
  8
치수문자_일반주서
100
AcDbDimension
  2
*D14
 10
-71.34645802161204
 20
-6.000000000000044
 30
0.0
 11
-71.34645802161207
 21
-0.0000000000000035
 31
0.0
 70
   160
  1
%%c<>
 71
     2
 42
11.99999999999999
 52
-270.0
  3
SLDDIMSTYLE0
100
AcDbAlignedDimension
 13
-58.85
 23
5.999999999999989
 33
0.0
 14
-58.85
 24
-5.999999999999996
 34
0.0
 50
90.0000000000002
100
AcDbRotatedDimension
  0
DIMENSION
  5
277
330
1F
100
AcDbEntity
  8
치수문자_일반주서
100
AcDbDimension
  2
*D15
 10
20.15
 20
24.19999999999965
 30
0.0
 11
35.15
 21
24.19999999999965
 31
0.0
 70
   160
  1
<>
 71
     2
 42
30.0
  3
SLDDIMSTYLE1
100
AcDbAlignedDimension
 13
50.15
 23
5.699999999999999
 33
0.0
 14
20.15
 24
5.999999999999996
 34
0.0
100
AcDbRotatedDimension
  0
DIMENSION
  5
278
330
1F
100
AcDbEntity
  8
치수문자_일반주서
100
AcDbDimension
  2
*D16
 10
-59.85
 20
46.2583245050443
 30
0.0
 11
-4.850000000000029
 21
46.2583245050443
 31
0.0
 70
   160
  1
<>
 71
     2
 42
110.0
  3
SLDDIMSTYLE1
100
AcDbAlignedDimension
 13
50.15
 23
5.699999999999999
 33
0.0
 14
-59.85
 24
4.999999999999989
 34
0.0
100
AcDbRotatedDimension
  0
DIMENSION
  5
279
330
1F
100
AcDbEntity
  8
치수문자_일반주서
100
AcDbDimension
  2
*D17
 10
0.1499999999999986
 20
30.31999999999866
 30
0.0
 11
25.15
 21
30.31999999999866
 31
0.0
 70
   160
  1
<>
 71
     2
 42
50.0
  3
SLDDIMSTYLE0
100
AcDbAlignedDimension
 13
50.15
 23
5.762499999999999
 33
0.0
 14
0.149999999999999
 24
5.849999999999998
 34
0.0
 50
-0.0000000000022354
100
AcDbRotatedDimension
  0
DIMENSION
  5
27A
330
1F
100
AcDbEntity
  8
치수문자_일반주서
100
AcDbDimension
  2
*D18
 10
65.62371226481442
 20
-5.999999999999829
 30
0.0
 11
65.6237122648144
 21
0.0000000000001386
 31
0.0
 70
   160
  1
%%c<>
 71
     2
 42
12.0
 52
-270.0
  3
SLDDIMSTYLE1
100
AcDbAlignedDimension
 13
20.83546332593692
 23
6.000000000000004
 33
0.0
 14
20.83546332593692
 24
-5.999999999999996
 34
0.0
 50
90.0000000000002
100
AcDbRotatedDimension
  0
INSERT
  5
27B
330
1F
100
AcDbEntity
  8
외형선
100
AcDbBlockReference
  2
SW_DOWELSYMBOL_0
 10
0.0
 20
0.0
 30
0.0
  0
LINE
  5
27C
330
1F
100
AcDbEntity
  8
0
100
AcDbLine
 10
49.85000000000002
 20
5.985284781454749
 30
0.0
 11
49.84999999999905
 21
5.98528478145629
 31
0.0
  0
ARC
  5
2CA
330
1F
100
AcDbEntity
  8
0
  6
Continuous
 62
     1
370
    25
100
AcDbCircle
 10
49.64999999999997
 20
5.48528478145629
 30
0.0
 40
0.5
100
AcDbArc
 50
0.0
 51
79.59700082922419
  0
ARC
  5
2CD
330
1F
100
AcDbEntity
  8
0
  6
Continuous
 62
     1
370
    25
100
AcDbCircle
 10
49.64973639100304
 20
-5.485189360233257
 30
0.0
 40
0.5002636180973439
100
AcDbArc
 50
278.6325170125513
 51
359.9890712952318
  0
DIMENSION
  5
2CF
330
1F
100
AcDbEntity
  8
치수문자_일반주서
100
AcDbDimension
  2
*D20
 10
49.64973639100304
 20
-5.485189360233257
 30
0.0
 11
58.79148789980307
 21
-19.79310059151736
 31
0.0
 70
   164
  1
<>
 71
     5
 42
0.5002636180973442
  3
SLDDIMSTYLE1
100
AcDbRadialDimension
 15
49.91908521958238
 25
-5.906751806538407
 35
0.0
 40
0.0
1001
ACAD_DSTYLE_DIMRADIAL_EXTENSION
1070
   387
1070
     1
1070
   388
1040
4.863054824988135
1070
   390
1040
6.282994565298401
1001
ACAD
1000
DSTYLE
1002
{
1070
    78
1070
     8
1002
}
  0
LINE
  5
2FE
330
1F
100
AcDbEntity
  8
0
  6
Continuous
 62
     4
370
    25
100
AcDbLine
 10
0.149999999999999
 20
5.849999999999998
 30
0.0
 11
0.0000000000000004
 21
5.999999999999996
 31
0.0
1001
PE_URL
1000

  0
LINE
  5
300
330
1F
100
AcDbEntity
  8
0
  6
Continuous
 62
     4
370
    25
100
AcDbLine
 10
0.0000000000000004
 20
5.999999999999996
 30
0.0
 11
0.0
 21
-5.999999999999996
 31
0.0
1001
PE_URL
1000

  0
LINE
  5
301
330
1F
100
AcDbEntity
  8
0
  6
Continuous
 62
     4
370
    25
100
AcDbLine
 10
0.0
 20
-5.999999999999996
 30
0.0
 11
0.149999999999999
 21
-5.849999999999998
 31
0.0
1001
PE_URL
1000

  0
ENDSEC
  0
SECTION
  2
OBJECTS
  0
DICTIONARY
  5
C
330
0
100
AcDbDictionary
281
     1
  3
ACAD_GROUP
350
D
  3
ACAD_IMAGE_VARS
350
141
  3
ACAD_LAYOUT
350
1A
  3
ACAD_MLINESTYLE
350
17
  3
ACAD_PLOTSETTINGS
350
19
  3
ACAD_PLOTSTYLENAME
350
E
  3
ACAD_SCALELIST
350
47
  3
APPDATA
350
13F
  3
DWGPROPS
350
302
  0
DICTIONARY
  5
D
102
{ACAD_REACTORS
330
C
102
}
330
C
100
AcDbDictionary
281
     1
  0
RASTERVARIABLES
  5
141
102
{ACAD_REACTORS
330
C
102
}
330
C
100
AcDbRasterVariables
 90
        0
 70
     1
 71
     1
 72
     1
  0
DICTIONARY
  5
1A
102
{ACAD_REACTORS
330
C
102
}
330
C
100
AcDbDictionary
281
     1
  3
Layout1
350
1E
  3
Layout2
350
26
  3
Model
350
22
  0
DICTIONARY
  5
17
102
{ACAD_REACTORS
330
C
102
}
330
C
100
AcDbDictionary
281
     1
  3
Standard
350
18
  0
DICTIONARY
  5
19
102
{ACAD_REACTORS
330
C
102
}
330
C
100
AcDbDictionary
281
     1
  0
ACDBDICTIONARYWDFLT
  5
E
102
{ACAD_REACTORS
330
C
102
}
330
C
100
AcDbDictionary
281
     1
  3
Normal
350
F
100
AcDbDictionaryWithDefault
340
F
  0
DICTIONARY
  5
47
102
{ACAD_REACTORS
330
C
102
}
330
C
100
AcDbDictionary
281
     1
  3
A0
350
48
  3
A1
350
49
  3
A2
350
4A
  3
A3
350
4B
  3
A4
350
4C
  3
A5
350
4D
  3
A6
350
4E
  3
A7
350
4F
  3
A8
350
50
  3
A9
350
51
  3
B0
350
52
  3
B1
350
53
  3
B2
350
54
  3
B3
350
55
  3
B4
350
56
  3
B5
350
57
  3
B6
350
58
  3
B7
350
59
  3
B8
350
5A
  3
B9
350
5B
  3
C0
350
5C
  3
C1
350
5D
  3
C2
350
5E
  3
C3
350
5F
  3
C4
350
60
  3
C5
350
61
  3
C6
350
62
  3
C7
350
63
  3
C8
350
64
  3
C9
350
65
  3
D0
350
66
  3
D1
350
67
  3
D2
350
68
  0
DICTIONARY
  5
13F
102
{ACAD_REACTORS
330
C
102
}
330
C
100
AcDbDictionary
281
     1
  0
XRECORD
  5
302
102
{ACAD_REACTORS
330
C
102
}
330
C
100
AcDbXrecord
280
     1
  1
DWGPROPS COOKIE
  2

  3

  4

  6

  7

  8
12014102
  9

300
=
301
=
302
=
303
=
304
=
305
=
306
=
307
=
308
=
309
=
 40
0.0
 41
2458263.434841574
 42
2459576.952731805
  1

 90
        0
  0
LAYOUT
  5
1E
102
{ACAD_REACTORS
330
1A
102
}
330
1A
100
AcDbPlotSettings
  1

  2
none_device
  4

  6

 40
0.0
 41
0.0
 42
0.0
 43
0.0
 44
0.0
 45
0.0
 46
0.0
 47
0.0
 48
0.0
 49
0.0
140
0.0
141
0.0
142
1.0
143
1.0
 70
   688
 72
     1
 73
     0
 74
     5
  7

 75
    16
147
1.0
148
0.0
149
0.0
100
AcDbLayout
  1
Layout1
 70
     1
 71
     1
 10
0.0
 20
0.0
 11
420.0
 21
297.0
 12
0.0
 22
0.0
 32
0.0
 14
1.000000000000000E+20
 24
1.000000000000000E+20
 34
1.000000000000000E+20
 15
-1.000000000000000E+20
 25
-1.000000000000000E+20
 35
-1.000000000000000E+20
146
0.0
 13
0.0
 23
0.0
 33
0.0
 16
1.0
 26
0.0
 36
0.0
 17
0.0
 27
1.0
 37
0.0
 76
     0
330
1B
  0
LAYOUT
  5
26
102
{ACAD_REACTORS
330
1A
102
}
330
1A
100
AcDbPlotSettings
  1

  2
none_device
  4

  6

 40
0.0
 41
0.0
 42
0.0
 43
0.0
 44
0.0
 45
0.0
 46
0.0
 47
0.0
 48
0.0
 49
0.0
140
0.0
141
0.0
142
1.0
143
1.0
 70
   688
 72
     1
 73
     0
 74
     5
  7

 75
    16
147
1.0
148
0.0
149
0.0
100
AcDbLayout
  1
Layout2
 70
     1
 71
     2
 10
0.0
 20
0.0
 11
0.0
 21
0.0
 12
0.0
 22
0.0
 32
0.0
 14
0.0
 24
0.0
 34
0.0
 15
0.0
 25
0.0
 35
0.0
146
0.0
 13
0.0
 23
0.0
 33
0.0
 16
1.0
 26
0.0
 36
0.0
 17
0.0
 27
1.0
 37
0.0
 76
     0
330
23
  0
LAYOUT
  5
22
102
{ACAD_REACTORS
330
1A
102
}
330
1A
100
AcDbPlotSettings
  1

  2
none_device
  4
ANSI_A_(11.00_x_8.50_Inches)
  6

 40
6.35
 41
19.05
 42
6.35000508
 43
19.05000254
 44
279.4
 45
215.9
 46
107.3735923981114
 47
89.02296940972161
 48
0.0
 49
0.0
140
0.0
141
0.0
142
0.0674464052442631
143
1.0
 70
  1696
 72
     0
 73
     0
 74
     0
  7

 75
     0
147
0.0235690232323232
148
0.0
149
0.0
100
AcDbLayout
  1
Model
 70
     1
 71
     0
 10
0.0
 20
0.0
 11
420.0
 21
297.0
 12
0.0
 22
0.0
 32
0.0
 14
-75.72145802161208
 24
-49.97073246008785
 34
0.0
 15
66.17404559814773
 25
50.6333245050443
 35
0.0
146
0.0
 13
0.0
 23
0.0
 33
0.0
 16
1.0
 26
0.0
 36
0.0
 17
0.0
 27
1.0
 37
0.0
 76
     0
330
1F
331
29
  0
MLINESTYLE
  5
18
102
{ACAD_REACTORS
330
17
102
}
330
17
100
AcDbMlineStyle
  2
Standard
 70
     0
  3

 62
   256
 51
90.0
 52
90.0
 71
     2
 49
0.5
 62
   256
  6
BYLAYER
 49
-0.5
 62
   256
  6
BYLAYER
  0
ACDBPLACEHOLDER
  5
F
102
{ACAD_REACTORS
330
E
102
}
330
E
  0
SCALE
  5
48
102
{ACAD_REACTORS
330
47
102
}
330
47
100
AcDbScale
 70
     0
300
1:1
140
1.0
141
1.0
290
     1
  0
SCALE
  5
49
102
{ACAD_REACTORS
330
47
102
}
330
47
100
AcDbScale
 70
     0
300
1:2
140
1.0
141
2.0
290
     0
  0
SCALE
  5
4A
102
{ACAD_REACTORS
330
47
102
}
330
47
100
AcDbScale
 70
     0
300
1:4
140
1.0
141
4.0
290
     0
  0
SCALE
  5
4B
102
{ACAD_REACTORS
330
47
102
}
330
47
100
AcDbScale
 70
     0
300
1:5
140
1.0
141
5.0
290
     0
  0
SCALE
  5
4C
102
{ACAD_REACTORS
330
47
102
}
330
47
100
AcDbScale
 70
     0
300
1:8
140
1.0
141
8.0
290
     0
  0
SCALE
  5
4D
102
{ACAD_REACTORS
330
47
102
}
330
47
100
AcDbScale
 70
     0
300
1:10
140
1.0
141
10.0
290
     0
  0
SCALE
  5
4E
102
{ACAD_REACTORS
330
47
102
}
330
47
100
AcDbScale
 70
     0
300
1:16
140
1.0
141
16.0
290
     0
  0
SCALE
  5
4F
102
{ACAD_REACTORS
330
47
102
}
330
47
100
AcDbScale
 70
     0
300
1:20
140
1.0
141
20.0
290
     0
  0
SCALE
  5
50
102
{ACAD_REACTORS
330
47
102
}
330
47
100
AcDbScale
 70
     0
300
1:30
140
1.0
141
30.0
290
     0
  0
SCALE
  5
51
102
{ACAD_REACTORS
330
47
102
}
330
47
100
AcDbScale
 70
     0
300
1:40
140
1.0
141
40.0
290
     0
  0
SCALE
  5
52
102
{ACAD_REACTORS
330
47
102
}
330
47
100
AcDbScale
 70
     0
300
1:50
140
1.0
141
50.0
290
     0
  0
SCALE
  5
53
102
{ACAD_REACTORS
330
47
102
}
330
47
100
AcDbScale
 70
     0
300
1:100
140
1.0
141
100.0
290
     0
  0
SCALE
  5
54
102
{ACAD_REACTORS
330
47
102
}
330
47
100
AcDbScale
 70
     0
300
2:1
140
2.0
141
1.0
290
     0
  0
SCALE
  5
55
102
{ACAD_REACTORS
330
47
102
}
330
47
100
AcDbScale
 70
     0
300
4:1
140
4.0
141
1.0
290
     0
  0
SCALE
  5
56
102
{ACAD_REACTORS
330
47
102
}
330
47
100
AcDbScale
 70
     0
300
8:1
140
8.0
141
1.0
290
     0
  0
SCALE
  5
57
102
{ACAD_REACTORS
330
47
102
}
330
47
100
AcDbScale
 70
     0
300
10:1
140
10.0
141
1.0
290
     0
  0
SCALE
  5
58
102
{ACAD_REACTORS
330
47
102
}
330
47
100
AcDbScale
 70
     0
300
100:1
140
100.0
141
1.0
290
     0
  0
SCALE
  5
59
102
{ACAD_REACTORS
330
47
102
}
330
47
100
AcDbScale
 70
     0
300
1/128" = 1'-0"
140
0.0078125
141
12.0
290
     0
  0
SCALE
  5
5A
102
{ACAD_REACTORS
330
47
102
}
330
47
100
AcDbScale
 70
     0
300
1/64" = 1'-0"
140
0.015625
141
12.0
290
     0
  0
SCALE
  5
5B
102
{ACAD_REACTORS
330
47
102
}
330
47
100
AcDbScale
 70
     0
300
1/32" = 1'-0"
140
0.03125
141
12.0
290
     0
  0
SCALE
  5
5C
102
{ACAD_REACTORS
330
47
102
}
330
47
100
AcDbScale
 70
     0
300
1/16" = 1'-0"
140
0.0625
141
12.0
290
     0
  0
SCALE
  5
5D
102
{ACAD_REACTORS
330
47
102
}
330
47
100
AcDbScale
 70
     0
300
3/32" = 1'-0"
140
0.09375
141
12.0
290
     0
  0
SCALE
  5
5E
102
{ACAD_REACTORS
330
47
102
}
330
47
100
AcDbScale
 70
     0
300
1/8" = 1'-0"
140
0.125
141
12.0
290
     0
  0
SCALE
  5
5F
102
{ACAD_REACTORS
330
47
102
}
330
47
100
AcDbScale
 70
     0
300
3/16" = 1'-0"
140
0.1875
141
12.0
290
     0
  0
SCALE
  5
60
102
{ACAD_REACTORS
330
47
102
}
330
47
100
AcDbScale
 70
     0
300
1/4" = 1'-0"
140
0.25
141
12.0
290
     0
  0
SCALE
  5
61
102
{ACAD_REACTORS
330
47
102
}
330
47
100
AcDbScale
 70
     0
300
3/8" = 1'-0"
140
0.375
141
12.0
290
     0
  0
SCALE
  5
62
102
{ACAD_REACTORS
330
47
102
}
330
47
100
AcDbScale
 70
     0
300
1/2" = 1'-0"
140
0.5
141
12.0
290
     0
  0
SCALE
  5
63
102
{ACAD_REACTORS
330
47
102
}
330
47
100
AcDbScale
 70
     0
300
3/4" = 1'-0"
140
0.75
141
12.0
290
     0
  0
SCALE
  5
64
102
{ACAD_REACTORS
330
47
102
}
330
47
100
AcDbScale
 70
     0
300
1" = 1'-0"
140
1.0
141
12.0
290
     0
  0
SCALE
  5
65
102
{ACAD_REACTORS
330
47
102
}
330
47
100
AcDbScale
 70
     0
300
1-1/2" = 1'-0"
140
1.5
141
12.0
290
     0
  0
SCALE
  5
66
102
{ACAD_REACTORS
330
47
102
}
330
47
100
AcDbScale
 70
     0
300
3" = 1'-0"
140
3.0
141
12.0
290
     0
  0
SCALE
  5
67
102
{ACAD_REACTORS
330
47
102
}
330
47
100
AcDbScale
 70
     0
300
6" = 1'-0"
140
6.0
141
12.0
290
     0
  0
SCALE
  5
68
102
{ACAD_REACTORS
330
47
102
}
330
47
100
AcDbScale
 70
     0
300
1'-0" = 1'-0"
140
12.0
141
12.0
290
     0
  0
ENDSEC
  0
EOF
