  0
SECTION
  2
HEADER
  9
$ACADVER
  1
AC1015
  9
$ACADMAINTVER
 70
     6
  9
$DWGCODEPAGE
  3
ANSI_949
  9
$INSBASE
 10
0.0
 20
0.0
 30
0.0
  9
$EXTMIN
 10
-75.72145802161208
 20
-49.97180738881174
 30
0.0
  9
$EXTMAX
 10
66.96808738468869
 20
50.63332450504429
 30
0.0
  9
$LIMMIN
 10
0.0
 20
0.0
  9
$LIMMAX
 10
420.0
 20
297.0
  9
$ORTHOMODE
 70
     1
  9
$REGENMODE
 70
     1
  9
$FILLMODE
 70
     1
  9
$QTEXTMODE
 70
     0
  9
$MIRRTEXT
 70
     1
  9
$LTSCALE
 40
1.0
  9
$ATTMODE
 70
     1
  9
$TEXTSIZE
 40
3.5
  9
$TRACEWID
 40
1.0
  9
$TEXTSTYLE
  7
Standard
  9
$CLAYER
  8
0
  9
$CELTYPE
  6
ByLayer
  9
$CECOLOR
 62
   256
  9
$CELTSCALE
 40
1.0
  9
$DISPSILH
 70
     0
  9
$DIMSCALE
 40
1.0
  9
$DIMASZ
 40
3.302
  9
$DIMEXO
 40
1.0
  9
$DIMDLI
 40
3.75
  9
$DIMRND
 40
0.0
  9
$DIMDLE
 40
0.0
  9
$DIMEXE
 40
1.0
  9
$DIMTP
 40
0.0
  9
$DIMTM
 40
0.0
  9
$DIMTXT
 40
3.5
  9
$DIMCEN
 40
2.5
  9
$DIMTSZ
 40
0.0
  9
$DIMTOL
 70
     0
  9
$DIMLIM
 70
     0
  9
$DIMTIH
 70
     1
  9
$DIMTOH
 70
     1
  9
$DIMSE1
 70
     0
  9
$DIMSE2
 70
     0
  9
$DIMTAD
 70
     1
  9
$DIMZIN
 70
     0
  9
$DIMBLK
  1

  9
$DIMASO
 70
     1
  9
$DIMSHO
 70
     1
  9
$DIMPOST
  1

  9
$DIMAPOST
  1

  9
$DIMALT
 70
     0
  9
$DIMALTD
 70
     3
  9
$DIMALTF
 40
0.0393700787401575
  9
$DIMLFAC
 40
1.0
  9
$DIMTOFL
 70
     1
  9
$DIMTVP
 40
0.0
  9
$DIMTIX
 70
     0
  9
$DIMSOXD
 70
     0
  9
$DIMSAH
 70
     0
  9
$DIMBLK1
  1

  9
$DIMBLK2
  1

  9
$DIMSTYLE
  2
ISO-25
  9
$DIMCLRD
 70
     0
  9
$DIMCLRE
 70
     0
  9
$DIMCLRT
 70
     0
  9
$DIMTFAC
 40
1.0
  9
$DIMGAP
 40
1.524
  9
$DIMJUST
 70
     0
  9
$DIMSD1
 70
     0
  9
$DIMSD2
 70
     0
  9
$DIMTOLJ
 70
     0
  9
$DIMTZIN
 70
     0
  9
$DIMALTZ
 70
     0
  9
$DIMALTTZ
 70
     0
  9
$DIMUPT
 70
     0
  9
$DIMDEC
 70
     2
  9
$DIMTDEC
 70
     2
  9
$DIMALTU
 70
     2
  9
$DIMALTTD
 70
     3
  9
$DIMTXSTY
  7
Standard
  9
$DIMAUNIT
 70
     0
  9
$DIMADEC
 70
     2
  9
$DIMALTRND
 40
0.0
  9
$DIMAZIN
 70
     0
  9
$DIMDSEP
 70
    44
  9
$DIMATFIT
 70
     3
  9
$DIMFRAC
 70
     0
  9
$DIMLDRBLK
  1

  9
$DIMLUNIT
 70
     2
  9
$DIMLWD
 70
    -2
  9
$DIMLWE
 70
    -2
  9
$DIMTMOVE
 70
     0
  9
$LUNITS
 70
     2
  9
$LUPREC
 70
     2
  9
$SKETCHINC
 40
1.0
  9
$FILLETRAD
 40
10.0
  9
$AUNITS
 70
     0
  9
$AUPREC
 70
     2
  9
$MENU
  1
.
  9
$ELEVATION
 40
0.0
  9
$PELEVATION
 40
0.0
  9
$THICKNESS
 40
0.0
  9
$LIMCHECK
 70
     0
  9
$CHAMFERA
 40
0.0
  9
$CHAMFERB
 40
0.0
  9
$CHAMFERC
 40
0.0
  9
$CHAMFERD
 40
0.0
  9
$SKPOLY
 70
     0
  9
$TDCREATE
 40
2458263.809463298
  9
$TDUCREATE
 40
2458263.434463298
  9
$TDUPDATE
 40
2459577.326879815
  9
$TDUUPDATE
 40
2459576.951879815
  9
$TDINDWG
 40
0.0026972685
  9
$TDUSRTIMER
 40
0.0008266204
  9
$USRTIMER
 70
     1
  9
$ANGBASE
 50
0.0
  9
$ANGDIR
 70
     0
  9
$PDMODE
 70
     0
  9
$PDSIZE
 40
-1.0
  9
$PLINEWID
 40
0.0
  9
$SPLFRAME
 70
     0
  9
$SPLINETYPE
 70
     6
  9
$SPLINESEGS
 70
     8
  9
$HANDSEED
  5
187
  9
$SURFTAB1
 70
     6
  9
$SURFTAB2
 70
     6
  9
$SURFTYPE
 70
     6
  9
$SURFU
 70
     6
  9
$SURFV
 70
     6
  9
$UCSBASE
  2

  9
$UCSNAME
  2

  9
$UCSORG
 10
0.0
 20
0.0
 30
0.0
  9
$UCSXDIR
 10
1.0
 20
0.0
 30
0.0
  9
$UCSYDIR
 10
0.0
 20
1.0
 30
0.0
  9
$UCSORTHOREF
  2

  9
$UCSORTHOVIEW
 70
     0
  9
$UCSORGTOP
 10
0.0
 20
0.0
 30
0.0
  9
$UCSORGBOTTOM
 10
0.0
 20
0.0
 30
0.0
  9
$UCSORGLEFT
 10
0.0
 20
0.0
 30
0.0
  9
$UCSORGRIGHT
 10
0.0
 20
0.0
 30
0.0
  9
$UCSORGFRONT
 10
0.0
 20
0.0
 30
0.0
  9
$UCSORGBACK
 10
0.0
 20
0.0
 30
0.0
  9
$PUCSBASE
  2

  9
$PUCSNAME
  2

  9
$PUCSORG
 10
0.0
 20
0.0
 30
0.0
  9
$PUCSXDIR
 10
1.0
 20
0.0
 30
0.0
  9
$PUCSYDIR
 10
0.0
 20
1.0
 30
0.0
  9
$PUCSORTHOREF
  2

  9
$PUCSORTHOVIEW
 70
     0
  9
$PUCSORGTOP
 10
0.0
 20
0.0
 30
0.0
  9
$PUCSORGBOTTOM
 10
0.0
 20
0.0
 30
0.0
  9
$PUCSORGLEFT
 10
0.0
 20
0.0
 30
0.0
  9
$PUCSORGRIGHT
 10
0.0
 20
0.0
 30
0.0
  9
$PUCSORGFRONT
 10
0.0
 20
0.0
 30
0.0
  9
$PUCSORGBACK
 10
0.0
 20
0.0
 30
0.0
  9
$USERI1
 70
     0
  9
$USERI2
 70
     0
  9
$USERI3
 70
     0
  9
$USERI4
 70
     0
  9
$USERI5
 70
     0
  9
$USERR1
 40
0.0
  9
$USERR2
 40
0.0
  9
$USERR3
 40
0.0
  9
$USERR4
 40
0.0
  9
$USERR5
 40
0.0
  9
$WORLDVIEW
 70
     1
  9
$SHADEDGE
 70
     3
  9
$SHADEDIF
 70
    70
  9
$TILEMODE
 70
     1
  9
$MAXACTVP
 70
    64
  9
$PINSBASE
 10
0.0
 20
0.0
 30
0.0
  9
$PLIMCHECK
 70
     0
  9
$PEXTMIN
 10
1.000000000000000E+20
 20
1.000000000000000E+20
 30
1.000000000000000E+20
  9
$PEXTMAX
 10
-1.000000000000000E+20
 20
-1.000000000000000E+20
 30
-1.000000000000000E+20
  9
$PLIMMIN
 10
0.0
 20
0.0
  9
$PLIMMAX
 10
0.0
 20
0.0
  9
$UNITMODE
 70
     0
  9
$VISRETAIN
 70
     1
  9
$PLINEGEN
 70
     0
  9
$PSLTSCALE
 70
     1
  9
$TREEDEPTH
 70
  3020
  9
$CMLSTYLE
  2
Standard
  9
$CMLJUST
 70
     0
  9
$CMLSCALE
 40
20.0
  9
$PROXYGRAPHICS
 70
     1
  9
$MEASUREMENT
 70
     1
  9
$CELWEIGHT
370
    -1
  9
$ENDCAPS
280
     0
  9
$JOINSTYLE
280
     0
  9
$LWDISPLAY
290
     1
  9
$INSUNITS
 70
     4
  9
$HYPERLINKBASE
  1

  9
$STYLESHEET
  1

  9
$XEDIT
290
     1
  9
$CEPSNTYPE
380
     0
  9
$PSTYLEMODE
290
     1
  9
$FINGERPRINTGUID
  2
{D40CB73E-A690-4692-8E64-8D842EA9BC57}
  9
$VERSIONGUID
  2
{FAEB1C32-E019-11D5-929B-00C0DF256EC4}
  9
$EXTNAMES
290
     1
  9
$PSVPSCALE
 40
0.0
  9
$OLESTARTUP
290
     0
  0
ENDSEC
  0
SECTION
  2
CLASSES
  0
CLASS
  1
ACDBDICTIONARYWDFLT
  2
AcDbDictionaryWithDefault
  3
ObjectDBX Classes
 90
        0
280
     0
281
     0
  0
CLASS
  1
VISUALSTYLE
  2
AcDbVisualStyle
  3
ObjectDBX Classes
 90
     4095
280
     0
281
     0
  0
CLASS
  1
MATERIAL
  2
AcDbMaterial
  3
ObjectDBX Classes
 90
     1153
280
     0
281
     0
  0
CLASS
  1
SCALE
  2
AcDbScale
  3
ObjectDBX Classes
 90
     1153
280
     0
281
     0
  0
CLASS
  1
TABLESTYLE
  2
AcDbTableStyle
  3
ObjectDBX Classes
 90
     4095
280
     0
281
     0
  0
CLASS
  1
MLEADERSTYLE
  2
AcDbMLeaderStyle
  3
ACDB_MLEADERSTYLE_CLASS
 90
     4095
280
     0
281
     0
  0
CLASS
  1
SUN
  2
AcDbSun
  3
SCENEOE
 90
     1153
280
     0
281
     0
  0
CLASS
  1
ACDBPLACEHOLDER
  2
AcDbPlaceHolder
  3
ObjectDBX Classes
 90
        0
280
     0
281
     0
  0
CLASS
  1
LAYOUT
  2
AcDbLayout
  3
ObjectDBX Classes
 90
        0
280
     0
281
     0
  0
CLASS
  1
RASTERVARIABLES
  2
AcDbRasterVariables
  3
ISM
 90
        0
280
     0
281
     0
  0
CLASS
  1
DIMASSOC
  2
AcDbDimAssoc
  3
"AcDbDimAssoc|Product Desc:     AcDim ARX App For Dimension|Company:          Autodesk, Inc.|WEB Address:      www.autodesk.com"
 90
        0
280
     0
281
     0
  0
ENDSEC
  0
SECTION
  2
TABLES
  0
TABLE
  2
VPORT
  5
8
330
0
100
AcDbSymbolTable
 70
     1
  0
VPORT
  5
29
330
8
100
AcDbSymbolTableRecord
100
AcDbViewportTableRecord
  2
*Active
 70
     0
 10
0.0
 20
0.0
 11
1.0
 21
1.0
 12
-4.376685318461696
 22
0.3307585581162726
 13
0.0
 23
0.0
 14
10.0
 24
10.0
 15
10.0
 25
10.0
 16
0.0
 26
0.0
 36
1.0
 17
0.0
 27
0.0
 37
0.0
 40
102.6172345317331
 41
2.070175438596491
 42
50.0
 43
0.0
 44
0.0
 50
0.0
 51
0.0
 71
    16
 72
  2000
 73
     1
 74
     3
 75
     0
 76
     0
 77
     0
 78
     0
281
     0
 65
     1
110
0.0
120
0.0
130
0.0
111
1.0
121
0.0
131
0.0
112
0.0
122
1.0
132
0.0
 79
     0
146
0.0
  0
ENDTAB
  0
TABLE
  2
LTYPE
  5
5
330
0
100
AcDbSymbolTable
 70
     6
  0
LTYPE
  5
14
330
5
100
AcDbSymbolTableRecord
100
AcDbLinetypeTableRecord
  2
ByBlock
 70
     0
  3

 72
    65
 73
     0
 40
0.0
  0
LTYPE
  5
15
330
5
100
AcDbSymbolTableRecord
100
AcDbLinetypeTableRecord
  2
ByLayer
 70
     0
  3

 72
    65
 73
     0
 40
0.0
  0
LTYPE
  5
16
330
5
100
AcDbSymbolTableRecord
100
AcDbLinetypeTableRecord
  2
Continuous
 70
     0
  3
Solid line
 72
    65
 73
     0
 40
0.0
  0
LTYPE
  5
6E
330
5
100
AcDbSymbolTableRecord
100
AcDbLinetypeTableRecord
  2
HIDDEN
 70
     0
  3
Hidden __ __ __ __ __ __ __ __ __ __ __ __ __ __
 72
    65
 73
     2
 40
1.905
 49
1.27
 74
     0
 49
-0.635
 74
     0
  0
LTYPE
  5
6F
330
5
100
AcDbSymbolTableRecord
100
AcDbLinetypeTableRecord
  2
PHANTOM
 70
     0
  3
Phantom ______  __  __  ______  __  __  ______
 72
    65
 73
     6
 40
12.7
 49
6.35
 74
     0
 49
-1.27
 74
     0
 49
1.27
 74
     0
 49
-1.27
 74
     0
 49
1.27
 74
     0
 49
-1.27
 74
     0
  0
LTYPE
  5
70
330
5
100
AcDbSymbolTableRecord
100
AcDbLinetypeTableRecord
  2
CENTER
 70
     0
  3
Center ____ _ ____ _ ____ _ ____ _ ____ _ ____
 72
    65
 73
     4
 40
10.16
 49
6.35
 74
     0
 49
-1.27
 74
     0
 49
1.27
 74
     0
 49
-1.27
 74
     0
  0
LTYPE
  5
71
330
5
100
AcDbSymbolTableRecord
100
AcDbLinetypeTableRecord
  2
CENTERX2
 70
     0
  3
Center (2x) ________  __  ________  __  _____
 72
    65
 73
     4
 40
20.32
 49
12.7
 74
     0
 49
-2.54
 74
     0
 49
2.54
 74
     0
 49
-2.54
 74
     0
  0
LTYPE
  5
72
330
5
100
AcDbSymbolTableRecord
100
AcDbLinetypeTableRecord
  2
DOT2
 70
     0
  3
Dot (.5x) ........................................
 72
    65
 73
     2
 40
0.635
 49
0.0
 74
     0
 49
-0.635
 74
     0
  0
ENDTAB
  0
TABLE
  2
LAYER
  5
2
330
0
100
AcDbSymbolTable
 70
    17
  0
LAYER
  5
10
330
2
100
AcDbSymbolTableRecord
100
AcDbLayerTableRecord
  2
0
 70
     0
 62
     7
  6
Continuous
370
    -3
390
F
  0
LAYER
  5
73
330
2
100
AcDbSymbolTableRecord
100
AcDbLayerTableRecord
  2
FORMAT
 70
     0
 62
     2
  6
Continuous
370
    -3
390
F
  0
LAYER
  5
74
330
2
100
AcDbSymbolTableRecord
100
AcDbLayerTableRecord
  2
외형선
 70
     0
 62
   100
  6
Continuous
370
    35
390
F
  0
LAYER
  5
75
330
2
100
AcDbSymbolTableRecord
100
AcDbLayerTableRecord
  2
숨은선
 70
     0
 62
     2
  6
HIDDEN
370
    25
390
F
  0
LAYER
  5
76
330
2
100
AcDbSymbolTableRecord
100
AcDbLayerTableRecord
  2
중심선
 70
     0
 62
     1
  6
CENTERX2
370
    -3
390
F
  0
LAYER
  5
77
330
2
100
AcDbSymbolTableRecord
100
AcDbLayerTableRecord
  2
파단선
 70
     0
 62
     4
  6
Continuous
370
    -3
390
F
  0
LAYER
  5
78
330
2
100
AcDbSymbolTableRecord
100
AcDbLayerTableRecord
  2
해칭선
 70
     0
 62
     4
  6
Continuous
370
    -3
390
F
  0
LAYER
  5
79
330
2
100
AcDbSymbolTableRecord
100
AcDbLayerTableRecord
  2
가는실선
 70
     0
 62
     4
  6
Continuous
370
    -3
390
F
  0
LAYER
  5
7A
330
2
100
AcDbSymbolTableRecord
100
AcDbLayerTableRecord
  2
치수_보조선
 70
     0
 62
     4
  6
Continuous
370
    -3
390
F
  0
LAYER
  5
7B
330
2
100
AcDbSymbolTableRecord
100
AcDbLayerTableRecord
  2
치수문자_일반주서
 70
     0
 62
     7
  6
Continuous
370
    25
390
F
  0
LAYER
  5
7C
330
2
100
AcDbSymbolTableRecord
100
AcDbLayerTableRecord
  2
개별주서
 70
     0
 62
   100
  6
Continuous
370
    35
390
F
  0
LAYER
  5
7D
330
2
100
AcDbSymbolTableRecord
100
AcDbLayerTableRecord
  2
중간선
 70
     0
 62
     2
  6
Continuous
370
    25
390
F
  0
LAYER
  5
7E
330
2
100
AcDbSymbolTableRecord
100
AcDbLayerTableRecord
  2
윤곽선
 70
     0
 62
     3
  6
Continuous
370
    50
390
F
  0
LAYER
  5
7F
330
2
100
AcDbSymbolTableRecord
100
AcDbLayerTableRecord
  2
중심마크
 70
     0
 62
   100
  6
Continuous
370
    35
390
F
  0
LAYER
  5
80
330
2
100
AcDbSymbolTableRecord
100
AcDbLayerTableRecord
  2
가상선
 70
     0
 62
     4
  6
PHANTOM
370
    -3
390
F
  0
LAYER
  5
81
330
2
100
AcDbSymbolTableRecord
100
AcDbLayerTableRecord
  2
특수지정선
 70
     0
 62
     5
  6
CENTERX2
370
    70
390
F
  0
LAYER
  5
142
330
2
100
AcDbSymbolTableRecord
100
AcDbLayerTableRecord
  2
Defpoints
 70
     0
 62
     7
  6
Continuous
290
     0
370
    -3
390
F
  0
ENDTAB
  0
TABLE
  2
STYLE
  5
3
330
0
100
AcDbSymbolTable
 70
     2
  0
STYLE
  5
11
330
3
100
AcDbSymbolTableRecord
100
AcDbTextStyleTableRecord
  2
Standard
 70
     0
 40
0.0
 41
1.0
 50
0.0
 71
     0
 42
3.5
  3
txt
  4

  0
STYLE
  5
97
330
3
100
AcDbSymbolTableRecord
100
AcDbTextStyleTableRecord
  2
SLDTEXTSTYLE0
 70
     0
 40
0.0
 41
0.75
 50
0.0
 71
     0
 42
3.5
  3
TXT
  4

  0
ENDTAB
  0
TABLE
  2
VIEW
  5
6
330
0
100
AcDbSymbolTable
 70
     0
  0
ENDTAB
  0
TABLE
  2
UCS
  5
7
330
0
100
AcDbSymbolTable
 70
     0
  0
ENDTAB
  0
TABLE
  2
APPID
  5
9
330
0
100
AcDbSymbolTable
 70
     3
  0
APPID
  5
12
330
9
100
AcDbSymbolTableRecord
100
AcDbRegAppTableRecord
  2
ACAD
 70
     0
  0
APPID
  5
14D
330
9
100
AcDbSymbolTableRecord
100
AcDbRegAppTableRecord
  2
ACAD_DSTYLE_DIMRADIAL_EXTENSION
 70
     0
  0
APPID
  5
183
330
9
100
AcDbSymbolTableRecord
100
AcDbRegAppTableRecord
  2
PE_URL
 70
     0
  0
ENDTAB
  0
TABLE
  2
DIMSTYLE
  5
A
330
0
100
AcDbSymbolTable
 70
     3
100
AcDbDimStyleTable
  0
DIMSTYLE
105
27
330
A
100
AcDbSymbolTableRecord
100
AcDbDimStyleTableRecord
  2
ISO-25
 70
     0
 41
2.5
 42
0.625
 43
3.75
 44
1.25
 73
     0
 74
     0
 77
     1
 78
     8
140
2.5
141
2.5
143
0.03937007874016
147
0.625
171
     3
172
     1
178
     0
271
     2
272
     2
274
     3
278
    44
283
     0
284
     8
340
11
  0
DIMSTYLE
105
DC
102
{ACAD_REACTORS
330
DB
330
FF
102
}
330
A
100
AcDbSymbolTableRecord
100
AcDbDimStyleTableRecord
  2
SLDDIMSTYLE0
 70
     0
 41
3.302
 44
0.0
 45
0.000000001
 73
     0
 74
     0
 77
     1
 78
    12
 79
     3
140
3.5
147
0.875
172
     1
173
     1
178
     0
271
     2
272
     2
276
     2
284
    12
289
     0
340
97
  0
DIMSTYLE
105
EA
102
{ACAD_REACTORS
330
E9
330
F5
330
10B
330
14E
102
}
330
A
100
AcDbSymbolTableRecord
100
AcDbDimStyleTableRecord
  2
SLDDIMSTYLE1
 70
     0
 41
3.302
 44
0.0
 45
0.000000001
 73
     0
 74
     0
 77
     1
 78
    12
 79
     3
140
3.5
147
0.875
173
     1
178
     0
271
     2
272
     2
276
     2
284
    12
340
97
  0
ENDTAB
  0
TABLE
  2
BLOCK_RECORD
  5
1
330
0
100
AcDbSymbolTable
 70
     9
  0
BLOCK_RECORD
  5
1F
330
1
100
AcDbSymbolTableRecord
100
AcDbBlockTableRecord
  2
*Model_Space
340
22
  0
BLOCK_RECORD
  5
1B
330
1
100
AcDbSymbolTableRecord
100
AcDbBlockTableRecord
  2
*Paper_Space
340
1E
  0
BLOCK_RECORD
  5
23
330
1
100
AcDbSymbolTableRecord
100
AcDbBlockTableRecord
  2
*Paper_Space0
340
26
  0
BLOCK_RECORD
  5
82
330
1
100
AcDbSymbolTableRecord
100
AcDbBlockTableRecord
  2
블럭10
340
0
102
{BLKREFS
331
D4
102
}
  0
BLOCK_RECORD
  5
DD
330
1
100
AcDbSymbolTableRecord
100
AcDbBlockTableRecord
  2
_D
340
0
  0
BLOCK_RECORD
  5
EB
330
1
100
AcDbSymbolTableRecord
100
AcDbBlockTableRecord
  2
_D_1
340
0
  0
BLOCK_RECORD
  5
F6
330
1
100
AcDbSymbolTableRecord
100
AcDbBlockTableRecord
  2
_D_2
340
0
  0
BLOCK_RECORD
  5
100
330
1
100
AcDbSymbolTableRecord
100
AcDbBlockTableRecord
  2
_D_3
340
0
  0
BLOCK_RECORD
  5
10C
330
1
100
AcDbSymbolTableRecord
100
AcDbBlockTableRecord
  2
_D_4
340
0
  0
BLOCK_RECORD
  5
117
330
1
100
AcDbSymbolTableRecord
100
AcDbBlockTableRecord
  2
SW_DOWELSYMBOL_0
340
0
102
{BLKREFS
331
11D
102
}
  0
BLOCK_RECORD
  5
151
330
1
100
AcDbSymbolTableRecord
100
AcDbBlockTableRecord
  2
*D8
340
0
  0
ENDTAB
  0
ENDSEC
  0
SECTION
  2
BLOCKS
  0
BLOCK
  5
20
330
1F
100
AcDbEntity
  8
0
100
AcDbBlockBegin
  2
*Model_Space
 70
     0
 10
0.0
 20
0.0
 30
0.0
  3
*Model_Space
  1
*Model_Space
  0
ENDBLK
  5
21
330
1F
100
AcDbEntity
  8
0
100
AcDbBlockEnd
  0
BLOCK
  5
1C
330
1B
100
AcDbEntity
 67
     1
  8
0
100
AcDbBlockBegin
  2
*Paper_Space
 70
     0
 10
0.0
 20
0.0
 30
0.0
  3
*Paper_Space
  1
*Paper_Space
  0
ENDBLK
  5
1D
330
1B
100
AcDbEntity
 67
     1
  8
0
100
AcDbBlockEnd
  0
BLOCK
  5
24
330
23
100
AcDbEntity
  8
0
100
AcDbBlockBegin
  2
*Paper_Space0
 70
     0
 10
0.0
 20
0.0
 30
0.0
  3
*Paper_Space0
  1
*Paper_Space0
  0
ENDBLK
  5
25
330
23
100
AcDbEntity
  8
0
100
AcDbBlockEnd
  0
BLOCK
  5
83
330
82
100
AcDbEntity
  8
0
100
AcDbBlockBegin
  2
블럭10
 70
     2
 10
0.0
 20
0.0
 30
0.0
  3
블럭10
  1
블럭10
  0
ELLIPSE
  5
85
330
82
100
AcDbEntity
  8
중심선
100
AcDbEllipse
 10
20.54032771741204
 20
12.0471743016438
 30
0.0
 11
6.600054785286829
 21
-1.261213355974178E-13
 31
0.0
210
0.0
220
0.0
230
1.0
 40
0.636358354079598
 41
0.9219305317359503
 42
6.513795318482858
  0
ELLIPSE
  5
86
330
82
100
AcDbEntity
  8
중심선
100
AcDbEllipse
 10
20.54032771746488
 20
12.04717430159265
 30
0.0
 11
3.960054785062283
 21
1.540847449632565E-10
 31
0.0
210
0.0
220
0.0
230
1.0
 40
0.3939339440162632
 41
1.131841032648279
 42
5.62031148352944
  0
LINE
  5
87
330
82
100
AcDbEntity
  8
중심선
100
AcDbLine
 10
2.268634060543552
 20
16.24717430164393
 30
0.0
 11
5.714909304380834
 21
16.24717430164393
 31
0.0
  0
LINE
  5
88
330
82
100
AcDbEntity
  8
중심선
100
AcDbLine
 10
5.245725140726316
 20
7.84717430164391
 30
0.0
 11
8.692000384563599
 21
7.84717430164391
 31
0.0
  0
LINE
  5
89
330
82
100
AcDbEntity
  8
중심선
100
AcDbLine
 10
15.74043728645272
 20
16.24717430164393
 30
0.0
 11
8.692000384563599
 21
7.84717430164391
 31
0.0
  0
LINE
  5
8A
330
82
100
AcDbEntity
  8
중심선
100
AcDbLine
 10
0.1404042013395286
 20
13.71084872107135
 30
0.0
 11
3.58671253028996
 21
13.71088815037384
 31
0.0
  0
LINE
  5
8B
330
82
100
AcDbEntity
  8
중심선
100
AcDbLine
 10
2.750260043222114
 20
10.84717430164391
 30
0.0
 11
6.196535287059397
 21
10.84717430164391
 31
0.0
  0
LINE
  5
8C
330
82
100
AcDbEntity
  8
중심선
100
AcDbLine
 10
12.29416204261559
 20
16.24717430164393
 30
0.0
 11
5.245725140726316
 21
7.84717430164391
 31
0.0
  0
LINE
  5
8D
330
82
100
AcDbEntity
  8
중심선
100
AcDbLine
 10
10.72767329541681
 20
16.24717430164393
 30
0.0
 11
6.196535287059397
 21
10.84717430164391
 31
0.0
  0
LINE
  5
8E
330
82
100
AcDbEntity
  8
중심선
100
AcDbLine
 10
7.28139805157953
 20
16.24717430164393
 30
0.0
 11
2.750260043222114
 21
10.84717430164391
 31
0.0
  0
LINE
  5
8F
330
82
100
AcDbEntity
  8
중심선
100
AcDbLine
 10
5.714909304380834
 20
16.24717430164393
 30
0.0
 11
3.58671253028996
 21
13.71088815037384
 31
0.0
  0
LINE
  5
90
330
82
100
AcDbEntity
  8
중심선
100
AcDbLine
 10
2.268634060543552
 20
16.24717430164393
 30
0.0
 11
0.1404042013395286
 21
13.71084872107135
 31
0.0
  0
LINE
  5
91
330
82
100
AcDbEntity
  8
중심선
100
AcDbLine
 10
7.28139805157953
 20
16.24717430164393
 30
0.0
 11
10.72767329541681
 21
16.24717430164393
 31
0.0
  0
LINE
  5
92
330
82
100
AcDbEntity
  8
중심선
100
AcDbLine
 10
12.29416204261559
 20
16.24717430164393
 30
0.0
 11
15.74043728645272
 21
16.24717430164393
 31
0.0
  0
LINE
  5
93
330
82
100
AcDbEntity
  8
중심선
100
AcDbLine
 10
19.22036997980202
 20
11.08717430171403
 30
0.0
 11
23.66174974927406
 21
11.08717430171406
 31
0.0
  0
LINE
  5
94
330
82
100
AcDbEntity
  8
중심선
100
AcDbLine
 10
19.22039502424796
 20
13.00717430171391
 30
0.0
 11
19.22036997980202
 21
11.08717430171403
 31
0.0
  0
LINE
  5
95
330
82
100
AcDbEntity
  8
중심선
100
AcDbLine
 10
19.22039502424796
 20
13.00717430171391
 30
0.0
 11
26.96566020931264
 21
13.00717430171391
 31
0.0
  0
LINE
  5
96
330
82
100
AcDbEntity
  8
중심선
100
AcDbLine
 10
22.22332737316547
 20
13.45928029700563
 30
0.0
 11
24.52862924686651
 21
15.39360700705356
 31
0.0
  0
ATTDEF
  5
98
330
82
100
AcDbEntity
  8
FORMAT
 62
     2
100
AcDbText
 10
-20.85824753159254
 20
2.075366912832191
 30
0.0
 40
4.233333333333333
  1
SEME6112003110E [ 2 FLUTE ]
 41
0.75
  7
SLDTEXTSTYLE0
 11
-20.85824753159254
 21
-0.0412997538344756
 31
0.0
100
AcDbAttributeDefinition
  3

  2
AUTOATTR0
 70
     0
 74
     1
  0
ENDBLK
  5
84
330
82
100
AcDbEntity
  8
0
100
AcDbBlockEnd
  0
BLOCK
  5
DE
330
DD
100
AcDbEntity
  8
0
100
AcDbBlockBegin
  2
_D
 70
     0
 10
0.0
 20
0.0
 30
0.0
  3
_D
  1
_D
  0
LINE
  5
E0
330
DD
100
AcDbEntity
  8
치수문자_일반주서
 62
     0
370
    -2
100
AcDbLine
 10
-58.91250000000001
 20
5.999999999999991
 30
0.0
 11
-71.34645802161208
 21
5.999999999999944
 31
0.0
  0
LINE
  5
E1
330
DD
100
AcDbEntity
  8
치수문자_일반주서
 62
     0
370
    -2
100
AcDbLine
 10
-58.91250000000001
 20
-6.000000000000002
 30
0.0
 11
-71.34645802161204
 21
-6.000000000000049
 31
0.0
  0
LINE
  5
E2
330
DD
100
AcDbEntity
  8
치수문자_일반주서
 62
     0
370
    -2
100
AcDbLine
 10
-71.34645802161207
 20
2.697999999999944
 30
0.0
 11
-71.34645802161205
 21
-2.698000000000049
 31
0.0
  0
SOLID
  5
E3
330
DD
100
AcDbEntity
  8
치수문자_일반주서
 62
     0
100
AcDbTrace
 10
-70.79612468827874
 20
2.697999999999946
 30
0.0
 11
-71.89679135494539
 21
2.697999999999942
 31
0.0
 12
-71.34645802161208
 22
5.999999999999944
 32
0.0
 13
-71.34645802161208
 23
5.999999999999944
 33
0.0
  0
SOLID
  5
E4
330
DD
100
AcDbEntity
  8
치수문자_일반주서
 62
     0
100
AcDbTrace
 10
-71.89679135494538
 20
-2.698000000000051
 30
0.0
 11
-70.79612468827872
 21
-2.698000000000047
 31
0.0
 12
-71.34645802161204
 22
-6.000000000000049
 32
0.0
 13
-71.34645802161204
 23
-6.000000000000049
 33
0.0
  0
MTEXT
  5
E5
330
DD
100
AcDbEntity
  8
치수문자_일반주서
 62
     0
100
AcDbMText
 10
-75.72145802161207
 20
-0.0000000000000205
 30
0.0
 40
3.5
 41
0.0
 71
     2
 72
     1
  1
\A1;%%c12
  7
SLDTEXTSTYLE0
 11
-3.552713678800503E-15
 21
1.0
 31
0.0
 73
     1
 44
1.0
  0
POINT
  5
E6
330
DD
100
AcDbEntity
  8
Defpoints
 62
     0
100
AcDbPoint
 10
-58.85000000000001
 20
5.999999999999991
 30
0.0
  0
POINT
  5
E7
330
DD
100
AcDbEntity
  8
Defpoints
 62
     0
100
AcDbPoint
 10
-58.85000000000001
 20
-6.000000000000002
 30
0.0
  0
POINT
  5
E8
330
DD
100
AcDbEntity
  8
Defpoints
 62
     0
100
AcDbPoint
 10
-71.34645802161204
 20
-6.000000000000049
 30
0.0
  0
ENDBLK
  5
DF
330
DD
100
AcDbEntity
  8
0
100
AcDbBlockEnd
  0
BLOCK
  5
EC
330
EB
100
AcDbEntity
  8
0
100
AcDbBlockBegin
  2
_D_1
 70
     0
 10
0.0
 20
0.0
 30
0.0
  3
_D_1
  1
_D_1
  0
LINE
  5
EE
330
EB
100
AcDbEntity
  8
치수문자_일반주서
 62
     0
370
    -2
100
AcDbLine
 10
50.14999999999999
 20
5.762499999999998
 30
0.0
 11
50.14999999999999
 21
24.19999999999965
 31
0.0
  0
LINE
  5
EF
330
EB
100
AcDbEntity
  8
치수문자_일반주서
 62
     0
370
    -2
100
AcDbLine
 10
20.15
 20
6.062499999999994
 30
0.0
 11
20.15
 21
24.19999999999965
 31
0.0
  0
LINE
  5
F0
330
EB
100
AcDbEntity
  8
치수문자_일반주서
 62
     0
370
    -2
100
AcDbLine
 10
46.84799999999999
 20
24.19999999999965
 30
0.0
 11
23.452
 21
24.19999999999965
 31
0.0
  0
SOLID
  5
F1
330
EB
100
AcDbEntity
  8
치수문자_일반주서
 62
     0
100
AcDbTrace
 10
46.84799999999999
 20
23.64966666666631
 30
0.0
 11
46.84799999999999
 21
24.75033333333298
 31
0.0
 12
50.14999999999999
 22
24.19999999999965
 32
0.0
 13
50.14999999999999
 23
24.19999999999965
 33
0.0
  0
SOLID
  5
F2
330
EB
100
AcDbEntity
  8
치수문자_일반주서
 62
     0
100
AcDbTrace
 10
23.452
 20
24.75033333333298
 30
0.0
 11
23.452
 21
23.64966666666631
 31
0.0
 12
20.15
 22
24.19999999999965
 32
0.0
 13
20.15
 23
24.19999999999965
 33
0.0
  0
MTEXT
  5
F3
330
EB
100
AcDbEntity
  8
치수문자_일반주서
 62
     0
100
AcDbMText
 10
35.14999999999999
 20
28.57499999999965
 30
0.0
 40
3.5
 41
0.0
 71
     2
 72
     1
  1
\A1;30
  7
SLDTEXTSTYLE0
 73
     1
 44
1.0
  0
POINT
  5
F4
330
EB
100
AcDbEntity
  8
Defpoints
 62
     0
100
AcDbPoint
 10
50.14999999999999
 20
5.699999999999998
 30
0.0
  0
POINT
  5
145
330
EB
100
AcDbEntity
  8
Defpoints
 62
     0
100
AcDbPoint
 10
20.15
 20
5.999999999999994
 30
0.0
  0
POINT
  5
146
330
EB
100
AcDbEntity
  8
Defpoints
 62
     0
100
AcDbPoint
 10
20.15
 20
24.19999999999965
 30
0.0
  0
ENDBLK
  5
ED
330
EB
100
AcDbEntity
  8
0
100
AcDbBlockEnd
  0
BLOCK
  5
F7
330
F6
100
AcDbEntity
  8
0
100
AcDbBlockBegin
  2
_D_2
 70
     0
 10
0.0
 20
0.0
 30
0.0
  3
_D_2
  1
_D_2
  0
LINE
  5
F9
330
F6
100
AcDbEntity
  8
치수문자_일반주서
 62
     0
370
    -2
100
AcDbLine
 10
50.14999999999999
 20
5.762499999999998
 30
0.0
 11
50.14999999999999
 21
46.25832450504429
 31
0.0
  0
LINE
  5
FA
330
F6
100
AcDbEntity
  8
치수문자_일반주서
 62
     0
370
    -2
100
AcDbLine
 10
-59.85000000000001
 20
5.062499999999992
 30
0.0
 11
-59.85000000000001
 21
46.25832450504429
 31
0.0
  0
LINE
  5
FB
330
F6
100
AcDbEntity
  8
치수문자_일반주서
 62
     0
370
    -2
100
AcDbLine
 10
46.84799999999999
 20
46.25832450504429
 30
0.0
 11
-56.54800000000001
 21
46.25832450504429
 31
0.0
  0
SOLID
  5
FC
330
F6
100
AcDbEntity
  8
치수문자_일반주서
 62
     0
100
AcDbTrace
 10
46.84799999999999
 20
45.70799117171096
 30
0.0
 11
46.84799999999999
 21
46.80865783837763
 31
0.0
 12
50.14999999999999
 22
46.25832450504429
 32
0.0
 13
50.14999999999999
 23
46.25832450504429
 33
0.0
  0
SOLID
  5
FD
330
F6
100
AcDbEntity
  8
치수문자_일반주서
 62
     0
100
AcDbTrace
 10
-56.54800000000001
 20
46.80865783837763
 30
0.0
 11
-56.54800000000001
 21
45.70799117171096
 31
0.0
 12
-59.85000000000001
 22
46.25832450504429
 32
0.0
 13
-59.85000000000001
 23
46.25832450504429
 33
0.0
  0
MTEXT
  5
FE
330
F6
100
AcDbEntity
  8
치수문자_일반주서
 62
     0
100
AcDbMText
 10
-4.850000000000007
 20
50.63332450504429
 30
0.0
 40
3.5
 41
0.0
 71
     2
 72
     1
  1
\A1;110
  7
SLDTEXTSTYLE0
 73
     1
 44
1.0
  0
POINT
  5
15D
330
F6
100
AcDbEntity
  8
Defpoints
 62
     0
100
AcDbPoint
 10
50.14999999999999
 20
5.699999999999998
 30
0.0
  0
POINT
  5
15E
330
F6
100
AcDbEntity
  8
Defpoints
 62
     0
100
AcDbPoint
 10
-59.85000000000001
 20
4.999999999999992
 30
0.0
  0
POINT
  5
15F
330
F6
100
AcDbEntity
  8
Defpoints
 62
     0
100
AcDbPoint
 10
-59.85000000000001
 20
46.25832450504429
 30
0.0
  0
ENDBLK
  5
F8
330
F6
100
AcDbEntity
  8
0
100
AcDbBlockEnd
  0
BLOCK
  5
101
330
100
100
AcDbEntity
  8
0
100
AcDbBlockBegin
  2
_D_3
 70
     0
 10
0.0
 20
0.0
 30
0.0
  3
_D_3
  1
_D_3
  0
LINE
  5
103
330
100
100
AcDbEntity
  8
치수문자_일반주서
 62
     0
370
    -2
100
AcDbLine
 10
50.14999999999999
 20
5.824999999999998
 30
0.0
 11
50.14999999999999
 21
30.31999999999866
 31
0.0
  0
LINE
  5
104
330
100
100
AcDbEntity
  8
치수문자_일반주서
 62
     0
370
    -2
100
AcDbLine
 10
0.1500000000000004
 20
5.912499999999997
 30
0.0
 11
0.1499999999999986
 21
30.31999999999866
 31
0.0
  0
LINE
  5
105
330
100
100
AcDbEntity
  8
치수문자_일반주서
 62
     0
370
    -2
100
AcDbLine
 10
46.84799999999999
 20
30.31999999999866
 30
0.0
 11
3.451999999999999
 21
30.31999999999866
 31
0.0
  0
SOLID
  5
106
330
100
100
AcDbEntity
  8
치수문자_일반주서
 62
     0
100
AcDbTrace
 10
46.84799999999999
 20
29.76966666666532
 30
0.0
 11
46.84799999999999
 21
30.87033333333199
 31
0.0
 12
50.14999999999999
 22
30.31999999999866
 32
0.0
 13
50.14999999999999
 23
30.31999999999866
 33
0.0
  0
SOLID
  5
107
330
100
100
AcDbEntity
  8
치수문자_일반주서
 62
     0
100
AcDbTrace
 10
3.451999999999999
 20
30.87033333333199
 30
0.0
 11
3.451999999999999
 21
29.76966666666532
 31
0.0
 12
0.1499999999999986
 22
30.31999999999866
 32
0.0
 13
0.1499999999999986
 23
30.31999999999866
 33
0.0
  0
MTEXT
  5
108
330
100
100
AcDbEntity
  8
치수문자_일반주서
 62
     0
100
AcDbMText
 10
25.15
 20
34.69499999999866
 30
0.0
 40
3.5
 41
0.0
 71
     2
 72
     1
  1
\A1;50
  7
SLDTEXTSTYLE0
 73
     1
 44
1.0
  0
POINT
  5
109
330
100
100
AcDbEntity
  8
Defpoints
 62
     0
100
AcDbPoint
 10
50.14999999999999
 20
5.762499999999998
 30
0.0
  0
POINT
  5
10A
330
100
100
AcDbEntity
  8
Defpoints
 62
     0
100
AcDbPoint
 10
0.1500000000000004
 20
5.849999999999997
 30
0.0
  0
POINT
  5
147
330
100
100
AcDbEntity
  8
Defpoints
 62
     0
100
AcDbPoint
 10
0.1500000000000004
 20
30.31999999999866
 30
0.0
  0
ENDBLK
  5
102
330
100
100
AcDbEntity
  8
0
100
AcDbBlockEnd
  0
BLOCK
  5
10D
330
10C
100
AcDbEntity
  8
0
100
AcDbBlockBegin
  2
_D_4
 70
     0
 10
0.0
 20
0.0
 30
0.0
  3
_D_4
  1
_D_4
  0
LINE
  5
10F
330
10C
100
AcDbEntity
  8
치수문자_일반주서
 62
     0
370
    -2
100
AcDbLine
 10
20.89796332593692
 20
5.999999999999998
 30
0.0
 11
65.62371226481439
 21
6.000000000000165
 31
0.0
  0
LINE
  5
110
330
10C
100
AcDbEntity
  8
치수문자_일반주서
 62
     0
370
    -2
100
AcDbLine
 10
20.89796332593692
 20
-6.0
 30
0.0
 11
65.62371226481443
 21
-5.999999999999833
 31
0.0
  0
LINE
  5
111
330
10C
100
AcDbEntity
  8
치수문자_일반주서
 62
     0
370
    -2
100
AcDbLine
 10
65.6237122648144
 20
2.698000000000165
 30
0.0
 11
65.62371226481442
 21
-2.697999999999833
 31
0.0
  0
SOLID
  5
112
330
10C
100
AcDbEntity
  8
치수문자_일반주서
 62
     0
100
AcDbTrace
 10
66.17404559814773
 20
2.698000000000167
 30
0.0
 11
65.07337893148107
 21
2.698000000000163
 31
0.0
 12
65.62371226481439
 22
6.000000000000165
 32
0.0
 13
65.62371226481439
 23
6.000000000000165
 33
0.0
  0
SOLID
  5
113
330
10C
100
AcDbEntity
  8
치수문자_일반주서
 62
     0
100
AcDbTrace
 10
65.07337893148109
 20
-2.697999999999835
 30
0.0
 11
66.17404559814774
 21
-2.697999999999831
 31
0.0
 12
65.62371226481443
 22
-5.999999999999833
 32
0.0
 13
65.62371226481443
 23
-5.999999999999833
 33
0.0
  0
MTEXT
  5
114
330
10C
100
AcDbEntity
  8
치수문자_일반주서
 62
     0
100
AcDbMText
 10
61.24871226481442
 20
0.0000000000001231
 30
0.0
 40
3.5
 41
0.0
 71
     2
 72
     1
  1
\A1;%%c12
  7
SLDTEXTSTYLE0
 11
-3.552713678800502E-15
 21
1.0
 31
0.0
 73
     1
 44
1.0
  0
POINT
  5
115
330
10C
100
AcDbEntity
  8
Defpoints
 62
     0
100
AcDbPoint
 10
20.83546332593692
 20
5.999999999999998
 30
0.0
  0
POINT
  5
116
330
10C
100
AcDbEntity
  8
Defpoints
 62
     0
100
AcDbPoint
 10
20.83546332593692
 20
-6.0
 30
0.0
  0
POINT
  5
143
330
10C
100
AcDbEntity
  8
Defpoints
 62
     0
100
AcDbPoint
 10
65.62371226481443
 20
-5.999999999999833
 30
0.0
  0
ENDBLK
  5
10E
330
10C
100
AcDbEntity
  8
0
100
AcDbBlockEnd
  0
BLOCK
  5
118
330
117
100
AcDbEntity
  8
0
100
AcDbBlockBegin
  2
SW_DOWELSYMBOL_0
 70
     0
 10
0.0
 20
0.0
 30
0.0
  3
SW_DOWELSYMBOL_0
  1
SW_DOWELSYMBOL_0
  0
CIRCLE
  5
11A
330
117
100
AcDbEntity
  8
외형선
 62
     0
100
AcDbCircle
 10
0.0
 20
0.0
 30
0.0
 40
3.000000000000004
  0
HATCH
  5
11B
330
117
100
AcDbEntity
  8
0
  6
Continuous
 62
     0
370
    35
100
AcDbHatch
 10
0.0
 20
0.0
 30
0.0
210
0.0
220
0.0
230
1.0
  2
SOLID
 70
     1
 71
     0
 91
        1
 92
        0
 93
        3
 72
     2
 10
0.0000000000000104
 20
0.0
 40
3.000000000000004
 50
0.0
 51
90.0
 73
     1
 72
     1
 10
0.0000000000000104
 20
3.000000000000004
 11
0.0000000000000104
 21
0.0
 72
     1
 10
0.0000000000000104
 20
0.0
 11
3.000000000000015
 21
0.0
 97
        0
 75
     0
 76
     1
 98
        1
 10
0.0
 20
0.0
  0
HATCH
  5
11C
330
117
100
AcDbEntity
  8
0
  6
Continuous
 62
     0
370
    35
100
AcDbHatch
 10
0.0
 20
0.0
 30
0.0
210
0.0
220
0.0
230
1.0
  2
SOLID
 70
     1
 71
     0
 91
        1
 92
        0
 93
        3
 72
     2
 10
0.0000000000000104
 20
0.0
 40
3.000000000000004
 50
180.0
 51
270.0000000000007
 73
     1
 72
     1
 10
0.0000000000000104
 20
-3.000000000000004
 11
0.0000000000000104
 21
0.0
 72
     1
 10
0.0000000000000104
 20
0.0
 11
-2.999999999999994
 21
0.0
 97
        0
 75
     0
 76
     1
 98
        1
 10
0.0
 20
0.0
  0
ENDBLK
  5
119
330
117
100
AcDbEntity
  8
0
100
AcDbBlockEnd
  0
BLOCK
  5
152
330
151
100
AcDbEntity
  8
0
100
AcDbBlockBegin
  2
*D8
 70
     1
 10
0.0
 20
0.0
 30
0.0
  3
*D8
  1
*D8
  0
LINE
  5
154
330
151
100
AcDbEntity
  8
치수문자_일반주서
 62
     0
370
    -2
100
AcDbLine
 10
51.86276997217252
 20
-8.672450836283383
 30
0.0
 11
63.82880982660308
 21
-26.43133464221568
 31
0.0
  0
MTEXT
  5
155
330
151
100
AcDbEntity
  8
치수문자_일반주서
 62
     0
100
AcDbMText
 10
63.43879006931757
 20
-21.15487288726787
 30
0.0
 40
3.5
 41
0.0
 71
     5
 72
     1
  1
\A1;R0.3
  7
SLDTEXTSTYLE0
 11
0.5587923298646696
 21
-0.8293076221067875
 31
0.0
 73
     1
 44
1.0
  0
SOLID
  5
156
330
151
100
AcDbEntity
  8
치수문자_일반주서
 62
     0
100
AcDbTrace
 10
52.31916560020528
 20
-8.36492879074786
 30
0.0
 11
51.40637434413975
 21
-8.979972881818906
 31
0.0
 12
50.01763769895938
 22
-5.934077068086771
 32
0.0
 13
50.01763769895938
 23
-5.934077068086771
 33
0.0
  0
LINE
  5
157
330
151
100
AcDbEntity
  8
치수문자_일반주서
 62
     0
100
AcDbLine
 10
49.75999999999997
 20
-5.685284781454731
 30
0.0
 11
49.93999999999998
 21
-5.685284781454731
 31
0.0
  0
LINE
  5
158
330
151
100
AcDbEntity
  8
치수문자_일반주서
 62
     0
100
AcDbLine
 10
49.84999999999997
 20
-5.775284781454731
 30
0.0
 11
49.84999999999997
 21
-5.595284781454732
 31
0.0
  0
POINT
  5
159
330
151
100
AcDbEntity
  8
Defpoints
 62
     0
100
AcDbPoint
 10
50.01763769895938
 20
-5.934077068086771
 30
0.0
  0
POINT
  5
15A
330
151
100
AcDbEntity
  8
Defpoints
 62
     0
100
AcDbPoint
 10
49.84999999999997
 20
-5.685284781454731
 30
0.0
  0
ENDBLK
  5
153
330
151
100
AcDbEntity
  8
0
100
AcDbBlockEnd
  0
ENDSEC
  0
SECTION
  2
ENTITIES
  0
LINE
  5
99
330
1F
100
AcDbEntity
  8
0
  6
Continuous
 62
     4
370
    25
100
AcDbLine
 10
0.0000000000000009
 20
5.999999999999996
 30
0.0
 11
-58.85000000000001
 21
5.999999999999993
 31
0.0
  0
LINE
  5
9A
330
1F
100
AcDbEntity
  8
0
  6
Continuous
 62
     4
370
    25
100
AcDbLine
 10
-58.85000000000001
 20
-6.000000000000004
 30
0.0
 11
0.0000000000000031
 21
-6.0
 31
0.0
1001
PE_URL
1000

  0
LINE
  5
9D
330
1F
100
AcDbEntity
  8
0
  6
Continuous
 62
     4
370
    25
100
AcDbLine
 10
-58.85000000000001
 20
5.999999999999991
 30
0.0
 11
-59.85000000000001
 21
4.999999999999992
 31
0.0
  0
LINE
  5
9E
330
1F
100
AcDbEntity
  8
0
  6
Continuous
 62
     4
370
    25
100
AcDbLine
 10
-59.85000000000001
 20
-5.000000000000003
 30
0.0
 11
-58.85000000000001
 21
-6.000000000000002
 31
0.0
  0
LINE
  5
9F
330
1F
100
AcDbEntity
  8
0
  6
Continuous
 62
     4
370
    25
100
AcDbLine
 10
17.1001062327749
 20
5.85
 30
0.0
 11
0.1500000000000004
 21
5.849999999999997
 31
0.0
  0
LINE
  5
A0
330
1F
100
AcDbEntity
  8
0
  6
Continuous
 62
     4
370
    25
100
AcDbLine
 10
20.15
 20
5.85
 30
0.0
 11
18.00026052962295
 21
5.85
 31
0.0
  0
LINE
  5
A1
330
1F
100
AcDbEntity
  8
0
  6
Continuous
 62
     4
370
    25
100
AcDbLine
 10
18.00026052962294
 20
-5.85
 30
0.0
 11
20.15
 21
-5.85
 31
0.0
  0
LINE
  5
A2
330
1F
100
AcDbEntity
  8
0
  6
Continuous
 62
     4
370
    25
100
AcDbLine
 10
0.1500000000000004
 20
-5.850000000000001
 30
0.0
 11
17.1001062327749
 21
-5.85
 31
0.0
  0
SPLINE
  5
A3
330
1F
100
AcDbEntity
  8
0
  6
Continuous
 62
     1
370
    25
100
AcDbSpline
210
0.0
220
0.0
230
1.0
 70
     8
 71
     3
 72
     9
 73
     5
 74
     0
 42
0.000000001
 43
0.00000001
 40
0.0
 40
0.0
 40
0.0
 40
0.0
 40
0.4992195541575838
 40
1.0
 40
1.0
 40
1.0
 40
1.0
 10
34.60605231787694
 20
1.537482835613848
 30
0.0
 10
34.32890195471273
 20
1.669478754653277
 30
0.0
 10
33.77373467238969
 20
1.933883299587755
 30
0.0
 10
33.21850010245193
 20
2.224505367305048
 30
0.0
 10
32.94044948697135
 20
2.370043215948159
 30
0.0
  0
LINE
  5
A4
330
1F
100
AcDbEntity
  8
0
  6
Continuous
 62
     4
370
    25
100
AcDbLine
 10
20.83546332593692
 20
5.999999999999998
 30
0.0
 11
20.15
 21
5.999999999999998
 31
0.0
  0
SPLINE
  5
A5
330
1F
100
AcDbEntity
  8
0
  6
Continuous
 62
     1
370
    25
100
AcDbSpline
210
0.0
220
0.0
230
1.0
 70
     8
 71
     3
 72
    19
 73
    15
 74
     0
 42
0.000000001
 43
0.00000001
 40
0.0
 40
0.0
 40
0.0
 40
0.0
 40
0.1503025614899029
 40
0.2583401832241616
 40
0.3236041396590255
 40
0.3708504612798842
 40
0.4364510763143683
 40
0.5151313741261093
 40
0.582778979510879
 40
0.6777518627057059
 40
0.7662900537984523
 40
0.8929530656193904
 40
0.9981336631833195
 40
1.0
 40
1.0
 40
1.0
 40
1.0
 10
32.62236154381071
 20
4.767832902937228
 30
0.0
 10
32.37392660500324
 20
4.755441503615009
 30
0.0
 10
31.94691639989029
 20
4.73414315487382
 30
0.0
 10
31.41336873550305
 20
4.715300351479483
 30
0.0
 10
31.05225257186745
 20
4.705000543357837
 30
0.0
 10
30.76352405081011
 20
4.698164798006932
 30
0.0
 10
30.44823660995959
 20
4.692179510286654
 30
0.0
 10
30.09896566582688
 20
4.687804787813247
 30
0.0
 10
29.70146924398006
 20
4.685363553945699
 30
0.0
 10
29.28836918744539
 20
4.685781309228695
 30
0.0
 10
28.77793149678118
 20
4.690278441197362
 30
0.0
 10
28.25098690692768
 20
4.70035000559673
 30
0.0
 10
27.86651631168355
 20
4.710473486743338
 30
0.0
 10
27.69035985373202
 20
4.716835989302821
 30
0.0
 10
27.68728860947011
 20
4.716946917960811
 30
0.0
  0
SPLINE
  5
A6
330
1F
100
AcDbEntity
  8
0
  6
Continuous
 62
     1
370
    25
100
AcDbSpline
210
0.0
220
0.0
230
1.0
 70
     8
 71
     3
 72
    26
 73
    22
 74
     0
 42
0.000000001
 43
0.00000001
 40
0.0
 40
0.0
 40
0.0
 40
0.0
 40
0.0703292966045282
 40
0.1296222707928698
 40
0.1737330713933676
 40
0.2016842641520245
 40
0.2400696159457608
 40
0.2852937248800177
 40
0.3215355496720791
 40
0.3488103574622777
 40
0.3824035730036228
 40
0.4239730498061774
 40
0.4768096086976418
 40
0.5552376047053633
 40
0.6086756848672817
 40
0.6826723266271613
 40
0.738440052242078
 40
0.791104807501256
 40
0.8531834160553801
 40
0.9261698441545178
 40
1.0
 40
1.0
 40
1.0
 40
1.0
 10
47.93302026496257
 20
4.10478046854605
 30
0.0
 10
47.70133410088184
 20
4.085181000902974
 30
0.0
 10
47.27431878650568
 20
4.049057683524835
 30
0.0
 10
46.63941965550224
 20
4.011760830398664
 30
0.0
 10
46.16386618746986
 20
3.988183475833642
 30
0.0
 10
45.78688644924986
 20
3.973402418800014
 30
0.0
 10
45.39602970332342
 20
3.961091625672281
 30
0.0
 10
44.97541525459093
 20
3.952511078282381
 30
0.0
 10
44.59414606801634
 20
3.948703165987915
 30
0.0
 10
44.25406258265927
 20
3.948087576046652
 30
0.0
 10
43.89482578477544
 20
3.950247660934156
 30
0.0
 10
43.44610941941331
 20
3.957339084894479
 30
0.0
 10
42.84007376341754
 20
3.974275761188944
 30
0.0
 10
42.19221942575854
 20
4.003141509932624
 30
0.0
 10
41.46994916544529
 20
4.047480178693236
 30
0.0
 10
40.82858973867184
 20
4.09711121918896
 30
0.0
 10
40.1866475468068
 20
4.156735460061756
 30
0.0
 10
39.59534242684992
 20
4.219091168048961
 30
0.0
 10
38.92719923087957
 20
4.299356034986094
 30
0.0
 10
38.16711780945384
 20
4.399164907299712
 30
0.0
 10
37.6820510318646
 20
4.474789494675401
 30
0.0
 10
37.43812384855409
 20
4.512819088619661
 30
0.0
  0
SPLINE
  5
A7
330
1F
100
AcDbEntity
  8
0
  6
Continuous
 62
     1
370
    25
100
AcDbSpline
210
0.0
220
0.0
230
1.0
 70
     8
 71
     3
 72
    27
 73
    23
 74
     0
 42
0.000000001
 43
0.00000001
 40
0.0
 40
0.0
 40
0.0
 40
0.0
 40
0.0710180153487835
 40
0.1227926715131299
 40
0.1560953859143957
 40
0.187209250331096
 40
0.2221166149703108
 40
0.2584947377309672
 40
0.289259955175136
 40
0.3521161369957036
 40
0.4358999853477317
 40
0.5041038681713964
 40
0.5433821040474961
 40
0.5905158152257793
 40
0.650661598481192
 40
0.7002050122976119
 40
0.7260412743204111
 40
0.7521451367576716
 40
0.7812135242573757
 40
0.8301357676293812
 40
0.903209200212303
 40
1.0
 40
1.0
 40
1.0
 40
1.0
 10
23.59864269115965
 20
-4.992826527996227
 30
0.0
 10
23.81166971152793
 20
-4.972027299395227
 30
0.0
 10
24.18000099770984
 20
-4.936064694233902
 30
0.0
 10
24.64850031180078
 20
-4.895607445257554
 30
0.0
 10
24.99975547201608
 20
-4.867306328667115
 30
0.0
 10
25.29999488734486
 20
-4.844545324614517
 30
0.0
 10
25.60859226026362
 20
-4.822617192010492
 30
0.0
 10
25.91554697936236
 20
-4.802407249545571
 30
0.0
 10
26.30654857718906
 20
-4.778557685218638
 30
0.0
 10
26.84053284842014
 20
-4.749855171689285
 30
0.0
 10
27.48702555756659
 20
-4.722535871136302
 30
0.0
 10
28.06288059255647
 20
-4.705013700402972
 30
0.0
 10
28.52736710660821
 20
-4.69477917914881
 30
0.0
 10
28.97216326776055
 20
-4.688115389222078
 30
0.0
 10
29.44961473659765
 20
-4.684756241135553
 30
0.0
 10
29.86059189614323
 20
-4.685808069839346
 30
0.0
 10
30.15338535985673
 20
-4.688585135256338
 30
0.0
 10
30.39338353274454
 20
-4.691549249894461
 30
0.0
 10
30.70662607941616
 20
-4.696824750395958
 30
0.0
 10
31.16060571185166
 20
-4.707362489735528
 30
0.0
 10
31.81892240478762
 20
-4.728306836386317
 30
0.0
 10
32.33072813184266
 20
-4.753485678499127
 30
0.0
 10
32.62236154381073
 20
-4.767832902937227
 30
0.0
  0
SPLINE
  5
A8
330
1F
100
AcDbEntity
  8
0
  6
Continuous
 62
     1
370
    25
100
AcDbSpline
210
0.0
220
0.0
230
1.0
 70
     8
 71
     3
 72
    13
 73
     9
 74
     0
 42
0.000000001
 43
0.00000001
 40
0.0
 40
0.0
 40
0.0
 40
0.0
 40
0.1965907635531869
 40
0.3871875253100117
 40
0.5410504611876695
 40
0.67895692272382
 40
0.867092933185614
 40
1.0
 40
1.0
 40
1.0
 40
1.0
 10
37.43812384855411
 20
-4.512819088619662
 30
0.0
 10
37.71848935758788
 20
-4.469365491893972
 30
0.0
 10
38.27067210342528
 20
-4.383783187425802
 30
0.0
 10
39.11782433439814
 20
-4.275216605963294
 30
0.0
 10
39.84267275539242
 20
-4.191604501635152
 30
0.0
 10
40.56109484031318
 20
-4.120537995971801
 30
0.0
 10
41.2515046185088
 20
-4.062234057472209
 30
0.0
 10
41.73362380966537
 20
-4.032448176670955
 30
0.0
 10
41.93321399580236
 20
-4.020117264310642
 30
0.0
  0
LINE
  5
A9
330
1F
100
AcDbEntity
  8
0
  6
Continuous
 62
     4
370
    25
100
AcDbLine
 10
20.15
 20
-6.0
 30
0.0
 11
20.83546332593692
 21
-6.0
 31
0.0
  0
LINE
  5
AB
330
1F
100
AcDbEntity
  8
0
  6
Continuous
 62
     4
370
    25
100
AcDbLine
 10
-58.85000000000001
 20
5.999999999999991
 30
0.0
 11
-58.85000000000001
 21
-6.000000000000002
 31
0.0
  0
LINE
  5
AC
330
1F
100
AcDbEntity
  8
0
  6
Continuous
 62
     4
370
    25
100
AcDbLine
 10
0.1500000000000004
 20
5.849999999999997
 30
0.0
 11
0.1500000000000004
 21
-5.850000000000001
 31
0.0
1001
PE_URL
1000

  0
LINE
  5
AD
330
1F
100
AcDbEntity
  8
0
  6
Continuous
 62
     4
370
    25
100
AcDbLine
 10
-59.85000000000001
 20
4.999999999999992
 30
0.0
 11
-59.85000000000001
 21
-5.000000000000003
 31
0.0
  0
LINE
  5
AE
330
1F
100
AcDbEntity
  8
0
  6
Continuous
 62
     4
370
    25
100
AcDbLine
 10
20.15
 20
5.849999999999997
 30
0.0
 11
20.15
 21
5.725123994794953
 31
0.0
  0
SPLINE
  5
AF
330
1F
100
AcDbEntity
  8
0
  6
Continuous
 62
     4
370
    25
100
AcDbSpline
210
0.0
220
0.0
230
1.0
 70
     8
 71
     3
 72
    14
 73
    10
 74
     0
 42
0.000000001
 43
0.00000001
 40
0.0
 40
0.0
 40
0.0
 40
0.0
 40
0.25
 40
0.25
 40
0.5
 40
0.5
 40
0.75
 40
0.75
 40
1.0
 40
1.0
 40
1.0
 40
1.0
 10
20.15000000001186
 20
5.725123994793581
 30
0.0
 10
19.8956241333014
 20
5.754550243964739
 30
0.0
 10
19.64303483640896
 20
5.778774813683112
 30
0.0
 10
19.13519704723799
 20
5.816906889507138
 30
0.0
 10
18.88020122711171
 20
5.830789248743443
 30
0.0
 10
18.37011228549981
 20
5.848028257438643
 30
0.0
 10
18.11502101883274
 20
5.851384837172084
 30
0.0
 10
17.60680400552824
 20
5.847583617524495
 30
0.0
 10
17.35432026253079
 20
5.840447551321435
 30
0.0
 10
17.10010623277495
 20
5.828061639669458
 30
0.0
  0
SPLINE
  5
B0
330
1F
100
AcDbEntity
  8
0
  6
Continuous
 62
     4
370
    25
100
AcDbSpline
210
0.0
220
0.0
230
1.0
 70
     8
 71
     3
 72
    14
 73
    10
 74
     0
 42
0.000000001
 43
0.00000001
 40
0.0
 40
0.0
 40
0.0
 40
0.0
 40
0.25
 40
0.25
 40
0.5
 40
0.5
 40
0.75
 40
0.75
 40
1.0
 40
1.0
 40
1.0
 40
1.0
 10
20.15000000001186
 20
-5.832819442317684
 30
0.0
 10
19.8956334067803
 20
-5.821854427786705
 30
0.0
 10
19.64305327163396
 20
-5.805686133235011
 30
0.0
 10
19.13523415292203
 20
-5.76291655039241
 30
0.0
 10
18.88024770942911
 20
-5.736303494000413
 30
0.0
 10
18.37017737742172
 20
-5.672790195968256
 30
0.0
 10
18.1150953433878
 20
-5.635890178365439
 30
0.0
 10
17.60689642822083
 20
-5.552138869234846
 30
0.0
 10
17.35442193606949
 20
-5.505342079721438
 30
0.0
 10
17.10021744366392
 20
-5.453542004055261
 30
0.0
  0
LINE
  5
B1
330
1F
100
AcDbEntity
  8
0
  6
Continuous
 62
     4
370
    25
100
AcDbLine
 10
17.10010623277495
 20
-5.82806163966946
 30
0.0
 11
18.00026052962294
 21
-5.830291897925434
 31
0.0
  0
LINE
  5
B2
330
1F
100
AcDbEntity
  8
0
  6
Continuous
 62
     4
370
    25
100
AcDbLine
 10
17.10010623277495
 20
-5.85
 30
0.0
 11
17.10010623277495
 21
-5.828056706184727
 31
0.0
  0
LINE
  5
B3
330
1F
100
AcDbEntity
  8
0
  6
Continuous
 62
     4
370
    25
100
AcDbLine
 10
17.1001062327749
 20
-5.453443069296861
 30
0.0
 11
17.10010623277495
 21
5.85
 31
0.0
  0
SPLINE
  5
B4
330
1F
100
AcDbEntity
  8
0
  6
Continuous
 62
     4
370
    25
100
AcDbSpline
210
0.0
220
0.0
230
1.0
 70
     8
 71
     3
 72
    14
 73
    10
 74
     0
 42
0.000000001
 43
0.00000001
 40
0.0
 40
0.0
 40
0.0
 40
0.0
 40
0.25
 40
0.25
 40
0.5
 40
0.5
 40
0.75
 40
0.75
 40
1.0
 40
1.0
 40
1.0
 40
1.0
 10
20.15000000000022
 20
-5.059358906871031
 30
0.0
 10
19.89563340676966
 20
-5.043632388280447
 30
0.0
 10
19.64305327162431
 20
-5.023407122850581
 30
0.0
 10
19.13523415291427
 20
-4.973918810668565
 30
0.0
 10
18.88024770942231
 20
-4.944647658237111
 30
0.0
 10
18.37017737741687
 20
-4.877248446924911
 30
0.0
 10
18.11509534338391
 20
-4.839120627167871
 30
0.0
 10
17.60689642821891
 20
-4.754348692709995
 30
0.0
 10
17.35442193606852
 20
-4.707756765499404
 30
0.0
 10
17.10021744366392
 20
-4.656877373397911
 30
0.0
  0
SPLINE
  5
B5
330
1F
100
AcDbEntity
  8
0
  6
Continuous
 62
     4
370
    25
100
AcDbSpline
210
0.0
220
0.0
230
1.0
 70
     8
 71
     3
 72
    14
 73
    10
 74
     0
 42
0.000000001
 43
0.00000001
 40
0.0
 40
0.0
 40
0.0
 40
0.0
 40
0.25
 40
0.25
 40
0.5
 40
0.5
 40
0.75
 40
0.75
 40
1.0
 40
1.0
 40
1.0
 40
1.0
 10
20.15000000000002
 20
-1.210383212112767
 30
0.0
 10
19.89562752032439
 20
-1.096698536724503
 30
0.0
 10
19.64304156965824
 20
-0.9821949171996898
 30
0.0
 10
19.13521059966494
 20
-0.7512331475181595
 30
0.0
 10
18.88021820424949
 20
-0.6348102424464817
 30
0.0
 10
18.37013605958574
 20
-0.4010153360603189
 30
0.0
 10
18.11504816503255
 20
-0.2836441842357361
 30
0.0
 10
17.60683776186179
 20
-0.0489051978042944
 30
0.0
 10
17.354357397662
 20
0.0683633095383876
 30
0.0
 10
17.10014685131424
 20
0.1857315378670769
 30
0.0
  0
SPLINE
  5
B6
330
1F
100
AcDbEntity
  8
0
  6
Continuous
 62
     4
370
    25
100
AcDbSpline
210
0.0
220
0.0
230
1.0
 70
    24
 71
     3
 72
    14
 73
    10
 74
     0
 42
0.000000001
 43
0.00000001
 40
0.0
 40
0.0
 40
0.0
 40
0.0
 40
0.2499999999999998
 40
0.2499999999999998
 40
0.4999999999999999
 40
0.4999999999999999
 40
0.75
 40
0.75
 40
1.0
 40
1.0
 40
1.0
 40
1.0
 10
20.15
 20
-1.210383212112759
 30
0.0
 10
20.15
 20
-1.641673868835749
 30
0.0
 10
20.15
 20
-2.065376688982947
 30
0.0
 10
20.15
 20
-2.864625553100561
 30
0.0
 10
20.15
 20
-3.239904182672835
 30
0.0
 10
20.15
 20
-3.912608048589627
 30
0.0
 10
20.15
 20
-4.209839028478335
 30
0.0
 10
20.15
 20
-4.707887056136378
 30
0.0
 10
20.15
 20
-4.908673867631157
 30
0.0
 10
20.15
 20
-5.059358906871016
 30
0.0
  0
SPLINE
  5
B7
330
1F
100
AcDbEntity
  8
0
  6
Continuous
 62
     4
370
    25
100
AcDbSpline
210
0.0
220
0.0
230
1.0
 70
     8
 71
     3
 72
    14
 73
    10
 74
     0
 42
0.000000001
 43
0.00000001
 40
0.0
 40
0.0
 40
0.0
 40
0.0
 40
0.25
 40
0.25
 40
0.5
 40
0.5
 40
0.75
 40
0.75
 40
1.0
 40
1.0
 40
1.0
 40
1.0
 10
20.15
 20
4.064275864760425
 30
0.0
 10
19.89562636798001
 20
4.090197339898769
 30
0.0
 10
19.64303927885354
 20
4.11241441638391
 30
0.0
 10
19.13520598882481
 20
4.149515086704582
 30
0.0
 10
18.88021242824677
 20
4.164379127435337
 30
0.0
 10
18.37012797111018
 20
4.186581566035329
 30
0.0
 10
18.11503892928874
 20
4.193919878137071
 30
0.0
 10
17.60682627720268
 20
4.20103903184378
 30
0.0
 10
17.35434476346476
 20
4.200831326415322
 30
0.0
 10
17.10013303198394
 20
4.19685442076345
 30
0.0
  0
SPLINE
  5
B8
330
1F
100
AcDbEntity
  8
0
  6
Continuous
 62
     4
370
    25
100
AcDbSpline
210
0.0
220
0.0
230
1.0
 70
    24
 71
     3
 72
    14
 73
    10
 74
     0
 42
0.000000001
 43
0.00000001
 40
0.0
 40
0.0
 40
0.0
 40
0.0
 40
0.2500000000000001
 40
0.2500000000000001
 40
0.5000000000000001
 40
0.5000000000000001
 40
0.75
 40
0.75
 40
1.0
 40
1.0
 40
1.0
 40
1.0
 10
20.15
 20
4.064275864760427
 30
0.0
 10
20.15000000000001
 20
3.823823148078673
 30
0.0
 10
20.15
 20
3.517547293879639
 30
0.0
 10
20.15
 20
2.784364806032447
 30
0.0
 10
20.15000000000002
 20
2.357580027607879
 30
0.0
 10
20.15000000000001
 20
1.420121035371003
 30
0.0
 10
20.15
 20
0.909946338903252
 30
0.0
 10
20.15
 20
-0.140978680509847
 30
0.0
 10
20.15
 20
-0.6811608617014276
 30
0.0
 10
20.15
 20
-1.210383212112759
 30
0.0
  0
SPLINE
  5
B9
330
1F
100
AcDbEntity
  8
0
  6
Continuous
 62
     4
370
    25
100
AcDbSpline
210
0.0
220
0.0
230
1.0
 70
    24
 71
     3
 72
     8
 73
     4
 74
     0
 42
0.000000001
 43
0.00000001
 40
0.0
 40
0.0
 40
0.0
 40
0.0
 40
1.0
 40
1.0
 40
1.0
 40
1.0
 10
20.15
 20
-5.059358906871018
 30
0.0
 10
20.15
 20
-5.320320778426852
 30
0.0
 10
20.15
 20
-5.579299476517541
 30
0.0
 10
20.15
 20
-5.832819442305629
 30
0.0
  0
SPLINE
  5
BA
330
1F
100
AcDbEntity
  8
0
  6
Continuous
 62
     4
370
    25
100
AcDbSpline
210
0.0
220
0.0
230
1.0
 70
    24
 71
     3
 72
    10
 73
     6
 74
     0
 42
0.000000001
 43
0.00000001
 40
0.0
 40
0.0
 40
0.0
 40
0.0
 40
0.5
 40
0.5
 40
1.0
 40
1.0
 40
1.0
 40
1.0
 10
20.15
 20
5.725123994794925
 30
0.0
 10
20.15
 20
5.466090239649274
 30
0.0
 10
20.15
 20
5.180284731226983
 30
0.0
 10
20.15
 20
4.608762110210409
 30
0.0
 10
20.15
 20
4.324135111276846
 30
0.0
 10
20.15
 20
4.064275864760425
 30
0.0
  0
SPLINE
  5
BB
330
1F
100
AcDbEntity
  8
0
  6
Continuous
 62
     1
370
    25
100
AcDbSpline
210
0.0
220
0.0
230
1.0
 70
     8
 71
     3
 72
    56
 73
    52
 74
     0
 42
0.000000001
 43
0.00000001
 40
0.0
 40
0.0
 40
0.0
 40
0.0
 40
0.0625000000000002
 40
0.0625000000000002
 40
0.1250000000000004
 40
0.1250000000000004
 40
0.1562500000000004
 40
0.1562500000000004
 40
0.1875000000000006
 40
0.1875000000000006
 40
0.2187500000000006
 40
0.2187500000000006
 40
0.2500000000000007
 40
0.2500000000000007
 40
0.3125000000000009
 40
0.3125000000000009
 40
0.3437500000000011
 40
0.3437500000000011
 40
0.3750000000000012
 40
0.3750000000000012
 40
0.4062500000000012
 40
0.4062500000000012
 40
0.4375000000000014
 40
0.4375000000000014
 40
0.5000000000000017
 40
0.5000000000000017
 40
0.562500000000002
 40
0.562500000000002
 40
0.5937500000000018
 40
0.5937500000000018
 40
0.6250000000000017
 40
0.6250000000000017
 40
0.6562500000000016
 40
0.6562500000000016
 40
0.6875000000000014
 40
0.6875000000000014
 40
0.7500000000000009
 40
0.7500000000000009
 40
0.7812500000000007
 40
0.7812500000000007
 40
0.8125000000000004
 40
0.8125000000000004
 40
0.8437500000000002
 40
0.8437500000000002
 40
0.875
 40
0.875
 40
0.9374999999999998
 40
0.9374999999999998
 40
0.9687499999999999
 40
0.9687499999999999
 40
1.0
 40
1.0
 40
1.0
 40
1.0
 10
49.84999999999907
 20
-5.985284781456282
 30
0.0
 10
49.23226471227878
 20
-5.960295578203809
 30
0.0
 10
48.60824776283006
 20
-5.903181831440175
 30
0.0
 10
47.37725884694397
 20
-5.727641955208901
 30
0.0
 10
46.75365247574389
 20
-5.608444521399179
 30
0.0
 10
45.82666521143346
 20
-5.386466912336171
 30
0.0
 10
45.51943168109595
 20
-5.305379524350859
 30
0.0
 10
44.90010612004983
 20
-5.128897564744375
 30
0.0
 10
44.58944281642184
 20
-5.033608940086617
 30
0.0
 10
43.96982888055113
 20
-4.830069233394463
 30
0.0
 10
43.66229591152546
 20
-4.721999214812644
 30
0.0
 10
43.04479041644108
 20
-4.493349008030472
 30
0.0
 10
42.73439980582172
 20
-4.37269341894243
 30
0.0
 10
41.8038687448426
 20
-3.993815697759378
 30
0.0
 10
41.18917200908331
 20
-3.719413575721914
 30
0.0
 10
40.25885955177171
 20
-3.279176110566482
 30
0.0
 10
39.94833015670186
 20
-3.127793789519649
 30
0.0
 10
39.33012928868244
 20
-2.817592591074922
 30
0.0
 10
39.02298851018645
 20
-2.658880036026143
 30
0.0
 10
38.40381108830832
 20
-2.333975385291196
 30
0.0
 10
38.09315539140331
 20
-2.168010429493208
 30
0.0
 10
37.47342344153398
 20
-1.8310338569714
 30
0.0
 10
37.16570685982094
 20
-1.660279261055513
 30
0.0
 10
36.23980742415662
 20
-1.141592040340086
 30
0.0
 10
35.6157274775923
 20
-0.786587012868637
 30
0.0
 10
34.38355836635179
 20
-0.0750182302588268
 30
0.0
 10
33.76121026516128
 20
0.284258925231423
 30
0.0
 10
32.83360909673107
 20
0.8169349818923686
 30
0.0
 10
32.52653236687038
 20
0.9932403846795803
 30
0.0
 10
31.90751258169811
 20
1.343670281857176
 30
0.0
 10
31.59686929502099
 20
1.517541949656539
 30
0.0
 10
30.97702885712192
 20
1.860515313696614
 30
0.0
 10
30.66909998892199
 20
2.029388897351446
 30
0.0
 10
30.05208230291212
 20
2.361523897986722
 30
0.0
 10
29.74180409319681
 20
2.524989838668849
 30
0.0
 10
28.81120904487561
 20
3.004602355337149
 30
0.0
 10
28.19638800096228
 20
3.309101295178782
 30
0.0
 10
27.26628762648733
 20
3.738382345570967
 30
0.0
 10
26.9556953643629
 20
3.876766225101086
 30
0.0
 10
26.33710413224659
 20
4.142484537331729
 30
0.0
 10
26.03006274454327
 20
4.269706702065166
 30
0.0
 10
25.41121008553829
 20
4.513131693879452
 30
0.0
 10
25.10058401195309
 20
4.629151723452608
 30
0.0
 10
24.48064461755899
 20
4.848398798193728
 30
0.0
 10
24.17247479991164
 20
4.951507617818827
 30
0.0
 10
23.24733525820174
 20
5.24082784136386
 30
0.0
 10
22.62323130717076
 20
5.407469069966202
 30
0.0
 10
21.69827536373748
 20
5.612148884246001
 30
0.0
 10
21.38998451030193
 20
5.673025638093899
 30
0.0
 10
20.77000260493807
 20
5.779740215269732
 30
0.0
 10
20.45938610888086
 20
5.825496303660308
 30
0.0
 10
20.15000000000001
 20
5.863392775280904
 30
0.0
  0
SPLINE
  5
BD
330
1F
100
AcDbEntity
  8
0
  6
Continuous
 62
     1
370
    25
100
AcDbSpline
210
0.0
220
0.0
230
1.0
 70
     8
 71
     3
 72
    13
 73
     9
 74
     0
 42
0.000000001
 43
0.00000001
 40
0.0
 40
0.0
 40
0.0
 40
0.0
 40
0.1069880372198999
 40
0.2895593089450239
 40
0.4719790467214053
 40
0.6545402383207812
 40
0.8272844794705155
 40
1.0
 40
1.0
 40
1.0
 40
1.0
 10
35.23832397579724
 20
-0.5647173641427575
 30
0.0
 10
34.70020412982036
 20
-0.3496630991650083
 30
0.0
 10
33.2438019489821
 20
0.2323736029818616
 30
0.0
 10
30.86989067893193
 20
1.192769481742796
 30
0.0
 10
28.11634208306201
 20
2.219968247167612
 30
0.0
 10
25.41172783513788
 20
3.071955118255933
 30
0.0
 10
22.75609151171262
 20
3.724536262918979
 30
0.0
 10
21.01864902176408
 20
3.951035607667477
 30
0.0
 10
20.15
 20
4.064275864760427
 30
0.0
  0
SPLINE
  5
BE
330
1F
100
AcDbEntity
  8
0
  6
Continuous
 62
     4
370
    25
100
AcDbSpline
210
0.0
220
0.0
230
1.0
 70
    24
 71
     3
 72
    10
 73
     6
 74
     0
 42
0.000000001
 43
0.00000001
 40
0.0
 40
0.0
 40
0.0
 40
0.0
 40
0.5
 40
0.5
 40
1.0
 40
1.0
 40
1.0
 40
1.0
 10
20.15
 20
5.863392775280893
 30
0.0
 10
20.15
 20
5.592002895222556
 30
0.0
 10
20.15
 20
5.283778606257151
 30
0.0
 10
20.15
 20
4.66077588120942
 30
0.0
 10
20.15
 20
4.347707522332302
 30
0.0
 10
20.15
 20
4.064275864760425
 30
0.0
  0
SPLINE
  5
BF
330
1F
100
AcDbEntity
  8
0
  6
Continuous
 62
     1
370
    25
100
AcDbSpline
210
0.0
220
0.0
230
1.0
 70
     8
 71
     3
 72
    15
 73
    11
 74
     0
 42
0.000000001
 43
0.00000001
 40
0.0
 40
0.0
 40
0.0
 40
0.0
 40
0.1327039164217282
 40
0.2653985251788515
 40
0.3980848695433174
 40
0.5307639973127559
 40
0.6634369602426854
 40
0.7961048134741116
 40
0.9287686149571712
 40
1.0
 40
1.0
 40
1.0
 40
1.0
 10
50.14999999999999
 20
-4.733833586209292
 30
0.0
 10
49.46126501471029
 20
-4.590038153445159
 30
0.0
 10
48.08384335102649
 20
-4.30245737352473
 30
0.0
 10
46.01780579450507
 20
-3.651684117297511
 30
0.0
 10
43.9519142644244
 20
-2.870440921316337
 30
0.0
 10
41.88615223357356
 20
-1.972798453059431
 30
0.0
 10
39.82050022592401
 20
-0.9976519646270406
 30
0.0
 10
37.75493988871668
 20
0.0140661173376217
 30
0.0
 10
36.00825547168586
 20
0.8784239882710867
 30
0.0
 10
34.95009081411036
 20
1.369798002355041
 30
0.0
 10
34.58041786867815
 20
1.541460964064098
 30
0.0
  0
SPLINE
  5
C0
330
1F
100
AcDbEntity
  8
0
  6
Continuous
 62
     1
370
    25
100
AcDbSpline
210
0.0
220
0.0
230
1.0
 70
    24
 71
     3
 72
     8
 73
     4
 74
     0
 42
0.000000001
 43
0.00000001
 40
0.0
 40
0.0
 40
0.0
 40
0.0
 40
1.0
 40
1.0
 40
1.0
 40
1.0
 10
50.14999999999999
 20
-5.369911850982023
 30
0.0
 10
50.14999999999999
 20
-5.157473581127372
 30
0.0
 10
50.14999999999999
 20
-4.944853146560093
 30
0.0
 10
50.14999999999999
 20
-4.733833586209292
 30
0.0
  0
SPLINE
  5
C1
330
1F
100
AcDbEntity
  8
0
  6
Continuous
 62
     1
370
    25
100
AcDbSpline
210
0.0
220
0.0
230
1.0
 70
     8
 71
     3
 72
    10
 73
     6
 74
     0
 42
0.000000001
 43
0.00000001
 40
0.0
 40
0.0
 40
0.0
 40
0.0
 40
0.5
 40
0.5
 40
1.0
 40
1.0
 40
1.0
 40
1.0
 10
50.14999999999999
 20
-5.3699118509769
 30
0.0
 10
50.15000000000003
 20
-5.452647218094643
 30
0.0
 10
50.11683031220898
 20
-5.535387237476327
 30
0.0
 10
49.99984765282788
 20
-5.635576256646801
 30
0.0
 10
49.92164626196458
 20
-5.650700284322319
 30
0.0
 10
49.84999999999967
 20
-5.636506585636726
 30
0.0
  0
SPLINE
  5
C2
330
1F
100
AcDbEntity
  8
0
  6
Continuous
 62
     1
370
    25
100
AcDbSpline
210
0.0
220
0.0
230
1.0
 70
     8
 71
     3
 72
    21
 73
    17
 74
     0
 42
0.000000001
 43
0.00000001
 40
0.0
 40
0.0
 40
0.0
 40
0.0
 40
0.0716565768438582
 40
0.1433165199505901
 40
0.2149801959723049
 40
0.2866444825261198
 40
0.3583050040050426
 40
0.429962099877147
 40
0.5016161379917782
 40
0.5732674874856828
 40
0.6483270022119298
 40
0.7233865165388506
 40
0.7984460304656104
 40
0.8735055439913731
 40
0.948565057115304
 40
1.0
 40
1.0
 40
1.0
 40
1.0
 10
49.85000000000002
 20
-5.636506585636584
 30
0.0
 10
49.15698296064723
 20
-5.477589741243591
 30
0.0
 10
47.77091632557856
 20
-5.159748586905981
 30
0.0
 10
45.69174101316037
 20
-4.416949652806022
 30
0.0
 10
43.61246602911336
 20
-3.514118356806019
 30
0.0
 10
41.53317914898189
 20
-2.466805256707872
 30
0.0
 10
39.45398501619746
 20
-1.322245794801566
 30
0.0
 10
37.37491069114042
 20
-0.1246670667337057
 30
0.0
 10
35.29593227891512
 20
1.077795977182729
 30
0.0
 10
33.1841055759941
 20
2.255616336105946
 30
0.0
 10
31.03919536649593
 20
3.357800633664705
 30
0.0
 10
28.86136364121968
 20
4.329265391911367
 30
0.0
 10
26.68352082681014
 20
5.11394420596107
 30
0.0
 10
24.50568100315845
 20
5.665007767588926
 30
0.0
 10
22.55632818317599
 20
5.969279326466016
 30
0.0
 10
21.33292235291559
 20
5.970943939505624
 30
0.0
 10
20.83546332593692
 20
5.971620801396009
 30
0.0
  0
LINE
  5
C3
330
1F
100
AcDbEntity
  8
0
  6
Continuous
 62
     4
370
    25
100
AcDbLine
 10
20.15
 20
5.863392775280905
 30
0.0
 11
20.15
 21
5.999999999999994
 31
0.0
  0
SPLINE
  5
C4
330
1F
100
AcDbEntity
  8
0
  6
Continuous
 62
     1
370
    25
100
AcDbSpline
210
0.0
220
0.0
230
1.0
 70
     8
 71
     3
 72
    16
 73
    12
 74
     0
 42
0.000000001
 43
0.00000001
 40
0.0
 40
0.0
 40
0.0
 40
0.0
 40
0.1178508868979031
 40
0.2356933931143833
 40
0.3535284579354937
 40
0.4713570247366083
 40
0.5891800404694251
 40
0.7069984551447895
 40
0.8248132213119505
 40
0.9426252935348367
 40
1.0
 40
1.0
 40
1.0
 40
1.0
 10
50.14999999999999
 20
0.0000000000000065
 30
0.0
 10
49.46126369511548
 20
0.3180534130348082
 30
0.0
 10
48.08384006316663
 20
0.9541376215034729
 30
0.0
 10
46.01779785586984
 20
1.870721198166327
 30
0.0
 10
43.95190183179363
 20
2.713552756663162
 30
0.0
 10
41.88613523204602
 20
3.449696809534033
 30
0.0
 10
39.82047874680642
 20
4.04925722484023
 30
0.0
 10
37.7549136041813
 20
4.492044196991586
 30
0.0
 10
35.68942105576328
 20
4.747898420311902
 30
0.0
 10
33.97715914956058
 20
4.836074416889039
 30
0.0
 10
32.95339330973315
 20
4.766816839640843
 30
0.0
 10
32.61810394035813
 20
4.74413457334848
 30
0.0
  0
SPLINE
  5
C5
330
1F
100
AcDbEntity
  8
0
  6
Continuous
 62
     1
370
    25
100
AcDbSpline
210
0.0
220
0.0
230
1.0
 70
    24
 71
     3
 72
    14
 73
    10
 74
     0
 42
0.000000001
 43
0.00000001
 40
0.0
 40
0.0
 40
0.0
 40
0.0
 40
0.2499999999999999
 40
0.2499999999999999
 40
0.5000000000000001
 40
0.5000000000000001
 40
0.75
 40
0.75
 40
1.0
 40
1.0
 40
1.0
 40
1.0
 10
50.14999999999999
 20
-4.73383358620929
 30
0.0
 10
50.15000000000003
 20
-4.4776944946116
 30
0.0
 10
50.15000000000001
 20
-4.174493812518222
 30
0.0
 10
50.14999999999999
 20
-3.485937613174658
 30
0.0
 10
50.14999999999999
 20
-3.10067913658426
 30
0.0
 10
50.14999999999999
 20
-2.273324430659115
 30
0.0
 10
50.14999999999999
 20
-1.831467116248175
 30
0.0
 10
50.14999999999999
 20
-0.9244851556766404
 30
0.0
 10
50.14999999999999
 20
-0.4596295477466187
 30
0.0
 10
50.14999999999999
 20
0.0000000000000065
 30
0.0
  0
LINE
  5
C6
330
1F
100
AcDbEntity
  8
0
  6
Continuous
 62
     1
370
    25
100
AcDbLine
 10
50.14999999999999
 20
4.200000000000005
 30
0.0
 11
47.92841954666704
 21
4.081702486672677
 31
0.0
  0
SPLINE
  5
C7
330
1F
100
AcDbEntity
  8
0
  6
Continuous
 62
     1
370
    25
100
AcDbSpline
210
0.0
220
0.0
230
1.0
 70
    24
 71
     3
 72
    14
 73
    10
 74
     0
 42
0.000000001
 43
0.00000001
 40
0.0
 40
0.0
 40
0.0
 40
0.0
 40
0.25
 40
0.25
 40
0.5
 40
0.5
 40
0.75
 40
0.75
 40
1.0
 40
1.0
 40
1.0
 40
1.0
 10
50.14999999999999
 20
0.000000000000008
 30
0.0
 10
50.15000000000001
 20
0.4997061102083823
 30
0.0
 10
50.14999999999999
 20
0.9932614582527305
 30
0.0
 10
50.14999999999998
 20
1.916235299746536
 30
0.0
 10
50.14999999999999
 20
2.345080382248605
 30
0.0
 10
50.14999999999998
 20
3.091541472910963
 30
0.0
 10
50.14999999999999
 20
3.408759735393941
 30
0.0
 10
50.14999999999999
 20
3.906399325268141
 30
0.0
 10
50.14999999999999
 20
4.086844646618343
 30
0.0
 10
50.14999999999999
 20
4.200000000000005
 30
0.0
  0
SPLINE
  5
C8
330
1F
100
AcDbEntity
  8
0
  6
Continuous
 62
     1
370
    25
100
AcDbSpline
210
0.0
220
0.0
230
1.0
 70
     8
 71
     3
 72
     9
 73
     5
 74
     0
 42
0.000000001
 43
0.00000001
 40
0.0
 40
0.0
 40
0.0
 40
0.0
 40
0.4961106098833515
 40
1.0
 40
1.0
 40
1.0
 40
1.0
 10
23.59893929811579
 20
-4.991713544563043
 30
0.0
 10
23.02857679802459
 20
-5.037956435829153
 30
0.0
 10
21.87890878301218
 20
-5.131167285072996
 30
0.0
 10
20.72928382098099
 20
-5.083418841155591
 30
0.0
 10
20.15000000000022
 20
-5.059358906871029
 30
0.0
  0
SPLINE
  5
C9
330
1F
100
AcDbEntity
  8
0
  6
Continuous
 62
     1
370
    25
100
AcDbSpline
210
0.0
220
0.0
230
1.0
 70
     8
 71
     3
 72
    16
 73
    12
 74
     0
 42
0.000000001
 43
0.00000001
 40
0.0
 40
0.0
 40
0.0
 40
0.0
 40
0.1013779995275721
 40
0.2208177854549445
 40
0.3402558094795337
 40
0.4596930418369166
 40
0.5791304532004531
 40
0.6985690141445083
 40
0.7989899559806096
 40
0.8995035523717634
 40
0.9999999999999999
 40
0.9999999999999999
 40
0.9999999999999999
 40
0.9999999999999999
 10
37.44250885808184
 20
-4.500532974458317
 30
0.0
 10
36.85814098316576
 20
-4.584900303582997
 30
0.0
 10
35.58529262719792
 20
-4.768666079874465
 30
0.0
 10
33.62398144934149
 20
-4.827762888675327
 30
0.0
 10
31.55857879630312
 20
-4.71800821223438
 30
0.0
 10
29.49318150182958
 20
-4.417641281512576
 30
0.0
 10
27.42781932177912
 20
-3.944549499674076
 30
0.0
 10
25.4719302463299
 20
-3.349424369063105
 30
0.0
 10
23.62556749860538
 20
-2.679264419741953
 30
0.0
 10
21.8879148230822
 20
-1.977128704519381
 30
0.0
 10
20.7292719919422
 20
-1.465950506205669
 30
0.0
 10
20.15000000000003
 20
-1.210383212112769
 30
0.0
  0
SPLINE
  5
CA
330
1F
100
AcDbEntity
  8
0
  6
Continuous
 62
     4
370
    25
100
AcDbSpline
210
0.0
220
0.0
230
1.0
 70
    24
 71
     3
 72
    14
 73
    10
 74
     0
 42
0.000000001
 43
0.00000001
 40
0.0
 40
0.0
 40
0.0
 40
0.0
 40
0.2500000000000001
 40
0.2500000000000001
 40
0.5000000000000002
 40
0.5000000000000002
 40
0.7500000000000001
 40
0.7500000000000001
 40
1.0
 40
1.0
 40
1.0
 40
1.0
 10
20.15
 20
-1.21038321211276
 30
0.0
 10
20.15
 20
-1.641673868835751
 30
0.0
 10
20.15
 20
-2.06537668898295
 30
0.0
 10
20.15
 20
-2.864625553100562
 30
0.0
 10
20.15
 20
-3.239904182672835
 30
0.0
 10
20.15
 20
-3.912608048589627
 30
0.0
 10
20.15
 20
-4.209839028478335
 30
0.0
 10
20.15
 20
-4.707887056136378
 30
0.0
 10
20.15
 20
-4.908673867631157
 30
0.0
 10
20.15
 20
-5.059358906871015
 30
0.0
  0
SPLINE
  5
CB
330
1F
100
AcDbEntity
  8
0
  6
Continuous
 62
     4
370
    25
100
AcDbSpline
210
0.0
220
0.0
230
1.0
 70
    24
 71
     3
 72
    14
 73
    10
 74
     0
 42
0.000000001
 43
0.00000001
 40
0.0
 40
0.0
 40
0.0
 40
0.0
 40
0.25
 40
0.25
 40
0.4999999999999999
 40
0.4999999999999999
 40
0.75
 40
0.75
 40
1.0
 40
1.0
 40
1.0
 40
1.0
 10
20.15
 20
4.064275864760427
 30
0.0
 10
20.15
 20
3.823823148078672
 30
0.0
 10
20.15
 20
3.517547293879639
 30
0.0
 10
20.15
 20
2.784364806032447
 30
0.0
 10
20.15
 20
2.357580027607879
 30
0.0
 10
20.15
 20
1.420121035371004
 30
0.0
 10
20.15
 20
0.909946338903253
 30
0.0
 10
20.15
 20
-0.1409786805098454
 30
0.0
 10
20.15
 20
-0.6811608617014261
 30
0.0
 10
20.15
 20
-1.210383212112757
 30
0.0
  0
LINE
  5
CC
330
1F
100
AcDbEntity
  8
0
  6
Continuous
 62
     1
370
    25
100
AcDbLine
 10
50.14999999999999
 20
-5.369911850982023
 30
0.0
 11
50.14999999999999
 21
-5.691902431920899
 31
0.0
  0
SPLINE
  5
CD
330
1F
100
AcDbEntity
  8
0
  6
Continuous
 62
     1
370
    25
100
AcDbSpline
210
0.0
220
0.0
230
1.0
 70
     8
 71
     3
 72
    11
 73
     7
 74
     0
 42
0.000000001
 43
0.00000001
 40
0.0
 40
0.0
 40
0.0
 40
0.0
 40
0.1329671860082947
 40
0.4219781255538261
 40
0.7109890635521332
 40
1.0
 40
1.0
 40
1.0
 40
1.0
 10
27.68549486925318
 20
-4.717586776586904
 30
0.0
 10
27.35150368593677
 20
-4.841345873632218
 30
0.0
 10
26.29156568380014
 20
-5.234101660673974
 30
0.0
 10
24.50568086924691
 20
-5.660732018981183
 30
0.0
 10
22.32784042919611
 20
-5.995523539695763
 30
0.0
 10
20.87594680844086
 20
-5.98979372318543
 30
0.0
 10
20.15000000001045
 20
-5.986928814937952
 30
0.0
  0
SPLINE
  5
CE
330
1F
100
AcDbEntity
  8
0
  6
Continuous
 62
     4
370
    25
100
AcDbSpline
210
0.0
220
0.0
230
1.0
 70
    24
 71
     3
 72
     8
 73
     4
 74
     0
 42
0.000000001
 43
0.00000001
 40
0.0
 40
0.0
 40
0.0
 40
0.0
 40
1.0
 40
1.0
 40
1.0
 40
1.0
 10
20.15
 20
-5.059358906871018
 30
0.0
 10
20.15
 20
-5.373440453737291
 30
0.0
 10
20.15
 20
-5.68463930201992
 30
0.0
 10
20.15
 20
-5.986928814922738
 30
0.0
  0
SPLINE
  5
CF
330
1F
100
AcDbEntity
  8
0
  6
Continuous
 62
     1
370
    25
100
AcDbSpline
210
0.0
220
0.0
230
1.0
 70
     8
 71
     3
 72
    11
 73
     7
 74
     0
 42
0.000000001
 43
0.00000001
 40
0.0
 40
0.0
 40
0.0
 40
0.0
 40
0.1746835748737273
 40
0.4497890517995546
 40
0.724894526842662
 40
1.0
 40
1.0
 40
1.0
 40
1.0
 10
41.93362429220174
 20
4.020287463174416
 30
0.0
 10
42.39457789624166
 20
4.218482456002044
 30
0.0
 10
43.58147760695901
 20
4.728810561891787
 30
0.0
 10
45.49432341597529
 20
5.327443766282739
 30
0.0
 10
47.67216171490795
 20
5.822278055603501
 30
0.0
 10
49.12405390662742
 20
5.930949206296178
 30
0.0
 10
49.84999999999907
 20
5.985284781456287
 30
0.0
  0
SPLINE
  5
D1
330
1F
100
AcDbEntity
  8
0
  6
Continuous
 62
     1
370
    25
100
AcDbSpline
210
0.0
220
0.0
230
1.0
 70
    24
 71
     3
 72
    10
 73
     6
 74
     0
 42
0.000000001
 43
0.00000001
 40
0.0
 40
0.0
 40
0.0
 40
0.0
 40
0.5
 40
0.5
 40
1.0
 40
1.0
 40
1.0
 40
1.0
 10
50.14999999999999
 20
4.200000000000002
 30
0.0
 10
50.15000000000001
 20
4.412661689166737
 30
0.0
 10
50.14999999999999
 20
4.653786717537092
 30
0.0
 10
50.14999999999998
 20
5.163564359415302
 30
0.0
 10
50.14999999999999
 20
5.431635052274579
 30
0.0
 10
50.14999999999999
 20
5.691902431919792
 30
0.0
  0
LINE
  5
D2
330
1F
100
AcDbEntity
  8
중심선
100
AcDbLine
 10
-62.85000000000001
 20
-0.0000000000000064
 30
0.0
 11
53.14999999999999
 21
0.0000000000000068
 31
0.0
  0
CIRCLE
  5
D3
330
1F
100
AcDbEntity
  8
외형선
100
AcDbCircle
 10
0.0
 20
0.0
 30
0.0
 40
3.000000000000005
  0
INSERT
  5
D4
330
1F
100
AcDbEntity
  8
0
  6
Continuous
 62
     7
100
AcDbBlockReference
 66
     1
  2
블럭10
 10
-30.87358523345418
 20
-52.04717430164393
 30
0.0
  0
ATTRIB
  5
D5
330
D4
100
AcDbEntity
  8
FORMAT
 62
     2
100
AcDbText
 10
-51.73183276504672
 20
-49.97180738881174
 30
0.0
 40
4.233333333333333
  1
SEME6112003110E [ 2 FLUTE ]
 41
0.75
  7
SLDTEXTSTYLE0
 11
-51.73183276504672
 21
-52.08847405547841
 31
0.0
100
AcDbAttribute
  2
AUTOATTR0
 70
     0
 74
     1
  0
SEQEND
  5
D6
330
D4
100
AcDbEntity
  8
0
  6
Continuous
 62
     7
  0
HATCH
  5
D7
330
1F
100
AcDbEntity
  8
중심선
100
AcDbHatch
 10
0.0
 20
0.0
 30
0.0
210
0.0
220
0.0
230
1.0
  2
SOLID
 70
     1
 71
     0
 91
        1
 92
        0
 93
        4
 72
     1
 10
-25.15867592907333
 20
-35.8
 11
-28.60495117291061
 21
-35.8
 72
     1
 10
-28.60495117291061
 20
-35.8
 11
-30.73318103211463
 21
-38.3363255805726
 72
     1
 10
-30.73318103211463
 20
-38.3363255805726
 11
-27.2868727031642
 21
-38.33628615127011
 72
     1
 10
-27.2868727031642
 20
-38.33628615127011
 11
-25.15867592907333
 21
-35.8
 97
        0
 75
     0
 76
     1
 98
        1
 10
-7.934141545388284
 20
-0.0010749287238934
  0
HATCH
  5
D8
330
1F
100
AcDbEntity
  8
중심선
100
AcDbHatch
 10
0.0
 20
0.0
 30
0.0
210
0.0
220
0.0
230
1.0
  2
SOLID
 70
     1
 71
     0
 91
        1
 92
        0
 93
        4
 72
     1
 10
-20.14591193803737
 20
-35.8
 11
-23.59218718187466
 21
-35.8
 72
     1
 10
-23.59218718187466
 20
-35.8
 11
-28.12332519023204
 21
-41.20000000000002
 72
     1
 10
-28.12332519023204
 20
-41.20000000000002
 11
-24.67704994639476
 21
-41.20000000000002
 72
     1
 10
-24.67704994639476
 20
-41.20000000000002
 11
-20.14591193803737
 21
-35.8
 97
        0
 75
     0
 76
     1
 98
        1
 10
-7.934141545388284
 20
-0.0010749287238934
  0
HATCH
  5
D9
330
1F
100
AcDbEntity
  8
중심선
100
AcDbHatch
 10
0.0
 20
0.0
 30
0.0
210
0.0
220
0.0
230
1.0
  2
SOLID
 70
     1
 71
     0
 91
        1
 92
        0
 93
        4
 72
     1
 10
-15.13314794700148
 20
-35.80000000000003
 11
-18.5794231908386
 21
-35.8
 72
     1
 10
-18.5794231908386
 20
-35.8
 11
-25.62786009272785
 21
-44.20000000000002
 72
     1
 10
-25.62786009272784
 20
-44.20000000000002
 11
-22.18158484889056
 21
-44.20000000000002
 72
     1
 10
-22.18158484889056
 20
-44.20000000000002
 11
-15.13314794700148
 21
-35.80000000000003
 97
        0
 75
     0
 76
     1
 98
        1
 10
-7.934141545388284
 20
-0.0010749287238934
  0
HATCH
  5
DA
330
1F
100
AcDbEntity
  8
중심선
100
AcDbHatch
 10
0.0
 20
0.0
 30
0.0
210
0.0
220
0.0
230
1.0
  2
SOLID
 70
     1
 71
     0
 91
        1
 92
        0
 93
        6
 72
     3
 10
-10.33325751598928
 20
-40.00000000005127
 11
3.960054785062283
 21
1.540882976769353E-10
 40
0.3939339440162628
 50
17.09539180608436
 51
320.0019657685078
 73
     0
 72
     1
 10
-8.650257860288685
 20
-38.5878940046383
 11
-6.344955986587647
 21
-36.65356729459038
 72
     3
 10
-10.33325751604213
 20
-40.00000000000015
 11
6.600054785286829
 21
-1.278976924368180E-13
 40
0.636358354079598
 50
39.99873849337411
 51
368.4976242363724
 73
     1
 72
     1
 10
-3.907925024141517
 20
-39.03999999993002
 11
-11.6531902092062
 21
-39.03999999993
 72
     1
 10
-11.6531902092062
 20
-39.03999999993
 11
-11.65321525365214
 21
-40.95999999992991
 72
     1
 10
-11.65321525365214
 20
-40.95999999992991
 11
-7.211835484180102
 21
-40.95999999992988
 97
        0
 75
     0
 76
     1
 98
        1
 10
-7.934141545388284
 20
-0.0010749287238934
  0
DIMENSION
  5
DB
330
1F
100
AcDbEntity
  8
치수문자_일반주서
100
AcDbDimension
  2
_D
 10
-71.34645802161204
 20
-6.000000000000049
 30
0.0
 11
-71.34645802161207
 21
-0.0000000000000051
 31
0.0
 70
   160
  1
%%c<>
 71
     2
 42
11.99999999999999
 52
-270.0
  3
SLDDIMSTYLE0
100
AcDbAlignedDimension
 13
-58.85000000000001
 23
5.999999999999991
 33
0.0
 14
-58.85000000000001
 24
-6.000000000000002
 34
0.0
 50
90.0000000000002
100
AcDbRotatedDimension
  0
DIMENSION
  5
E9
330
1F
100
AcDbEntity
  8
치수문자_일반주서
100
AcDbDimension
  2
_D_1
 10
20.15
 20
24.19999999999965
 30
0.0
 11
35.14999999999999
 21
24.19999999999965
 31
0.0
 70
   160
  1
<>
 71
     2
 42
29.99999999999999
  3
SLDDIMSTYLE1
100
AcDbAlignedDimension
 13
50.14999999999999
 23
5.699999999999998
 33
0.0
 14
20.15
 24
5.999999999999994
 34
0.0
100
AcDbRotatedDimension
  0
DIMENSION
  5
F5
330
1F
100
AcDbEntity
  8
치수문자_일반주서
100
AcDbDimension
  2
_D_2
 10
-59.85000000000001
 20
46.25832450504429
 30
0.0
 11
-4.850000000000007
 21
46.25832450504429
 31
0.0
 70
   160
  1
<>
 71
     2
 42
110.0
  3
SLDDIMSTYLE1
100
AcDbAlignedDimension
 13
50.14999999999999
 23
5.699999999999998
 33
0.0
 14
-59.85000000000001
 24
4.999999999999992
 34
0.0
100
AcDbRotatedDimension
  0
DIMENSION
  5
FF
330
1F
100
AcDbEntity
  8
치수문자_일반주서
100
AcDbDimension
  2
_D_3
 10
0.1499999999999986
 20
30.31999999999866
 30
0.0
 11
25.15
 21
30.31999999999866
 31
0.0
 70
   160
  1
<>
 71
     2
 42
49.99999999999999
  3
SLDDIMSTYLE0
100
AcDbAlignedDimension
 13
50.14999999999999
 23
5.762499999999998
 33
0.0
 14
0.1500000000000004
 24
5.849999999999997
 34
0.0
 50
-0.0000000000022354
100
AcDbRotatedDimension
  0
DIMENSION
  5
10B
330
1F
100
AcDbEntity
  8
치수문자_일반주서
100
AcDbDimension
  2
_D_4
 10
65.62371226481443
 20
-5.999999999999833
 30
0.0
 11
65.62371226481442
 21
0.0000000000001385
 31
0.0
 70
   160
  1
%%c<>
 71
     2
 42
12.0
 52
-270.0
  3
SLDDIMSTYLE1
100
AcDbAlignedDimension
 13
20.83546332593692
 23
5.999999999999998
 33
0.0
 14
20.83546332593692
 24
-6.0
 34
0.0
 50
90.0000000000002
100
AcDbRotatedDimension
  0
INSERT
  5
11D
330
1F
100
AcDbEntity
  8
외형선
100
AcDbBlockReference
  2
SW_DOWELSYMBOL_0
 10
0.0
 20
0.0
 30
0.0
  0
LINE
  5
149
330
1F
100
AcDbEntity
  8
0
100
AcDbLine
 10
49.85
 20
5.985284781454745
 30
0.0
 11
49.84999999999907
 21
5.985284781456287
 31
0.0
  0
ARC
  5
14B
330
1F
100
AcDbEntity
  8
0
  6
Continuous
 62
     1
370
    25
100
AcDbCircle
 10
49.84999999999997
 20
5.685284781454744
 30
0.0
 40
0.3
100
AcDbArc
 50
0.0
 51
98.56219714374213
  0
ARC
  5
14C
330
1F
100
AcDbEntity
  8
0
  6
Continuous
 62
     1
370
    25
100
AcDbCircle
 10
49.84999999999997
 20
-5.685284781454731
 30
0.0
 40
0.3
100
AcDbArc
 50
261.4378028562579
 51
0.0
  0
DIMENSION
  5
14E
330
1F
100
AcDbEntity
  8
치수문자_일반주서
100
AcDbDimension
  2
*D8
 10
49.84999999999997
 20
-5.685284781454731
 30
0.0
 11
61.26185756128725
 21
-22.62170275316263
 31
0.0
 70
   164
  1
<>
 71
     5
 42
0.3000000000000043
  3
SLDDIMSTYLE1
100
AcDbRadialDimension
 15
50.01763769895938
 25
-5.934077068086771
 35
0.0
 40
0.0
1001
ACAD_DSTYLE_DIMRADIAL_EXTENSION
1070
   387
1070
     1
1070
   388
1040
4.562950449021535
1070
   390
1040
0.0
1001
ACAD
1000
DSTYLE
1002
{
1070
    78
1070
     8
1002
}
  0
LINE
  5
182
330
1F
100
AcDbEntity
  8
0
  6
Continuous
 62
     4
370
    25
100
AcDbLine
 10
0.1500000000000004
 20
5.849999999999997
 30
0.0
 11
0.0000000000000009
 21
5.999999999999996
 31
0.0
1001
PE_URL
1000

  0
LINE
  5
184
330
1F
100
AcDbEntity
  8
0
  6
Continuous
 62
     4
370
    25
100
AcDbLine
 10
0.0000000000000009
 20
5.999999999999996
 30
0.0
 11
-0.0000000000000009
 21
-5.999999999999996
 31
0.0
1001
PE_URL
1000

  0
LINE
  5
185
330
1F
100
AcDbEntity
  8
0
  6
Continuous
 62
     4
370
    25
100
AcDbLine
 10
-0.0000000000000009
 20
-5.999999999999996
 30
0.0
 11
0.1500000000000004
 21
-5.850000000000001
 31
0.0
1001
PE_URL
1000

  0
ENDSEC
  0
SECTION
  2
OBJECTS
  0
DICTIONARY
  5
C
330
0
100
AcDbDictionary
281
     1
  3
ACAD_GROUP
350
D
  3
ACAD_IMAGE_VARS
350
141
  3
ACAD_LAYOUT
350
1A
  3
ACAD_MLINESTYLE
350
17
  3
ACAD_PLOTSETTINGS
350
19
  3
ACAD_PLOTSTYLENAME
350
E
  3
ACAD_SCALELIST
350
47
  3
APPDATA
350
13F
  3
DWGPROPS
350
186
  0
DICTIONARY
  5
D
102
{ACAD_REACTORS
330
C
102
}
330
C
100
AcDbDictionary
281
     1
  0
RASTERVARIABLES
  5
141
102
{ACAD_REACTORS
330
C
102
}
330
C
100
AcDbRasterVariables
 90
        0
 70
     1
 71
     1
 72
     1
  0
DICTIONARY
  5
1A
102
{ACAD_REACTORS
330
C
102
}
330
C
100
AcDbDictionary
281
     1
  3
Layout1
350
1E
  3
Layout2
350
26
  3
Model
350
22
  0
DICTIONARY
  5
17
102
{ACAD_REACTORS
330
C
102
}
330
C
100
AcDbDictionary
281
     1
  3
Standard
350
18
  0
DICTIONARY
  5
19
102
{ACAD_REACTORS
330
C
102
}
330
C
100
AcDbDictionary
281
     1
  0
ACDBDICTIONARYWDFLT
  5
E
102
{ACAD_REACTORS
330
C
102
}
330
C
100
AcDbDictionary
281
     1
  3
Normal
350
F
100
AcDbDictionaryWithDefault
340
F
  0
DICTIONARY
  5
47
102
{ACAD_REACTORS
330
C
102
}
330
C
100
AcDbDictionary
281
     1
  3
A0
350
48
  3
A1
350
49
  3
A2
350
4A
  3
A3
350
4B
  3
A4
350
4C
  3
A5
350
4D
  3
A6
350
4E
  3
A7
350
4F
  3
A8
350
50
  3
A9
350
51
  3
B0
350
52
  3
B1
350
53
  3
B2
350
54
  3
B3
350
55
  3
B4
350
56
  3
B5
350
57
  3
B6
350
58
  3
B7
350
59
  3
B8
350
5A
  3
B9
350
5B
  3
C0
350
5C
  3
C1
350
5D
  3
C2
350
5E
  3
C3
350
5F
  3
C4
350
60
  3
C5
350
61
  3
C6
350
62
  3
C7
350
63
  3
C8
350
64
  3
C9
350
65
  3
D0
350
66
  3
D1
350
67
  3
D2
350
68
  0
DICTIONARY
  5
13F
102
{ACAD_REACTORS
330
C
102
}
330
C
100
AcDbDictionary
281
     1
  0
XRECORD
  5
186
102
{ACAD_REACTORS
330
C
102
}
330
C
100
AcDbXrecord
280
     1
  1
DWGPROPS COOKIE
  2

  3

  4

  6

  7

  8
12014102
  9

300
=
301
=
302
=
303
=
304
=
305
=
306
=
307
=
308
=
309
=
 40
0.0
 41
2458263.434463298
 42
2459576.951879815
  1

 90
        0
  0
LAYOUT
  5
1E
102
{ACAD_REACTORS
330
1A
102
}
330
1A
100
AcDbPlotSettings
  1

  2
none_device
  4

  6

 40
0.0
 41
0.0
 42
0.0
 43
0.0
 44
0.0
 45
0.0
 46
0.0
 47
0.0
 48
0.0
 49
0.0
140
0.0
141
0.0
142
1.0
143
1.0
 70
   688
 72
     1
 73
     0
 74
     5
  7

 75
    16
147
1.0
148
0.0
149
0.0
100
AcDbLayout
  1
Layout1
 70
     1
 71
     1
 10
0.0
 20
0.0
 11
420.0
 21
297.0
 12
0.0
 22
0.0
 32
0.0
 14
1.000000000000000E+20
 24
1.000000000000000E+20
 34
1.000000000000000E+20
 15
-1.000000000000000E+20
 25
-1.000000000000000E+20
 35
-1.000000000000000E+20
146
0.0
 13
0.0
 23
0.0
 33
0.0
 16
1.0
 26
0.0
 36
0.0
 17
0.0
 27
1.0
 37
0.0
 76
     0
330
1B
  0
LAYOUT
  5
26
102
{ACAD_REACTORS
330
1A
102
}
330
1A
100
AcDbPlotSettings
  1

  2
none_device
  4

  6

 40
0.0
 41
0.0
 42
0.0
 43
0.0
 44
0.0
 45
0.0
 46
0.0
 47
0.0
 48
0.0
 49
0.0
140
0.0
141
0.0
142
1.0
143
1.0
 70
   688
 72
     1
 73
     0
 74
     5
  7

 75
    16
147
1.0
148
0.0
149
0.0
100
AcDbLayout
  1
Layout2
 70
     1
 71
     2
 10
0.0
 20
0.0
 11
0.0
 21
0.0
 12
0.0
 22
0.0
 32
0.0
 14
0.0
 24
0.0
 34
0.0
 15
0.0
 25
0.0
 35
0.0
146
0.0
 13
0.0
 23
0.0
 33
0.0
 16
1.0
 26
0.0
 36
0.0
 17
0.0
 27
1.0
 37
0.0
 76
     0
330
23
  0
LAYOUT
  5
22
102
{ACAD_REACTORS
330
1A
102
}
330
1A
100
AcDbPlotSettings
  1

  2
none_device
  4
ANSI_A_(11.00_x_8.50_Inches)
  6

 40
6.35
 41
19.05
 42
6.35000508
 43
19.05000254
 44
279.4
 45
215.9
 46
107.3735923981114
 47
88.85165554040117
 48
0.0
 49
0.0
140
0.0
141
0.0
142
0.0674464052442631
143
1.0
 70
  1696
 72
     0
 73
     0
 74
     0
  7

 75
     0
147
0.0235690232323232
148
0.0
149
0.0
100
AcDbLayout
  1
Model
 70
     1
 71
     0
 10
0.0
 20
0.0
 11
420.0
 21
297.0
 12
0.0
 22
0.0
 32
0.0
 14
-75.72145802161208
 24
-49.97180738881174
 34
0.0
 15
66.96808738468869
 25
50.63332450504429
 35
0.0
146
0.0
 13
0.0
 23
0.0
 33
0.0
 16
1.0
 26
0.0
 36
0.0
 17
0.0
 27
1.0
 37
0.0
 76
     0
330
1F
331
29
  0
MLINESTYLE
  5
18
102
{ACAD_REACTORS
330
17
102
}
330
17
100
AcDbMlineStyle
  2
Standard
 70
     0
  3

 62
   256
 51
90.0
 52
90.0
 71
     2
 49
0.5
 62
   256
  6
BYLAYER
 49
-0.5
 62
   256
  6
BYLAYER
  0
ACDBPLACEHOLDER
  5
F
102
{ACAD_REACTORS
330
E
102
}
330
E
  0
SCALE
  5
48
102
{ACAD_REACTORS
330
47
102
}
330
47
100
AcDbScale
 70
     0
300
1:1
140
1.0
141
1.0
290
     1
  0
SCALE
  5
49
102
{ACAD_REACTORS
330
47
102
}
330
47
100
AcDbScale
 70
     0
300
1:2
140
1.0
141
2.0
290
     0
  0
SCALE
  5
4A
102
{ACAD_REACTORS
330
47
102
}
330
47
100
AcDbScale
 70
     0
300
1:4
140
1.0
141
4.0
290
     0
  0
SCALE
  5
4B
102
{ACAD_REACTORS
330
47
102
}
330
47
100
AcDbScale
 70
     0
300
1:5
140
1.0
141
5.0
290
     0
  0
SCALE
  5
4C
102
{ACAD_REACTORS
330
47
102
}
330
47
100
AcDbScale
 70
     0
300
1:8
140
1.0
141
8.0
290
     0
  0
SCALE
  5
4D
102
{ACAD_REACTORS
330
47
102
}
330
47
100
AcDbScale
 70
     0
300
1:10
140
1.0
141
10.0
290
     0
  0
SCALE
  5
4E
102
{ACAD_REACTORS
330
47
102
}
330
47
100
AcDbScale
 70
     0
300
1:16
140
1.0
141
16.0
290
     0
  0
SCALE
  5
4F
102
{ACAD_REACTORS
330
47
102
}
330
47
100
AcDbScale
 70
     0
300
1:20
140
1.0
141
20.0
290
     0
  0
SCALE
  5
50
102
{ACAD_REACTORS
330
47
102
}
330
47
100
AcDbScale
 70
     0
300
1:30
140
1.0
141
30.0
290
     0
  0
SCALE
  5
51
102
{ACAD_REACTORS
330
47
102
}
330
47
100
AcDbScale
 70
     0
300
1:40
140
1.0
141
40.0
290
     0
  0
SCALE
  5
52
102
{ACAD_REACTORS
330
47
102
}
330
47
100
AcDbScale
 70
     0
300
1:50
140
1.0
141
50.0
290
     0
  0
SCALE
  5
53
102
{ACAD_REACTORS
330
47
102
}
330
47
100
AcDbScale
 70
     0
300
1:100
140
1.0
141
100.0
290
     0
  0
SCALE
  5
54
102
{ACAD_REACTORS
330
47
102
}
330
47
100
AcDbScale
 70
     0
300
2:1
140
2.0
141
1.0
290
     0
  0
SCALE
  5
55
102
{ACAD_REACTORS
330
47
102
}
330
47
100
AcDbScale
 70
     0
300
4:1
140
4.0
141
1.0
290
     0
  0
SCALE
  5
56
102
{ACAD_REACTORS
330
47
102
}
330
47
100
AcDbScale
 70
     0
300
8:1
140
8.0
141
1.0
290
     0
  0
SCALE
  5
57
102
{ACAD_REACTORS
330
47
102
}
330
47
100
AcDbScale
 70
     0
300
10:1
140
10.0
141
1.0
290
     0
  0
SCALE
  5
58
102
{ACAD_REACTORS
330
47
102
}
330
47
100
AcDbScale
 70
     0
300
100:1
140
100.0
141
1.0
290
     0
  0
SCALE
  5
59
102
{ACAD_REACTORS
330
47
102
}
330
47
100
AcDbScale
 70
     0
300
1/128" = 1'-0"
140
0.0078125
141
12.0
290
     0
  0
SCALE
  5
5A
102
{ACAD_REACTORS
330
47
102
}
330
47
100
AcDbScale
 70
     0
300
1/64" = 1'-0"
140
0.015625
141
12.0
290
     0
  0
SCALE
  5
5B
102
{ACAD_REACTORS
330
47
102
}
330
47
100
AcDbScale
 70
     0
300
1/32" = 1'-0"
140
0.03125
141
12.0
290
     0
  0
SCALE
  5
5C
102
{ACAD_REACTORS
330
47
102
}
330
47
100
AcDbScale
 70
     0
300
1/16" = 1'-0"
140
0.0625
141
12.0
290
     0
  0
SCALE
  5
5D
102
{ACAD_REACTORS
330
47
102
}
330
47
100
AcDbScale
 70
     0
300
3/32" = 1'-0"
140
0.09375
141
12.0
290
     0
  0
SCALE
  5
5E
102
{ACAD_REACTORS
330
47
102
}
330
47
100
AcDbScale
 70
     0
300
1/8" = 1'-0"
140
0.125
141
12.0
290
     0
  0
SCALE
  5
5F
102
{ACAD_REACTORS
330
47
102
}
330
47
100
AcDbScale
 70
     0
300
3/16" = 1'-0"
140
0.1875
141
12.0
290
     0
  0
SCALE
  5
60
102
{ACAD_REACTORS
330
47
102
}
330
47
100
AcDbScale
 70
     0
300
1/4" = 1'-0"
140
0.25
141
12.0
290
     0
  0
SCALE
  5
61
102
{ACAD_REACTORS
330
47
102
}
330
47
100
AcDbScale
 70
     0
300
3/8" = 1'-0"
140
0.375
141
12.0
290
     0
  0
SCALE
  5
62
102
{ACAD_REACTORS
330
47
102
}
330
47
100
AcDbScale
 70
     0
300
1/2" = 1'-0"
140
0.5
141
12.0
290
     0
  0
SCALE
  5
63
102
{ACAD_REACTORS
330
47
102
}
330
47
100
AcDbScale
 70
     0
300
3/4" = 1'-0"
140
0.75
141
12.0
290
     0
  0
SCALE
  5
64
102
{ACAD_REACTORS
330
47
102
}
330
47
100
AcDbScale
 70
     0
300
1" = 1'-0"
140
1.0
141
12.0
290
     0
  0
SCALE
  5
65
102
{ACAD_REACTORS
330
47
102
}
330
47
100
AcDbScale
 70
     0
300
1-1/2" = 1'-0"
140
1.5
141
12.0
290
     0
  0
SCALE
  5
66
102
{ACAD_REACTORS
330
47
102
}
330
47
100
AcDbScale
 70
     0
300
3" = 1'-0"
140
3.0
141
12.0
290
     0
  0
SCALE
  5
67
102
{ACAD_REACTORS
330
47
102
}
330
47
100
AcDbScale
 70
     0
300
6" = 1'-0"
140
6.0
141
12.0
290
     0
  0
SCALE
  5
68
102
{ACAD_REACTORS
330
47
102
}
330
47
100
AcDbScale
 70
     0
300
1'-0" = 1'-0"
140
12.0
141
12.0
290
     0
  0
ENDSEC
  0
EOF
