  0
SECTION
  2
HEADER
  9
$ACADVER
  1
AC1015
  9
$ACADMAINTVER
 70
     6
  9
$DWGCODEPAGE
  3
ANSI_949
  9
$INSBASE
 10
0.0
 20
0.0
 30
0.0
  9
$EXTMIN
 10
-75.72145802161208
 20
-49.97073246008785
 30
0.0
  9
$EXTMAX
 10
55.50521580684597
 20
49.63332450504429
 30
0.0
  9
$LIMMIN
 10
0.0
 20
0.0
  9
$LIMMAX
 10
420.0
 20
297.0
  9
$ORTHOMODE
 70
     1
  9
$REGENMODE
 70
     1
  9
$FILLMODE
 70
     1
  9
$QTEXTMODE
 70
     0
  9
$MIRRTEXT
 70
     1
  9
$LTSCALE
 40
1.0
  9
$ATTMODE
 70
     1
  9
$TEXTSIZE
 40
3.5
  9
$TRACEWID
 40
1.0
  9
$TEXTSTYLE
  7
Standard
  9
$CLAYER
  8
0
  9
$CELTYPE
  6
ByLayer
  9
$CECOLOR
 62
   256
  9
$CELTSCALE
 40
1.0
  9
$DISPSILH
 70
     0
  9
$DIMSCALE
 40
1.0
  9
$DIMASZ
 40
3.302
  9
$DIMEXO
 40
1.0
  9
$DIMDLI
 40
3.75
  9
$DIMRND
 40
0.0
  9
$DIMDLE
 40
0.0
  9
$DIMEXE
 40
1.0
  9
$DIMTP
 40
0.0
  9
$DIMTM
 40
0.0
  9
$DIMTXT
 40
3.5
  9
$DIMCEN
 40
2.5
  9
$DIMTSZ
 40
0.0
  9
$DIMTOL
 70
     0
  9
$DIMLIM
 70
     0
  9
$DIMTIH
 70
     1
  9
$DIMTOH
 70
     1
  9
$DIMSE1
 70
     0
  9
$DIMSE2
 70
     0
  9
$DIMTAD
 70
     1
  9
$DIMZIN
 70
     0
  9
$DIMBLK
  1

  9
$DIMASO
 70
     1
  9
$DIMSHO
 70
     1
  9
$DIMPOST
  1

  9
$DIMAPOST
  1

  9
$DIMALT
 70
     0
  9
$DIMALTD
 70
     3
  9
$DIMALTF
 40
0.0393700787401575
  9
$DIMLFAC
 40
1.0
  9
$DIMTOFL
 70
     1
  9
$DIMTVP
 40
0.0
  9
$DIMTIX
 70
     0
  9
$DIMSOXD
 70
     0
  9
$DIMSAH
 70
     0
  9
$DIMBLK1
  1

  9
$DIMBLK2
  1

  9
$DIMSTYLE
  2
ISO-25
  9
$DIMCLRD
 70
     0
  9
$DIMCLRE
 70
     0
  9
$DIMCLRT
 70
     0
  9
$DIMTFAC
 40
1.0
  9
$DIMGAP
 40
1.524
  9
$DIMJUST
 70
     0
  9
$DIMSD1
 70
     0
  9
$DIMSD2
 70
     0
  9
$DIMTOLJ
 70
     0
  9
$DIMTZIN
 70
     0
  9
$DIMALTZ
 70
     0
  9
$DIMALTTZ
 70
     0
  9
$DIMUPT
 70
     0
  9
$DIMDEC
 70
     2
  9
$DIMTDEC
 70
     2
  9
$DIMALTU
 70
     2
  9
$DIMALTTD
 70
     3
  9
$DIMTXSTY
  7
Standard
  9
$DIMAUNIT
 70
     0
  9
$DIMADEC
 70
     2
  9
$DIMALTRND
 40
0.0
  9
$DIMAZIN
 70
     0
  9
$DIMDSEP
 70
    44
  9
$DIMATFIT
 70
     3
  9
$DIMFRAC
 70
     0
  9
$DIMLDRBLK
  1

  9
$DIMLUNIT
 70
     2
  9
$DIMLWD
 70
    -2
  9
$DIMLWE
 70
    -2
  9
$DIMTMOVE
 70
     0
  9
$LUNITS
 70
     2
  9
$LUPREC
 70
     2
  9
$SKETCHINC
 40
1.0
  9
$FILLETRAD
 40
10.0
  9
$AUNITS
 70
     0
  9
$AUPREC
 70
     2
  9
$MENU
  1
.
  9
$ELEVATION
 40
0.0
  9
$PELEVATION
 40
0.0
  9
$THICKNESS
 40
0.0
  9
$LIMCHECK
 70
     0
  9
$CHAMFERA
 40
0.0
  9
$CHAMFERB
 40
0.0
  9
$CHAMFERC
 40
0.0
  9
$CHAMFERD
 40
0.0
  9
$SKPOLY
 70
     0
  9
$TDCREATE
 40
2458263.808518102
  9
$TDUCREATE
 40
2458263.433518102
  9
$TDUPDATE
 40
2459577.325976968
  9
$TDUUPDATE
 40
2459576.950976968
  9
$TDINDWG
 40
0.0018278356
  9
$TDUSRTIMER
 40
0.0006962963
  9
$USRTIMER
 70
     1
  9
$ANGBASE
 50
0.0
  9
$ANGDIR
 70
     0
  9
$PDMODE
 70
     0
  9
$PDSIZE
 40
-1.0
  9
$PLINEWID
 40
0.0
  9
$SPLFRAME
 70
     0
  9
$SPLINETYPE
 70
     6
  9
$SPLINESEGS
 70
     8
  9
$HANDSEED
  5
2ED
  9
$SURFTAB1
 70
     6
  9
$SURFTAB2
 70
     6
  9
$SURFTYPE
 70
     6
  9
$SURFU
 70
     6
  9
$SURFV
 70
     6
  9
$UCSBASE
  2

  9
$UCSNAME
  2

  9
$UCSORG
 10
0.0
 20
0.0
 30
0.0
  9
$UCSXDIR
 10
1.0
 20
0.0
 30
0.0
  9
$UCSYDIR
 10
0.0
 20
1.0
 30
0.0
  9
$UCSORTHOREF
  2

  9
$UCSORTHOVIEW
 70
     0
  9
$UCSORGTOP
 10
0.0
 20
0.0
 30
0.0
  9
$UCSORGBOTTOM
 10
0.0
 20
0.0
 30
0.0
  9
$UCSORGLEFT
 10
0.0
 20
0.0
 30
0.0
  9
$UCSORGRIGHT
 10
0.0
 20
0.0
 30
0.0
  9
$UCSORGFRONT
 10
0.0
 20
0.0
 30
0.0
  9
$UCSORGBACK
 10
0.0
 20
0.0
 30
0.0
  9
$PUCSBASE
  2

  9
$PUCSNAME
  2

  9
$PUCSORG
 10
0.0
 20
0.0
 30
0.0
  9
$PUCSXDIR
 10
1.0
 20
0.0
 30
0.0
  9
$PUCSYDIR
 10
0.0
 20
1.0
 30
0.0
  9
$PUCSORTHOREF
  2

  9
$PUCSORTHOVIEW
 70
     0
  9
$PUCSORGTOP
 10
0.0
 20
0.0
 30
0.0
  9
$PUCSORGBOTTOM
 10
0.0
 20
0.0
 30
0.0
  9
$PUCSORGLEFT
 10
0.0
 20
0.0
 30
0.0
  9
$PUCSORGRIGHT
 10
0.0
 20
0.0
 30
0.0
  9
$PUCSORGFRONT
 10
0.0
 20
0.0
 30
0.0
  9
$PUCSORGBACK
 10
0.0
 20
0.0
 30
0.0
  9
$USERI1
 70
     0
  9
$USERI2
 70
     0
  9
$USERI3
 70
     0
  9
$USERI4
 70
     0
  9
$USERI5
 70
     0
  9
$USERR1
 40
0.0
  9
$USERR2
 40
0.0
  9
$USERR3
 40
0.0
  9
$USERR4
 40
0.0
  9
$USERR5
 40
0.0
  9
$WORLDVIEW
 70
     1
  9
$SHADEDGE
 70
     3
  9
$SHADEDIF
 70
    70
  9
$TILEMODE
 70
     1
  9
$MAXACTVP
 70
    64
  9
$PINSBASE
 10
0.0
 20
0.0
 30
0.0
  9
$PLIMCHECK
 70
     0
  9
$PEXTMIN
 10
1.000000000000000E+20
 20
1.000000000000000E+20
 30
1.000000000000000E+20
  9
$PEXTMAX
 10
-1.000000000000000E+20
 20
-1.000000000000000E+20
 30
-1.000000000000000E+20
  9
$PLIMMIN
 10
0.0
 20
0.0
  9
$PLIMMAX
 10
0.0
 20
0.0
  9
$UNITMODE
 70
     0
  9
$VISRETAIN
 70
     1
  9
$PLINEGEN
 70
     0
  9
$PSLTSCALE
 70
     1
  9
$TREEDEPTH
 70
  3020
  9
$CMLSTYLE
  2
Standard
  9
$CMLJUST
 70
     0
  9
$CMLSCALE
 40
20.0
  9
$PROXYGRAPHICS
 70
     1
  9
$MEASUREMENT
 70
     1
  9
$CELWEIGHT
370
    -1
  9
$ENDCAPS
280
     0
  9
$JOINSTYLE
280
     0
  9
$LWDISPLAY
290
     1
  9
$INSUNITS
 70
     4
  9
$HYPERLINKBASE
  1

  9
$STYLESHEET
  1

  9
$XEDIT
290
     1
  9
$CEPSNTYPE
380
     0
  9
$PSTYLEMODE
290
     1
  9
$FINGERPRINTGUID
  2
{3B68C112-32ED-4186-A304-C83671799E60}
  9
$VERSIONGUID
  2
{FAEB1C32-E019-11D5-929B-00C0DF256EC4}
  9
$EXTNAMES
290
     1
  9
$PSVPSCALE
 40
0.0
  9
$OLESTARTUP
290
     0
  0
ENDSEC
  0
SECTION
  2
CLASSES
  0
CLASS
  1
ACDBDICTIONARYWDFLT
  2
AcDbDictionaryWithDefault
  3
ObjectDBX Classes
 90
        0
280
     0
281
     0
  0
CLASS
  1
VISUALSTYLE
  2
AcDbVisualStyle
  3
ObjectDBX Classes
 90
     4095
280
     0
281
     0
  0
CLASS
  1
MATERIAL
  2
AcDbMaterial
  3
ObjectDBX Classes
 90
     1153
280
     0
281
     0
  0
CLASS
  1
SCALE
  2
AcDbScale
  3
ObjectDBX Classes
 90
     1153
280
     0
281
     0
  0
CLASS
  1
TABLESTYLE
  2
AcDbTableStyle
  3
ObjectDBX Classes
 90
     4095
280
     0
281
     0
  0
CLASS
  1
MLEADERSTYLE
  2
AcDbMLeaderStyle
  3
ACDB_MLEADERSTYLE_CLASS
 90
     4095
280
     0
281
     0
  0
CLASS
  1
SUN
  2
AcDbSun
  3
SCENEOE
 90
     1153
280
     0
281
     0
  0
CLASS
  1
ACDBPLACEHOLDER
  2
AcDbPlaceHolder
  3
ObjectDBX Classes
 90
        0
280
     0
281
     0
  0
CLASS
  1
LAYOUT
  2
AcDbLayout
  3
ObjectDBX Classes
 90
        0
280
     0
281
     0
  0
CLASS
  1
RASTERVARIABLES
  2
AcDbRasterVariables
  3
ISM
 90
        0
280
     0
281
     0
  0
CLASS
  1
DIMASSOC
  2
AcDbDimAssoc
  3
"AcDbDimAssoc|Product Desc:     AcDim ARX App For Dimension|Company:          Autodesk, Inc.|WEB Address:      www.autodesk.com"
 90
        0
280
     0
281
     0
  0
ENDSEC
  0
SECTION
  2
TABLES
  0
TABLE
  2
VPORT
  5
8
330
0
100
AcDbSymbolTable
 70
     1
  0
VPORT
  5
29
330
8
100
AcDbSymbolTableRecord
100
AcDbViewportTableRecord
  2
*Active
 70
     0
 10
0.0
 20
0.0
 11
1.0
 21
1.0
 12
-10.10812110738304
 22
-0.1687039775217798
 13
0.0
 23
0.0
 14
10.0
 24
10.0
 15
10.0
 25
10.0
 16
0.0
 26
0.0
 36
1.0
 17
0.0
 27
0.0
 37
0.0
 40
101.5961381044348
 41
2.070175438596491
 42
50.0
 43
0.0
 44
0.0
 50
0.0
 51
0.0
 71
    16
 72
  2000
 73
     1
 74
     3
 75
     0
 76
     0
 77
     0
 78
     0
281
     0
 65
     1
110
0.0
120
0.0
130
0.0
111
1.0
121
0.0
131
0.0
112
0.0
122
1.0
132
0.0
 79
     0
146
0.0
  0
ENDTAB
  0
TABLE
  2
LTYPE
  5
5
330
0
100
AcDbSymbolTable
 70
     6
  0
LTYPE
  5
14
330
5
100
AcDbSymbolTableRecord
100
AcDbLinetypeTableRecord
  2
ByBlock
 70
     0
  3

 72
    65
 73
     0
 40
0.0
  0
LTYPE
  5
15
330
5
100
AcDbSymbolTableRecord
100
AcDbLinetypeTableRecord
  2
ByLayer
 70
     0
  3

 72
    65
 73
     0
 40
0.0
  0
LTYPE
  5
16
330
5
100
AcDbSymbolTableRecord
100
AcDbLinetypeTableRecord
  2
Continuous
 70
     0
  3
Solid line
 72
    65
 73
     0
 40
0.0
  0
LTYPE
  5
6E
330
5
100
AcDbSymbolTableRecord
100
AcDbLinetypeTableRecord
  2
HIDDEN
 70
     0
  3
Hidden __ __ __ __ __ __ __ __ __ __ __ __ __ __
 72
    65
 73
     2
 40
1.905
 49
1.27
 74
     0
 49
-0.635
 74
     0
  0
LTYPE
  5
6F
330
5
100
AcDbSymbolTableRecord
100
AcDbLinetypeTableRecord
  2
PHANTOM
 70
     0
  3
Phantom ______  __  __  ______  __  __  ______
 72
    65
 73
     6
 40
12.7
 49
6.35
 74
     0
 49
-1.27
 74
     0
 49
1.27
 74
     0
 49
-1.27
 74
     0
 49
1.27
 74
     0
 49
-1.27
 74
     0
  0
LTYPE
  5
70
330
5
100
AcDbSymbolTableRecord
100
AcDbLinetypeTableRecord
  2
CENTER
 70
     0
  3
Center ____ _ ____ _ ____ _ ____ _ ____ _ ____
 72
    65
 73
     4
 40
10.16
 49
6.35
 74
     0
 49
-1.27
 74
     0
 49
1.27
 74
     0
 49
-1.27
 74
     0
  0
LTYPE
  5
71
330
5
100
AcDbSymbolTableRecord
100
AcDbLinetypeTableRecord
  2
CENTERX2
 70
     0
  3
Center (2x) ________  __  ________  __  _____
 72
    65
 73
     4
 40
20.32
 49
12.7
 74
     0
 49
-2.54
 74
     0
 49
2.54
 74
     0
 49
-2.54
 74
     0
  0
LTYPE
  5
72
330
5
100
AcDbSymbolTableRecord
100
AcDbLinetypeTableRecord
  2
DOT2
 70
     0
  3
Dot (.5x) ........................................
 72
    65
 73
     2
 40
0.635
 49
0.0
 74
     0
 49
-0.635
 74
     0
  0
ENDTAB
  0
TABLE
  2
LAYER
  5
2
330
0
100
AcDbSymbolTable
 70
    17
  0
LAYER
  5
10
330
2
100
AcDbSymbolTableRecord
100
AcDbLayerTableRecord
  2
0
 70
     0
 62
     7
  6
Continuous
370
    -3
390
F
  0
LAYER
  5
73
330
2
100
AcDbSymbolTableRecord
100
AcDbLayerTableRecord
  2
FORMAT
 70
     0
 62
     2
  6
Continuous
370
    -3
390
F
  0
LAYER
  5
74
330
2
100
AcDbSymbolTableRecord
100
AcDbLayerTableRecord
  2
외형선
 70
     0
 62
   100
  6
Continuous
370
    35
390
F
  0
LAYER
  5
75
330
2
100
AcDbSymbolTableRecord
100
AcDbLayerTableRecord
  2
숨은선
 70
     0
 62
     2
  6
HIDDEN
370
    25
390
F
  0
LAYER
  5
76
330
2
100
AcDbSymbolTableRecord
100
AcDbLayerTableRecord
  2
중심선
 70
     0
 62
     1
  6
CENTERX2
370
    -3
390
F
  0
LAYER
  5
77
330
2
100
AcDbSymbolTableRecord
100
AcDbLayerTableRecord
  2
파단선
 70
     0
 62
     4
  6
Continuous
370
    -3
390
F
  0
LAYER
  5
78
330
2
100
AcDbSymbolTableRecord
100
AcDbLayerTableRecord
  2
해칭선
 70
     0
 62
     4
  6
Continuous
370
    -3
390
F
  0
LAYER
  5
79
330
2
100
AcDbSymbolTableRecord
100
AcDbLayerTableRecord
  2
가는실선
 70
     0
 62
     4
  6
Continuous
370
    -3
390
F
  0
LAYER
  5
7A
330
2
100
AcDbSymbolTableRecord
100
AcDbLayerTableRecord
  2
치수_보조선
 70
     0
 62
     4
  6
Continuous
370
    -3
390
F
  0
LAYER
  5
7B
330
2
100
AcDbSymbolTableRecord
100
AcDbLayerTableRecord
  2
치수문자_일반주서
 70
     0
 62
     7
  6
Continuous
370
    25
390
F
  0
LAYER
  5
7C
330
2
100
AcDbSymbolTableRecord
100
AcDbLayerTableRecord
  2
개별주서
 70
     0
 62
   100
  6
Continuous
370
    35
390
F
  0
LAYER
  5
7D
330
2
100
AcDbSymbolTableRecord
100
AcDbLayerTableRecord
  2
중간선
 70
     0
 62
     2
  6
Continuous
370
    25
390
F
  0
LAYER
  5
7E
330
2
100
AcDbSymbolTableRecord
100
AcDbLayerTableRecord
  2
윤곽선
 70
     0
 62
     3
  6
Continuous
370
    50
390
F
  0
LAYER
  5
7F
330
2
100
AcDbSymbolTableRecord
100
AcDbLayerTableRecord
  2
중심마크
 70
     0
 62
   100
  6
Continuous
370
    35
390
F
  0
LAYER
  5
80
330
2
100
AcDbSymbolTableRecord
100
AcDbLayerTableRecord
  2
가상선
 70
     0
 62
     4
  6
PHANTOM
370
    -3
390
F
  0
LAYER
  5
81
330
2
100
AcDbSymbolTableRecord
100
AcDbLayerTableRecord
  2
특수지정선
 70
     0
 62
     5
  6
CENTERX2
370
    70
390
F
  0
LAYER
  5
132
330
2
100
AcDbSymbolTableRecord
100
AcDbLayerTableRecord
  2
Defpoints
 70
     0
 62
     7
  6
Continuous
290
     0
370
    -3
390
F
  0
ENDTAB
  0
TABLE
  2
STYLE
  5
3
330
0
100
AcDbSymbolTable
 70
     2
  0
STYLE
  5
11
330
3
100
AcDbSymbolTableRecord
100
AcDbTextStyleTableRecord
  2
Standard
 70
     0
 40
0.0
 41
1.0
 50
0.0
 71
     0
 42
3.5
  3
txt
  4

  0
STYLE
  5
97
330
3
100
AcDbSymbolTableRecord
100
AcDbTextStyleTableRecord
  2
SLDTEXTSTYLE0
 70
     0
 40
0.0
 41
0.75
 50
0.0
 71
     0
 42
3.5
  3
TXT
  4

  0
ENDTAB
  0
TABLE
  2
VIEW
  5
6
330
0
100
AcDbSymbolTable
 70
     0
  0
ENDTAB
  0
TABLE
  2
UCS
  5
7
330
0
100
AcDbSymbolTable
 70
     0
  0
ENDTAB
  0
TABLE
  2
APPID
  5
9
330
0
100
AcDbSymbolTable
 70
     3
  0
APPID
  5
12
330
9
100
AcDbSymbolTableRecord
100
AcDbRegAppTableRecord
  2
ACAD
 70
     0
  0
APPID
  5
13D
330
9
100
AcDbSymbolTableRecord
100
AcDbRegAppTableRecord
  2
ACAD_DSTYLE_DIMRADIAL_EXTENSION
 70
     0
  0
APPID
  5
2E9
330
9
100
AcDbSymbolTableRecord
100
AcDbRegAppTableRecord
  2
PE_URL
 70
     0
  0
ENDTAB
  0
TABLE
  2
DIMSTYLE
  5
A
330
0
100
AcDbSymbolTable
 70
     3
100
AcDbDimStyleTable
  0
DIMSTYLE
105
27
330
A
100
AcDbSymbolTableRecord
100
AcDbDimStyleTableRecord
  2
ISO-25
 70
     0
 41
2.5
 42
0.625
 43
3.75
 44
1.25
 73
     0
 74
     0
 77
     1
 78
     8
140
2.5
141
2.5
143
0.03937007874016
147
0.625
171
     3
172
     1
178
     0
271
     2
272
     2
274
     3
278
    44
283
     0
284
     8
340
11
  0
DIMSTYLE
105
CB
102
{ACAD_REACTORS
330
263
330
266
330
267
330
2B9
102
}
330
A
100
AcDbSymbolTableRecord
100
AcDbDimStyleTableRecord
  2
SLDDIMSTYLE0
 70
     0
 41
3.302
 44
0.0
 45
0.000000001
 73
     0
 74
     0
 77
     1
 78
    12
 79
     3
140
3.5
147
0.875
172
     1
173
     1
178
     0
271
     2
272
     2
276
     2
284
    12
289
     0
340
97
  0
DIMSTYLE
105
D9
102
{ACAD_REACTORS
330
264
330
265
102
}
330
A
100
AcDbSymbolTableRecord
100
AcDbDimStyleTableRecord
  2
SLDDIMSTYLE1
 70
     0
 41
3.302
 44
0.0
 45
0.000000001
 73
     0
 74
     0
 77
     1
 78
    12
 79
     3
140
3.5
147
0.875
173
     1
178
     0
271
     2
272
     2
276
     2
284
    12
340
97
  0
ENDTAB
  0
TABLE
  2
BLOCK_RECORD
  5
1
330
0
100
AcDbSymbolTable
 70
    21
  0
BLOCK_RECORD
  5
1F
330
1
100
AcDbSymbolTableRecord
100
AcDbBlockTableRecord
  2
*Model_Space
340
22
  0
BLOCK_RECORD
  5
1B
330
1
100
AcDbSymbolTableRecord
100
AcDbBlockTableRecord
  2
*Paper_Space
340
1E
  0
BLOCK_RECORD
  5
23
330
1
100
AcDbSymbolTableRecord
100
AcDbBlockTableRecord
  2
*Paper_Space0
340
26
  0
BLOCK_RECORD
  5
82
330
1
100
AcDbSymbolTableRecord
100
AcDbBlockTableRecord
  2
블럭10
340
0
102
{BLKREFS
331
C3
102
}
  0
BLOCK_RECORD
  5
CC
330
1
100
AcDbSymbolTableRecord
100
AcDbBlockTableRecord
  2
_D
340
0
  0
BLOCK_RECORD
  5
DA
330
1
100
AcDbSymbolTableRecord
100
AcDbBlockTableRecord
  2
_D_1
340
0
  0
BLOCK_RECORD
  5
E5
330
1
100
AcDbSymbolTableRecord
100
AcDbBlockTableRecord
  2
_D_2
340
0
  0
BLOCK_RECORD
  5
EF
330
1
100
AcDbSymbolTableRecord
100
AcDbBlockTableRecord
  2
_D_3
340
0
  0
BLOCK_RECORD
  5
FB
330
1
100
AcDbSymbolTableRecord
100
AcDbBlockTableRecord
  2
_D_4
340
0
  0
BLOCK_RECORD
  5
106
330
1
100
AcDbSymbolTableRecord
100
AcDbBlockTableRecord
  2
SW_DOWELSYMBOL_0
340
0
102
{BLKREFS
331
268
102
}
  0
BLOCK_RECORD
  5
1E2
330
1
100
AcDbSymbolTableRecord
100
AcDbBlockTableRecord
  2
*D8
340
0
  0
BLOCK_RECORD
  5
1ED
330
1
100
AcDbSymbolTableRecord
100
AcDbBlockTableRecord
  2
*D9
340
0
  0
BLOCK_RECORD
  5
1F9
330
1
100
AcDbSymbolTableRecord
100
AcDbBlockTableRecord
  2
*D10
340
0
  0
BLOCK_RECORD
  5
205
330
1
100
AcDbSymbolTableRecord
100
AcDbBlockTableRecord
  2
*D11
340
0
  0
BLOCK_RECORD
  5
211
330
1
100
AcDbSymbolTableRecord
100
AcDbBlockTableRecord
  2
*D12
340
0
  0
BLOCK_RECORD
  5
21D
330
1
100
AcDbSymbolTableRecord
100
AcDbBlockTableRecord
  2
*D13
340
0
  0
BLOCK_RECORD
  5
26E
330
1
100
AcDbSymbolTableRecord
100
AcDbBlockTableRecord
  2
*D14
340
0
  0
BLOCK_RECORD
  5
27A
330
1
100
AcDbSymbolTableRecord
100
AcDbBlockTableRecord
  2
*D15
340
0
  0
BLOCK_RECORD
  5
286
330
1
100
AcDbSymbolTableRecord
100
AcDbBlockTableRecord
  2
*D16
340
0
  0
BLOCK_RECORD
  5
292
330
1
100
AcDbSymbolTableRecord
100
AcDbBlockTableRecord
  2
*D17
340
0
  0
BLOCK_RECORD
  5
29E
330
1
100
AcDbSymbolTableRecord
100
AcDbBlockTableRecord
  2
*D18
340
0
  0
BLOCK_RECORD
  5
2AA
330
1
100
AcDbSymbolTableRecord
100
AcDbBlockTableRecord
  2
*D19
340
0
  0
BLOCK_RECORD
  5
2BC
330
1
100
AcDbSymbolTableRecord
100
AcDbBlockTableRecord
  2
*D20
340
0
  0
ENDTAB
  0
ENDSEC
  0
SECTION
  2
BLOCKS
  0
BLOCK
  5
20
330
1F
100
AcDbEntity
  8
0
100
AcDbBlockBegin
  2
*Model_Space
 70
     0
 10
0.0
 20
0.0
 30
0.0
  3
*Model_Space
  1
*Model_Space
  0
ENDBLK
  5
21
330
1F
100
AcDbEntity
  8
0
100
AcDbBlockEnd
  0
BLOCK
  5
1C
330
1B
100
AcDbEntity
 67
     1
  8
0
100
AcDbBlockBegin
  2
*Paper_Space
 70
     0
 10
0.0
 20
0.0
 30
0.0
  3
*Paper_Space
  1
*Paper_Space
  0
ENDBLK
  5
1D
330
1B
100
AcDbEntity
 67
     1
  8
0
100
AcDbBlockEnd
  0
BLOCK
  5
24
330
23
100
AcDbEntity
  8
0
100
AcDbBlockBegin
  2
*Paper_Space0
 70
     0
 10
0.0
 20
0.0
 30
0.0
  3
*Paper_Space0
  1
*Paper_Space0
  0
ENDBLK
  5
25
330
23
100
AcDbEntity
  8
0
100
AcDbBlockEnd
  0
BLOCK
  5
83
330
82
100
AcDbEntity
  8
0
100
AcDbBlockBegin
  2
블럭10
 70
     2
 10
0.0
 20
0.0
 30
0.0
  3
블럭10
  1
블럭10
  0
ELLIPSE
  5
85
330
82
100
AcDbEntity
  8
중심선
100
AcDbEllipse
 10
20.54032771741204
 20
12.0471743016438
 30
0.0
 11
6.600054785286829
 21
-1.261213355974178E-13
 31
0.0
210
0.0
220
0.0
230
1.0
 40
0.636358354079598
 41
0.9219305317359503
 42
6.513795318482858
  0
ELLIPSE
  5
86
330
82
100
AcDbEntity
  8
중심선
100
AcDbEllipse
 10
20.54032771746488
 20
12.04717430159265
 30
0.0
 11
3.960054785062283
 21
1.540847449632565E-10
 31
0.0
210
0.0
220
0.0
230
1.0
 40
0.3939339440162632
 41
1.131841032648279
 42
5.62031148352944
  0
LINE
  5
87
330
82
100
AcDbEntity
  8
중심선
100
AcDbLine
 10
2.268634060543552
 20
16.24717430164393
 30
0.0
 11
5.714909304380834
 21
16.24717430164393
 31
0.0
  0
LINE
  5
88
330
82
100
AcDbEntity
  8
중심선
100
AcDbLine
 10
5.245725140726316
 20
7.84717430164391
 30
0.0
 11
8.692000384563599
 21
7.84717430164391
 31
0.0
  0
LINE
  5
89
330
82
100
AcDbEntity
  8
중심선
100
AcDbLine
 10
15.74043728645272
 20
16.24717430164393
 30
0.0
 11
8.692000384563599
 21
7.84717430164391
 31
0.0
  0
LINE
  5
8A
330
82
100
AcDbEntity
  8
중심선
100
AcDbLine
 10
0.1404042013395286
 20
13.71084872107135
 30
0.0
 11
3.58671253028996
 21
13.71088815037384
 31
0.0
  0
LINE
  5
8B
330
82
100
AcDbEntity
  8
중심선
100
AcDbLine
 10
2.750260043222114
 20
10.84717430164391
 30
0.0
 11
6.196535287059397
 21
10.84717430164391
 31
0.0
  0
LINE
  5
8C
330
82
100
AcDbEntity
  8
중심선
100
AcDbLine
 10
12.29416204261559
 20
16.24717430164393
 30
0.0
 11
5.245725140726316
 21
7.84717430164391
 31
0.0
  0
LINE
  5
8D
330
82
100
AcDbEntity
  8
중심선
100
AcDbLine
 10
10.72767329541681
 20
16.24717430164393
 30
0.0
 11
6.196535287059397
 21
10.84717430164391
 31
0.0
  0
LINE
  5
8E
330
82
100
AcDbEntity
  8
중심선
100
AcDbLine
 10
7.28139805157953
 20
16.24717430164393
 30
0.0
 11
2.750260043222114
 21
10.84717430164391
 31
0.0
  0
LINE
  5
8F
330
82
100
AcDbEntity
  8
중심선
100
AcDbLine
 10
5.714909304380834
 20
16.24717430164393
 30
0.0
 11
3.58671253028996
 21
13.71088815037384
 31
0.0
  0
LINE
  5
90
330
82
100
AcDbEntity
  8
중심선
100
AcDbLine
 10
2.268634060543552
 20
16.24717430164393
 30
0.0
 11
0.1404042013395286
 21
13.71084872107135
 31
0.0
  0
LINE
  5
91
330
82
100
AcDbEntity
  8
중심선
100
AcDbLine
 10
7.28139805157953
 20
16.24717430164393
 30
0.0
 11
10.72767329541681
 21
16.24717430164393
 31
0.0
  0
LINE
  5
92
330
82
100
AcDbEntity
  8
중심선
100
AcDbLine
 10
12.29416204261559
 20
16.24717430164393
 30
0.0
 11
15.74043728645272
 21
16.24717430164393
 31
0.0
  0
LINE
  5
93
330
82
100
AcDbEntity
  8
중심선
100
AcDbLine
 10
19.22036997980202
 20
11.08717430171403
 30
0.0
 11
23.66174974927406
 21
11.08717430171406
 31
0.0
  0
LINE
  5
94
330
82
100
AcDbEntity
  8
중심선
100
AcDbLine
 10
19.22039502424796
 20
13.00717430171391
 30
0.0
 11
19.22036997980202
 21
11.08717430171403
 31
0.0
  0
LINE
  5
95
330
82
100
AcDbEntity
  8
중심선
100
AcDbLine
 10
19.22039502424796
 20
13.00717430171391
 30
0.0
 11
26.96566020931264
 21
13.00717430171391
 31
0.0
  0
LINE
  5
96
330
82
100
AcDbEntity
  8
중심선
100
AcDbLine
 10
22.22332737316547
 20
13.45928029700563
 30
0.0
 11
24.52862924686651
 21
15.39360700705356
 31
0.0
  0
ATTDEF
  5
98
330
82
100
AcDbEntity
  8
FORMAT
 62
     2
100
AcDbText
 10
-20.85824753159254
 20
2.075366912832191
 30
0.0
 40
4.233333333333333
  1
SEME6110010100E [ 2 FLUTE ]
 41
0.75
  7
SLDTEXTSTYLE0
 11
-20.85824753159254
 21
-0.0412997538344756
 31
0.0
100
AcDbAttributeDefinition
  3

  2
AUTOATTR0
 70
     0
 74
     1
  0
ENDBLK
  5
84
330
82
100
AcDbEntity
  8
0
100
AcDbBlockEnd
  0
BLOCK
  5
CD
330
CC
100
AcDbEntity
  8
0
100
AcDbBlockBegin
  2
_D
 70
     0
 10
0.0
 20
0.0
 30
0.0
  3
_D
  1
_D
  0
SOLID
  5
CF
330
CC
100
AcDbEntity
  8
치수문자_일반주서
100
AcDbTrace
 10
-61.00250885508846
 20
5.001074928723885
 30
0.0
 11
-60.49450885508845
 21
8.303074928723884
 31
0.0
 12
-61.51050885508846
 22
8.303074928723884
 32
0.0
 13
-61.51050885508846
 23
8.303074928723884
 33
0.0
  0
SOLID
  5
D0
330
CC
100
AcDbEntity
  8
치수문자_일반주서
100
AcDbTrace
 10
-61.00250885508846
 20
-4.998925071276106
 30
0.0
 11
-61.51050885508846
 21
-8.300925071276104
 31
0.0
 12
-60.49450885508845
 22
-8.300925071276104
 32
0.0
 13
-60.49450885508845
 23
-8.300925071276104
 33
0.0
  0
LINE
  5
D1
330
CC
100
AcDbEntity
  8
치수문자_일반주서
100
AcDbLine
 10
-49.50605083347638
 20
5.001074928723885
 30
0.0
 11
-62.00250885508846
 21
5.001074928723885
 31
0.0
  0
LINE
  5
D2
330
CC
100
AcDbEntity
  8
치수문자_일반주서
100
AcDbLine
 10
-49.50605083347638
 20
-4.998925071276106
 30
0.0
 11
-62.00250885508846
 21
-4.998925071276106
 31
0.0
  0
LINE
  5
D3
330
CC
100
AcDbEntity
  8
치수문자_일반주서
100
AcDbLine
 10
-61.00250885508846
 20
5.001074928723885
 30
0.0
 11
-61.00250885508846
 21
11.35107492872389
 31
0.0
  0
LINE
  5
D4
330
CC
100
AcDbEntity
  8
치수문자_일반주서
100
AcDbLine
 10
-61.00250885508846
 20
5.001074928723885
 30
0.0
 11
-61.00250885508846
 21
-4.998925071276106
 31
0.0
  0
LINE
  5
D5
330
CC
100
AcDbEntity
  8
치수문자_일반주서
100
AcDbLine
 10
-61.00250885508846
 20
-4.998925071276106
 30
0.0
 11
-61.00250885508846
 21
-11.34892507127611
 31
0.0
  0
MTEXT
  5
D6
330
CC
100
AcDbEntity
  8
치수문자_일반주서
100
AcDbMText
 10
-65.51424594429031
 20
-5.224255196816678
 30
0.0
 40
3.5
 41
0.0
 71
     1
 72
     1
  1
%%c
  7
SLDTEXTSTYLE0
 11
-7.044195017643634E-15
 21
1.0
 31
0.0
 73
     1
 44
1.0
  0
MTEXT
  5
D7
330
CC
100
AcDbEntity
  8
치수문자_일반주서
100
AcDbMText
 10
-65.56771812095019
 20
0.0541822015574028
 30
0.0
 40
3.5
 41
0.0
 71
     1
 72
     1
  1
10
  7
SLDTEXTSTYLE0
 11
-7.044195017643634E-15
 21
1.0
 31
0.0
 73
     1
 44
1.0
  0
ENDBLK
  5
CE
330
CC
100
AcDbEntity
  8
0
100
AcDbBlockEnd
  0
BLOCK
  5
DB
330
DA
100
AcDbEntity
  8
0
100
AcDbBlockBegin
  2
_D_1
 70
     0
 10
0.0
 20
0.0
 30
0.0
  3
_D_1
  1
_D_1
  0
SOLID
  5
DD
330
DA
100
AcDbEntity
  8
치수문자_일반주서
100
AcDbTrace
 10
50.4939491665236
 20
22.50107492872355
 30
0.0
 11
47.1919491665236
 21
23.00907492872355
 31
0.0
 12
47.1919491665236
 22
21.99307492872355
 32
0.0
 13
47.1919491665236
 23
21.99307492872355
 33
0.0
  0
SOLID
  5
DE
330
DA
100
AcDbEntity
  8
치수문자_일반주서
100
AcDbTrace
 10
25.4939491665236
 20
22.50107492872352
 30
0.0
 11
28.7959491665236
 21
21.99307492872353
 31
0.0
 12
28.7959491665236
 22
23.00907492872352
 32
0.0
 13
28.7959491665236
 23
23.00907492872352
 33
0.0
  0
LINE
  5
DF
330
DA
100
AcDbEntity
  8
치수문자_일반주서
100
AcDbLine
 10
50.49394916652362
 20
5.001074928723893
 30
0.0
 11
50.4939491665236
 21
23.50107492872355
 31
0.0
  0
LINE
  5
E0
330
DA
100
AcDbEntity
  8
치수문자_일반주서
100
AcDbLine
 10
25.49394916652362
 20
5.887228210608909
 30
0.0
 11
25.4939491665236
 21
23.50107492872352
 31
0.0
  0
LINE
  5
E1
330
DA
100
AcDbEntity
  8
치수문자_일반주서
100
AcDbLine
 10
50.4939491665236
 20
22.50107492872355
 30
0.0
 11
80.42485596456287
 21
22.50107492872358
 31
0.0
  0
LINE
  5
E2
330
DA
100
AcDbEntity
  8
치수문자_일반주서
100
AcDbLine
 10
50.4939491665236
 20
22.50107492872355
 30
0.0
 11
25.4939491665236
 21
22.50107492872352
 31
0.0
  0
MTEXT
  5
E3
330
DA
100
AcDbEntity
  8
치수문자_일반주서
100
AcDbMText
 10
75.25263357751726
 20
27.01281184330247
 30
0.0
 40
3.5
 41
0.0
 71
     1
 72
     1
  1
25
  7
SLDTEXTSTYLE0
 73
     1
 44
1.0
  0
ENDBLK
  5
DC
330
DA
100
AcDbEntity
  8
0
100
AcDbBlockEnd
  0
BLOCK
  5
E6
330
E5
100
AcDbEntity
  8
0
100
AcDbBlockBegin
  2
_D_2
 70
     0
 10
0.0
 20
0.0
 30
0.0
  3
_D_2
  1
_D_2
  0
SOLID
  5
E8
330
E5
100
AcDbEntity
  8
치수문자_일반주서
100
AcDbTrace
 10
50.49394916652362
 20
44.55939943376817
 30
0.0
 11
47.19194916652362
 21
45.06739943376817
 31
0.0
 12
47.19194916652362
 22
44.05139943376817
 32
0.0
 13
47.19194916652362
 23
44.05139943376817
 33
0.0
  0
SOLID
  5
E9
330
E5
100
AcDbEntity
  8
치수문자_일반주서
100
AcDbTrace
 10
-49.50605083347639
 20
44.55939943376817
 30
0.0
 11
-46.20405083347639
 21
44.05139943376817
 31
0.0
 12
-46.20405083347639
 22
45.06739943376817
 32
0.0
 13
-46.20405083347639
 23
45.06739943376817
 33
0.0
  0
LINE
  5
EA
330
E5
100
AcDbEntity
  8
치수문자_일반주서
100
AcDbLine
 10
50.49394916652362
 20
5.001074928723893
 30
0.0
 11
50.49394916652362
 21
45.55939943376818
 31
0.0
  0
LINE
  5
EB
330
E5
100
AcDbEntity
  8
치수문자_일반주서
100
AcDbLine
 10
-49.50605083347639
 20
5.001074928723886
 30
0.0
 11
-49.50605083347639
 21
45.55939943376818
 31
0.0
  0
LINE
  5
EC
330
E5
100
AcDbEntity
  8
치수문자_일반주서
100
AcDbLine
 10
50.49394916652362
 20
44.55939943376817
 30
0.0
 11
-49.50605083347639
 21
44.55939943376817
 31
0.0
  0
MTEXT
  5
ED
330
E5
100
AcDbEntity
  8
치수문자_일반주서
100
AcDbMText
 10
-3.385217507345287
 20
49.07113634834707
 30
0.0
 40
3.5
 41
0.0
 71
     1
 72
     1
  1
100
  7
SLDTEXTSTYLE0
 73
     1
 44
1.0
  0
ENDBLK
  5
E7
330
E5
100
AcDbEntity
  8
0
100
AcDbBlockEnd
  0
BLOCK
  5
F0
330
EF
100
AcDbEntity
  8
0
100
AcDbBlockBegin
  2
_D_3
 70
     0
 10
0.0
 20
0.0
 30
0.0
  3
_D_3
  1
_D_3
  0
SOLID
  5
F2
330
EF
100
AcDbEntity
  8
치수문자_일반주서
100
AcDbTrace
 10
14.49394916652476
 20
30.32107492872395
 30
0.0
 11
17.79594916652475
 21
29.81307492872382
 31
0.0
 12
17.79594916652478
 22
30.82907492872382
 32
0.0
 13
17.79594916652478
 23
30.82907492872382
 33
0.0
  0
SOLID
  5
F3
330
EF
100
AcDbEntity
  8
치수문자_일반주서
100
AcDbTrace
 10
10.2140453559571
 20
30.32107492872411
 30
0.0
 11
6.912045355957115
 21
30.82907492872424
 31
0.0
 12
6.912045355957076
 22
29.81307492872424
 32
0.0
 13
6.912045355957076
 23
29.81307492872424
 33
0.0
  0
LINE
  5
F4
330
EF
100
AcDbEntity
  8
치수문자_일반주서
100
AcDbLine
 10
14.49394916652365
 20
1.401074928723893
 30
0.0
 11
14.4939491665248
 21
31.32107492872394
 31
0.0
  0
LINE
  5
F5
330
EF
100
AcDbEntity
  8
치수문자_일반주서
100
AcDbLine
 10
10.21404535595599
 20
1.551074928723894
 30
0.0
 11
10.21404535595713
 21
31.32107492872411
 31
0.0
  0
LINE
  5
F6
330
EF
100
AcDbEntity
  8
치수문자_일반주서
100
AcDbLine
 10
14.49394916652476
 20
30.32107492872395
 30
0.0
 11
55.42440269528608
 21
30.32107492872239
 31
0.0
  0
LINE
  5
F7
330
EF
100
AcDbEntity
  8
치수문자_일반주서
100
AcDbLine
 10
14.49394916652476
 20
30.32107492872395
 30
0.0
 11
10.2140453559571
 21
30.32107492872411
 31
0.0
  0
LINE
  5
F8
330
EF
100
AcDbEntity
  8
치수문자_일반주서
100
AcDbLine
 10
10.2140453559571
 20
30.32107492872411
 30
0.0
 11
3.864045355957095
 21
30.32107492872435
 31
0.0
  0
MTEXT
  5
F9
330
EF
100
AcDbEntity
  8
치수문자_일반주서
100
AcDbMText
 10
46.3730136343715
 20
34.83281184330144
 30
0.0
 40
3.5
 41
0.0
 71
     1
 72
     1
  1
4.28
  7
SLDTEXTSTYLE0
 73
     1
 44
1.0
  0
ENDBLK
  5
F1
330
EF
100
AcDbEntity
  8
0
100
AcDbBlockEnd
  0
BLOCK
  5
FC
330
FB
100
AcDbEntity
  8
0
100
AcDbBlockBegin
  2
_D_4
 70
     0
 10
0.0
 20
0.0
 30
0.0
  3
_D_4
  1
_D_4
  0
SOLID
  5
FE
330
FB
100
AcDbEntity
  8
치수문자_일반주서
100
AcDbTrace
 10
67.35059833193549
 20
5.001074928723892
 30
0.0
 11
66.84259833193549
 21
1.699074928723892
 31
0.0
 12
67.85859833193548
 22
1.699074928723892
 32
0.0
 13
67.85859833193548
 23
1.699074928723892
 33
0.0
  0
SOLID
  5
FF
330
FB
100
AcDbEntity
  8
치수문자_일반주서
100
AcDbTrace
 10
67.35059833193549
 20
-4.937756798710937
 30
0.0
 11
67.85859833193548
 21
-1.635756798710937
 31
0.0
 12
66.84259833193549
 22
-1.635756798710937
 32
0.0
 13
66.84259833193549
 23
-1.635756798710937
 33
0.0
  0
LINE
  5
100
330
FB
100
AcDbEntity
  8
치수문자_일반주서
100
AcDbLine
 10
50.49394916652362
 20
5.001074928723892
 30
0.0
 11
68.35059833193549
 21
5.001074928723892
 31
0.0
  0
LINE
  5
101
330
FB
100
AcDbEntity
  8
치수문자_일반주서
100
AcDbLine
 10
50.49394916652362
 20
-4.937756798710936
 30
0.0
 11
68.35059833193549
 21
-4.937756798710937
 31
0.0
  0
LINE
  5
102
330
FB
100
AcDbEntity
  8
치수문자_일반주서
100
AcDbLine
 10
67.35059833193549
 20
5.001074928723892
 30
0.0
 11
67.35059833193549
 21
-4.937756798710937
 31
0.0
  0
LINE
  5
103
330
FB
100
AcDbEntity
  8
치수문자_일반주서
100
AcDbLine
 10
67.35059833193549
 20
-4.937756798710937
 30
0.0
 11
67.35059833193549
 21
-31.02355930264757
 31
0.0
  0
MTEXT
  5
104
330
FB
100
AcDbEntity
  8
치수문자_일반주서
100
AcDbMText
 10
62.83886124273366
 20
-31.02355930264756
 30
0.0
 40
3.5
 41
0.0
 71
     1
 72
     1
  1
%%c
  7
SLDTEXTSTYLE0
 11
-7.044195017643634E-15
 21
1.0
 31
0.0
 73
     1
 44
1.0
  0
MTEXT
  5
105
330
FB
100
AcDbEntity
  8
치수문자_일반주서
100
AcDbMText
 10
62.78538906607377
 20
-25.74512190427348
 30
0.0
 40
3.5
 41
0.0
 71
     1
 72
     1
  1
9.94
  7
SLDTEXTSTYLE0
 11
-7.044195017643634E-15
 21
1.0
 31
0.0
 73
     1
 44
1.0
  0
ENDBLK
  5
FD
330
FB
100
AcDbEntity
  8
0
100
AcDbBlockEnd
  0
BLOCK
  5
107
330
106
100
AcDbEntity
  8
0
100
AcDbBlockBegin
  2
SW_DOWELSYMBOL_0
 70
     0
 10
0.0
 20
0.0
 30
0.0
  3
SW_DOWELSYMBOL_0
  1
SW_DOWELSYMBOL_0
  0
CIRCLE
  5
109
330
106
100
AcDbEntity
  8
외형선
 62
     0
100
AcDbCircle
 10
0.0
 20
0.0
 30
0.0
 40
3.000000000000004
  0
HATCH
  5
10A
330
106
100
AcDbEntity
  8
0
  6
Continuous
 62
     0
370
    35
100
AcDbHatch
 10
0.0
 20
0.0
 30
0.0
210
0.0
220
0.0
230
1.0
  2
SOLID
 70
     1
 71
     0
 91
        1
 92
        0
 93
        3
 72
     2
 10
0.0000000000000104
 20
0.0
 40
3.000000000000004
 50
0.0
 51
90.0
 73
     1
 72
     1
 10
0.0000000000000104
 20
3.000000000000004
 11
0.0000000000000104
 21
0.0
 72
     1
 10
0.0000000000000104
 20
0.0
 11
3.000000000000015
 21
0.0
 97
        0
 75
     0
 76
     1
 98
        1
 10
0.0
 20
0.0
  0
HATCH
  5
10B
330
106
100
AcDbEntity
  8
0
  6
Continuous
 62
     0
370
    35
100
AcDbHatch
 10
0.0
 20
0.0
 30
0.0
210
0.0
220
0.0
230
1.0
  2
SOLID
 70
     1
 71
     0
 91
        1
 92
        0
 93
        3
 72
     2
 10
0.0000000000000104
 20
0.0
 40
3.000000000000004
 50
180.0
 51
270.0000000000007
 73
     1
 72
     1
 10
0.0000000000000104
 20
-3.000000000000004
 11
0.0000000000000104
 21
0.0
 72
     1
 10
0.0000000000000104
 20
0.0
 11
-2.999999999999994
 21
0.0
 97
        0
 75
     0
 76
     1
 98
        1
 10
0.0
 20
0.0
  0
ENDBLK
  5
108
330
106
100
AcDbEntity
  8
0
100
AcDbBlockEnd
  0
BLOCK
  5
1E3
330
1E2
100
AcDbEntity
  8
0
100
AcDbBlockBegin
  2
*D8
 70
     1
 10
0.0
 20
0.0
 30
0.0
  3
*D8
  1
*D9
  0
LINE
  5
1E4
330
1E2
100
AcDbEntity
  8
치수문자_일반주서
 62
     0
370
    -2
100
AcDbLine
 10
117.5268725035128
 20
16.1397161603554
 30
0.0
 11
127.9597997798321
 21
0.0000000000002451
 31
0.0
  0
MTEXT
  5
1E5
330
1E2
100
AcDbEntity
  8
치수문자_일반주서
 62
     0
100
AcDbMText
 10
127.6705153596962
 20
5.282942228225592
 30
0.0
 40
3.5
 41
0.0
 71
     5
 72
     1
  1
\A1;R0.3
  7
SLDTEXTSTYLE0
 11
0.5428690954749457
 21
-0.8398173284579298
 31
0.0
 73
     1
 44
1.0
  0
LINE
  5
1E6
330
1E2
100
AcDbEntity
  8
치수문자_일반주서
 62
     0
370
    -2
100
AcDbLine
 10
115.5714580216121
 20
19.16473817746086
 30
0.0
 11
115.7343187502545
 21
18.91279297892348
 31
0.0
  0
SOLID
  5
1E7
330
1E2
100
AcDbEntity
  8
치수문자_일반주서
 62
     0
100
AcDbTrace
 10
117.9890519732742
 20
16.43847511923178
 30
0.0
 11
117.0646930337515
 21
15.84095720147902
 31
0.0
 12
115.7343187502545
 22
18.91279297892348
 32
0.0
 13
115.7343187502545
 23
18.91279297892348
 33
0.0
  0
POINT
  5
1E8
330
1E2
100
AcDbEntity
  8
Defpoints
 62
     0
100
AcDbPoint
 10
115.7343187502545
 20
18.91279297892348
 30
0.0
  0
POINT
  5
1E9
330
1E2
100
AcDbEntity
  8
Defpoints
 62
     0
100
AcDbPoint
 10
115.5714580216121
 20
19.16473817746086
 30
0.0
  0
ENDBLK
  5
1EA
330
1E2
100
AcDbEntity
  8
0
100
AcDbBlockEnd
  0
BLOCK
  5
1EE
330
1ED
100
AcDbEntity
  8
0
100
AcDbBlockBegin
  2
*D9
 70
     1
 10
0.0
 20
0.0
 30
0.0
  3
*D9
  1
*D10
  0
LINE
  5
1F0
330
1ED
100
AcDbEntity
  8
치수문자_일반주서
 62
     0
370
    -2
100
AcDbLine
 10
16.80895802161209
 20
28.8503646055354
 30
0.0
 11
4.374999999999997
 21
28.85036460553535
 31
0.0
  0
LINE
  5
1F1
330
1ED
100
AcDbEntity
  8
치수문자_일반주서
 62
     0
370
    -2
100
AcDbLine
 10
16.80895802161209
 20
18.85036460553541
 30
0.0
 11
4.375000000000032
 21
18.85036460553536
 31
0.0
  0
LINE
  5
1F2
330
1ED
100
AcDbEntity
  8
치수문자_일반주서
 62
     0
370
    -2
100
AcDbLine
 10
4.375000000000009
 20
25.54836460553535
 30
0.0
 11
4.37500000000002
 21
22.15236460553536
 31
0.0
  0
SOLID
  5
1F3
330
1ED
100
AcDbEntity
  8
치수문자_일반주서
 62
     0
100
AcDbTrace
 10
4.925333333333342
 20
25.54836460553536
 30
0.0
 11
3.824666666666676
 21
25.54836460553535
 31
0.0
 12
4.374999999999997
 22
28.85036460553535
 32
0.0
 13
4.374999999999997
 23
28.85036460553535
 33
0.0
  0
SOLID
  5
1F4
330
1ED
100
AcDbEntity
  8
치수문자_일반주서
 62
     0
100
AcDbTrace
 10
3.824666666666687
 20
22.15236460553536
 30
0.0
 11
4.925333333333354
 21
22.15236460553537
 31
0.0
 12
4.375000000000032
 22
18.85036460553536
 32
0.0
 13
4.375000000000032
 23
18.85036460553536
 33
0.0
  0
MTEXT
  5
1F5
330
1ED
100
AcDbEntity
  8
치수문자_일반주서
 62
     0
100
AcDbMText
 10
0.0000000000000142
 20
23.85036460553539
 30
0.0
 40
3.5
 41
0.0
 71
     2
 72
     1
  1
\A1;%%c10
  7
SLDTEXTSTYLE0
 11
-3.463895836830492E-15
 21
1.0
 31
0.0
 73
     1
 44
1.0
  0
POINT
  5
1F6
330
1ED
100
AcDbEntity
  8
Defpoints
 62
     0
100
AcDbPoint
 10
16.87145802161209
 20
28.8503646055354
 30
0.0
  0
POINT
  5
1F7
330
1ED
100
AcDbEntity
  8
Defpoints
 62
     0
100
AcDbPoint
 10
16.87145802161209
 20
18.85036460553541
 30
0.0
  0
POINT
  5
1F8
330
1ED
100
AcDbEntity
  8
Defpoints
 62
     0
100
AcDbPoint
 10
4.375000000000028
 20
18.85036460553536
 30
0.0
  0
ENDBLK
  5
1EF
330
1ED
100
AcDbEntity
  8
0
100
AcDbBlockEnd
  0
BLOCK
  5
1FA
330
1F9
100
AcDbEntity
  8
0
100
AcDbBlockBegin
  2
*D10
 70
     1
 10
0.0
 20
0.0
 30
0.0
  3
*D10
  1
*D11
  0
LINE
  5
1FC
330
1F9
100
AcDbEntity
  8
치수문자_일반주서
 62
     0
370
    -2
100
AcDbLine
 10
115.8714580216121
 20
28.61286460553541
 30
0.0
 11
115.8714580216121
 21
47.05036460553506
 31
0.0
  0
LINE
  5
1FD
330
1F9
100
AcDbEntity
  8
치수문자_일반주서
 62
     0
370
    -2
100
AcDbLine
 10
90.87145802161209
 20
28.9128646055354
 30
0.0
 11
90.87145802161209
 21
47.05036460553506
 31
0.0
  0
LINE
  5
1FE
330
1F9
100
AcDbEntity
  8
치수문자_일반주서
 62
     0
370
    -2
100
AcDbLine
 10
112.5694580216121
 20
47.05036460553506
 30
0.0
 11
94.17345802161208
 21
47.05036460553506
 31
0.0
  0
SOLID
  5
1FF
330
1F9
100
AcDbEntity
  8
치수문자_일반주서
 62
     0
100
AcDbTrace
 10
112.5694580216121
 20
46.50003127220172
 30
0.0
 11
112.5694580216121
 21
47.60069793886839
 31
0.0
 12
115.8714580216121
 22
47.05036460553506
 32
0.0
 13
115.8714580216121
 23
47.05036460553506
 33
0.0
  0
SOLID
  5
200
330
1F9
100
AcDbEntity
  8
치수문자_일반주서
 62
     0
100
AcDbTrace
 10
94.17345802161208
 20
47.60069793886839
 30
0.0
 11
94.17345802161208
 21
46.50003127220172
 31
0.0
 12
90.87145802161209
 22
47.05036460553506
 32
0.0
 13
90.87145802161209
 23
47.05036460553506
 33
0.0
  0
MTEXT
  5
201
330
1F9
100
AcDbEntity
  8
치수문자_일반주서
 62
     0
100
AcDbMText
 10
103.3714580216121
 20
51.42536460553506
 30
0.0
 40
3.5
 41
0.0
 71
     2
 72
     1
  1
\A1;25
  7
SLDTEXTSTYLE0
 73
     1
 44
1.0
  0
POINT
  5
202
330
1F9
100
AcDbEntity
  8
Defpoints
 62
     0
100
AcDbPoint
 10
115.8714580216121
 20
28.55036460553541
 30
0.0
  0
POINT
  5
203
330
1F9
100
AcDbEntity
  8
Defpoints
 62
     0
100
AcDbPoint
 10
90.87145802161209
 20
28.8503646055354
 30
0.0
  0
POINT
  5
204
330
1F9
100
AcDbEntity
  8
Defpoints
 62
     0
100
AcDbPoint
 10
90.87145802161209
 20
47.05036460553506
 30
0.0
  0
ENDBLK
  5
1FB
330
1F9
100
AcDbEntity
  8
0
100
AcDbBlockEnd
  0
BLOCK
  5
206
330
205
100
AcDbEntity
  8
0
100
AcDbBlockBegin
  2
*D11
 70
     1
 10
0.0
 20
0.0
 30
0.0
  3
*D11
  1
*D12
  0
LINE
  5
208
330
205
100
AcDbEntity
  8
치수문자_일반주서
 62
     0
370
    -2
100
AcDbLine
 10
115.8714580216121
 20
28.61286460553541
 30
0.0
 11
115.8714580216121
 21
69.10868911057969
 31
0.0
  0
LINE
  5
209
330
205
100
AcDbEntity
  8
치수문자_일반주서
 62
     0
370
    -2
100
AcDbLine
 10
15.87145802161208
 20
27.9128646055354
 30
0.0
 11
15.87145802161208
 21
69.10868911057969
 31
0.0
  0
LINE
  5
20A
330
205
100
AcDbEntity
  8
치수문자_일반주서
 62
     0
370
    -2
100
AcDbLine
 10
112.5694580216121
 20
69.10868911057969
 30
0.0
 11
19.17345802161208
 21
69.10868911057969
 31
0.0
  0
SOLID
  5
20B
330
205
100
AcDbEntity
  8
치수문자_일반주서
 62
     0
100
AcDbTrace
 10
112.5694580216121
 20
68.55835577724636
 30
0.0
 11
112.5694580216121
 21
69.65902244391302
 31
0.0
 12
115.8714580216121
 22
69.10868911057969
 32
0.0
 13
115.8714580216121
 23
69.10868911057969
 33
0.0
  0
SOLID
  5
20C
330
205
100
AcDbEntity
  8
치수문자_일반주서
 62
     0
100
AcDbTrace
 10
19.17345802161208
 20
69.65902244391302
 30
0.0
 11
19.17345802161208
 21
68.55835577724636
 31
0.0
 12
15.87145802161208
 22
69.10868911057969
 32
0.0
 13
15.87145802161208
 23
69.10868911057969
 33
0.0
  0
MTEXT
  5
20D
330
205
100
AcDbEntity
  8
치수문자_일반주서
 62
     0
100
AcDbMText
 10
65.87145802161209
 20
73.48368911057969
 30
0.0
 40
3.5
 41
0.0
 71
     2
 72
     1
  1
\A1;100
  7
SLDTEXTSTYLE0
 73
     1
 44
1.0
  0
POINT
  5
20E
330
205
100
AcDbEntity
  8
Defpoints
 62
     0
100
AcDbPoint
 10
115.8714580216121
 20
28.55036460553541
 30
0.0
  0
POINT
  5
20F
330
205
100
AcDbEntity
  8
Defpoints
 62
     0
100
AcDbPoint
 10
15.87145802161208
 20
27.8503646055354
 30
0.0
  0
POINT
  5
210
330
205
100
AcDbEntity
  8
Defpoints
 62
     0
100
AcDbPoint
 10
15.87145802161208
 20
69.10868911057969
 30
0.0
  0
ENDBLK
  5
207
330
205
100
AcDbEntity
  8
0
100
AcDbBlockEnd
  0
BLOCK
  5
212
330
211
100
AcDbEntity
  8
0
100
AcDbBlockBegin
  2
*D12
 70
     1
 10
0.0
 20
0.0
 30
0.0
  3
*D12
  1
*D13
  0
LINE
  5
214
330
211
100
AcDbEntity
  8
치수문자_일반주서
 62
     0
370
    -2
100
AcDbLine
 10
115.8714580216121
 20
28.60574347952933
 30
0.0
 11
115.8714580216121
 21
54.17036460553406
 31
0.0
  0
LINE
  5
215
330
211
100
AcDbEntity
  8
치수문자_일반주서
 62
     0
370
    -2
100
AcDbLine
 10
75.87145802161209
 20
28.76286460553541
 30
0.0
 11
75.87145802161209
 21
54.17036460553406
 31
0.0
  0
LINE
  5
216
330
211
100
AcDbEntity
  8
치수문자_일반주서
 62
     0
370
    -2
100
AcDbLine
 10
112.5694580216121
 20
54.17036460553406
 30
0.0
 11
79.17345802161208
 21
54.17036460553406
 31
0.0
  0
SOLID
  5
217
330
211
100
AcDbEntity
  8
치수문자_일반주서
 62
     0
100
AcDbTrace
 10
112.5694580216121
 20
53.62003127220073
 30
0.0
 11
112.5694580216121
 21
54.7206979388674
 31
0.0
 12
115.8714580216121
 22
54.17036460553406
 32
0.0
 13
115.8714580216121
 23
54.17036460553406
 33
0.0
  0
SOLID
  5
218
330
211
100
AcDbEntity
  8
치수문자_일반주서
 62
     0
100
AcDbTrace
 10
79.17345802161208
 20
54.7206979388674
 30
0.0
 11
79.17345802161208
 21
53.62003127220073
 31
0.0
 12
75.87145802161209
 22
54.17036460553406
 32
0.0
 13
75.87145802161209
 23
54.17036460553406
 33
0.0
  0
MTEXT
  5
219
330
211
100
AcDbEntity
  8
치수문자_일반주서
 62
     0
100
AcDbMText
 10
95.87145802161209
 20
58.54536460553406
 30
0.0
 40
3.5
 41
0.0
 71
     2
 72
     1
  1
\A1;40
  7
SLDTEXTSTYLE0
 73
     1
 44
1.0
  0
POINT
  5
21A
330
211
100
AcDbEntity
  8
Defpoints
 62
     0
100
AcDbPoint
 10
115.8714580216121
 20
28.54324347952933
 30
0.0
  0
POINT
  5
21B
330
211
100
AcDbEntity
  8
Defpoints
 62
     0
100
AcDbPoint
 10
75.87145802161209
 20
28.70036460553541
 30
0.0
  0
POINT
  5
21C
330
211
100
AcDbEntity
  8
Defpoints
 62
     0
100
AcDbPoint
 10
75.87145802161209
 20
54.17036460553406
 30
0.0
  0
ENDBLK
  5
213
330
211
100
AcDbEntity
  8
0
100
AcDbBlockEnd
  0
BLOCK
  5
21E
330
21D
100
AcDbEntity
  8
0
100
AcDbBlockBegin
  2
*D13
 70
     1
 10
0.0
 20
0.0
 30
0.0
  3
*D13
  1
*D14
  0
LINE
  5
220
330
21D
100
AcDbEntity
  8
치수문자_일반주서
 62
     0
370
    -2
100
AcDbLine
 10
90.93395802161209
 20
28.85036460553541
 30
0.0
 11
130.6763404951247
 21
28.85036460553556
 31
0.0
  0
LINE
  5
221
330
21D
100
AcDbEntity
  8
치수문자_일반주서
 62
     0
370
    -2
100
AcDbLine
 10
90.93395802161209
 20
18.85036460553541
 30
0.0
 11
130.6763404951247
 21
18.85036460553556
 31
0.0
  0
LINE
  5
222
330
21D
100
AcDbEntity
  8
치수문자_일반주서
 62
     0
370
    -2
100
AcDbLine
 10
130.6763404951247
 20
25.54836460553556
 30
0.0
 11
130.6763404951247
 21
22.15236460553556
 31
0.0
  0
SOLID
  5
223
330
21D
100
AcDbEntity
  8
치수문자_일반주서
 62
     0
100
AcDbTrace
 10
131.226673828458
 20
25.54836460553556
 30
0.0
 11
130.1260071617914
 21
25.54836460553556
 31
0.0
 12
130.6763404951247
 22
28.85036460553556
 32
0.0
 13
130.6763404951247
 23
28.85036460553556
 33
0.0
  0
SOLID
  5
224
330
21D
100
AcDbEntity
  8
치수문자_일반주서
 62
     0
100
AcDbTrace
 10
130.1260071617914
 20
22.15236460553556
 30
0.0
 11
131.2266738284581
 21
22.15236460553556
 31
0.0
 12
130.6763404951247
 22
18.85036460553556
 32
0.0
 13
130.6763404951247
 23
18.85036460553556
 33
0.0
  0
MTEXT
  5
225
330
21D
100
AcDbEntity
  8
치수문자_일반주서
 62
     0
100
AcDbMText
 10
126.3013404951247
 20
23.85036460553554
 30
0.0
 40
3.5
 41
0.0
 71
     2
 72
     1
  1
\A1;%%c10
  7
SLDTEXTSTYLE0
 11
-2.842170943040402E-15
 21
1.0
 31
0.0
 73
     1
 44
1.0
  0
POINT
  5
226
330
21D
100
AcDbEntity
  8
Defpoints
 62
     0
100
AcDbPoint
 10
90.87145802161209
 20
28.85036460553541
 30
0.0
  0
POINT
  5
227
330
21D
100
AcDbEntity
  8
Defpoints
 62
     0
100
AcDbPoint
 10
90.87145802161209
 20
18.85036460553541
 30
0.0
  0
POINT
  5
228
330
21D
100
AcDbEntity
  8
Defpoints
 62
     0
100
AcDbPoint
 10
130.6763404951247
 20
18.85036460553556
 30
0.0
  0
ENDBLK
  5
21F
330
21D
100
AcDbEntity
  8
0
100
AcDbBlockEnd
  0
BLOCK
  5
26F
330
26E
100
AcDbEntity
  8
0
100
AcDbBlockBegin
  2
*D14
 70
     1
 10
0.0
 20
0.0
 30
0.0
  3
*D14
  1
*D15
  0
LINE
  5
271
330
26E
100
AcDbEntity
  8
치수문자_일반주서
 62
     0
370
    -2
100
AcDbLine
 10
-58.9125
 20
4.999999999999995
 30
0.0
 11
-71.3464580216121
 21
4.999999999999948
 31
0.0
  0
LINE
  5
272
330
26E
100
AcDbEntity
  8
치수문자_일반주서
 62
     0
370
    -2
100
AcDbLine
 10
-58.9125
 20
-4.999999999999994
 30
0.0
 11
-71.34645802161207
 21
-5.00000000000004
 31
0.0
  0
LINE
  5
273
330
26E
100
AcDbEntity
  8
치수문자_일반주서
 62
     0
370
    -2
100
AcDbLine
 10
-71.34645802161208
 20
1.697999999999948
 30
0.0
 11
-71.34645802161208
 21
-1.69800000000004
 31
0.0
  0
SOLID
  5
274
330
26E
100
AcDbEntity
  8
치수문자_일반주서
 62
     0
100
AcDbTrace
 10
-70.79612468827875
 20
1.69799999999995
 30
0.0
 11
-71.8967913549454
 21
1.697999999999947
 31
0.0
 12
-71.3464580216121
 22
4.999999999999948
 32
0.0
 13
-71.3464580216121
 23
4.999999999999948
 33
0.0
  0
SOLID
  5
275
330
26E
100
AcDbEntity
  8
치수문자_일반주서
 62
     0
100
AcDbTrace
 10
-71.8967913549454
 20
-1.698000000000041
 30
0.0
 11
-70.79612468827875
 21
-1.698000000000038
 31
0.0
 12
-71.34645802161207
 22
-5.00000000000004
 32
0.0
 13
-71.34645802161207
 23
-5.00000000000004
 33
0.0
  0
MTEXT
  5
276
330
26E
100
AcDbEntity
  8
치수문자_일반주서
 62
     0
100
AcDbMText
 10
-75.72145802161208
 20
-0.0000000000000142
 30
0.0
 40
3.5
 41
0.0
 71
     2
 72
     1
  1
\A1;%%c10
  7
SLDTEXTSTYLE0
 11
-2.842170943040404E-15
 21
1.0
 31
0.0
 73
     1
 44
1.0
  0
POINT
  5
277
330
26E
100
AcDbEntity
  8
Defpoints
 62
     0
100
AcDbPoint
 10
-58.85
 20
4.999999999999995
 30
0.0
  0
POINT
  5
278
330
26E
100
AcDbEntity
  8
Defpoints
 62
     0
100
AcDbPoint
 10
-58.85
 20
-4.999999999999994
 30
0.0
  0
POINT
  5
279
330
26E
100
AcDbEntity
  8
Defpoints
 62
     0
100
AcDbPoint
 10
-71.34645802161205
 20
-5.000000000000041
 30
0.0
  0
ENDBLK
  5
270
330
26E
100
AcDbEntity
  8
0
100
AcDbBlockEnd
  0
BLOCK
  5
27B
330
27A
100
AcDbEntity
  8
0
100
AcDbBlockBegin
  2
*D15
 70
     1
 10
0.0
 20
0.0
 30
0.0
  3
*D15
  1
*D16
  0
LINE
  5
27D
330
27A
100
AcDbEntity
  8
치수문자_일반주서
 62
     0
370
    -2
100
AcDbLine
 10
40.15
 20
4.762500000000001
 30
0.0
 11
40.15
 21
23.19999999999965
 31
0.0
  0
LINE
  5
27E
330
27A
100
AcDbEntity
  8
치수문자_일반주서
 62
     0
370
    -2
100
AcDbLine
 10
15.15
 20
5.062499999999997
 30
0.0
 11
15.15
 21
23.19999999999965
 31
0.0
  0
LINE
  5
27F
330
27A
100
AcDbEntity
  8
치수문자_일반주서
 62
     0
370
    -2
100
AcDbLine
 10
36.848
 20
23.19999999999965
 30
0.0
 11
18.452
 21
23.19999999999965
 31
0.0
  0
SOLID
  5
280
330
27A
100
AcDbEntity
  8
치수문자_일반주서
 62
     0
100
AcDbTrace
 10
36.848
 20
22.64966666666632
 30
0.0
 11
36.848
 21
23.75033333333299
 31
0.0
 12
40.15
 22
23.19999999999965
 32
0.0
 13
40.15
 23
23.19999999999965
 33
0.0
  0
SOLID
  5
281
330
27A
100
AcDbEntity
  8
치수문자_일반주서
 62
     0
100
AcDbTrace
 10
18.452
 20
23.75033333333299
 30
0.0
 11
18.452
 21
22.64966666666632
 31
0.0
 12
15.15
 22
23.19999999999965
 32
0.0
 13
15.15
 23
23.19999999999965
 33
0.0
  0
MTEXT
  5
282
330
27A
100
AcDbEntity
  8
치수문자_일반주서
 62
     0
100
AcDbMText
 10
27.64999999999997
 20
27.57499999999965
 30
0.0
 40
3.5
 41
0.0
 71
     2
 72
     1
  1
\A1;25
  7
SLDTEXTSTYLE0
 73
     1
 44
1.0
  0
POINT
  5
283
330
27A
100
AcDbEntity
  8
Defpoints
 62
     0
100
AcDbPoint
 10
40.15
 20
4.700000000000001
 30
0.0
  0
POINT
  5
284
330
27A
100
AcDbEntity
  8
Defpoints
 62
     0
100
AcDbPoint
 10
15.15
 20
4.999999999999997
 30
0.0
  0
POINT
  5
285
330
27A
100
AcDbEntity
  8
Defpoints
 62
     0
100
AcDbPoint
 10
15.15
 20
23.19999999999965
 30
0.0
  0
ENDBLK
  5
27C
330
27A
100
AcDbEntity
  8
0
100
AcDbBlockEnd
  0
BLOCK
  5
287
330
286
100
AcDbEntity
  8
0
100
AcDbBlockBegin
  2
*D16
 70
     1
 10
0.0
 20
0.0
 30
0.0
  3
*D16
  1
*D17
  0
LINE
  5
289
330
286
100
AcDbEntity
  8
치수문자_일반주서
 62
     0
370
    -2
100
AcDbLine
 10
40.15
 20
4.762500000000001
 30
0.0
 11
40.15
 21
45.25832450504429
 31
0.0
  0
LINE
  5
28A
330
286
100
AcDbEntity
  8
치수문자_일반주서
 62
     0
370
    -2
100
AcDbLine
 10
-59.85
 20
4.062499999999995
 30
0.0
 11
-59.85
 21
45.25832450504429
 31
0.0
  0
LINE
  5
28B
330
286
100
AcDbEntity
  8
치수문자_일반주서
 62
     0
370
    -2
100
AcDbLine
 10
36.848
 20
45.25832450504429
 30
0.0
 11
-56.548
 21
45.25832450504429
 31
0.0
  0
SOLID
  5
28C
330
286
100
AcDbEntity
  8
치수문자_일반주서
 62
     0
100
AcDbTrace
 10
36.848
 20
44.70799117171096
 30
0.0
 11
36.848
 21
45.80865783837763
 31
0.0
 12
40.15
 22
45.25832450504429
 32
0.0
 13
40.15
 23
45.25832450504429
 33
0.0
  0
SOLID
  5
28D
330
286
100
AcDbEntity
  8
치수문자_일반주서
 62
     0
100
AcDbTrace
 10
-56.548
 20
45.80865783837763
 30
0.0
 11
-56.548
 21
44.70799117171096
 31
0.0
 12
-59.85
 22
45.25832450504429
 32
0.0
 13
-59.85
 23
45.25832450504429
 33
0.0
  0
MTEXT
  5
28E
330
286
100
AcDbEntity
  8
치수문자_일반주서
 62
     0
100
AcDbMText
 10
-9.850000000000001
 20
49.63332450504429
 30
0.0
 40
3.5
 41
0.0
 71
     2
 72
     1
  1
\A1;100
  7
SLDTEXTSTYLE0
 73
     1
 44
1.0
  0
POINT
  5
28F
330
286
100
AcDbEntity
  8
Defpoints
 62
     0
100
AcDbPoint
 10
40.15
 20
4.700000000000001
 30
0.0
  0
POINT
  5
290
330
286
100
AcDbEntity
  8
Defpoints
 62
     0
100
AcDbPoint
 10
-59.85
 20
3.999999999999995
 30
0.0
  0
POINT
  5
291
330
286
100
AcDbEntity
  8
Defpoints
 62
     0
100
AcDbPoint
 10
-59.85
 20
45.25832450504429
 30
0.0
  0
ENDBLK
  5
288
330
286
100
AcDbEntity
  8
0
100
AcDbBlockEnd
  0
BLOCK
  5
293
330
292
100
AcDbEntity
  8
0
100
AcDbBlockBegin
  2
*D17
 70
     1
 10
0.0
 20
0.0
 30
0.0
  3
*D17
  1
*D18
  0
LINE
  5
295
330
292
100
AcDbEntity
  8
치수문자_일반주서
 62
     0
370
    -2
100
AcDbLine
 10
40.15000000000003
 20
4.755378873993925
 30
0.0
 11
40.15000000000003
 21
30.31999999999865
 31
0.0
  0
LINE
  5
296
330
292
100
AcDbEntity
  8
치수문자_일반주서
 62
     0
370
    -2
100
AcDbLine
 10
0.1499999999999981
 20
4.9125
 30
0.0
 11
0.1499999999999986
 21
30.31999999999865
 31
0.0
  0
LINE
  5
297
330
292
100
AcDbEntity
  8
치수문자_일반주서
 62
     0
370
    -2
100
AcDbLine
 10
36.84800000000003
 20
30.31999999999865
 30
0.0
 11
3.451999999999999
 21
30.31999999999865
 31
0.0
  0
SOLID
  5
298
330
292
100
AcDbEntity
  8
치수문자_일반주서
 62
     0
100
AcDbTrace
 10
36.84800000000003
 20
29.76966666666532
 30
0.0
 11
36.84800000000003
 21
30.87033333333198
 31
0.0
 12
40.15000000000003
 22
30.31999999999865
 32
0.0
 13
40.15000000000003
 23
30.31999999999865
 33
0.0
  0
SOLID
  5
299
330
292
100
AcDbEntity
  8
치수문자_일반주서
 62
     0
100
AcDbTrace
 10
3.451999999999999
 20
30.87033333333198
 30
0.0
 11
3.451999999999999
 21
29.76966666666532
 31
0.0
 12
0.1499999999999986
 22
30.31999999999865
 32
0.0
 13
0.1499999999999986
 23
30.31999999999865
 33
0.0
  0
MTEXT
  5
29A
330
292
100
AcDbEntity
  8
치수문자_일반주서
 62
     0
100
AcDbMText
 10
20.15
 20
34.69499999999865
 30
0.0
 40
3.5
 41
0.0
 71
     2
 72
     1
  1
\A1;40
  7
SLDTEXTSTYLE0
 73
     1
 44
1.0
  0
POINT
  5
29B
330
292
100
AcDbEntity
  8
Defpoints
 62
     0
100
AcDbPoint
 10
40.15000000000003
 20
4.692878873993925
 30
0.0
  0
POINT
  5
29C
330
292
100
AcDbEntity
  8
Defpoints
 62
     0
100
AcDbPoint
 10
0.1499999999999981
 20
4.85
 30
0.0
  0
POINT
  5
29D
330
292
100
AcDbEntity
  8
Defpoints
 62
     0
100
AcDbPoint
 10
0.1499999999999981
 20
30.31999999999865
 30
0.0
  0
ENDBLK
  5
294
330
292
100
AcDbEntity
  8
0
100
AcDbBlockEnd
  0
BLOCK
  5
29F
330
29E
100
AcDbEntity
  8
0
100
AcDbBlockBegin
  2
*D18
 70
     1
 10
0.0
 20
0.0
 30
0.0
  3
*D18
  1
*D19
  0
LINE
  5
2A1
330
29E
100
AcDbEntity
  8
치수문자_일반주서
 62
     0
370
    -2
100
AcDbLine
 10
15.2125
 20
5.000000000000002
 30
0.0
 11
54.95488247351264
 21
5.000000000000151
 31
0.0
  0
LINE
  5
2A2
330
29E
100
AcDbEntity
  8
치수문자_일반주서
 62
     0
370
    -2
100
AcDbLine
 10
15.2125
 20
-4.999999999999994
 30
0.0
 11
54.95488247351268
 21
-4.999999999999845
 31
0.0
  0
LINE
  5
2A3
330
29E
100
AcDbEntity
  8
치수문자_일반주서
 62
     0
370
    -2
100
AcDbLine
 10
54.95488247351265
 20
1.698000000000151
 30
0.0
 11
54.95488247351266
 21
-1.697999999999845
 31
0.0
  0
SOLID
  5
2A4
330
29E
100
AcDbEntity
  8
치수문자_일반주서
 62
     0
100
AcDbTrace
 10
55.50521580684599
 20
1.698000000000153
 30
0.0
 11
54.40454914017932
 21
1.698000000000149
 31
0.0
 12
54.95488247351264
 22
5.000000000000151
 32
0.0
 13
54.95488247351264
 23
5.000000000000151
 33
0.0
  0
SOLID
  5
2A5
330
29E
100
AcDbEntity
  8
치수문자_일반주서
 62
     0
100
AcDbTrace
 10
54.40454914017933
 20
-1.697999999999847
 30
0.0
 11
55.505215806846
 21
-1.697999999999843
 31
0.0
 12
54.95488247351268
 22
-4.999999999999845
 32
0.0
 13
54.95488247351268
 23
-4.999999999999845
 33
0.0
  0
MTEXT
  5
2A6
330
29E
100
AcDbEntity
  8
치수문자_일반주서
 62
     0
100
AcDbMText
 10
50.57988247351266
 20
0.0000000000001249
 30
0.0
 40
3.5
 41
0.0
 71
     2
 72
     1
  1
\A1;%%c10
  7
SLDTEXTSTYLE0
 11
-3.552713678800503E-15
 21
1.0
 31
0.0
 73
     1
 44
1.0
  0
POINT
  5
2A7
330
29E
100
AcDbEntity
  8
Defpoints
 62
     0
100
AcDbPoint
 10
15.15
 20
5.000000000000002
 30
0.0
  0
POINT
  5
2A8
330
29E
100
AcDbEntity
  8
Defpoints
 62
     0
100
AcDbPoint
 10
15.15
 20
-4.999999999999994
 30
0.0
  0
POINT
  5
2A9
330
29E
100
AcDbEntity
  8
Defpoints
 62
     0
100
AcDbPoint
 10
54.95488247351268
 20
-4.999999999999845
 30
0.0
  0
ENDBLK
  5
2A0
330
29E
100
AcDbEntity
  8
0
100
AcDbBlockEnd
  0
BLOCK
  5
2AB
330
2AA
100
AcDbEntity
  8
0
100
AcDbBlockBegin
  2
*D19
 70
     1
 10
0.0
 20
0.0
 30
0.0
  3
*D19
  1
*D20
  0
LINE
  5
2AD
330
2AA
100
AcDbEntity
  8
치수문자_일반주서
 62
     0
370
    -2
100
AcDbLine
 10
44.21522210303616
 20
-7.710648445179939
 30
0.0
 11
54.64814937935613
 21
-23.85036460553466
 31
0.0
  0
MTEXT
  5
2AE
330
2AA
100
AcDbEntity
  8
치수문자_일반주서
 62
     0
100
AcDbMText
 10
54.35886495921995
 20
-18.56742237730933
 30
0.0
 40
3.5
 41
0.0
 71
     5
 72
     1
  1
\A1;R0.3
  7
SLDTEXTSTYLE0
 11
0.5428690954749791
 21
-0.8398173284579081
 31
0.0
 73
     1
 44
1.0
  0
LINE
  5
2AF
330
2AA
100
AcDbEntity
  8
치수문자_일반주서
 62
     0
370
    -2
100
AcDbLine
 10
42.25980762113528
 20
-4.685626428074546
 30
0.0
 11
42.42266834977778
 21
-4.937571626611927
 31
0.0
  0
SOLID
  5
2B0
330
2AA
100
AcDbEntity
  8
치수문자_일반주서
 62
     0
100
AcDbTrace
 10
44.6774015727975
 20
-7.411889486303543
 30
0.0
 11
43.75304263327482
 21
-8.009407404056336
 31
0.0
 12
42.42266834977778
 22
-4.937571626611927
 32
0.0
 13
42.42266834977778
 23
-4.937571626611927
 33
0.0
  0
POINT
  5
2B1
330
2AA
100
AcDbEntity
  8
Defpoints
 62
     0
100
AcDbPoint
 10
42.42266834977778
 20
-4.937571626611927
 30
0.0
  0
POINT
  5
2B2
330
2AA
100
AcDbEntity
  8
Defpoints
 62
     0
100
AcDbPoint
 10
42.25980762113528
 20
-4.685626428074546
 30
0.0
  0
ENDBLK
  5
2AC
330
2AA
100
AcDbEntity
  8
0
100
AcDbBlockEnd
  0
BLOCK
  5
2BD
330
2BC
100
AcDbEntity
  8
0
100
AcDbBlockBegin
  2
*D20
 70
     1
 10
0.0
 20
0.0
 30
0.0
  3
*D20
  1
*D21
  0
LINE
  5
2BF
330
2BC
100
AcDbEntity
  8
치수문자_일반주서
 62
     0
370
    -2
100
AcDbLine
 10
41.51296194466305
 20
-7.580569382847848
 30
0.0
 11
51.74803589102294
 21
-23.15191917041159
 31
0.0
  0
MTEXT
  5
2C0
330
2BC
100
AcDbEntity
  8
치수문자_일반주서
 62
     0
100
AcDbMText
 10
52.49976767892146
 20
-19.51651694795217
 30
0.0
 40
3.5
 41
0.0
 71
     5
 72
     1
  1
\A1;R1
  7
SLDTEXTSTYLE0
 11
0.549270558963983
 21
-0.8356445734015113
 31
0.0
 73
     1
 44
1.0
  0
LINE
  5
2C1
330
2BC
100
AcDbEntity
  8
치수문자_일반주서
 62
     0
370
    -2
100
AcDbLine
 10
39.15
 20
-3.985626428074547
 30
0.0
 11
39.69927055896398
 21
-4.821271001476058
 31
0.0
  0
SOLID
  5
2C2
330
2BC
100
AcDbEntity
  8
치수문자_일반주서
 62
     0
100
AcDbTrace
 10
41.97284500822502
 20
-7.278287485231337
 30
0.0
 11
41.05307888110109
 21
-7.88285128046436
 31
0.0
 12
39.69927055896398
 22
-4.821271001476058
 32
0.0
 13
39.69927055896398
 23
-4.821271001476058
 33
0.0
  0
POINT
  5
2C3
330
2BC
100
AcDbEntity
  8
Defpoints
 62
     0
100
AcDbPoint
 10
39.69927055896398
 20
-4.821271001476058
 30
0.0
  0
POINT
  5
2C4
330
2BC
100
AcDbEntity
  8
Defpoints
 62
     0
100
AcDbPoint
 10
39.15
 20
-3.985626428074547
 30
0.0
  0
ENDBLK
  5
2BE
330
2BC
100
AcDbEntity
  8
0
100
AcDbBlockEnd
  0
ENDSEC
  0
SECTION
  2
ENTITIES
  0
INSERT
  5
C3
330
1F
100
AcDbEntity
  8
0
  6
Continuous
 62
     7
100
AcDbBlockReference
 66
     1
  2
블럭10
 10
-22.93944368806589
 20
-52.04609937292004
 30
0.0
  0
ATTRIB
  5
C4
330
C3
100
AcDbEntity
  8
FORMAT
 62
     2
100
AcDbText
 10
-43.79769121965843
 20
-49.97073246008785
 30
0.0
 40
4.233333333333333
  1
SEME6110010100E [ 2 FLUTE ]
 41
0.75
  7
SLDTEXTSTYLE0
 11
-43.79769121965843
 21
-52.08739912675452
 31
0.0
100
AcDbAttribute
  2
AUTOATTR0
 70
     0
 74
     1
  0
SEQEND
  5
C5
330
C3
100
AcDbEntity
  8
0
  6
Continuous
 62
     7
  0
HATCH
  5
C6
330
1F
100
AcDbEntity
  8
중심선
100
AcDbHatch
 10
0.0
 20
0.0
 30
0.0
210
0.0
220
0.0
230
1.0
  2
SOLID
 70
     1
 71
     0
 91
        1
 92
        0
 93
        4
 72
     1
 10
-17.22453438368504
 20
-35.7989250712761
 11
-20.67080962752232
 21
-35.7989250712761
 72
     1
 10
-20.67080962752232
 20
-35.7989250712761
 11
-22.79903948672635
 21
-38.3352506518487
 72
     1
 10
-22.79903948672635
 20
-38.3352506518487
 11
-19.35273115777591
 21
-38.33521122254621
 72
     1
 10
-19.35273115777591
 20
-38.33521122254621
 11
-17.22453438368504
 21
-35.7989250712761
 97
        0
 75
     0
 76
     1
 98
        1
 10
0.0
 20
0.0
  0
HATCH
  5
C7
330
1F
100
AcDbEntity
  8
중심선
100
AcDbHatch
 10
0.0
 20
0.0
 30
0.0
210
0.0
220
0.0
230
1.0
  2
SOLID
 70
     1
 71
     0
 91
        1
 92
        0
 93
        4
 72
     1
 10
-12.21177039264909
 20
-35.7989250712761
 11
-15.65804563648637
 21
-35.7989250712761
 72
     1
 10
-15.65804563648637
 20
-35.7989250712761
 11
-20.18918364484376
 21
-41.19892507127612
 72
     1
 10
-20.18918364484376
 20
-41.19892507127612
 11
-16.74290840100648
 21
-41.19892507127612
 72
     1
 10
-16.74290840100648
 20
-41.19892507127612
 11
-12.21177039264909
 21
-35.7989250712761
 97
        0
 75
     0
 76
     1
 98
        1
 10
0.0
 20
0.0
  0
HATCH
  5
C8
330
1F
100
AcDbEntity
  8
중심선
100
AcDbHatch
 10
0.0
 20
0.0
 30
0.0
210
0.0
220
0.0
230
1.0
  2
SOLID
 70
     1
 71
     0
 91
        1
 92
        0
 93
        4
 72
     1
 10
-7.199006401613195
 20
-35.79892507127613
 11
-10.64528164545031
 21
-35.7989250712761
 72
     1
 10
-10.64528164545031
 20
-35.7989250712761
 11
-17.69371854733956
 21
-44.19892507127612
 72
     1
 10
-17.69371854733956
 20
-44.19892507127612
 11
-14.24744330350228
 21
-44.19892507127612
 72
     1
 10
-14.24744330350228
 20
-44.19892507127612
 11
-7.199006401613195
 21
-35.79892507127613
 97
        0
 75
     0
 76
     1
 98
        1
 10
0.0
 20
0.0
  0
HATCH
  5
C9
330
1F
100
AcDbEntity
  8
중심선
100
AcDbHatch
 10
0.0
 20
0.0
 30
0.0
210
0.0
220
0.0
230
1.0
  2
SOLID
 70
     1
 71
     0
 91
        1
 92
        0
 93
        6
 72
     3
 10
-2.399115970600996
 20
-39.99892507132738
 11
3.960054785062284
 21
1.540850780301639E-10
 40
0.3939339440162633
 50
17.09539180608433
 51
320.0019657685079
 73
     0
 72
     1
 10
-0.7161163149004002
 20
-38.58681907591441
 11
1.589185558800638
 21
-36.65249236586649
 72
     3
 10
-2.399115970653842
 20
-39.99892507127625
 11
6.600054785286829
 21
-1.249000902703301E-13
 40
0.6363583540795982
 50
39.99873849337408
 51
368.4976242363724
 73
     1
 72
     1
 10
4.026216521246767
 20
-39.03892507120613
 11
-3.71904866381792
 21
-39.0389250712061
 72
     1
 10
-3.71904866381792
 20
-39.0389250712061
 11
-3.719073708263854
 21
-40.95892507120602
 72
     1
 10
-3.719073708263854
 20
-40.95892507120602
 11
0.7223060612081835
 21
-40.95892507120599
 97
        0
 75
     0
 76
     1
 98
        1
 10
0.0
 20
0.0
  0
LINE
  5
22C
330
1F
100
AcDbEntity
  8
0
  6
Continuous
 62
     4
370
    25
100
AcDbLine
 10
0.0000000000000004
 20
4.999999999999997
 30
0.0
 11
-58.85
 21
4.999999999999997
 31
0.0
  0
LINE
  5
22D
330
1F
100
AcDbEntity
  8
0
  6
Continuous
 62
     4
370
    25
100
AcDbLine
 10
-58.85
 20
-4.999999999999998
 30
0.0
 11
0.0000000000000142
 21
-4.999999999999994
 31
0.0
1001
PE_URL
1000

  0
LINE
  5
22E
330
1F
100
AcDbEntity
  8
0
  6
Continuous
 62
     4
370
    25
100
AcDbLine
 10
-58.85
 20
4.999999999999995
 30
0.0
 11
-59.85
 21
3.999999999999995
 31
0.0
  0
LINE
  5
22F
330
1F
100
AcDbEntity
  8
0
  6
Continuous
 62
     4
370
    25
100
AcDbLine
 10
-59.85
 20
-3.999999999999994
 30
0.0
 11
-58.85
 21
-4.999999999999994
 31
0.0
  0
LINE
  5
230
330
1F
100
AcDbEntity
  8
0
  6
Continuous
 62
     4
370
    25
100
AcDbLine
 10
12.10003716560294
 20
4.850000000000003
 30
0.0
 11
0.1499999999999981
 21
4.85
 31
0.0
  0
LINE
  5
231
330
1F
100
AcDbEntity
  8
0
  6
Continuous
 62
     4
370
    25
100
AcDbLine
 10
15.15
 20
4.850000000000003
 30
0.0
 11
13.36878488418383
 21
4.850000000000003
 31
0.0
  0
LINE
  5
232
330
1F
100
AcDbEntity
  8
0
  6
Continuous
 62
     4
370
    25
100
AcDbLine
 10
13.3687848841838
 20
-4.849999999999996
 30
0.0
 11
15.15
 21
-4.849999999999996
 31
0.0
  0
LINE
  5
233
330
1F
100
AcDbEntity
  8
0
  6
Continuous
 62
     4
370
    25
100
AcDbLine
 10
0.1499999999999981
 20
-4.849999999999996
 30
0.0
 11
12.10003716560294
 21
-4.849999999999996
 31
0.0
  0
SPLINE
  5
234
330
1F
100
AcDbEntity
  8
0
  6
Continuous
 62
     1
370
    25
100
AcDbSpline
210
0.0
220
0.0
230
1.0
 70
     8
 71
     3
 72
    11
 73
     7
 74
     0
 42
0.000000001
 43
0.00000001
 40
0.0
 40
0.0
 40
0.0
 40
0.0
 40
0.3122082248064722
 40
0.4989749285251628
 40
0.6864178547998508
 40
1.0
 40
1.0
 40
1.0
 40
1.0
 10
27.19545313957328
 20
1.281271267574864
 30
0.0
 10
27.05114136225262
 20
1.349574686726756
 30
0.0
 10
26.82050054931906
 20
1.458738030230807
 30
0.0
 10
26.50393957198502
 20
1.616345453105924
 30
0.0
 10
26.18641056954962
 20
1.777290588229617
 30
0.0
 10
25.95476090171496
 20
1.898866305185761
 30
0.0
 10
25.80977574246801
 20
1.974958254067945
 30
0.0
  0
LINE
  5
235
330
1F
100
AcDbEntity
  8
0
  6
Continuous
 62
     4
370
    25
100
AcDbLine
 10
15.72124275233406
 20
5.000000000000002
 30
0.0
 11
15.15
 21
5.000000000000002
 31
0.0
  0
SPLINE
  5
236
330
1F
100
AcDbEntity
  8
0
  6
Continuous
 62
     1
370
    25
100
AcDbSpline
210
0.0
220
0.0
230
1.0
 70
     8
 71
     3
 72
    16
 73
    12
 74
     0
 42
0.000000001
 43
0.00000001
 40
0.0
 40
0.0
 40
0.0
 40
0.0
 40
0.1767641267048516
 40
0.3220736770895894
 40
0.4169976576240393
 40
0.505326494475793
 40
0.6198127714267134
 40
0.7560152814048878
 40
0.8518672160748058
 40
0.9725029155902688
 40
1.0
 40
1.0
 40
1.0
 40
1.0
 10
25.54324916887969
 20
3.973192953713563
 30
0.0
 10
25.30800743043687
 20
3.961315683417317
 30
0.0
 10
24.87938442237745
 20
3.939674662756575
 30
0.0
 10
24.29197440933486
 20
3.921731872495338
 30
0.0
 10
23.83865370503121
 20
3.911734898060923
 30
0.0
 10
23.43043592980217
 20
3.90611963586627
 30
0.0
 10
22.96161276144024
 20
3.903821814296789
 30
0.0
 10
22.47365928333951
 20
3.906236059352383
 30
0.0
 10
22.00690368452526
 20
3.914890204052215
 30
0.0
 10
21.67211073778199
 20
3.922123164191964
 30
0.0
 10
21.46858280076659
 20
3.929897477378179
 30
0.0
 10
21.43080301485048
 20
3.931340580925179
 30
0.0
  0
SPLINE
  5
237
330
1F
100
AcDbEntity
  8
0
  6
Continuous
 62
     1
370
    25
100
AcDbSpline
210
0.0
220
0.0
230
1.0
 70
     8
 71
     3
 72
    28
 73
    24
 74
     0
 42
0.000000001
 43
0.00000001
 40
0.0
 40
0.0
 40
0.0
 40
0.0
 40
0.0582323817188836
 40
0.1084402805917993
 40
0.1511843435878049
 40
0.1848143656302232
 40
0.216538723646463
 40
0.2638693889050169
 40
0.3192372658932244
 40
0.3583417513195696
 40
0.3999504361455586
 40
0.4510160746430992
 40
0.5101183242646286
 40
0.5639216103858745
 40
0.5997722687072091
 40
0.6378900954851895
 40
0.6844861675864765
 40
0.7427252364223323
 40
0.7852780741029987
 40
0.8097566347813491
 40
0.8537870226019364
 40
0.9170651341011177
 40
1.0
 40
1.0
 40
1.0
 40
1.0
 10
38.302273096377
 20
3.420669077126489
 30
0.0
 10
38.14201130260153
 20
3.407100821780313
 30
0.0
 10
37.84357195713471
 20
3.381834030805093
 30
0.0
 10
37.39437362698498
 20
3.352585826140112
 30
0.0
 10
37.01291831801981
 20
3.332302353936188
 30
0.0
 10
36.69144321142388
 20
3.317805955112585
 30
0.0
 10
36.37133609867913
 20
3.306286800506842
 30
0.0
 10
35.97799578864322
 20
3.295798574090254
 30
0.0
 10
35.56458981992716
 20
3.290425297739516
 30
0.0
 10
35.16756209753356
 20
3.290036812146744
 30
0.0
 10
34.78290763874937
 20
3.29365515923775
 30
0.0
 10
34.3400994251362
 20
3.303123736572845
 30
0.0
 10
33.86192314069887
 20
3.320164324464076
 30
0.0
 10
33.42778341239494
 20
3.341764794332241
 30
0.0
 10
33.05469081796024
 20
3.36452407639373
 30
0.0
 10
32.70291774505133
 20
3.389229366834597
 30
0.0
 10
32.28618447983978
 20
3.423015747402902
 30
0.0
 10
31.85597510465427
 20
3.463302106597121
 30
0.0
 10
31.4901588830485
 20
3.501810808213931
 30
0.0
 10
31.1666425703537
 20
3.538365533286014
 30
0.0
 10
30.78250187988048
 20
3.584857017580033
 30
0.0
 10
30.22784824068838
 20
3.658539001191178
 30
0.0
 10
29.8001857152966
 20
3.723710885368972
 30
0.0
 10
29.55760715062666
 20
3.7606776551513
 30
0.0
  0
SPLINE
  5
238
330
1F
100
AcDbEntity
  8
0
  6
Continuous
 62
     1
370
    25
100
AcDbSpline
210
0.0
220
0.0
230
1.0
 70
     8
 71
     3
 72
    25
 73
    21
 74
     0
 42
0.000000001
 43
0.00000001
 40
0.0
 40
0.0
 40
0.0
 40
0.0
 40
0.0684607038745838
 40
0.1186667230083406
 40
0.1509749440092617
 40
0.1769525562883596
 40
0.2578618338755956
 40
0.3187612247323644
 40
0.3669359733368362
 40
0.4258154892438783
 40
0.5074110660847394
 40
0.5856722688386726
 40
0.6443374311229945
 40
0.6920346071500034
 40
0.7581661218118364
 40
0.8011220707450486
 40
0.8335626268740244
 40
0.8628588244023031
 40
0.9172751628053959
 40
1.0
 40
1.0
 40
1.0
 40
1.0
 10
18.0236472148145
 20
-4.16069142635609
 30
0.0
 10
18.19509329142272
 20
-4.144002692205903
 30
0.0
 10
18.49227025473592
 20
-4.115075186634412
 30
0.0
 10
18.86999625063285
 20
-4.082143610763067
 30
0.0
 10
19.14218195594628
 20
-4.059958414573119
 30
0.0
 10
19.49240093315978
 20
-4.032980655518903
 30
0.0
 10
19.91389677806969
 20
-4.003843120674299
 30
0.0
 10
20.38977083066384
 20
-3.975980699489847
 30
0.0
 10
20.80949005033957
 20
-3.954780200265029
 30
0.0
 10
21.28256685047767
 20
-3.934883507302979
 30
0.0
 10
21.83078683255683
 20
-3.917932302792687
 30
0.0
 10
22.37854061603286
 20
-3.907871558672797
 30
0.0
 10
22.84124675775078
 20
-3.904423671468406
 30
0.0
 10
23.27261194094657
 20
-3.9048972383502
 30
0.0
 10
23.66590517620488
 20
-3.908886554292172
 30
0.0
 10
24.0209788015216
 20
-3.915575024703871
 30
0.0
 10
24.28339215189885
 20
-3.922084611481091
 30
0.0
 10
24.57390855310316
 20
-3.930763391213444
 30
0.0
 10
24.99105885435065
 20
-3.945726265250775
 30
0.0
 10
25.33548693546435
 20
-3.962858580963067
 30
0.0
 10
25.54324916887972
 20
-3.973192953713552
 30
0.0
  0
SPLINE
  5
239
330
1F
100
AcDbEntity
  8
0
  6
Continuous
 62
     1
370
    25
100
AcDbSpline
210
0.0
220
0.0
230
1.0
 70
     8
 71
     3
 72
    15
 73
    11
 74
     0
 42
0.000000001
 43
0.00000001
 40
0.0
 40
0.0
 40
0.0
 40
0.0
 40
0.1679215292317114
 40
0.2882344221779913
 40
0.4055288985752443
 40
0.5313944277526552
 40
0.6682138189055782
 40
0.7609777558367736
 40
0.8899901725207133
 40
1.0
 40
1.0
 40
1.0
 40
1.0
 10
29.55760715062666
 20
-3.760677655151292
 30
0.0
 10
29.76808446538996
 20
-3.728480299601555
 30
0.0
 10
30.12936516286777
 20
-3.673214091539973
 30
0.0
 10
30.63652959791787
 20
-3.603852947268917
 30
0.0
 10
31.08737597761779
 20
-3.547240703029134
 30
0.0
 10
31.5609568445607
 20
-3.493504124236073
 30
0.0
 10
32.00455673609388
 20
-3.448883901699572
 30
0.0
 10
32.45193366965969
 20
-3.409091739049591
 30
0.0
 10
32.8665419587478
 20
-3.376492894084007
 30
0.0
 10
33.16497404037514
 20
-3.358451191903684
 30
0.0
 10
33.30232720568011
 20
-3.350147510582149
 30
0.0
  0
LINE
  5
23A
330
1F
100
AcDbEntity
  8
0
  6
Continuous
 62
     4
370
    25
100
AcDbLine
 10
15.15
 20
-4.999999999999994
 30
0.0
 11
15.72124275233406
 21
-4.999999999999994
 31
0.0
  0
LINE
  5
23B
330
1F
100
AcDbEntity
  8
0
  6
Continuous
 62
     4
370
    25
100
AcDbLine
 10
0.1499999999999981
 20
4.850000000000003
 30
0.0
 11
0.1499999999999981
 21
-4.849999999999996
 31
0.0
1001
PE_URL
1000

  0
LINE
  5
23D
330
1F
100
AcDbEntity
  8
0
  6
Continuous
 62
     4
370
    25
100
AcDbLine
 10
-58.85
 20
4.999999999999995
 30
0.0
 11
-58.85
 21
-4.999999999999994
 31
0.0
  0
LINE
  5
23E
330
1F
100
AcDbEntity
  8
0
  6
Continuous
 62
     4
370
    25
100
AcDbLine
 10
-59.85
 20
3.999999999999995
 30
0.0
 11
-59.85
 21
-3.999999999999994
 31
0.0
  0
LINE
  5
23F
330
1F
100
AcDbEntity
  8
0
  6
Continuous
 62
     4
370
    25
100
AcDbLine
 10
15.15
 20
4.850000000000003
 30
0.0
 11
15.15
 21
4.747648483966104
 31
0.0
  0
SPLINE
  5
240
330
1F
100
AcDbEntity
  8
0
  6
Continuous
 62
     4
370
    25
100
AcDbSpline
210
0.0
220
0.0
230
1.0
 70
     8
 71
     3
 72
    12
 73
     8
 74
     0
 42
0.000000001
 43
0.00000001
 40
0.0
 40
0.0
 40
0.0
 40
0.0
 40
0.2499999999999997
 40
0.2499999999999997
 40
0.4999999999999993
 40
0.4999999999999993
 40
1.0
 40
1.0
 40
1.0
 40
1.0
 10
15.15
 20
4.747648483966104
 30
0.0
 10
14.89618820485549
 20
4.776732165501921
 30
0.0
 10
14.64384697665491
 20
4.799643294089757
 30
0.0
 10
14.13481988516372
 20
4.833127823457724
 30
0.0
 10
13.8793842305761
 20
4.843645812775071
 30
0.0
 10
13.11476807098625
 20
4.856317022274242
 30
0.0
 10
12.61012492810473
 20
4.839671023793981
 30
0.0
 10
12.10003716560302
 20
4.798057926534524
 30
0.0
  0
SPLINE
  5
241
330
1F
100
AcDbEntity
  8
0
  6
Continuous
 62
     4
370
    25
100
AcDbSpline
210
0.0
220
0.0
230
1.0
 70
     8
 71
     3
 72
    12
 73
     8
 74
     0
 42
0.000000001
 43
0.00000001
 40
0.0
 40
0.0
 40
0.0
 40
0.0
 40
0.25
 40
0.25
 40
0.5
 40
0.5
 40
1.0
 40
1.0
 40
1.0
 40
1.0
 10
15.15
 20
-4.834967884993992
 30
0.0
 10
14.89619143579031
 20
-4.823771613276788
 30
0.0
 10
14.64385343294099
 20
-4.80636802465059
 30
0.0
 10
14.1348328680838
 20
-4.759080385202731
 30
0.0
 10
13.87940048143633
 20
-4.729207418695841
 30
0.0
 10
13.11479396903644
 20
-4.621396510820675
 30
0.0
 10
12.61015734333332
 20
-4.525496948095496
 30
0.0
 10
12.10007612502704
 20
-4.406380787764009
 30
0.0
  0
LINE
  5
242
330
1F
100
AcDbEntity
  8
0
  6
Continuous
 62
     4
370
    25
100
AcDbLine
 10
12.10003716560302
 20
-4.79805792653452
 30
0.0
 11
13.3687848841838
 21
-4.831992819139197
 31
0.0
  0
LINE
  5
243
330
1F
100
AcDbEntity
  8
0
  6
Continuous
 62
     4
370
    25
100
AcDbLine
 10
12.10003716560299
 20
-4.849999999999996
 30
0.0
 11
12.10003716560302
 21
-4.798049580606603
 31
0.0
  0
LINE
  5
244
330
1F
100
AcDbEntity
  8
0
  6
Continuous
 62
     4
370
    25
100
AcDbLine
 10
12.10003716560294
 20
-4.406286290104207
 30
0.0
 11
12.10003716560299
 21
4.850000000000003
 31
0.0
  0
SPLINE
  5
245
330
1F
100
AcDbEntity
  8
0
  6
Continuous
 62
     4
370
    25
100
AcDbSpline
210
0.0
220
0.0
230
1.0
 70
     8
 71
     3
 72
    12
 73
     8
 74
     0
 42
0.000000001
 43
0.00000001
 40
0.0
 40
0.0
 40
0.0
 40
0.0
 40
0.25
 40
0.25
 40
0.5
 40
0.5
 40
1.0
 40
1.0
 40
1.0
 40
1.0
 10
15.15000000000091
 20
-4.216136139287451
 30
0.0
 10
14.89619143579113
 20
-4.200424367920709
 30
0.0
 10
14.64385343294176
 20
-4.179311215636853
 30
0.0
 10
14.1348328680844
 20
-4.126214056072454
 30
0.0
 10
13.87940048143687
 20
-4.094249554192574
 30
0.0
 10
13.11479396903675
 20
-3.982643669818083
 30
0.0
 10
12.61015734333346
 20
-3.887511986932017
 30
0.0
 10
12.10007612502704
 20
-3.772457179376905
 30
0.0
  0
SPLINE
  5
246
330
1F
100
AcDbEntity
  8
0
  6
Continuous
 62
     4
370
    25
100
AcDbSpline
210
0.0
220
0.0
230
1.0
 70
     8
 71
     3
 72
    12
 73
     8
 74
     0
 42
0.000000001
 43
0.00000001
 40
0.0
 40
0.0
 40
0.0
 40
0.0
 40
0.2500000000000001
 40
0.2500000000000001
 40
0.5000000000000001
 40
0.5000000000000001
 40
1.0
 40
1.0
 40
1.0
 40
1.0
 10
15.15000000000003
 20
-1.008679545731857
 30
0.0
 10
14.89618938436888
 20
-0.8950971836732986
 30
0.0
 10
14.64384933364337
 20
-0.7804340648084338
 30
0.0
 10
14.13482462482238
 20
-0.5487326712667748
 30
0.0
 10
13.87939016325753
 20
-0.4318807298242166
 30
0.0
 10
13.11477752555441
 20
-0.0803576745652332
 30
0.0
 10
12.61013676189406
 20
0.154836562330031
 30
0.0
 10
12.10005138847202
 20
0.3888530873569297
 30
0.0
  0
SPLINE
  5
247
330
1F
100
AcDbEntity
  8
0
  6
Continuous
 62
     4
370
    25
100
AcDbSpline
210
0.0
220
0.0
230
1.0
 70
    24
 71
     3
 72
    14
 73
    10
 74
     0
 42
0.000000001
 43
0.00000001
 40
0.0
 40
0.0
 40
0.0
 40
0.0
 40
0.2500000000000001
 40
0.2500000000000001
 40
0.5000000000000001
 40
0.5000000000000001
 40
0.7500000000000001
 40
0.7500000000000001
 40
1.0
 40
1.0
 40
1.0
 40
1.0
 10
15.15000000000009
 20
-1.008679545731885
 30
0.0
 10
15.15000000000009
 20
-1.368087456507725
 30
0.0
 10
15.15000000000009
 20
-1.721171881810564
 30
0.0
 10
15.15000000000009
 20
-2.387209537993543
 30
0.0
 10
15.15000000000009
 20
-2.699939923777391
 30
0.0
 10
15.15000000000009
 20
-3.260522432309082
 30
0.0
 10
15.15000000000009
 20
-3.508212675845565
 30
0.0
 10
15.15000000000009
 20
-3.923247959403829
 30
0.0
 10
15.15000000000009
 20
-4.090567804085063
 30
0.0
 10
15.15000000000009
 20
-4.216136139287398
 30
0.0
  0
SPLINE
  5
248
330
1F
100
AcDbEntity
  8
0
  6
Continuous
 62
     4
370
    25
100
AcDbSpline
210
0.0
220
0.0
230
1.0
 70
     8
 71
     3
 72
    12
 73
     8
 74
     0
 42
0.000000001
 43
0.00000001
 40
0.0
 40
0.0
 40
0.0
 40
0.0
 40
0.25
 40
0.25
 40
0.5
 40
0.5
 40
1.0
 40
1.0
 40
1.0
 40
1.0
 10
15.15000000000014
 20
3.386890427458594
 30
0.0
 10
14.8961889830378
 20
3.412789234287411
 30
0.0
 10
14.64384853167464
 20
3.434274755014544
 30
0.0
 10
14.13482301214651
 20
3.468433745058368
 30
0.0
 10
13.87938814465388
 20
3.481059164262762
 30
0.0
 10
13.11477430862339
 20
3.505333921281787
 30
0.0
 10
12.61013273542985
 20
3.50342301593601
 30
0.0
 10
12.10004654911963
 20
3.483422315813529
 30
0.0
  0
SPLINE
  5
249
330
1F
100
AcDbEntity
  8
0
  6
Continuous
 62
     4
370
    25
100
AcDbSpline
210
0.0
220
0.0
230
1.0
 70
    24
 71
     3
 72
    14
 73
    10
 74
     0
 42
0.000000001
 43
0.00000001
 40
0.0
 40
0.0
 40
0.0
 40
0.0
 40
0.25
 40
0.25
 40
0.5
 40
0.5
 40
0.75
 40
0.75
 40
1.0
 40
1.0
 40
1.0
 40
1.0
 10
15.15
 20
3.386890427458608
 30
0.0
 10
15.15
 20
3.186510421603201
 30
0.0
 10
15.15
 20
2.931277883596208
 30
0.0
 10
15.15
 20
2.320287617220862
 30
0.0
 10
15.15
 20
1.964631438127624
 30
0.0
 10
15.15
 20
1.183411924729894
 30
0.0
 10
15.15
 20
0.7582648568435371
 30
0.0
 10
15.15
 20
-0.1175081487888061
 30
0.0
 10
15.15
 20
-0.5676606356153737
 30
0.0
 10
15.15
 20
-1.00867954573185
 30
0.0
  0
SPLINE
  5
24A
330
1F
100
AcDbEntity
  8
0
  6
Continuous
 62
     4
370
    25
100
AcDbSpline
210
0.0
220
0.0
230
1.0
 70
    24
 71
     3
 72
     8
 73
     4
 74
     0
 42
0.000000001
 43
0.00000001
 40
0.0
 40
0.0
 40
0.0
 40
0.0
 40
1.0
 40
1.0
 40
1.0
 40
1.0
 10
15.15
 20
-4.216136139287395
 30
0.0
 10
15.15
 20
-4.424787529373843
 30
0.0
 10
15.15
 20
-4.631918287405815
 30
0.0
 10
15.15
 20
-4.834967884982122
 30
0.0
  0
SPLINE
  5
24B
330
1F
100
AcDbEntity
  8
0
  6
Continuous
 62
     4
370
    25
100
AcDbSpline
210
0.0
220
0.0
230
1.0
 70
    24
 71
     3
 72
    10
 73
     6
 74
     0
 42
0.000000001
 43
0.00000001
 40
0.0
 40
0.0
 40
0.0
 40
0.0
 40
0.5
 40
0.5
 40
1.0
 40
1.0
 40
1.0
 40
1.0
 10
15.15
 20
4.747648483966044
 30
0.0
 10
15.15
 20
4.534142417162409
 30
0.0
 10
15.15
 20
4.29982010429797
 30
0.0
 10
15.15
 20
3.832116627812569
 30
0.0
 10
15.15
 20
3.599561525426934
 30
0.0
 10
15.15
 20
3.386890427458608
 30
0.0
  0
SPLINE
  5
24C
330
1F
100
AcDbEntity
  8
0
  6
Continuous
 62
     1
370
    25
100
AcDbSpline
210
0.0
220
0.0
230
1.0
 70
     8
 71
     3
 72
    15
 73
    11
 74
     0
 42
0.000000001
 43
0.00000001
 40
0.0
 40
0.0
 40
0.0
 40
0.0
 40
0.1352341727526574
 40
0.2704304436608445
 40
0.4055979579035182
 40
0.5407459272523493
 40
0.6758836088420126
 40
0.811020283717951
 40
0.946165235266642
 40
1.0
 40
1.0
 40
1.0
 40
1.0
 10
40.15
 20
-3.944861321841072
 30
0.0
 10
39.56532333707204
 20
-3.822531589634101
 30
0.0
 10
38.39613387751924
 20
-3.577906410359704
 30
0.0
 10
36.64265304510121
 20
-3.021621114161361
 30
0.0
 10
34.88959386575123
 20
-2.353474712198812
 30
0.0
 10
33.13682720469574
 20
-1.586401199676322
 30
0.0
 10
31.38421394572713
 20
-0.7544910695809843
 30
0.0
 10
29.63161318022238
 20
0.1050527747087866
 30
0.0
 10
28.23047455180369
 20
0.7988500082949432
 30
0.0
 10
27.41350196627746
 20
1.175002037913649
 30
0.0
 10
27.18077049752147
 20
1.282156691423
 30
0.0
  0
SPLINE
  5
24D
330
1F
100
AcDbEntity
  8
0
  6
Continuous
 62
     1
370
    25
100
AcDbSpline
210
0.0
220
0.0
230
1.0
 70
    24
 71
     3
 72
     8
 73
     4
 74
     0
 42
0.000000001
 43
0.00000001
 40
0.9141012212169666
 40
0.9141012212169666
 40
0.9141012212169666
 40
0.9141012212169666
 40
1.0
 40
1.0
 40
1.0
 40
1.0
 10
40.15
 20
-3.98562661062907
 30
0.0
 10
40.15000000000001
 20
-3.972030683728742
 30
0.0
 10
40.15
 20
-3.958442026304445
 30
0.0
 10
40.15
 20
-3.944861321841072
 30
0.0
  0
SPLINE
  5
24E
330
1F
100
AcDbEntity
  8
0
  6
Continuous
 62
     1
370
    25
100
AcDbSpline
210
0.0
220
0.0
230
1.0
 70
     8
 71
     3
 72
     8
 73
     4
 74
     0
 42
0.000000001
 43
0.00000001
 40
0.9749835350232355
 40
0.9749835350232355
 40
0.9749835350232355
 40
0.9749835350232355
 40
1.0
 40
1.0
 40
1.0
 40
1.0
 10
39.86079659809423
 20
-4.689024036925817
 30
0.0
 10
39.85718351743839
 20
-4.688450845095359
 30
0.0
 10
39.85358355496694
 20
-4.687803357578082
 30
0.0
 10
39.84999999999989
 20
-4.687082269879875
 30
0.0
  0
SPLINE
  5
24F
330
1F
100
AcDbEntity
  8
0
  6
Continuous
 62
     1
370
    25
100
AcDbSpline
210
0.0
220
0.0
230
1.0
 70
     8
 71
     3
 72
    21
 73
    17
 74
     0
 42
0.000000001
 43
0.00000001
 40
0.0
 40
0.0
 40
0.0
 40
0.0
 40
0.0716750525931593
 40
0.1433672151913348
 40
0.2150376378431486
 40
0.2866880450404968
 40
0.3583252285603313
 40
0.4299560186508418
 40
0.5015872641894259
 40
0.5732258127257693
 40
0.6482856233679467
 40
0.723352389869784
 40
0.7984276946109969
 40
0.8735131104579874
 40
0.9485984737357543
 40
1.0
 40
1.0
 40
1.0
 40
1.0
 10
39.85000000000002
 20
-4.687082269879662
 30
0.0
 10
39.27351564171701
 20
-4.553164702964482
 30
0.0
 10
38.12040930892464
 20
-4.285297600824949
 30
0.0
 10
36.39068776494502
 20
-3.663524336000042
 30
0.0
 10
34.66134258908098
 20
-2.909474088250237
 30
0.0
 10
32.93252311771092
 20
-2.03634190240526
 30
0.0
 10
31.20408914767011
 20
-1.083353362771023
 30
0.0
 10
29.47584161880385
 20
-0.0871222709336283
 30
0.0
 10
27.7475722322149
 20
0.9125158347333286
 30
0.0
 10
25.99172399656373
 20
1.891195504607671
 30
0.0
 10
24.20804313292737
 20
2.806647227102604
 30
0.0
 10
22.39673535271546
 20
3.613334027231362
 30
0.0
 10
20.58517070809995
 20
4.264766338480383
 30
0.0
 10
18.77339797833891
 20
4.722119424278093
 30
0.0
 10
17.15203946859287
 20
4.974560195017171
 30
0.0
 10
16.13467684053051
 20
4.975882282097297
 30
0.0
 10
15.72124275233406
 20
4.97641954958817
 30
0.0
  0
SPLINE
  5
250
330
1F
100
AcDbEntity
  8
0
  6
Continuous
 62
     1
370
    25
100
AcDbSpline
210
0.0
220
0.0
230
1.0
 70
     8
 71
     3
 72
    54
 73
    50
 74
     0
 42
0.000000001
 43
0.00000001
 40
0.0
 40
0.0
 40
0.0
 40
0.0
 40
0.0624999999999994
 40
0.0624999999999994
 40
0.1249999999999988
 40
0.1249999999999988
 40
0.1562499999999982
 40
0.1562499999999982
 40
0.1874999999999976
 40
0.1874999999999976
 40
0.249999999999997
 40
0.249999999999997
 40
0.2812499999999967
 40
0.2812499999999967
 40
0.3124999999999964
 40
0.3124999999999964
 40
0.3749999999999963
 40
0.3749999999999963
 40
0.4062499999999964
 40
0.4062499999999964
 40
0.4374999999999964
 40
0.4374999999999964
 40
0.4687499999999964
 40
0.4687499999999964
 40
0.4999999999999964
 40
0.4999999999999964
 40
0.5312499999999964
 40
0.5312499999999964
 40
0.5624999999999964
 40
0.5624999999999964
 40
0.5937499999999966
 40
0.5937499999999966
 40
0.6249999999999966
 40
0.6249999999999966
 40
0.6874999999999969
 40
0.6874999999999969
 40
0.718749999999997
 40
0.718749999999997
 40
0.7499999999999971
 40
0.7499999999999971
 40
0.8124999999999978
 40
0.8124999999999978
 40
0.8437499999999982
 40
0.8437499999999982
 40
0.8749999999999987
 40
0.8749999999999987
 40
0.9374999999999993
 40
0.9374999999999993
 40
1.0
 40
1.0
 40
1.0
 40
1.0
 10
39.41175535879141
 20
-4.95076068409491
 30
0.0
 10
39.33615885046111
 20
-4.963127525885481
 30
0.0
 10
38.81698476951231
 20
-4.913967721385656
 30
0.0
 10
37.79251392427599
 20
-4.764812231216405
 30
0.0
 10
37.2755294921321
 20
-4.664315593785298
 30
0.0
 10
36.50302355145873
 20
-4.477523691821867
 30
0.0
 10
36.24774188946656
 20
-4.409441172681424
 30
0.0
 10
35.73409566026555
 20
-4.26154575540493
 30
0.0
 10
35.47588376955985
 20
-4.181721045755589
 30
0.0
 10
34.70168391464838
 20
-3.925959710424228
 30
0.0
 10
34.19095610940647
 20
-3.734351868511746
 30
0.0
 10
33.41753925672293
 20
-3.417967944007023
 30
0.0
 10
33.15908321528917
 20
-3.307738383870129
 30
0.0
 10
32.64394802382315
 20
-3.079063665478125
 30
0.0
 10
32.38854861344535
 20
-2.96082685162415
 30
0.0
 10
31.61838334200018
 20
-2.594258701877086
 30
0.0
 10
31.09916631458051
 20
-2.3338474968337
 30
0.0
 10
30.33009287441001
 20
-1.928444359917817
 30
0.0
 10
30.07411848949703
 20
-1.790654686716751
 30
0.0
 10
29.55860447237057
 20
-1.510057495826315
 30
0.0
 10
29.30014183007955
 20
-1.367439541511599
 30
0.0
 10
28.78488327802614
 20
-1.079265243312337
 30
0.0
 10
28.52934033290497
 20
-0.9339499686261501
 30
0.0
 10
28.01610731777105
 20
-0.640835644475823
 30
0.0
 10
27.75799312618536
 20
-0.4929511251327607
 30
0.0
 10
27.24183361669008
 20
-0.1962776677647984
 30
0.0
 10
26.98379236973616
 20
-0.0474910703066715
 30
0.0
 10
26.47084825581433
 20
0.2492108134456661
 30
0.0
 10
26.21507710120101
 20
0.3972944725675181
 30
0.0
 10
25.69966819184443
 20
0.6927597210528322
 30
0.0
 10
25.44120292964845
 20
0.8399135557514175
 30
0.0
 10
24.9258288937348
 20
1.131311304490206
 30
0.0
 10
24.67011663480468
 20
1.275333523033767
 30
0.0
 10
23.90059452118882
 20
1.702229769138056
 30
0.0
 10
23.38136686048545
 20
1.980411679803142
 30
0.0
 10
22.61161959722005
 20
2.378191637692259
 30
0.0
 10
22.35602590543342
 20
2.507653958997066
 30
0.0
 10
21.84072998825186
 20
2.760284416615656
 30
0.0
 10
21.58226608723791
 20
2.883235544500485
 30
0.0
 10
20.80904363151307
 20
3.239796237993096
 30
0.0
 10
20.29816480501443
 20
3.460906365735207
 30
0.0
 10
19.52393366748378
 20
3.764498759937992
 30
0.0
 10
19.2657842869533
 20
3.860836113763631
 30
0.0
 10
18.75240648661809
 20
4.042698991986695
 30
0.0
 10
18.49696448117066
 20
4.128272293148301
 30
0.0
 10
17.72420191161313
 20
4.368972306775478
 30
0.0
 10
17.20789879819565
 20
4.507142003468692
 30
0.0
 10
16.18278895615335
 20
4.733895210504143
 30
0.0
 10
15.66358297757511
 20
4.823160241754805
 30
0.0
 10
15.15
 20
4.88615328188502
 30
0.0
  0
SPLINE
  5
251
330
1F
100
AcDbEntity
  8
0
  6
Continuous
 62
     1
370
    25
100
AcDbSpline
210
0.0
220
0.0
230
1.0
 70
     8
 71
     3
 72
    13
 73
     9
 74
     0
 42
0.000000001
 43
0.00000001
 40
0.0
 40
0.0
 40
0.0
 40
0.0
 40
0.1271132512765991
 40
0.3130554331117643
 40
0.499032667690407
 40
0.684956305323376
 40
0.8424788224603323
 40
1.0
 40
1.0
 40
1.0
 40
1.0
 10
27.72434552120461
 20
-0.4715990114745718
 30
0.0
 10
27.19157190108242
 20
-0.257722234423289
 30
0.0
 10
25.87945318235855
 20
0.2690150364741566
 30
0.0
 10
23.78762456411988
 20
1.110247979576238
 30
0.0
 10
21.44929141326457
 20
1.967213266523215
 30
0.0
 10
19.23004553028789
 20
2.642432843160391
 30
0.0
 10
17.1305573691014
 20
3.133624779979931
 30
0.0
 10
15.81018391824724
 20
3.302468784279571
 30
0.0
 10
15.15000000000014
 20
3.386890427458594
 30
0.0
  0
SPLINE
  5
252
330
1F
100
AcDbEntity
  8
0
  6
Continuous
 62
     4
370
    25
100
AcDbSpline
210
0.0
220
0.0
230
1.0
 70
    24
 71
     3
 72
    10
 73
     6
 74
     0
 42
0.000000001
 43
0.00000001
 40
0.0
 40
0.0
 40
0.0
 40
0.0
 40
0.4999999999999996
 40
0.4999999999999996
 40
1.0
 40
1.0
 40
1.0
 40
1.0
 10
15.15
 20
4.886153281885014
 30
0.0
 10
15.15
 20
4.659995917212862
 30
0.0
 10
15.15
 20
4.403142916713866
 30
0.0
 10
15.15
 20
3.883974388573377
 30
0.0
 10
15.15000000000003
 20
3.623083926865794
 30
0.0
 10
15.15
 20
3.386890427458608
 30
0.0
  0
LINE
  5
253
330
1F
100
AcDbEntity
  8
0
  6
Continuous
 62
     4
370
    25
100
AcDbLine
 10
15.15
 20
4.88615328188502
 30
0.0
 11
15.15
 21
4.999999999999997
 31
0.0
  0
SPLINE
  5
254
330
1F
100
AcDbEntity
  8
0
  6
Continuous
 62
     1
370
    25
100
AcDbSpline
210
0.0
220
0.0
230
1.0
 70
     8
 71
     3
 72
    16
 73
    12
 74
     0
 42
0.000000001
 43
0.00000001
 40
0.0
 40
0.0
 40
0.0
 40
0.0
 40
0.1200596910996849
 40
0.2400852639033292
 40
0.3600849503023988
 40
0.4800670423706976
 40
0.6000398731790658
 40
0.7200117974083776
 40
0.8399911718560149
 40
0.959986335931906
 40
1.0
 40
1.0
 40
1.0
 40
1.0
 10
40.15
 20
0.0000000000000089
 30
0.0
 10
39.56532333214892
 20
0.2699455461958334
 30
0.0
 10
38.39613614856213
 20
0.8097599260624495
 30
0.0
 10
36.64265247968921
 20
1.586511292909654
 30
0.0
 10
34.88959099157958
 20
2.298331349156056
 30
0.0
 10
33.1368221112815
 20
2.916473542842846
 30
0.0
 10
31.38420570571355
 20
3.414696947424743
 30
0.0
 10
29.63160540765647
 20
3.776496460987401
 30
0.0
 10
27.87887812845968
 20
3.972848868936735
 30
0.0
 10
26.51548750778979
 20
4.032021227935884
 30
0.0
 10
25.73630206441225
 20
3.97043005663854
 30
0.0
 10
25.54144991194226
 20
3.95502785373237
 30
0.0
  0
SPLINE
  5
255
330
1F
100
AcDbEntity
  8
0
  6
Continuous
 62
     1
370
    25
100
AcDbSpline
210
0.0
220
0.0
230
1.0
 70
    24
 71
     3
 72
    14
 73
    10
 74
     0
 42
0.000000001
 43
0.00000001
 40
0.0
 40
0.0
 40
0.0
 40
0.0
 40
0.2500000000000001
 40
0.2500000000000001
 40
0.5000000000000002
 40
0.5000000000000002
 40
0.7500000000000002
 40
0.7500000000000002
 40
1.0
 40
1.0
 40
1.0
 40
1.0
 10
40.15
 20
-3.944861321841072
 30
0.0
 10
40.15
 20
-3.731412078842998
 30
0.0
 10
40.15
 20
-3.478744843765183
 30
0.0
 10
40.15
 20
-2.904948010978879
 30
0.0
 10
40.15
 20
-2.583899280486884
 30
0.0
 10
40.15000000000003
 20
-1.89443702554926
 30
0.0
 10
40.15
 20
-1.526222596873479
 30
0.0
 10
40.15
 20
-0.7704042963971975
 30
0.0
 10
40.15
 20
-0.3830246231221803
 30
0.0
 10
40.15
 20
0.0000000000000089
 30
0.0
  0
LINE
  5
256
330
1F
100
AcDbEntity
  8
0
  6
Continuous
 62
     1
370
    25
100
AcDbLine
 10
40.15
 20
3.500000000000006
 30
0.0
 11
38.29833923048744
 21
3.399600661895926
 31
0.0
  0
SPLINE
  5
257
330
1F
100
AcDbEntity
  8
0
  6
Continuous
 62
     1
370
    25
100
AcDbSpline
210
0.0
220
0.0
230
1.0
 70
    24
 71
     3
 72
    14
 73
    10
 74
     0
 42
0.000000001
 43
0.00000001
 40
0.0
 40
0.0
 40
0.0
 40
0.0
 40
0.25
 40
0.25
 40
0.5
 40
0.5
 40
0.75
 40
0.75
 40
1.0
 40
1.0
 40
1.0
 40
1.0
 10
40.15
 20
0.0000000000000054
 30
0.0
 10
40.15
 20
0.4164217585069867
 30
0.0
 10
40.15
 20
0.827717881877275
 30
0.0
 10
40.14999999999997
 20
1.596862749788782
 30
0.0
 10
40.15
 20
1.954233651873841
 30
0.0
 10
40.15
 20
2.57628456075914
 30
0.0
 10
40.15
 20
2.840633112828288
 30
0.0
 10
40.15
 20
3.255332771056788
 30
0.0
 10
40.15
 20
3.405703872181958
 30
0.0
 10
40.15
 20
3.500000000000006
 30
0.0
  0
SPLINE
  5
258
330
1F
100
AcDbEntity
  8
0
  6
Continuous
 62
     1
370
    25
100
AcDbSpline
210
0.0
220
0.0
230
1.0
 70
     8
 71
     3
 72
     9
 73
     5
 74
     0
 42
0.000000001
 43
0.00000001
 40
0.0
 40
0.0
 40
0.0
 40
0.0
 40
0.3124245205776613
 40
0.9999999999999999
 40
0.9999999999999999
 40
0.9999999999999999
 40
0.9999999999999999
 10
18.0304791779861
 20
-4.132985343340801
 30
0.0
 10
17.73050142888052
 20
-4.169781717519763
 30
0.0
 10
16.77034072014052
 20
-4.287558562022649
 30
0.0
 10
15.81018175842444
 20
-4.245236056388917
 30
0.0
 10
15.15000000000088
 20
-4.216136139287451
 30
0.0
  0
SPLINE
  5
259
330
1F
100
AcDbEntity
  8
0
  6
Continuous
 62
     1
370
    25
100
AcDbSpline
210
0.0
220
0.0
230
1.0
 70
     8
 71
     3
 72
    15
 73
    11
 74
     0
 42
0.000000001
 43
0.00000001
 40
0.0
 40
0.0
 40
0.0
 40
0.0
 40
0.1166246392412203
 40
0.2382843083450293
 40
0.359968403875146
 40
0.481685286784688
 40
0.6034169584935803
 40
0.7251142550029027
 40
0.8625576967623982
 40
1.0
 40
1.0
 40
1.0
 40
1.0
 10
29.55932275123927
 20
-3.757326063222136
 30
0.0
 10
28.99920105964153
 20
-3.833125904156182
 30
0.0
 10
27.85477556996988
 20
-3.98799808886042
 30
0.0
 10
26.12589464927907
 20
-4.020593007127738
 30
0.0
 10
24.37251177232229
 20
-3.901663574324383
 30
0.0
 10
22.61871671765027
 20
-3.620022827630789
 30
0.0
 10
20.86479254880921
 20
-3.191656119970657
 30
0.0
 10
19.0354949391534
 20
-2.607639283299088
 30
0.0
 10
17.13053221833197
 20
-1.878606087479388
 30
0.0
 10
15.81017558322611
 20
-1.298654258966126
 30
0.0
 10
15.15000000000003
 20
-1.008679545731857
 30
0.0
  0
SPLINE
  5
25A
330
1F
100
AcDbEntity
  8
0
  6
Continuous
 62
     4
370
    25
100
AcDbSpline
210
0.0
220
0.0
230
1.0
 70
    24
 71
     3
 72
    14
 73
    10
 74
     0
 42
0.000000001
 43
0.00000001
 40
0.0
 40
0.0
 40
0.0
 40
0.0
 40
0.2500000000000001
 40
0.2500000000000001
 40
0.5000000000000001
 40
0.5000000000000001
 40
0.7500000000000001
 40
0.7500000000000001
 40
1.0
 40
1.0
 40
1.0
 40
1.0
 10
15.15000000000009
 20
-1.008679545731885
 30
0.0
 10
15.15000000000009
 20
-1.368087456507725
 30
0.0
 10
15.15000000000009
 20
-1.721171881810564
 30
0.0
 10
15.15000000000009
 20
-2.387209537993543
 30
0.0
 10
15.15000000000009
 20
-2.699939923777391
 30
0.0
 10
15.15000000000009
 20
-3.260522432309082
 30
0.0
 10
15.15000000000009
 20
-3.508212675845565
 30
0.0
 10
15.15000000000009
 20
-3.923247959403829
 30
0.0
 10
15.15000000000009
 20
-4.090567804085063
 30
0.0
 10
15.15000000000009
 20
-4.216136139287398
 30
0.0
  0
SPLINE
  5
25B
330
1F
100
AcDbEntity
  8
0
  6
Continuous
 62
     4
370
    25
100
AcDbSpline
210
0.0
220
0.0
230
1.0
 70
    24
 71
     3
 72
    14
 73
    10
 74
     0
 42
0.000000001
 43
0.00000001
 40
0.0
 40
0.0
 40
0.0
 40
0.0
 40
0.25
 40
0.25
 40
0.5
 40
0.5
 40
0.75
 40
0.75
 40
1.0
 40
1.0
 40
1.0
 40
1.0
 10
15.15
 20
3.386890427458608
 30
0.0
 10
15.15
 20
3.186510421603201
 30
0.0
 10
15.15
 20
2.931277883596208
 30
0.0
 10
15.15
 20
2.320287617220862
 30
0.0
 10
15.15
 20
1.964631438127624
 30
0.0
 10
15.15
 20
1.183411924729894
 30
0.0
 10
15.15
 20
0.7582648568435371
 30
0.0
 10
15.15
 20
-0.1175081487888061
 30
0.0
 10
15.15
 20
-0.5676606356153737
 30
0.0
 10
15.15
 20
-1.00867954573185
 30
0.0
  0
LINE
  5
25C
330
1F
100
AcDbEntity
  8
0
  6
Continuous
 62
     1
370
    25
100
AcDbLine
 10
40.15
 20
-4.685626428074513
 30
0.0
 11
40.15
 21
-4.692878873995651
 31
0.0
  0
SPLINE
  5
25D
330
1F
100
AcDbEntity
  8
0
  6
Continuous
 62
     1
370
    25
100
AcDbSpline
210
0.0
220
0.0
230
1.0
 70
     8
 71
     3
 72
    11
 73
     7
 74
     0
 42
0.000000001
 43
0.00000001
 40
0.0
 40
0.0
 40
0.0
 40
0.0
 40
0.1345101467802628
 40
0.4230198399357926
 40
0.7115293310982935
 40
1.0
 40
1.0
 40
1.0
 40
1.0
 10
21.42994566161053
 20
-3.931645825514236
 30
0.0
 10
21.14837910647517
 20
-4.035816624220987
 30
0.0
 10
20.26288279310637
 20
-4.363422501173149
 30
0.0
 10
18.77339540369914
 20
-4.718634184664618
 30
0.0
 10
16.96162139945312
 20
-4.996352768594031
 30
0.0
 10
15.75384671133923
 20
-4.991523904833835
 30
0.0
 10
15.15
 20
-4.989109635409418
 30
0.0
  0
SPLINE
  5
25E
330
1F
100
AcDbEntity
  8
0
  6
Continuous
 62
     4
370
    25
100
AcDbSpline
210
0.0
220
0.0
230
1.0
 70
    24
 71
     3
 72
     8
 73
     4
 74
     0
 42
0.000000001
 43
0.00000001
 40
0.0
 40
0.0
 40
0.0
 40
0.0
 40
1.0
 40
1.0
 40
1.0
 40
1.0
 10
15.15
 20
-4.216136139287395
 30
0.0
 10
15.15
 20
-4.477870431234839
 30
0.0
 10
15.15
 20
-4.737202326635236
 30
0.0
 10
15.15
 20
-4.989109635397112
 30
0.0
  0
SPLINE
  5
25F
330
1F
100
AcDbEntity
  8
0
  6
Continuous
 62
     1
370
    25
100
AcDbSpline
210
0.0
220
0.0
230
1.0
 70
     8
 71
     3
 72
    11
 73
     7
 74
     0
 42
0.000000001
 43
0.00000001
 40
0.0
 40
0.0
 40
0.0
 40
0.0
 40
0.1699816970231432
 40
0.4466790025796732
 40
0.723357320409949
 40
0.9330725024433251
 40
0.9330725024433251
 40
0.9330725024433251
 40
0.9330725024433251
 10
33.30178325400004
 20
3.349920956073517
 30
0.0
 10
33.67280435833856
 20
3.509932816355336
 30
0.0
 10
34.64777601543044
 20
3.930413017478818
 30
0.0
 10
36.22672791912432
 20
4.427446876190674
 30
0.0
 10
37.89236634267797
 20
4.810585427293822
 30
0.0
 10
38.95401319832227
 20
4.912986839119133
 30
0.0
 10
39.41175535879143
 20
4.950760684094923
 30
0.0
  0
SPLINE
  5
260
330
1F
100
AcDbEntity
  8
0
  6
Continuous
 62
     1
370
    25
100
AcDbSpline
210
0.0
220
0.0
230
1.0
 70
    24
 71
     3
 72
     8
 73
     4
 74
     0
 42
0.000000001
 43
0.00000001
 40
0.0
 40
0.0
 40
0.0
 40
0.0
 40
0.433632341087575
 40
0.433632341087575
 40
0.433632341087575
 40
0.433632341087575
 10
40.15
 20
3.500000000000006
 30
0.0
 10
40.15
 20
3.647758492756229
 30
0.0
 10
40.15
 20
3.811970766048789
 30
0.0
 10
40.14999999999999
 20
3.985626610628352
 30
0.0
  0
LINE
  5
261
330
1F
100
AcDbEntity
  8
중심선
100
AcDbLine
 10
-62.85
 20
-0.0000000000000018
 30
0.0
 11
43.15
 21
0.0000000000000054
 31
0.0
  0
CIRCLE
  5
262
330
1F
100
AcDbEntity
  8
외형선
100
AcDbCircle
 10
0.0
 20
0.0
 30
0.0
 40
3.000000000000005
  0
DIMENSION
  5
263
330
1F
100
AcDbEntity
  8
치수문자_일반주서
100
AcDbDimension
  2
*D14
 10
-71.34645802161207
 20
-5.00000000000004
 30
0.0
 11
-71.34645802161208
 21
-0.0000000000000018
 31
0.0
 70
   160
  1
%%c<>
 71
     2
 42
9.99999999999999
 52
-270.0
  3
SLDDIMSTYLE0
100
AcDbAlignedDimension
 13
-58.85
 23
4.999999999999995
 33
0.0
 14
-58.85
 24
-4.999999999999994
 34
0.0
 50
90.0000000000002
100
AcDbRotatedDimension
  0
DIMENSION
  5
264
330
1F
100
AcDbEntity
  8
치수문자_일반주서
100
AcDbDimension
  2
*D15
 10
15.15
 20
23.19999999999965
 30
0.0
 11
27.64999999999997
 21
23.19999999999965
 31
0.0
 70
   160
  1
<>
 71
     2
 42
25.0
  3
SLDDIMSTYLE1
100
AcDbAlignedDimension
 13
40.15
 23
4.700000000000001
 33
0.0
 14
15.15
 24
4.999999999999997
 34
0.0
 50
0.0000000000000407
100
AcDbRotatedDimension
  0
DIMENSION
  5
265
330
1F
100
AcDbEntity
  8
치수문자_일반주서
100
AcDbDimension
  2
*D16
 10
-59.85
 20
45.25832450504429
 30
0.0
 11
-9.850000000000001
 21
45.25832450504429
 31
0.0
 70
   160
  1
<>
 71
     2
 42
100.0
  3
SLDDIMSTYLE1
100
AcDbAlignedDimension
 13
40.15
 23
4.700000000000001
 33
0.0
 14
-59.85
 24
3.999999999999995
 34
0.0
100
AcDbRotatedDimension
  0
DIMENSION
  5
266
330
1F
100
AcDbEntity
  8
치수문자_일반주서
100
AcDbDimension
  2
*D17
 10
0.1499999999999986
 20
30.31999999999865
 30
0.0
 11
20.15
 21
30.31999999999865
 31
0.0
 70
   160
  1
<>
 71
     2
 42
40.00000000000004
  3
SLDDIMSTYLE0
100
AcDbAlignedDimension
 13
40.15000000000003
 23
4.692878873993925
 33
0.0
 14
0.1499999999999981
 24
4.85
 34
0.0
 50
-0.0000000000022354
100
AcDbRotatedDimension
  0
DIMENSION
  5
267
330
1F
100
AcDbEntity
  8
치수문자_일반주서
100
AcDbDimension
  2
*D18
 10
54.95488247351268
 20
-4.999999999999845
 30
0.0
 11
54.95488247351266
 21
0.0000000000001404
 31
0.0
 70
   160
  1
%%c<>
 71
     2
 42
9.999999999999996
 52
-270.0
  3
SLDDIMSTYLE0
100
AcDbAlignedDimension
 13
15.15
 23
5.000000000000002
 33
0.0
 14
15.15
 24
-4.999999999999994
 34
0.0
 50
90.0000000000002
100
AcDbRotatedDimension
  0
INSERT
  5
268
330
1F
100
AcDbEntity
  8
외형선
100
AcDbBlockReference
  2
SW_DOWELSYMBOL_0
 10
0.0
 20
0.0
 30
0.0
  0
ARC
  5
2B6
330
1F
100
AcDbEntity
  8
0
  6
Continuous
 62
     1
370
    25
100
AcDbCircle
 10
39.15
 20
3.985626428074559
 30
0.0
 40
0.9999999999999997
100
AcDbArc
 50
0.0000104595618459
 51
74.82575554890494
  0
SPLINE
  5
2B7
330
1F
100
AcDbEntity
  8
0
  6
Continuous
 62
     1
370
    25
100
AcDbSpline
210
0.0
220
0.0
230
1.0
 70
    24
 71
     3
 72
     8
 73
     4
 74
     0
 42
0.000000001
 43
0.00000001
 40
0.9942286015817586
 40
0.9942286015817586
 40
0.9942286015817586
 40
0.9942286015817586
 40
1.0
 40
1.0
 40
1.0
 40
1.0
 10
40.15000000000001
 20
4.685626428074559
 30
0.0
 10
40.15000000000001
 20
4.688044525294996
 30
0.0
 10
40.15
 20
4.69046201520293
 30
0.0
 10
40.15
 20
4.692878873993925
 30
0.0
  0
ARC
  5
2B8
330
1F
100
AcDbEntity
  8
0
  6
Continuous
 62
     1
370
    25
100
AcDbCircle
 10
39.15
 20
-3.985626428074547
 30
0.0
 40
0.9999999999999997
100
AcDbArc
 50
285.1742444510951
 51
359.9999895404382
  0
DIMENSION
  5
2B9
330
1F
100
AcDbEntity
  8
치수문자_일반주서
100
AcDbDimension
  2
*D20
 10
39.15
 20
-3.985626428074547
 30
0.0
 11
50.30620067374249
 21
-20.95835216523263
 31
0.0
 70
   164
  1
<>
 71
     5
 42
0.9999999999999991
  3
SLDDIMSTYLE0
100
AcDbRadialDimension
 15
39.69927055896398
 25
-4.821271001476058
 35
0.0
 40
0.0
1001
ACAD_DSTYLE_DIMRADIAL_EXTENSION
1070
   387
1070
     1
1070
   388
1040
4.977229507558778
1070
   390
1040
6.283185124625793
  0
LINE
  5
2E8
330
1F
100
AcDbEntity
  8
0
  6
Continuous
 62
     4
370
    25
100
AcDbLine
 10
0.1499999999999981
 20
4.85
 30
0.0
 11
0.0000000000000004
 21
4.999999999999997
 31
0.0
1001
PE_URL
1000

  0
LINE
  5
2EA
330
1F
100
AcDbEntity
  8
0
  6
Continuous
 62
     4
370
    25
100
AcDbLine
 10
0.0000000000000004
 20
4.999999999999997
 30
0.0
 11
0.0
 21
-4.999999999999997
 31
0.0
1001
PE_URL
1000

  0
LINE
  5
2EB
330
1F
100
AcDbEntity
  8
0
  6
Continuous
 62
     4
370
    25
100
AcDbLine
 10
0.0000000000000142
 20
-4.999999999999994
 30
0.0
 11
0.1499999999999981
 21
-4.849999999999996
 31
0.0
1001
PE_URL
1000

  0
ENDSEC
  0
SECTION
  2
OBJECTS
  0
DICTIONARY
  5
C
330
0
100
AcDbDictionary
281
     1
  3
ACAD_GROUP
350
D
  3
ACAD_IMAGE_VARS
350
130
  3
ACAD_LAYOUT
350
1A
  3
ACAD_MLINESTYLE
350
17
  3
ACAD_PLOTSETTINGS
350
19
  3
ACAD_PLOTSTYLENAME
350
E
  3
ACAD_SCALELIST
350
47
  3
APPDATA
350
12E
  3
DWGPROPS
350
2EC
  0
DICTIONARY
  5
D
102
{ACAD_REACTORS
330
C
102
}
330
C
100
AcDbDictionary
281
     1
  0
RASTERVARIABLES
  5
130
102
{ACAD_REACTORS
330
C
102
}
330
C
100
AcDbRasterVariables
 90
        0
 70
     1
 71
     1
 72
     1
  0
DICTIONARY
  5
1A
102
{ACAD_REACTORS
330
C
102
}
330
C
100
AcDbDictionary
281
     1
  3
Layout1
350
1E
  3
Layout2
350
26
  3
Model
350
22
  0
DICTIONARY
  5
17
102
{ACAD_REACTORS
330
C
102
}
330
C
100
AcDbDictionary
281
     1
  3
Standard
350
18
  0
DICTIONARY
  5
19
102
{ACAD_REACTORS
330
C
102
}
330
C
100
AcDbDictionary
281
     1
  0
ACDBDICTIONARYWDFLT
  5
E
102
{ACAD_REACTORS
330
C
102
}
330
C
100
AcDbDictionary
281
     1
  3
Normal
350
F
100
AcDbDictionaryWithDefault
340
F
  0
DICTIONARY
  5
47
102
{ACAD_REACTORS
330
C
102
}
330
C
100
AcDbDictionary
281
     1
  3
A0
350
48
  3
A1
350
49
  3
A2
350
4A
  3
A3
350
4B
  3
A4
350
4C
  3
A5
350
4D
  3
A6
350
4E
  3
A7
350
4F
  3
A8
350
50
  3
A9
350
51
  3
B0
350
52
  3
B1
350
53
  3
B2
350
54
  3
B3
350
55
  3
B4
350
56
  3
B5
350
57
  3
B6
350
58
  3
B7
350
59
  3
B8
350
5A
  3
B9
350
5B
  3
C0
350
5C
  3
C1
350
5D
  3
C2
350
5E
  3
C3
350
5F
  3
C4
350
60
  3
C5
350
61
  3
C6
350
62
  3
C7
350
63
  3
C8
350
64
  3
C9
350
65
  3
D0
350
66
  3
D1
350
67
  3
D2
350
68
  0
DICTIONARY
  5
12E
102
{ACAD_REACTORS
330
C
102
}
330
C
100
AcDbDictionary
281
     1
  0
XRECORD
  5
2EC
102
{ACAD_REACTORS
330
C
102
}
330
C
100
AcDbXrecord
280
     1
  1
DWGPROPS COOKIE
  2

  3

  4

  6

  7

  8
12014102
  9

300
=
301
=
302
=
303
=
304
=
305
=
306
=
307
=
308
=
309
=
 40
0.0
 41
2458263.433518102
 42
2459576.950976968
  1

 90
        0
  0
LAYOUT
  5
1E
102
{ACAD_REACTORS
330
1A
102
}
330
1A
100
AcDbPlotSettings
  1

  2
none_device
  4

  6

 40
0.0
 41
0.0
 42
0.0
 43
0.0
 44
0.0
 45
0.0
 46
0.0
 47
0.0
 48
0.0
 49
0.0
140
0.0
141
0.0
142
1.0
143
1.0
 70
   688
 72
     1
 73
     0
 74
     5
  7

 75
    16
147
1.0
148
0.0
149
0.0
100
AcDbLayout
  1
Layout1
 70
     1
 71
     1
 10
0.0
 20
0.0
 11
420.0
 21
297.0
 12
0.0
 22
0.0
 32
0.0
 14
1.000000000000000E+20
 24
1.000000000000000E+20
 34
1.000000000000000E+20
 15
-1.000000000000000E+20
 25
-1.000000000000000E+20
 35
-1.000000000000000E+20
146
0.0
 13
0.0
 23
0.0
 33
0.0
 16
1.0
 26
0.0
 36
0.0
 17
0.0
 27
1.0
 37
0.0
 76
     0
330
1B
  0
LAYOUT
  5
26
102
{ACAD_REACTORS
330
1A
102
}
330
1A
100
AcDbPlotSettings
  1

  2
none_device
  4

  6

 40
0.0
 41
0.0
 42
0.0
 43
0.0
 44
0.0
 45
0.0
 46
0.0
 47
0.0
 48
0.0
 49
0.0
140
0.0
141
0.0
142
1.0
143
1.0
 70
   688
 72
     1
 73
     0
 74
     5
  7

 75
    16
147
1.0
148
0.0
149
0.0
100
AcDbLayout
  1
Layout2
 70
     1
 71
     2
 10
0.0
 20
0.0
 11
0.0
 21
0.0
 12
0.0
 22
0.0
 32
0.0
 14
0.0
 24
0.0
 34
0.0
 15
0.0
 25
0.0
 35
0.0
146
0.0
 13
0.0
 23
0.0
 33
0.0
 16
1.0
 26
0.0
 36
0.0
 17
0.0
 27
1.0
 37
0.0
 76
     0
330
23
  0
LAYOUT
  5
22
102
{ACAD_REACTORS
330
1A
102
}
330
1A
100
AcDbPlotSettings
  1

  2
none_device
  4
ANSI_A_(11.00_x_8.50_Inches)
  6

 40
6.35
 41
19.05
 42
6.35000508
 43
19.05000254
 44
279.4
 45
215.9
 46
119.2753998439486
 47
90.45699254226157
 48
0.0
 49
0.0
140
0.0
141
0.0
142
0.0745928350685928
143
1.0
 70
  1696
 72
     0
 73
     0
 74
     0
  7

 75
     0
147
0.0235690232323232
148
0.0
149
0.0
100
AcDbLayout
  1
Model
 70
     1
 71
     0
 10
0.0
 20
0.0
 11
420.0
 21
297.0
 12
0.0
 22
0.0
 32
0.0
 14
-75.72145802161208
 24
-49.97073246008785
 34
0.0
 15
55.50521580684597
 25
49.63332450504429
 35
0.0
146
0.0
 13
0.0
 23
0.0
 33
0.0
 16
1.0
 26
0.0
 36
0.0
 17
0.0
 27
1.0
 37
0.0
 76
     0
330
1F
331
29
  0
MLINESTYLE
  5
18
102
{ACAD_REACTORS
330
17
102
}
330
17
100
AcDbMlineStyle
  2
Standard
 70
     0
  3

 62
   256
 51
90.0
 52
90.0
 71
     2
 49
0.5
 62
   256
  6
BYLAYER
 49
-0.5
 62
   256
  6
BYLAYER
  0
ACDBPLACEHOLDER
  5
F
102
{ACAD_REACTORS
330
E
102
}
330
E
  0
SCALE
  5
48
102
{ACAD_REACTORS
330
47
102
}
330
47
100
AcDbScale
 70
     0
300
1:1
140
1.0
141
1.0
290
     1
  0
SCALE
  5
49
102
{ACAD_REACTORS
330
47
102
}
330
47
100
AcDbScale
 70
     0
300
1:2
140
1.0
141
2.0
290
     0
  0
SCALE
  5
4A
102
{ACAD_REACTORS
330
47
102
}
330
47
100
AcDbScale
 70
     0
300
1:4
140
1.0
141
4.0
290
     0
  0
SCALE
  5
4B
102
{ACAD_REACTORS
330
47
102
}
330
47
100
AcDbScale
 70
     0
300
1:5
140
1.0
141
5.0
290
     0
  0
SCALE
  5
4C
102
{ACAD_REACTORS
330
47
102
}
330
47
100
AcDbScale
 70
     0
300
1:8
140
1.0
141
8.0
290
     0
  0
SCALE
  5
4D
102
{ACAD_REACTORS
330
47
102
}
330
47
100
AcDbScale
 70
     0
300
1:10
140
1.0
141
10.0
290
     0
  0
SCALE
  5
4E
102
{ACAD_REACTORS
330
47
102
}
330
47
100
AcDbScale
 70
     0
300
1:16
140
1.0
141
16.0
290
     0
  0
SCALE
  5
4F
102
{ACAD_REACTORS
330
47
102
}
330
47
100
AcDbScale
 70
     0
300
1:20
140
1.0
141
20.0
290
     0
  0
SCALE
  5
50
102
{ACAD_REACTORS
330
47
102
}
330
47
100
AcDbScale
 70
     0
300
1:30
140
1.0
141
30.0
290
     0
  0
SCALE
  5
51
102
{ACAD_REACTORS
330
47
102
}
330
47
100
AcDbScale
 70
     0
300
1:40
140
1.0
141
40.0
290
     0
  0
SCALE
  5
52
102
{ACAD_REACTORS
330
47
102
}
330
47
100
AcDbScale
 70
     0
300
1:50
140
1.0
141
50.0
290
     0
  0
SCALE
  5
53
102
{ACAD_REACTORS
330
47
102
}
330
47
100
AcDbScale
 70
     0
300
1:100
140
1.0
141
100.0
290
     0
  0
SCALE
  5
54
102
{ACAD_REACTORS
330
47
102
}
330
47
100
AcDbScale
 70
     0
300
2:1
140
2.0
141
1.0
290
     0
  0
SCALE
  5
55
102
{ACAD_REACTORS
330
47
102
}
330
47
100
AcDbScale
 70
     0
300
4:1
140
4.0
141
1.0
290
     0
  0
SCALE
  5
56
102
{ACAD_REACTORS
330
47
102
}
330
47
100
AcDbScale
 70
     0
300
8:1
140
8.0
141
1.0
290
     0
  0
SCALE
  5
57
102
{ACAD_REACTORS
330
47
102
}
330
47
100
AcDbScale
 70
     0
300
10:1
140
10.0
141
1.0
290
     0
  0
SCALE
  5
58
102
{ACAD_REACTORS
330
47
102
}
330
47
100
AcDbScale
 70
     0
300
100:1
140
100.0
141
1.0
290
     0
  0
SCALE
  5
59
102
{ACAD_REACTORS
330
47
102
}
330
47
100
AcDbScale
 70
     0
300
1/128" = 1'-0"
140
0.0078125
141
12.0
290
     0
  0
SCALE
  5
5A
102
{ACAD_REACTORS
330
47
102
}
330
47
100
AcDbScale
 70
     0
300
1/64" = 1'-0"
140
0.015625
141
12.0
290
     0
  0
SCALE
  5
5B
102
{ACAD_REACTORS
330
47
102
}
330
47
100
AcDbScale
 70
     0
300
1/32" = 1'-0"
140
0.03125
141
12.0
290
     0
  0
SCALE
  5
5C
102
{ACAD_REACTORS
330
47
102
}
330
47
100
AcDbScale
 70
     0
300
1/16" = 1'-0"
140
0.0625
141
12.0
290
     0
  0
SCALE
  5
5D
102
{ACAD_REACTORS
330
47
102
}
330
47
100
AcDbScale
 70
     0
300
3/32" = 1'-0"
140
0.09375
141
12.0
290
     0
  0
SCALE
  5
5E
102
{ACAD_REACTORS
330
47
102
}
330
47
100
AcDbScale
 70
     0
300
1/8" = 1'-0"
140
0.125
141
12.0
290
     0
  0
SCALE
  5
5F
102
{ACAD_REACTORS
330
47
102
}
330
47
100
AcDbScale
 70
     0
300
3/16" = 1'-0"
140
0.1875
141
12.0
290
     0
  0
SCALE
  5
60
102
{ACAD_REACTORS
330
47
102
}
330
47
100
AcDbScale
 70
     0
300
1/4" = 1'-0"
140
0.25
141
12.0
290
     0
  0
SCALE
  5
61
102
{ACAD_REACTORS
330
47
102
}
330
47
100
AcDbScale
 70
     0
300
3/8" = 1'-0"
140
0.375
141
12.0
290
     0
  0
SCALE
  5
62
102
{ACAD_REACTORS
330
47
102
}
330
47
100
AcDbScale
 70
     0
300
1/2" = 1'-0"
140
0.5
141
12.0
290
     0
  0
SCALE
  5
63
102
{ACAD_REACTORS
330
47
102
}
330
47
100
AcDbScale
 70
     0
300
3/4" = 1'-0"
140
0.75
141
12.0
290
     0
  0
SCALE
  5
64
102
{ACAD_REACTORS
330
47
102
}
330
47
100
AcDbScale
 70
     0
300
1" = 1'-0"
140
1.0
141
12.0
290
     0
  0
SCALE
  5
65
102
{ACAD_REACTORS
330
47
102
}
330
47
100
AcDbScale
 70
     0
300
1-1/2" = 1'-0"
140
1.5
141
12.0
290
     0
  0
SCALE
  5
66
102
{ACAD_REACTORS
330
47
102
}
330
47
100
AcDbScale
 70
     0
300
3" = 1'-0"
140
3.0
141
12.0
290
     0
  0
SCALE
  5
67
102
{ACAD_REACTORS
330
47
102
}
330
47
100
AcDbScale
 70
     0
300
6" = 1'-0"
140
6.0
141
12.0
290
     0
  0
SCALE
  5
68
102
{ACAD_REACTORS
330
47
102
}
330
47
100
AcDbScale
 70
     0
300
1'-0" = 1'-0"
140
12.0
141
12.0
290
     0
  0
ENDSEC
  0
EOF
