  0
SECTION
  2
HEADER
  9
$ACADVER
  1
AC1015
  9
$ACADMAINTVER
 70
     6
  9
$DWGCODEPAGE
  3
ANSI_949
  9
$INSBASE
 10
0.0
 20
0.0
 30
0.0
  9
$EXTMIN
 10
-75.72145802161208
 20
-49.97180738881174
 30
0.0
  9
$EXTMAX
 10
55.505215806846
 20
49.63332450504429
 30
0.0
  9
$LIMMIN
 10
0.0
 20
0.0
  9
$LIMMAX
 10
420.0
 20
297.0
  9
$ORTHOMODE
 70
     1
  9
$REGENMODE
 70
     1
  9
$FILLMODE
 70
     1
  9
$QTEXTMODE
 70
     0
  9
$MIRRTEXT
 70
     1
  9
$LTSCALE
 40
1.0
  9
$ATTMODE
 70
     1
  9
$TEXTSIZE
 40
3.5
  9
$TRACEWID
 40
1.0
  9
$TEXTSTYLE
  7
Standard
  9
$CLAYER
  8
0
  9
$CELTYPE
  6
ByLayer
  9
$CECOLOR
 62
   256
  9
$CELTSCALE
 40
1.0
  9
$DISPSILH
 70
     0
  9
$DIMSCALE
 40
1.0
  9
$DIMASZ
 40
3.302
  9
$DIMEXO
 40
1.0
  9
$DIMDLI
 40
3.75
  9
$DIMRND
 40
0.0
  9
$DIMDLE
 40
0.0
  9
$DIMEXE
 40
1.0
  9
$DIMTP
 40
0.0
  9
$DIMTM
 40
0.0
  9
$DIMTXT
 40
3.5
  9
$DIMCEN
 40
2.5
  9
$DIMTSZ
 40
0.0
  9
$DIMTOL
 70
     0
  9
$DIMLIM
 70
     0
  9
$DIMTIH
 70
     1
  9
$DIMTOH
 70
     1
  9
$DIMSE1
 70
     0
  9
$DIMSE2
 70
     0
  9
$DIMTAD
 70
     1
  9
$DIMZIN
 70
     0
  9
$DIMBLK
  1

  9
$DIMASO
 70
     1
  9
$DIMSHO
 70
     1
  9
$DIMPOST
  1

  9
$DIMAPOST
  1

  9
$DIMALT
 70
     0
  9
$DIMALTD
 70
     3
  9
$DIMALTF
 40
0.0393700787401575
  9
$DIMLFAC
 40
1.0
  9
$DIMTOFL
 70
     1
  9
$DIMTVP
 40
0.0
  9
$DIMTIX
 70
     0
  9
$DIMSOXD
 70
     0
  9
$DIMSAH
 70
     0
  9
$DIMBLK1
  1

  9
$DIMBLK2
  1

  9
$DIMSTYLE
  2
ISO-25
  9
$DIMCLRD
 70
     0
  9
$DIMCLRE
 70
     0
  9
$DIMCLRT
 70
     0
  9
$DIMTFAC
 40
1.0
  9
$DIMGAP
 40
1.524
  9
$DIMJUST
 70
     0
  9
$DIMSD1
 70
     0
  9
$DIMSD2
 70
     0
  9
$DIMTOLJ
 70
     0
  9
$DIMTZIN
 70
     0
  9
$DIMALTZ
 70
     0
  9
$DIMALTTZ
 70
     0
  9
$DIMUPT
 70
     0
  9
$DIMDEC
 70
     2
  9
$DIMTDEC
 70
     2
  9
$DIMALTU
 70
     2
  9
$DIMALTTD
 70
     3
  9
$DIMTXSTY
  7
Standard
  9
$DIMAUNIT
 70
     0
  9
$DIMADEC
 70
     2
  9
$DIMALTRND
 40
0.0
  9
$DIMAZIN
 70
     0
  9
$DIMDSEP
 70
    44
  9
$DIMATFIT
 70
     3
  9
$DIMFRAC
 70
     0
  9
$DIMLDRBLK
  1

  9
$DIMLUNIT
 70
     2
  9
$DIMLWD
 70
    -2
  9
$DIMLWE
 70
    -2
  9
$DIMTMOVE
 70
     0
  9
$LUNITS
 70
     2
  9
$LUPREC
 70
     2
  9
$SKETCHINC
 40
1.0
  9
$FILLETRAD
 40
10.0
  9
$AUNITS
 70
     0
  9
$AUPREC
 70
     2
  9
$MENU
  1
.
  9
$ELEVATION
 40
0.0
  9
$PELEVATION
 40
0.0
  9
$THICKNESS
 40
0.0
  9
$LIMCHECK
 70
     0
  9
$CHAMFERA
 40
0.0
  9
$CHAMFERB
 40
0.0
  9
$CHAMFERC
 40
0.0
  9
$CHAMFERD
 40
0.0
  9
$SKPOLY
 70
     0
  9
$TDCREATE
 40
2458263.807761933
  9
$TDUCREATE
 40
2458263.432761933
  9
$TDUPDATE
 40
2459577.324234803
  9
$TDUUPDATE
 40
2459576.949234803
  9
$TDINDWG
 40
0.0021998611
  9
$TDUSRTIMER
 40
0.0007553009
  9
$USRTIMER
 70
     1
  9
$ANGBASE
 50
0.0
  9
$ANGDIR
 70
     0
  9
$PDMODE
 70
     0
  9
$PDSIZE
 40
-1.0
  9
$PLINEWID
 40
0.0
  9
$SPLFRAME
 70
     0
  9
$SPLINETYPE
 70
     6
  9
$SPLINESEGS
 70
     8
  9
$HANDSEED
  5
18B
  9
$SURFTAB1
 70
     6
  9
$SURFTAB2
 70
     6
  9
$SURFTYPE
 70
     6
  9
$SURFU
 70
     6
  9
$SURFV
 70
     6
  9
$UCSBASE
  2

  9
$UCSNAME
  2

  9
$UCSORG
 10
0.0
 20
0.0
 30
0.0
  9
$UCSXDIR
 10
1.0
 20
0.0
 30
0.0
  9
$UCSYDIR
 10
0.0
 20
1.0
 30
0.0
  9
$UCSORTHOREF
  2

  9
$UCSORTHOVIEW
 70
     0
  9
$UCSORGTOP
 10
0.0
 20
0.0
 30
0.0
  9
$UCSORGBOTTOM
 10
0.0
 20
0.0
 30
0.0
  9
$UCSORGLEFT
 10
0.0
 20
0.0
 30
0.0
  9
$UCSORGRIGHT
 10
0.0
 20
0.0
 30
0.0
  9
$UCSORGFRONT
 10
0.0
 20
0.0
 30
0.0
  9
$UCSORGBACK
 10
0.0
 20
0.0
 30
0.0
  9
$PUCSBASE
  2

  9
$PUCSNAME
  2

  9
$PUCSORG
 10
0.0
 20
0.0
 30
0.0
  9
$PUCSXDIR
 10
1.0
 20
0.0
 30
0.0
  9
$PUCSYDIR
 10
0.0
 20
1.0
 30
0.0
  9
$PUCSORTHOREF
  2

  9
$PUCSORTHOVIEW
 70
     0
  9
$PUCSORGTOP
 10
0.0
 20
0.0
 30
0.0
  9
$PUCSORGBOTTOM
 10
0.0
 20
0.0
 30
0.0
  9
$PUCSORGLEFT
 10
0.0
 20
0.0
 30
0.0
  9
$PUCSORGRIGHT
 10
0.0
 20
0.0
 30
0.0
  9
$PUCSORGFRONT
 10
0.0
 20
0.0
 30
0.0
  9
$PUCSORGBACK
 10
0.0
 20
0.0
 30
0.0
  9
$USERI1
 70
     0
  9
$USERI2
 70
     0
  9
$USERI3
 70
     0
  9
$USERI4
 70
     0
  9
$USERI5
 70
     0
  9
$USERR1
 40
0.0
  9
$USERR2
 40
0.0
  9
$USERR3
 40
0.0
  9
$USERR4
 40
0.0
  9
$USERR5
 40
0.0
  9
$WORLDVIEW
 70
     1
  9
$SHADEDGE
 70
     3
  9
$SHADEDIF
 70
    70
  9
$TILEMODE
 70
     1
  9
$MAXACTVP
 70
    64
  9
$PINSBASE
 10
0.0
 20
0.0
 30
0.0
  9
$PLIMCHECK
 70
     0
  9
$PEXTMIN
 10
1.000000000000000E+20
 20
1.000000000000000E+20
 30
1.000000000000000E+20
  9
$PEXTMAX
 10
-1.000000000000000E+20
 20
-1.000000000000000E+20
 30
-1.000000000000000E+20
  9
$PLIMMIN
 10
0.0
 20
0.0
  9
$PLIMMAX
 10
0.0
 20
0.0
  9
$UNITMODE
 70
     0
  9
$VISRETAIN
 70
     1
  9
$PLINEGEN
 70
     0
  9
$PSLTSCALE
 70
     1
  9
$TREEDEPTH
 70
  3020
  9
$CMLSTYLE
  2
Standard
  9
$CMLJUST
 70
     0
  9
$CMLSCALE
 40
20.0
  9
$PROXYGRAPHICS
 70
     1
  9
$MEASUREMENT
 70
     1
  9
$CELWEIGHT
370
    -1
  9
$ENDCAPS
280
     0
  9
$JOINSTYLE
280
     0
  9
$LWDISPLAY
290
     1
  9
$INSUNITS
 70
     4
  9
$HYPERLINKBASE
  1

  9
$STYLESHEET
  1

  9
$XEDIT
290
     1
  9
$CEPSNTYPE
380
     0
  9
$PSTYLEMODE
290
     1
  9
$FINGERPRINTGUID
  2
{7980DC63-5AC8-4A8E-B07F-1109332DCB8D}
  9
$VERSIONGUID
  2
{FAEB1C32-E019-11D5-929B-00C0DF256EC4}
  9
$EXTNAMES
290
     1
  9
$PSVPSCALE
 40
0.0
  9
$OLESTARTUP
290
     0
  0
ENDSEC
  0
SECTION
  2
CLASSES
  0
CLASS
  1
ACDBDICTIONARYWDFLT
  2
AcDbDictionaryWithDefault
  3
ObjectDBX Classes
 90
        0
280
     0
281
     0
  0
CLASS
  1
VISUALSTYLE
  2
AcDbVisualStyle
  3
ObjectDBX Classes
 90
     4095
280
     0
281
     0
  0
CLASS
  1
MATERIAL
  2
AcDbMaterial
  3
ObjectDBX Classes
 90
     1153
280
     0
281
     0
  0
CLASS
  1
SCALE
  2
AcDbScale
  3
ObjectDBX Classes
 90
     1153
280
     0
281
     0
  0
CLASS
  1
TABLESTYLE
  2
AcDbTableStyle
  3
ObjectDBX Classes
 90
     4095
280
     0
281
     0
  0
CLASS
  1
MLEADERSTYLE
  2
AcDbMLeaderStyle
  3
ACDB_MLEADERSTYLE_CLASS
 90
     4095
280
     0
281
     0
  0
CLASS
  1
SUN
  2
AcDbSun
  3
SCENEOE
 90
     1153
280
     0
281
     0
  0
CLASS
  1
ACDBPLACEHOLDER
  2
AcDbPlaceHolder
  3
ObjectDBX Classes
 90
        0
280
     0
281
     0
  0
CLASS
  1
LAYOUT
  2
AcDbLayout
  3
ObjectDBX Classes
 90
        0
280
     0
281
     0
  0
CLASS
  1
RASTERVARIABLES
  2
AcDbRasterVariables
  3
ISM
 90
        0
280
     0
281
     0
  0
CLASS
  1
DIMASSOC
  2
AcDbDimAssoc
  3
"AcDbDimAssoc|Product Desc:     AcDim ARX App For Dimension|Company:          Autodesk, Inc.|WEB Address:      www.autodesk.com"
 90
        0
280
     0
281
     0
  0
ENDSEC
  0
SECTION
  2
TABLES
  0
TABLE
  2
VPORT
  5
8
330
0
100
AcDbSymbolTable
 70
     1
  0
VPORT
  5
29
330
8
100
AcDbSymbolTableRecord
100
AcDbViewportTableRecord
  2
*Active
 70
     0
 10
0.0
 20
0.0
 11
1.0
 21
1.0
 12
-10.10812110738304
 22
-0.1692414418837274
 13
0.0
 23
0.0
 14
10.0
 24
10.0
 15
10.0
 25
10.0
 16
0.0
 26
0.0
 36
1.0
 17
0.0
 27
0.0
 37
0.0
 40
101.5972345317332
 41
2.070175438596491
 42
50.0
 43
0.0
 44
0.0
 50
0.0
 51
0.0
 71
    16
 72
  2000
 73
     1
 74
     3
 75
     0
 76
     0
 77
     0
 78
     0
281
     0
 65
     1
110
0.0
120
0.0
130
0.0
111
1.0
121
0.0
131
0.0
112
0.0
122
1.0
132
0.0
 79
     0
146
0.0
  0
ENDTAB
  0
TABLE
  2
LTYPE
  5
5
330
0
100
AcDbSymbolTable
 70
     6
  0
LTYPE
  5
14
330
5
100
AcDbSymbolTableRecord
100
AcDbLinetypeTableRecord
  2
ByBlock
 70
     0
  3

 72
    65
 73
     0
 40
0.0
  0
LTYPE
  5
15
330
5
100
AcDbSymbolTableRecord
100
AcDbLinetypeTableRecord
  2
ByLayer
 70
     0
  3

 72
    65
 73
     0
 40
0.0
  0
LTYPE
  5
16
330
5
100
AcDbSymbolTableRecord
100
AcDbLinetypeTableRecord
  2
Continuous
 70
     0
  3
Solid line
 72
    65
 73
     0
 40
0.0
  0
LTYPE
  5
6E
330
5
100
AcDbSymbolTableRecord
100
AcDbLinetypeTableRecord
  2
HIDDEN
 70
     0
  3
Hidden __ __ __ __ __ __ __ __ __ __ __ __ __ __
 72
    65
 73
     2
 40
1.905
 49
1.27
 74
     0
 49
-0.635
 74
     0
  0
LTYPE
  5
6F
330
5
100
AcDbSymbolTableRecord
100
AcDbLinetypeTableRecord
  2
PHANTOM
 70
     0
  3
Phantom ______  __  __  ______  __  __  ______
 72
    65
 73
     6
 40
12.7
 49
6.35
 74
     0
 49
-1.27
 74
     0
 49
1.27
 74
     0
 49
-1.27
 74
     0
 49
1.27
 74
     0
 49
-1.27
 74
     0
  0
LTYPE
  5
70
330
5
100
AcDbSymbolTableRecord
100
AcDbLinetypeTableRecord
  2
CENTER
 70
     0
  3
Center ____ _ ____ _ ____ _ ____ _ ____ _ ____
 72
    65
 73
     4
 40
10.16
 49
6.35
 74
     0
 49
-1.27
 74
     0
 49
1.27
 74
     0
 49
-1.27
 74
     0
  0
LTYPE
  5
71
330
5
100
AcDbSymbolTableRecord
100
AcDbLinetypeTableRecord
  2
CENTERX2
 70
     0
  3
Center (2x) ________  __  ________  __  _____
 72
    65
 73
     4
 40
20.32
 49
12.7
 74
     0
 49
-2.54
 74
     0
 49
2.54
 74
     0
 49
-2.54
 74
     0
  0
LTYPE
  5
72
330
5
100
AcDbSymbolTableRecord
100
AcDbLinetypeTableRecord
  2
DOT2
 70
     0
  3
Dot (.5x) ........................................
 72
    65
 73
     2
 40
0.635
 49
0.0
 74
     0
 49
-0.635
 74
     0
  0
ENDTAB
  0
TABLE
  2
LAYER
  5
2
330
0
100
AcDbSymbolTable
 70
    17
  0
LAYER
  5
10
330
2
100
AcDbSymbolTableRecord
100
AcDbLayerTableRecord
  2
0
 70
     0
 62
     7
  6
Continuous
370
    -3
390
F
  0
LAYER
  5
73
330
2
100
AcDbSymbolTableRecord
100
AcDbLayerTableRecord
  2
FORMAT
 70
     0
 62
     2
  6
Continuous
370
    -3
390
F
  0
LAYER
  5
74
330
2
100
AcDbSymbolTableRecord
100
AcDbLayerTableRecord
  2
외형선
 70
     0
 62
   100
  6
Continuous
370
    35
390
F
  0
LAYER
  5
75
330
2
100
AcDbSymbolTableRecord
100
AcDbLayerTableRecord
  2
숨은선
 70
     0
 62
     2
  6
HIDDEN
370
    25
390
F
  0
LAYER
  5
76
330
2
100
AcDbSymbolTableRecord
100
AcDbLayerTableRecord
  2
중심선
 70
     0
 62
     1
  6
CENTERX2
370
    -3
390
F
  0
LAYER
  5
77
330
2
100
AcDbSymbolTableRecord
100
AcDbLayerTableRecord
  2
파단선
 70
     0
 62
     4
  6
Continuous
370
    -3
390
F
  0
LAYER
  5
78
330
2
100
AcDbSymbolTableRecord
100
AcDbLayerTableRecord
  2
해칭선
 70
     0
 62
     4
  6
Continuous
370
    -3
390
F
  0
LAYER
  5
79
330
2
100
AcDbSymbolTableRecord
100
AcDbLayerTableRecord
  2
가는실선
 70
     0
 62
     4
  6
Continuous
370
    -3
390
F
  0
LAYER
  5
7A
330
2
100
AcDbSymbolTableRecord
100
AcDbLayerTableRecord
  2
치수_보조선
 70
     0
 62
     4
  6
Continuous
370
    -3
390
F
  0
LAYER
  5
7B
330
2
100
AcDbSymbolTableRecord
100
AcDbLayerTableRecord
  2
치수문자_일반주서
 70
     0
 62
     7
  6
Continuous
370
    25
390
F
  0
LAYER
  5
7C
330
2
100
AcDbSymbolTableRecord
100
AcDbLayerTableRecord
  2
개별주서
 70
     0
 62
   100
  6
Continuous
370
    35
390
F
  0
LAYER
  5
7D
330
2
100
AcDbSymbolTableRecord
100
AcDbLayerTableRecord
  2
중간선
 70
     0
 62
     2
  6
Continuous
370
    25
390
F
  0
LAYER
  5
7E
330
2
100
AcDbSymbolTableRecord
100
AcDbLayerTableRecord
  2
윤곽선
 70
     0
 62
     3
  6
Continuous
370
    50
390
F
  0
LAYER
  5
7F
330
2
100
AcDbSymbolTableRecord
100
AcDbLayerTableRecord
  2
중심마크
 70
     0
 62
   100
  6
Continuous
370
    35
390
F
  0
LAYER
  5
80
330
2
100
AcDbSymbolTableRecord
100
AcDbLayerTableRecord
  2
가상선
 70
     0
 62
     4
  6
PHANTOM
370
    -3
390
F
  0
LAYER
  5
81
330
2
100
AcDbSymbolTableRecord
100
AcDbLayerTableRecord
  2
특수지정선
 70
     0
 62
     5
  6
CENTERX2
370
    70
390
F
  0
LAYER
  5
143
330
2
100
AcDbSymbolTableRecord
100
AcDbLayerTableRecord
  2
Defpoints
 70
     0
 62
     7
  6
Continuous
290
     0
370
    -3
390
F
  0
ENDTAB
  0
TABLE
  2
STYLE
  5
3
330
0
100
AcDbSymbolTable
 70
     2
  0
STYLE
  5
11
330
3
100
AcDbSymbolTableRecord
100
AcDbTextStyleTableRecord
  2
Standard
 70
     0
 40
0.0
 41
1.0
 50
0.0
 71
     0
 42
3.5
  3
txt
  4

  0
STYLE
  5
97
330
3
100
AcDbSymbolTableRecord
100
AcDbTextStyleTableRecord
  2
SLDTEXTSTYLE0
 70
     0
 40
0.0
 41
0.75
 50
0.0
 71
     0
 42
3.5
  3
TXT
  4

  0
ENDTAB
  0
TABLE
  2
VIEW
  5
6
330
0
100
AcDbSymbolTable
 70
     0
  0
ENDTAB
  0
TABLE
  2
UCS
  5
7
330
0
100
AcDbSymbolTable
 70
     0
  0
ENDTAB
  0
TABLE
  2
APPID
  5
9
330
0
100
AcDbSymbolTable
 70
     3
  0
APPID
  5
12
330
9
100
AcDbSymbolTableRecord
100
AcDbRegAppTableRecord
  2
ACAD
 70
     0
  0
APPID
  5
156
330
9
100
AcDbSymbolTableRecord
100
AcDbRegAppTableRecord
  2
ACAD_DSTYLE_DIMRADIAL_EXTENSION
 70
     0
  0
APPID
  5
187
330
9
100
AcDbSymbolTableRecord
100
AcDbRegAppTableRecord
  2
PE_URL
 70
     0
  0
ENDTAB
  0
TABLE
  2
DIMSTYLE
  5
A
330
0
100
AcDbSymbolTable
 70
     3
100
AcDbDimStyleTable
  0
DIMSTYLE
105
27
330
A
100
AcDbSymbolTableRecord
100
AcDbDimStyleTableRecord
  2
ISO-25
 70
     0
 41
2.5
 42
0.625
 43
3.75
 44
1.25
 73
     0
 74
     0
 77
     1
 78
     8
140
2.5
141
2.5
143
0.03937007874016
147
0.625
171
     3
172
     1
178
     0
271
     2
272
     2
274
     3
278
    44
283
     0
284
     8
340
11
  0
DIMSTYLE
105
DC
102
{ACAD_REACTORS
330
DB
330
FF
330
10B
330
157
102
}
330
A
100
AcDbSymbolTableRecord
100
AcDbDimStyleTableRecord
  2
SLDDIMSTYLE0
 70
     0
 41
3.302
 44
0.0
 45
0.000000001
 73
     0
 74
     0
 77
     1
 78
    12
 79
     3
140
3.5
147
0.875
172
     1
173
     1
178
     0
271
     2
272
     2
276
     2
284
    12
289
     0
340
97
  0
DIMSTYLE
105
EA
102
{ACAD_REACTORS
330
E9
330
F5
102
}
330
A
100
AcDbSymbolTableRecord
100
AcDbDimStyleTableRecord
  2
SLDDIMSTYLE1
 70
     0
 41
3.302
 44
0.0
 45
0.000000001
 73
     0
 74
     0
 77
     1
 78
    12
 79
     3
140
3.5
147
0.875
173
     1
178
     0
271
     2
272
     2
276
     2
284
    12
340
97
  0
ENDTAB
  0
TABLE
  2
BLOCK_RECORD
  5
1
330
0
100
AcDbSymbolTable
 70
     9
  0
BLOCK_RECORD
  5
1F
330
1
100
AcDbSymbolTableRecord
100
AcDbBlockTableRecord
  2
*Model_Space
340
22
  0
BLOCK_RECORD
  5
1B
330
1
100
AcDbSymbolTableRecord
100
AcDbBlockTableRecord
  2
*Paper_Space
340
1E
  0
BLOCK_RECORD
  5
23
330
1
100
AcDbSymbolTableRecord
100
AcDbBlockTableRecord
  2
*Paper_Space0
340
26
  0
BLOCK_RECORD
  5
82
330
1
100
AcDbSymbolTableRecord
100
AcDbBlockTableRecord
  2
블럭10
340
0
102
{BLKREFS
331
D4
102
}
  0
BLOCK_RECORD
  5
DD
330
1
100
AcDbSymbolTableRecord
100
AcDbBlockTableRecord
  2
_D
340
0
  0
BLOCK_RECORD
  5
EB
330
1
100
AcDbSymbolTableRecord
100
AcDbBlockTableRecord
  2
_D_1
340
0
  0
BLOCK_RECORD
  5
F6
330
1
100
AcDbSymbolTableRecord
100
AcDbBlockTableRecord
  2
_D_2
340
0
  0
BLOCK_RECORD
  5
100
330
1
100
AcDbSymbolTableRecord
100
AcDbBlockTableRecord
  2
_D_3
340
0
  0
BLOCK_RECORD
  5
10C
330
1
100
AcDbSymbolTableRecord
100
AcDbBlockTableRecord
  2
_D_4
340
0
  0
BLOCK_RECORD
  5
118
330
1
100
AcDbSymbolTableRecord
100
AcDbBlockTableRecord
  2
SW_DOWELSYMBOL_0
340
0
102
{BLKREFS
331
11E
102
}
  0
BLOCK_RECORD
  5
15A
330
1
100
AcDbSymbolTableRecord
100
AcDbBlockTableRecord
  2
*D8
340
0
  0
ENDTAB
  0
ENDSEC
  0
SECTION
  2
BLOCKS
  0
BLOCK
  5
20
330
1F
100
AcDbEntity
  8
0
100
AcDbBlockBegin
  2
*Model_Space
 70
     0
 10
0.0
 20
0.0
 30
0.0
  3
*Model_Space
  1
*Model_Space
  0
ENDBLK
  5
21
330
1F
100
AcDbEntity
  8
0
100
AcDbBlockEnd
  0
BLOCK
  5
1C
330
1B
100
AcDbEntity
 67
     1
  8
0
100
AcDbBlockBegin
  2
*Paper_Space
 70
     0
 10
0.0
 20
0.0
 30
0.0
  3
*Paper_Space
  1
*Paper_Space
  0
ENDBLK
  5
1D
330
1B
100
AcDbEntity
 67
     1
  8
0
100
AcDbBlockEnd
  0
BLOCK
  5
24
330
23
100
AcDbEntity
  8
0
100
AcDbBlockBegin
  2
*Paper_Space0
 70
     0
 10
0.0
 20
0.0
 30
0.0
  3
*Paper_Space0
  1
*Paper_Space0
  0
ENDBLK
  5
25
330
23
100
AcDbEntity
  8
0
100
AcDbBlockEnd
  0
BLOCK
  5
83
330
82
100
AcDbEntity
  8
0
100
AcDbBlockBegin
  2
블럭10
 70
     2
 10
0.0
 20
0.0
 30
0.0
  3
블럭10
  1
블럭10
  0
ELLIPSE
  5
85
330
82
100
AcDbEntity
  8
중심선
100
AcDbEllipse
 10
20.54032771741204
 20
12.0471743016438
 30
0.0
 11
6.600054785286829
 21
-1.261213355974178E-13
 31
0.0
210
0.0
220
0.0
230
1.0
 40
0.636358354079598
 41
0.9219305317359503
 42
6.513795318482858
  0
ELLIPSE
  5
86
330
82
100
AcDbEntity
  8
중심선
100
AcDbEllipse
 10
20.54032771746488
 20
12.04717430159265
 30
0.0
 11
3.960054785062283
 21
1.540847449632565E-10
 31
0.0
210
0.0
220
0.0
230
1.0
 40
0.3939339440162632
 41
1.131841032648279
 42
5.62031148352944
  0
LINE
  5
87
330
82
100
AcDbEntity
  8
중심선
100
AcDbLine
 10
2.268634060543552
 20
16.24717430164393
 30
0.0
 11
5.714909304380834
 21
16.24717430164393
 31
0.0
  0
LINE
  5
88
330
82
100
AcDbEntity
  8
중심선
100
AcDbLine
 10
5.245725140726316
 20
7.84717430164391
 30
0.0
 11
8.692000384563599
 21
7.84717430164391
 31
0.0
  0
LINE
  5
89
330
82
100
AcDbEntity
  8
중심선
100
AcDbLine
 10
15.74043728645272
 20
16.24717430164393
 30
0.0
 11
8.692000384563599
 21
7.84717430164391
 31
0.0
  0
LINE
  5
8A
330
82
100
AcDbEntity
  8
중심선
100
AcDbLine
 10
0.1404042013395286
 20
13.71084872107135
 30
0.0
 11
3.58671253028996
 21
13.71088815037384
 31
0.0
  0
LINE
  5
8B
330
82
100
AcDbEntity
  8
중심선
100
AcDbLine
 10
2.750260043222114
 20
10.84717430164391
 30
0.0
 11
6.196535287059397
 21
10.84717430164391
 31
0.0
  0
LINE
  5
8C
330
82
100
AcDbEntity
  8
중심선
100
AcDbLine
 10
12.29416204261559
 20
16.24717430164393
 30
0.0
 11
5.245725140726316
 21
7.84717430164391
 31
0.0
  0
LINE
  5
8D
330
82
100
AcDbEntity
  8
중심선
100
AcDbLine
 10
10.72767329541681
 20
16.24717430164393
 30
0.0
 11
6.196535287059397
 21
10.84717430164391
 31
0.0
  0
LINE
  5
8E
330
82
100
AcDbEntity
  8
중심선
100
AcDbLine
 10
7.28139805157953
 20
16.24717430164393
 30
0.0
 11
2.750260043222114
 21
10.84717430164391
 31
0.0
  0
LINE
  5
8F
330
82
100
AcDbEntity
  8
중심선
100
AcDbLine
 10
5.714909304380834
 20
16.24717430164393
 30
0.0
 11
3.58671253028996
 21
13.71088815037384
 31
0.0
  0
LINE
  5
90
330
82
100
AcDbEntity
  8
중심선
100
AcDbLine
 10
2.268634060543552
 20
16.24717430164393
 30
0.0
 11
0.1404042013395286
 21
13.71084872107135
 31
0.0
  0
LINE
  5
91
330
82
100
AcDbEntity
  8
중심선
100
AcDbLine
 10
7.28139805157953
 20
16.24717430164393
 30
0.0
 11
10.72767329541681
 21
16.24717430164393
 31
0.0
  0
LINE
  5
92
330
82
100
AcDbEntity
  8
중심선
100
AcDbLine
 10
12.29416204261559
 20
16.24717430164393
 30
0.0
 11
15.74043728645272
 21
16.24717430164393
 31
0.0
  0
LINE
  5
93
330
82
100
AcDbEntity
  8
중심선
100
AcDbLine
 10
19.22036997980202
 20
11.08717430171403
 30
0.0
 11
23.66174974927406
 21
11.08717430171406
 31
0.0
  0
LINE
  5
94
330
82
100
AcDbEntity
  8
중심선
100
AcDbLine
 10
19.22039502424796
 20
13.00717430171391
 30
0.0
 11
19.22036997980202
 21
11.08717430171403
 31
0.0
  0
LINE
  5
95
330
82
100
AcDbEntity
  8
중심선
100
AcDbLine
 10
19.22039502424796
 20
13.00717430171391
 30
0.0
 11
26.96566020931264
 21
13.00717430171391
 31
0.0
  0
LINE
  5
96
330
82
100
AcDbEntity
  8
중심선
100
AcDbLine
 10
22.22332737316547
 20
13.45928029700563
 30
0.0
 11
24.52862924686651
 21
15.39360700705356
 31
0.0
  0
ATTDEF
  5
98
330
82
100
AcDbEntity
  8
FORMAT
 62
     2
100
AcDbText
 10
-20.85824753159254
 20
2.075366912832191
 30
0.0
 40
4.233333333333333
  1
SEME6110003100E [ 2 FLUTE ]
 41
0.75
  7
SLDTEXTSTYLE0
 11
-20.85824753159254
 21
-0.0412997538344756
 31
0.0
100
AcDbAttributeDefinition
  3

  2
AUTOATTR0
 70
     0
 74
     1
  0
ENDBLK
  5
84
330
82
100
AcDbEntity
  8
0
100
AcDbBlockEnd
  0
BLOCK
  5
DE
330
DD
100
AcDbEntity
  8
0
100
AcDbBlockBegin
  2
_D
 70
     0
 10
0.0
 20
0.0
 30
0.0
  3
_D
  1
_D
  0
LINE
  5
E0
330
DD
100
AcDbEntity
  8
치수문자_일반주서
 62
     0
370
    -2
100
AcDbLine
 10
-58.91250000000001
 20
4.999999999999992
 30
0.0
 11
-71.34645802161208
 21
4.999999999999947
 31
0.0
  0
LINE
  5
E1
330
DD
100
AcDbEntity
  8
치수문자_일반주서
 62
     0
370
    -2
100
AcDbLine
 10
-58.91250000000001
 20
-4.999999999999999
 30
0.0
 11
-71.34645802161205
 21
-5.000000000000044
 31
0.0
  0
LINE
  5
E2
330
DD
100
AcDbEntity
  8
치수문자_일반주서
 62
     0
370
    -2
100
AcDbLine
 10
-71.34645802161207
 20
1.697999999999947
 30
0.0
 11
-71.34645802161207
 21
-1.698000000000044
 31
0.0
  0
SOLID
  5
E3
330
DD
100
AcDbEntity
  8
치수문자_일반주서
 62
     0
100
AcDbTrace
 10
-70.79612468827874
 20
1.697999999999948
 30
0.0
 11
-71.89679135494539
 21
1.697999999999945
 31
0.0
 12
-71.34645802161208
 22
4.999999999999947
 32
0.0
 13
-71.34645802161208
 23
4.999999999999947
 33
0.0
  0
SOLID
  5
E4
330
DD
100
AcDbEntity
  8
치수문자_일반주서
 62
     0
100
AcDbTrace
 10
-71.89679135494539
 20
-1.698000000000046
 30
0.0
 11
-70.79612468827874
 21
-1.698000000000043
 31
0.0
 12
-71.34645802161205
 22
-5.000000000000044
 32
0.0
 13
-71.34645802161205
 23
-5.000000000000044
 33
0.0
  0
MTEXT
  5
E5
330
DD
100
AcDbEntity
  8
치수문자_일반주서
 62
     0
100
AcDbMText
 10
-75.72145802161207
 20
-0.0000000000000157
 30
0.0
 40
3.5
 41
0.0
 71
     2
 72
     1
  1
\A1;%%c10
  7
SLDTEXTSTYLE0
 11
-2.842170943040403E-15
 21
1.0
 31
0.0
 73
     1
 44
1.0
  0
POINT
  5
E6
330
DD
100
AcDbEntity
  8
Defpoints
 62
     0
100
AcDbPoint
 10
-58.85000000000001
 20
4.999999999999992
 30
0.0
  0
POINT
  5
E7
330
DD
100
AcDbEntity
  8
Defpoints
 62
     0
100
AcDbPoint
 10
-58.85000000000001
 20
-4.999999999999999
 30
0.0
  0
POINT
  5
E8
330
DD
100
AcDbEntity
  8
Defpoints
 62
     0
100
AcDbPoint
 10
-71.34645802161205
 20
-5.000000000000046
 30
0.0
  0
ENDBLK
  5
DF
330
DD
100
AcDbEntity
  8
0
100
AcDbBlockEnd
  0
BLOCK
  5
EC
330
EB
100
AcDbEntity
  8
0
100
AcDbBlockBegin
  2
_D_1
 70
     0
 10
0.0
 20
0.0
 30
0.0
  3
_D_1
  1
_D_1
  0
LINE
  5
EE
330
EB
100
AcDbEntity
  8
치수문자_일반주서
 62
     0
370
    -2
100
AcDbLine
 10
40.14999999999999
 20
4.762499999999999
 30
0.0
 11
40.14999999999999
 21
23.19999999999965
 31
0.0
  0
LINE
  5
EF
330
EB
100
AcDbEntity
  8
치수문자_일반주서
 62
     0
370
    -2
100
AcDbLine
 10
15.15
 20
5.062499999999997
 30
0.0
 11
15.15
 21
23.19999999999965
 31
0.0
  0
LINE
  5
F0
330
EB
100
AcDbEntity
  8
치수문자_일반주서
 62
     0
370
    -2
100
AcDbLine
 10
36.84799999999999
 20
23.19999999999965
 30
0.0
 11
18.452
 21
23.19999999999965
 31
0.0
  0
SOLID
  5
F1
330
EB
100
AcDbEntity
  8
치수문자_일반주서
 62
     0
100
AcDbTrace
 10
36.84799999999999
 20
22.64966666666632
 30
0.0
 11
36.84799999999999
 21
23.75033333333299
 31
0.0
 12
40.14999999999999
 22
23.19999999999965
 32
0.0
 13
40.14999999999999
 23
23.19999999999965
 33
0.0
  0
SOLID
  5
F2
330
EB
100
AcDbEntity
  8
치수문자_일반주서
 62
     0
100
AcDbTrace
 10
18.452
 20
23.75033333333299
 30
0.0
 11
18.452
 21
22.64966666666632
 31
0.0
 12
15.15
 22
23.19999999999965
 32
0.0
 13
15.15
 23
23.19999999999965
 33
0.0
  0
MTEXT
  5
F3
330
EB
100
AcDbEntity
  8
치수문자_일반주서
 62
     0
100
AcDbMText
 10
27.64999999999999
 20
27.57499999999965
 30
0.0
 40
3.5
 41
0.0
 71
     2
 72
     1
  1
\A1;25
  7
SLDTEXTSTYLE0
 73
     1
 44
1.0
  0
POINT
  5
F4
330
EB
100
AcDbEntity
  8
Defpoints
 62
     0
100
AcDbPoint
 10
40.14999999999999
 20
4.699999999999999
 30
0.0
  0
POINT
  5
14C
330
EB
100
AcDbEntity
  8
Defpoints
 62
     0
100
AcDbPoint
 10
15.15
 20
4.999999999999997
 30
0.0
  0
POINT
  5
14D
330
EB
100
AcDbEntity
  8
Defpoints
 62
     0
100
AcDbPoint
 10
15.15
 20
23.19999999999965
 30
0.0
  0
ENDBLK
  5
ED
330
EB
100
AcDbEntity
  8
0
100
AcDbBlockEnd
  0
BLOCK
  5
F7
330
F6
100
AcDbEntity
  8
0
100
AcDbBlockBegin
  2
_D_2
 70
     0
 10
0.0
 20
0.0
 30
0.0
  3
_D_2
  1
_D_2
  0
LINE
  5
F9
330
F6
100
AcDbEntity
  8
치수문자_일반주서
 62
     0
370
    -2
100
AcDbLine
 10
40.14999999999999
 20
4.762499999999999
 30
0.0
 11
40.14999999999999
 21
45.25832450504429
 31
0.0
  0
LINE
  5
FA
330
F6
100
AcDbEntity
  8
치수문자_일반주서
 62
     0
370
    -2
100
AcDbLine
 10
-59.85000000000001
 20
4.062499999999993
 30
0.0
 11
-59.85000000000001
 21
45.25832450504429
 31
0.0
  0
LINE
  5
FB
330
F6
100
AcDbEntity
  8
치수문자_일반주서
 62
     0
370
    -2
100
AcDbLine
 10
36.84799999999999
 20
45.25832450504429
 30
0.0
 11
-56.54800000000001
 21
45.25832450504429
 31
0.0
  0
SOLID
  5
FC
330
F6
100
AcDbEntity
  8
치수문자_일반주서
 62
     0
100
AcDbTrace
 10
36.84799999999999
 20
44.70799117171096
 30
0.0
 11
36.84799999999999
 21
45.80865783837763
 31
0.0
 12
40.14999999999999
 22
45.25832450504429
 32
0.0
 13
40.14999999999999
 23
45.25832450504429
 33
0.0
  0
SOLID
  5
FD
330
F6
100
AcDbEntity
  8
치수문자_일반주서
 62
     0
100
AcDbTrace
 10
-56.54800000000001
 20
45.80865783837763
 30
0.0
 11
-56.54800000000001
 21
44.70799117171096
 31
0.0
 12
-59.85000000000001
 22
45.25832450504429
 32
0.0
 13
-59.85000000000001
 23
45.25832450504429
 33
0.0
  0
MTEXT
  5
FE
330
F6
100
AcDbEntity
  8
치수문자_일반주서
 62
     0
100
AcDbMText
 10
-9.850000000000005
 20
49.63332450504429
 30
0.0
 40
3.5
 41
0.0
 71
     2
 72
     1
  1
\A1;100
  7
SLDTEXTSTYLE0
 73
     1
 44
1.0
  0
POINT
  5
14F
330
F6
100
AcDbEntity
  8
Defpoints
 62
     0
100
AcDbPoint
 10
40.14999999999999
 20
4.699999999999999
 30
0.0
  0
POINT
  5
150
330
F6
100
AcDbEntity
  8
Defpoints
 62
     0
100
AcDbPoint
 10
-59.85000000000001
 20
3.999999999999993
 30
0.0
  0
POINT
  5
151
330
F6
100
AcDbEntity
  8
Defpoints
 62
     0
100
AcDbPoint
 10
-59.85000000000001
 20
45.25832450504429
 30
0.0
  0
ENDBLK
  5
F8
330
F6
100
AcDbEntity
  8
0
100
AcDbBlockEnd
  0
BLOCK
  5
101
330
100
100
AcDbEntity
  8
0
100
AcDbBlockBegin
  2
_D_3
 70
     0
 10
0.0
 20
0.0
 30
0.0
  3
_D_3
  1
_D_3
  0
LINE
  5
103
330
100
100
AcDbEntity
  8
치수문자_일반주서
 62
     0
370
    -2
100
AcDbLine
 10
40.15000000000002
 20
4.755378873993921
 30
0.0
 11
40.15000000000002
 21
30.31999999999866
 31
0.0
  0
LINE
  5
104
330
100
100
AcDbEntity
  8
치수문자_일반주서
 62
     0
370
    -2
100
AcDbLine
 10
0.1499999999999986
 20
4.912499999999998
 30
0.0
 11
0.1499999999999986
 21
30.31999999999866
 31
0.0
  0
LINE
  5
105
330
100
100
AcDbEntity
  8
치수문자_일반주서
 62
     0
370
    -2
100
AcDbLine
 10
36.84800000000002
 20
30.31999999999866
 30
0.0
 11
3.451999999999999
 21
30.31999999999866
 31
0.0
  0
SOLID
  5
106
330
100
100
AcDbEntity
  8
치수문자_일반주서
 62
     0
100
AcDbTrace
 10
36.84800000000002
 20
29.76966666666533
 30
0.0
 11
36.84800000000002
 21
30.870333333332
 31
0.0
 12
40.15000000000002
 22
30.31999999999866
 32
0.0
 13
40.15000000000002
 23
30.31999999999866
 33
0.0
  0
SOLID
  5
107
330
100
100
AcDbEntity
  8
치수문자_일반주서
 62
     0
100
AcDbTrace
 10
3.451999999999999
 20
30.870333333332
 30
0.0
 11
3.451999999999999
 21
29.76966666666533
 31
0.0
 12
0.1499999999999986
 22
30.31999999999866
 32
0.0
 13
0.1499999999999986
 23
30.31999999999866
 33
0.0
  0
MTEXT
  5
108
330
100
100
AcDbEntity
  8
치수문자_일반주서
 62
     0
100
AcDbMText
 10
20.15000000000001
 20
34.69499999999866
 30
0.0
 40
3.5
 41
0.0
 71
     2
 72
     1
  1
\A1;40
  7
SLDTEXTSTYLE0
 73
     1
 44
1.0
  0
POINT
  5
109
330
100
100
AcDbEntity
  8
Defpoints
 62
     0
100
AcDbPoint
 10
40.15000000000002
 20
4.692878873993921
 30
0.0
  0
POINT
  5
10A
330
100
100
AcDbEntity
  8
Defpoints
 62
     0
100
AcDbPoint
 10
0.1499999999999986
 20
4.849999999999998
 30
0.0
  0
POINT
  5
144
330
100
100
AcDbEntity
  8
Defpoints
 62
     0
100
AcDbPoint
 10
0.1499999999999986
 20
30.31999999999866
 30
0.0
  0
ENDBLK
  5
102
330
100
100
AcDbEntity
  8
0
100
AcDbBlockEnd
  0
BLOCK
  5
10D
330
10C
100
AcDbEntity
  8
0
100
AcDbBlockBegin
  2
_D_4
 70
     0
 10
0.0
 20
0.0
 30
0.0
  3
_D_4
  1
_D_4
  0
LINE
  5
10F
330
10C
100
AcDbEntity
  8
치수문자_일반주서
 62
     0
370
    -2
100
AcDbLine
 10
15.2125
 20
4.999999999999999
 30
0.0
 11
54.95488247351263
 21
5.000000000000149
 31
0.0
  0
LINE
  5
110
330
10C
100
AcDbEntity
  8
치수문자_일반주서
 62
     0
370
    -2
100
AcDbLine
 10
15.2125
 20
-4.999999999999999
 30
0.0
 11
54.95488247351267
 21
-4.999999999999849
 31
0.0
  0
LINE
  5
111
330
10C
100
AcDbEntity
  8
치수문자_일반주서
 62
     0
370
    -2
100
AcDbLine
 10
54.95488247351265
 20
1.698000000000149
 30
0.0
 11
54.95488247351265
 21
-1.697999999999849
 31
0.0
  0
SOLID
  5
112
330
10C
100
AcDbEntity
  8
치수문자_일반주서
 62
     0
100
AcDbTrace
 10
55.50521580684598
 20
1.698000000000151
 30
0.0
 11
54.40454914017931
 21
1.698000000000147
 31
0.0
 12
54.95488247351263
 22
5.000000000000149
 32
0.0
 13
54.95488247351263
 23
5.000000000000149
 33
0.0
  0
SOLID
  5
113
330
10C
100
AcDbEntity
  8
치수문자_일반주서
 62
     0
100
AcDbTrace
 10
54.40454914017932
 20
-1.697999999999851
 30
0.0
 11
55.50521580684599
 21
-1.697999999999847
 31
0.0
 12
54.95488247351267
 22
-4.999999999999849
 32
0.0
 13
54.95488247351267
 23
-4.999999999999849
 33
0.0
  0
MTEXT
  5
114
330
10C
100
AcDbEntity
  8
치수문자_일반주서
 62
     0
100
AcDbMText
 10
50.57988247351265
 20
0.0000000000001231
 30
0.0
 40
3.5
 41
0.0
 71
     2
 72
     1
  1
\A1;%%c10
  7
SLDTEXTSTYLE0
 11
-3.552713678800501E-15
 21
1.0
 31
0.0
 73
     1
 44
1.0
  0
POINT
  5
115
330
10C
100
AcDbEntity
  8
Defpoints
 62
     0
100
AcDbPoint
 10
15.15
 20
4.999999999999999
 30
0.0
  0
POINT
  5
116
330
10C
100
AcDbEntity
  8
Defpoints
 62
     0
100
AcDbPoint
 10
15.15
 20
-4.999999999999999
 30
0.0
  0
POINT
  5
117
330
10C
100
AcDbEntity
  8
Defpoints
 62
     0
100
AcDbPoint
 10
54.95488247351267
 20
-4.999999999999851
 30
0.0
  0
ENDBLK
  5
10E
330
10C
100
AcDbEntity
  8
0
100
AcDbBlockEnd
  0
BLOCK
  5
119
330
118
100
AcDbEntity
  8
0
100
AcDbBlockBegin
  2
SW_DOWELSYMBOL_0
 70
     0
 10
0.0
 20
0.0
 30
0.0
  3
SW_DOWELSYMBOL_0
  1
SW_DOWELSYMBOL_0
  0
CIRCLE
  5
11B
330
118
100
AcDbEntity
  8
외형선
 62
     0
100
AcDbCircle
 10
0.0
 20
0.0
 30
0.0
 40
3.000000000000004
  0
HATCH
  5
11C
330
118
100
AcDbEntity
  8
0
  6
Continuous
 62
     0
370
    35
100
AcDbHatch
 10
0.0
 20
0.0
 30
0.0
210
0.0
220
0.0
230
1.0
  2
SOLID
 70
     1
 71
     0
 91
        1
 92
        0
 93
        3
 72
     2
 10
0.0000000000000104
 20
0.0
 40
3.000000000000004
 50
0.0
 51
90.0
 73
     1
 72
     1
 10
0.0000000000000104
 20
3.000000000000004
 11
0.0000000000000104
 21
0.0
 72
     1
 10
0.0000000000000104
 20
0.0
 11
3.000000000000015
 21
0.0
 97
        0
 75
     0
 76
     1
 98
        1
 10
0.0
 20
0.0
  0
HATCH
  5
11D
330
118
100
AcDbEntity
  8
0
  6
Continuous
 62
     0
370
    35
100
AcDbHatch
 10
0.0
 20
0.0
 30
0.0
210
0.0
220
0.0
230
1.0
  2
SOLID
 70
     1
 71
     0
 91
        1
 92
        0
 93
        3
 72
     2
 10
0.0000000000000104
 20
0.0
 40
3.000000000000004
 50
180.0
 51
270.0000000000007
 73
     1
 72
     1
 10
0.0000000000000104
 20
-3.000000000000004
 11
0.0000000000000104
 21
0.0
 72
     1
 10
0.0000000000000104
 20
0.0
 11
-2.999999999999994
 21
0.0
 97
        0
 75
     0
 76
     1
 98
        1
 10
0.0
 20
0.0
  0
ENDBLK
  5
11A
330
118
100
AcDbEntity
  8
0
100
AcDbBlockEnd
  0
BLOCK
  5
15B
330
15A
100
AcDbEntity
  8
0
100
AcDbBlockBegin
  2
*D8
 70
     1
 10
0.0
 20
0.0
 30
0.0
  3
*D8
  1
*D8
  0
LINE
  5
15D
330
15A
100
AcDbEntity
  8
치수문자_일반주서
 62
     0
370
    -2
100
AcDbLine
 10
41.80541448190069
 20
-7.710648445180032
 30
0.0
 11
52.2383417582198
 21
-23.85036460553533
 31
0.0
  0
MTEXT
  5
15E
330
15A
100
AcDbEntity
  8
치수문자_일반주서
 62
     0
100
AcDbMText
 10
51.9490573380839
 20
-18.56742237730998
 30
0.0
 40
3.5
 41
0.0
 71
     5
 72
     1
  1
\A1;R0.3
  7
SLDTEXTSTYLE0
 11
0.5428690954749344
 21
-0.8398173284579371
 31
0.0
 73
     1
 44
1.0
  0
LINE
  5
15F
330
15A
100
AcDbEntity
  8
치수문자_일반주서
 62
     0
370
    -2
100
AcDbLine
 10
39.84999999999998
 20
-4.685626428074547
 30
0.0
 11
40.01286072864246
 21
-4.937571626611924
 31
0.0
  0
SOLID
  5
160
330
15A
100
AcDbEntity
  8
치수문자_일반주서
 62
     0
100
AcDbTrace
 10
42.26759395166204
 20
-7.41188948630366
 30
0.0
 11
41.34323501213934
 21
-8.009407404056404
 31
0.0
 12
40.01286072864246
 22
-4.937571626611924
 32
0.0
 13
40.01286072864246
 23
-4.937571626611924
 33
0.0
  0
POINT
  5
161
330
15A
100
AcDbEntity
  8
Defpoints
 62
     0
100
AcDbPoint
 10
40.01286072864246
 20
-4.937571626611924
 30
0.0
  0
POINT
  5
162
330
15A
100
AcDbEntity
  8
Defpoints
 62
     0
100
AcDbPoint
 10
39.84999999999998
 20
-4.685626428074547
 30
0.0
  0
ENDBLK
  5
15C
330
15A
100
AcDbEntity
  8
0
100
AcDbBlockEnd
  0
ENDSEC
  0
SECTION
  2
ENTITIES
  0
LINE
  5
9B
330
1F
100
AcDbEntity
  8
0
  6
Continuous
 62
     4
370
    25
100
AcDbLine
 10
-0.0000000000000009
 20
4.999999999999997
 30
0.0
 11
-58.85000000000001
 21
4.999999999999994
 31
0.0
  0
LINE
  5
9C
330
1F
100
AcDbEntity
  8
0
  6
Continuous
 62
     4
370
    25
100
AcDbLine
 10
-58.85000000000001
 20
-5.000000000000001
 30
0.0
 11
0.0000000000000036
 21
-4.999999999999996
 31
0.0
  0
LINE
  5
9D
330
1F
100
AcDbEntity
  8
0
  6
Continuous
 62
     4
370
    25
100
AcDbLine
 10
-58.85000000000001
 20
4.999999999999992
 30
0.0
 11
-59.85000000000001
 21
3.999999999999991
 31
0.0
  0
LINE
  5
9E
330
1F
100
AcDbEntity
  8
0
  6
Continuous
 62
     4
370
    25
100
AcDbLine
 10
-59.85000000000001
 20
-3.999999999999999
 30
0.0
 11
-58.85000000000001
 21
-4.999999999999999
 31
0.0
  0
LINE
  5
9F
330
1F
100
AcDbEntity
  8
0
  6
Continuous
 62
     4
370
    25
100
AcDbLine
 10
12.10003716560296
 20
4.850000000000001
 30
0.0
 11
0.1499999999999986
 21
4.849999999999998
 31
0.0
  0
LINE
  5
A0
330
1F
100
AcDbEntity
  8
0
  6
Continuous
 62
     4
370
    25
100
AcDbLine
 10
15.15
 20
4.850000000000001
 30
0.0
 11
13.36878488418383
 21
4.850000000000001
 31
0.0
  0
LINE
  5
A1
330
1F
100
AcDbEntity
  8
0
  6
Continuous
 62
     4
370
    25
100
AcDbLine
 10
13.36878488418382
 20
-4.849999999999997
 30
0.0
 11
15.15
 21
-4.849999999999997
 31
0.0
  0
LINE
  5
A2
330
1F
100
AcDbEntity
  8
0
  6
Continuous
 62
     4
370
    25
100
AcDbLine
 10
0.1499999999999986
 20
-4.849999999999999
 30
0.0
 11
12.10003716560296
 21
-4.849999999999997
 31
0.0
  0
SPLINE
  5
A3
330
1F
100
AcDbEntity
  8
0
  6
Continuous
 62
     1
370
    25
100
AcDbSpline
210
0.0
220
0.0
230
1.0
 70
     8
 71
     3
 72
    11
 73
     7
 74
     0
 42
0.000000001
 43
0.00000001
 40
0.0
 40
0.0
 40
0.0
 40
0.0
 40
0.3122082248064722
 40
0.4989749285251628
 40
0.6864178547998508
 40
1.0
 40
1.0
 40
1.0
 40
1.0
 10
27.19545313957329
 20
1.281271267574861
 30
0.0
 10
27.05114136225263
 20
1.349574686726752
 30
0.0
 10
26.82050054931906
 20
1.458738030230805
 30
0.0
 10
26.50393957198504
 20
1.61634545310592
 30
0.0
 10
26.18641056954961
 20
1.777290588229614
 30
0.0
 10
25.95476090171496
 20
1.89886630518576
 30
0.0
 10
25.80977574246803
 20
1.974958254067941
 30
0.0
  0
LINE
  5
A4
330
1F
100
AcDbEntity
  8
0
  6
Continuous
 62
     4
370
    25
100
AcDbLine
 10
15.72124275233406
 20
4.999999999999999
 30
0.0
 11
15.15
 21
4.999999999999999
 31
0.0
  0
SPLINE
  5
A5
330
1F
100
AcDbEntity
  8
0
  6
Continuous
 62
     1
370
    25
100
AcDbSpline
210
0.0
220
0.0
230
1.0
 70
     8
 71
     3
 72
    16
 73
    12
 74
     0
 42
0.000000001
 43
0.00000001
 40
0.0
 40
0.0
 40
0.0
 40
0.0
 40
0.1767641267048516
 40
0.3220736770895894
 40
0.4169976576240393
 40
0.505326494475793
 40
0.6198127714267134
 40
0.7560152814048878
 40
0.8518672160748058
 40
0.9725029155902688
 40
1.0
 40
1.0
 40
1.0
 40
1.0
 10
25.54324916887971
 20
3.973192953713558
 30
0.0
 10
25.30800743043688
 20
3.961315683417315
 30
0.0
 10
24.87938442237746
 20
3.939674662756572
 30
0.0
 10
24.29197440933487
 20
3.921731872495336
 30
0.0
 10
23.8386537050312
 20
3.911734898060921
 30
0.0
 10
23.43043592980219
 20
3.906119635866267
 30
0.0
 10
22.96161276144025
 20
3.903821814296784
 30
0.0
 10
22.47365928333951
 20
3.906236059352379
 30
0.0
 10
22.00690368452527
 20
3.914890204052211
 30
0.0
 10
21.672110737782
 20
3.922123164191963
 30
0.0
 10
21.4685828007666
 20
3.929897477378176
 30
0.0
 10
21.43080301485049
 20
3.931340580925174
 30
0.0
  0
SPLINE
  5
A6
330
1F
100
AcDbEntity
  8
0
  6
Continuous
 62
     1
370
    25
100
AcDbSpline
210
0.0
220
0.0
230
1.0
 70
     8
 71
     3
 72
    28
 73
    24
 74
     0
 42
0.000000001
 43
0.00000001
 40
0.0
 40
0.0
 40
0.0
 40
0.0
 40
0.0582323817188836
 40
0.1084402805917993
 40
0.1511843435878049
 40
0.1848143656302232
 40
0.216538723646463
 40
0.2638693889050169
 40
0.3192372658932244
 40
0.3583417513195696
 40
0.3999504361455586
 40
0.4510160746430992
 40
0.5101183242646286
 40
0.5639216103858745
 40
0.5997722687072091
 40
0.6378900954851895
 40
0.6844861675864765
 40
0.7427252364223323
 40
0.7852780741029987
 40
0.8097566347813491
 40
0.8537870226019364
 40
0.9170651341011177
 40
1.0
 40
1.0
 40
1.0
 40
1.0
 10
38.30227309637699
 20
3.420669077126484
 30
0.0
 10
38.14201130260152
 20
3.407100821780311
 30
0.0
 10
37.8435719571347
 20
3.381834030805092
 30
0.0
 10
37.39437362698499
 20
3.352585826140111
 30
0.0
 10
37.01291831801981
 20
3.332302353936184
 30
0.0
 10
36.69144321142389
 20
3.31780595511258
 30
0.0
 10
36.37133609867912
 20
3.30628680050684
 30
0.0
 10
35.97799578864324
 20
3.29579857409025
 30
0.0
 10
35.56458981992716
 20
3.290425297739511
 30
0.0
 10
35.16756209753356
 20
3.290036812146741
 30
0.0
 10
34.78290763874936
 20
3.293655159237747
 30
0.0
 10
34.3400994251362
 20
3.303123736572842
 30
0.0
 10
33.86192314069886
 20
3.320164324464072
 30
0.0
 10
33.42778341239496
 20
3.341764794332238
 30
0.0
 10
33.05469081796026
 20
3.364524076393727
 30
0.0
 10
32.70291774505132
 20
3.389229366834594
 30
0.0
 10
32.28618447983979
 20
3.423015747402899
 30
0.0
 10
31.85597510465428
 20
3.463302106597118
 30
0.0
 10
31.4901588830485
 20
3.501810808213926
 30
0.0
 10
31.16664257035369
 20
3.53836553328601
 30
0.0
 10
30.78250187988047
 20
3.584857017580031
 30
0.0
 10
30.22784824068838
 20
3.658539001191174
 30
0.0
 10
29.80018571529662
 20
3.72371088536897
 30
0.0
 10
29.55760715062665
 20
3.760677655151298
 30
0.0
  0
SPLINE
  5
A7
330
1F
100
AcDbEntity
  8
0
  6
Continuous
 62
     1
370
    25
100
AcDbSpline
210
0.0
220
0.0
230
1.0
 70
     8
 71
     3
 72
    25
 73
    21
 74
     0
 42
0.000000001
 43
0.00000001
 40
0.0
 40
0.0
 40
0.0
 40
0.0
 40
0.0684607038745838
 40
0.1186667230083406
 40
0.1509749440092617
 40
0.1769525562883596
 40
0.2578618338755956
 40
0.3187612247323644
 40
0.3669359733368362
 40
0.4258154892438783
 40
0.5074110660847394
 40
0.5856722688386726
 40
0.6443374311229945
 40
0.6920346071500034
 40
0.7581661218118364
 40
0.8011220707450486
 40
0.8335626268740244
 40
0.8628588244023031
 40
0.9172751628053959
 40
1.0
 40
1.0
 40
1.0
 40
1.0
 10
18.02364721481451
 20
-4.160691426356093
 30
0.0
 10
18.19509329142272
 20
-4.144002692205905
 30
0.0
 10
18.49227025473593
 20
-4.115075186634414
 30
0.0
 10
18.86999625063284
 20
-4.082143610763069
 30
0.0
 10
19.14218195594627
 20
-4.05995841457312
 30
0.0
 10
19.49240093315977
 20
-4.032980655518905
 30
0.0
 10
19.9138967780697
 20
-4.003843120674301
 30
0.0
 10
20.38977083066383
 20
-3.97598069948985
 30
0.0
 10
20.80949005033957
 20
-3.954780200265032
 30
0.0
 10
21.28256685047768
 20
-3.934883507302983
 30
0.0
 10
21.83078683255682
 20
-3.91793230279269
 30
0.0
 10
22.37854061603288
 20
-3.907871558672801
 30
0.0
 10
22.84124675775078
 20
-3.904423671468407
 30
0.0
 10
23.27261194094657
 20
-3.904897238350203
 30
0.0
 10
23.66590517620487
 20
-3.908886554292173
 30
0.0
 10
24.02097880152161
 20
-3.915575024703872
 30
0.0
 10
24.28339215189884
 20
-3.922084611481095
 30
0.0
 10
24.57390855310317
 20
-3.930763391213448
 30
0.0
 10
24.99105885435065
 20
-3.945726265250778
 30
0.0
 10
25.33548693546437
 20
-3.962858580963071
 30
0.0
 10
25.54324916887972
 20
-3.973192953713555
 30
0.0
  0
SPLINE
  5
A8
330
1F
100
AcDbEntity
  8
0
  6
Continuous
 62
     1
370
    25
100
AcDbSpline
210
0.0
220
0.0
230
1.0
 70
     8
 71
     3
 72
    15
 73
    11
 74
     0
 42
0.000000001
 43
0.00000001
 40
0.0
 40
0.0
 40
0.0
 40
0.0
 40
0.1679215292317114
 40
0.2882344221779913
 40
0.4055288985752443
 40
0.5313944277526552
 40
0.6682138189055782
 40
0.7609777558367736
 40
0.8899901725207133
 40
1.0
 40
1.0
 40
1.0
 40
1.0
 10
29.55760715062665
 20
-3.760677655151295
 30
0.0
 10
29.76808446538995
 20
-3.728480299601557
 30
0.0
 10
30.12936516286776
 20
-3.673214091539978
 30
0.0
 10
30.63652959791787
 20
-3.60385294726892
 30
0.0
 10
31.0873759776178
 20
-3.547240703029135
 30
0.0
 10
31.56095684456071
 20
-3.493504124236078
 30
0.0
 10
32.00455673609389
 20
-3.448883901699574
 30
0.0
 10
32.45193366965968
 20
-3.409091739049596
 30
0.0
 10
32.86654195874779
 20
-3.37649289408401
 30
0.0
 10
33.16497404037514
 20
-3.358451191903687
 30
0.0
 10
33.3023272056801
 20
-3.35014751058215
 30
0.0
  0
LINE
  5
A9
330
1F
100
AcDbEntity
  8
0
  6
Continuous
 62
     4
370
    25
100
AcDbLine
 10
15.15
 20
-4.999999999999999
 30
0.0
 11
15.72124275233406
 21
-4.999999999999999
 31
0.0
  0
LINE
  5
AA
330
1F
100
AcDbEntity
  8
0
  6
Continuous
 62
     4
370
    25
100
AcDbLine
 10
0.1499999999999986
 20
4.850000000000001
 30
0.0
 11
0.1499999999999986
 21
-4.850000000000001
 31
0.0
  0
LINE
  5
AC
330
1F
100
AcDbEntity
  8
0
  6
Continuous
 62
     4
370
    25
100
AcDbLine
 10
-58.85000000000001
 20
4.999999999999992
 30
0.0
 11
-58.85000000000001
 21
-4.999999999999999
 31
0.0
  0
LINE
  5
AD
330
1F
100
AcDbEntity
  8
0
  6
Continuous
 62
     4
370
    25
100
AcDbLine
 10
-59.85000000000001
 20
3.999999999999993
 30
0.0
 11
-59.85000000000001
 21
-3.999999999999999
 31
0.0
  0
LINE
  5
AE
330
1F
100
AcDbEntity
  8
0
  6
Continuous
 62
     4
370
    25
100
AcDbLine
 10
15.15
 20
4.850000000000001
 30
0.0
 11
15.15
 21
4.747648483966102
 31
0.0
  0
SPLINE
  5
AF
330
1F
100
AcDbEntity
  8
0
  6
Continuous
 62
     4
370
    25
100
AcDbSpline
210
0.0
220
0.0
230
1.0
 70
     8
 71
     3
 72
    12
 73
     8
 74
     0
 42
0.000000001
 43
0.00000001
 40
0.0
 40
0.0
 40
0.0
 40
0.0
 40
0.2499999999999997
 40
0.2499999999999997
 40
0.4999999999999993
 40
0.4999999999999993
 40
1.0
 40
1.0
 40
1.0
 40
1.0
 10
15.15
 20
4.747648483966102
 30
0.0
 10
14.8961882048555
 20
4.776732165501918
 30
0.0
 10
14.64384697665492
 20
4.799643294089753
 30
0.0
 10
14.13481988516371
 20
4.833127823457722
 30
0.0
 10
13.87938423057611
 20
4.843645812775066
 30
0.0
 10
13.11476807098625
 20
4.85631702227424
 30
0.0
 10
12.61012492810473
 20
4.839671023793979
 30
0.0
 10
12.10003716560302
 20
4.798057926534522
 30
0.0
  0
SPLINE
  5
B0
330
1F
100
AcDbEntity
  8
0
  6
Continuous
 62
     4
370
    25
100
AcDbSpline
210
0.0
220
0.0
230
1.0
 70
     8
 71
     3
 72
    12
 73
     8
 74
     0
 42
0.000000001
 43
0.00000001
 40
0.0
 40
0.0
 40
0.0
 40
0.0
 40
0.25
 40
0.25
 40
0.5
 40
0.5
 40
1.0
 40
1.0
 40
1.0
 40
1.0
 10
15.15
 20
-4.834967884993994
 30
0.0
 10
14.89619143579031
 20
-4.823771613276792
 30
0.0
 10
14.64385343294102
 20
-4.806368024650591
 30
0.0
 10
14.13483286808381
 20
-4.759080385202735
 30
0.0
 10
13.87940048143634
 20
-4.729207418695843
 30
0.0
 10
13.11479396903644
 20
-4.621396510820679
 30
0.0
 10
12.61015734333332
 20
-4.525496948095497
 30
0.0
 10
12.10007612502704
 20
-4.406380787764014
 30
0.0
  0
LINE
  5
B1
330
1F
100
AcDbEntity
  8
0
  6
Continuous
 62
     4
370
    25
100
AcDbLine
 10
12.10003716560302
 20
-4.798057926534521
 30
0.0
 11
13.36878488418383
 21
-4.831992819139202
 31
0.0
  0
LINE
  5
B2
330
1F
100
AcDbEntity
  8
0
  6
Continuous
 62
     4
370
    25
100
AcDbLine
 10
12.10003716560301
 20
-4.849999999999997
 30
0.0
 11
12.10003716560303
 21
-4.798049580606605
 31
0.0
  0
LINE
  5
B3
330
1F
100
AcDbEntity
  8
0
  6
Continuous
 62
     4
370
    25
100
AcDbLine
 10
12.10003716560296
 20
-4.406286290104211
 30
0.0
 11
12.10003716560301
 21
4.850000000000001
 31
0.0
  0
SPLINE
  5
B4
330
1F
100
AcDbEntity
  8
0
  6
Continuous
 62
     4
370
    25
100
AcDbSpline
210
0.0
220
0.0
230
1.0
 70
     8
 71
     3
 72
    12
 73
     8
 74
     0
 42
0.000000001
 43
0.00000001
 40
0.0
 40
0.0
 40
0.0
 40
0.0
 40
0.25
 40
0.25
 40
0.5
 40
0.5
 40
1.0
 40
1.0
 40
1.0
 40
1.0
 10
15.15000000000092
 20
-4.216136139287454
 30
0.0
 10
14.89619143579114
 20
-4.200424367920712
 30
0.0
 10
14.64385343294177
 20
-4.179311215636855
 30
0.0
 10
14.13483286808442
 20
-4.126214056072457
 30
0.0
 10
13.87940048143687
 20
-4.094249554192579
 30
0.0
 10
13.11479396903675
 20
-3.982643669818088
 30
0.0
 10
12.61015734333347
 20
-3.887511986932018
 30
0.0
 10
12.10007612502704
 20
-3.772457179376908
 30
0.0
  0
SPLINE
  5
B5
330
1F
100
AcDbEntity
  8
0
  6
Continuous
 62
     4
370
    25
100
AcDbSpline
210
0.0
220
0.0
230
1.0
 70
     8
 71
     3
 72
    12
 73
     8
 74
     0
 42
0.000000001
 43
0.00000001
 40
0.0
 40
0.0
 40
0.0
 40
0.0
 40
0.2500000000000001
 40
0.2500000000000001
 40
0.5000000000000001
 40
0.5000000000000001
 40
1.0
 40
1.0
 40
1.0
 40
1.0
 10
15.15000000000002
 20
-1.008679545731859
 30
0.0
 10
14.89618938436888
 20
-0.8950971836733014
 30
0.0
 10
14.64384933364337
 20
-0.7804340648084372
 30
0.0
 10
14.13482462482237
 20
-0.548732671266777
 30
0.0
 10
13.87939016325755
 20
-0.4318807298242184
 30
0.0
 10
13.11477752555442
 20
-0.0803576745652374
 30
0.0
 10
12.61013676189407
 20
0.1548365623300276
 30
0.0
 10
12.10005138847203
 20
0.3888530873569259
 30
0.0
  0
SPLINE
  5
B6
330
1F
100
AcDbEntity
  8
0
  6
Continuous
 62
     4
370
    25
100
AcDbSpline
210
0.0
220
0.0
230
1.0
 70
    24
 71
     3
 72
    14
 73
    10
 74
     0
 42
0.000000001
 43
0.00000001
 40
0.0
 40
0.0
 40
0.0
 40
0.0
 40
0.2500000000000001
 40
0.2500000000000001
 40
0.5000000000000001
 40
0.5000000000000001
 40
0.7500000000000001
 40
0.7500000000000001
 40
1.0
 40
1.0
 40
1.0
 40
1.0
 10
15.15000000000008
 20
-1.008679545731889
 30
0.0
 10
15.15000000000009
 20
-1.368087456507727
 30
0.0
 10
15.15000000000008
 20
-1.721171881810567
 30
0.0
 10
15.15000000000009
 20
-2.387209537993545
 30
0.0
 10
15.15000000000008
 20
-2.699939923777393
 30
0.0
 10
15.15000000000008
 20
-3.260522432309087
 30
0.0
 10
15.15000000000008
 20
-3.508212675845568
 30
0.0
 10
15.15000000000008
 20
-3.923247959403832
 30
0.0
 10
15.15000000000008
 20
-4.090567804085063
 30
0.0
 10
15.15000000000008
 20
-4.216136139287402
 30
0.0
  0
SPLINE
  5
B7
330
1F
100
AcDbEntity
  8
0
  6
Continuous
 62
     4
370
    25
100
AcDbSpline
210
0.0
220
0.0
230
1.0
 70
     8
 71
     3
 72
    12
 73
     8
 74
     0
 42
0.000000001
 43
0.00000001
 40
0.0
 40
0.0
 40
0.0
 40
0.0
 40
0.25
 40
0.25
 40
0.5
 40
0.5
 40
1.0
 40
1.0
 40
1.0
 40
1.0
 10
15.15000000000013
 20
3.386890427458593
 30
0.0
 10
14.8961889830378
 20
3.412789234287407
 30
0.0
 10
14.64384853167464
 20
3.43427475501454
 30
0.0
 10
14.13482301214651
 20
3.468433745058363
 30
0.0
 10
13.87938814465389
 20
3.48105916426276
 30
0.0
 10
13.11477430862338
 20
3.505333921281785
 30
0.0
 10
12.61013273542985
 20
3.503423015936005
 30
0.0
 10
12.10004654911964
 20
3.483422315813526
 30
0.0
  0
SPLINE
  5
B8
330
1F
100
AcDbEntity
  8
0
  6
Continuous
 62
     4
370
    25
100
AcDbSpline
210
0.0
220
0.0
230
1.0
 70
    24
 71
     3
 72
    14
 73
    10
 74
     0
 42
0.000000001
 43
0.00000001
 40
0.0
 40
0.0
 40
0.0
 40
0.0
 40
0.25
 40
0.25
 40
0.5
 40
0.5
 40
0.75
 40
0.75
 40
1.0
 40
1.0
 40
1.0
 40
1.0
 10
15.15
 20
3.386890427458605
 30
0.0
 10
15.15
 20
3.186510421603196
 30
0.0
 10
15.15
 20
2.931277883596204
 30
0.0
 10
15.15
 20
2.320287617220861
 30
0.0
 10
15.15
 20
1.964631438127622
 30
0.0
 10
15.15
 20
1.183411924729891
 30
0.0
 10
15.15
 20
0.7582648568435333
 30
0.0
 10
15.15
 20
-0.1175081487888072
 30
0.0
 10
15.15
 20
-0.5676606356153768
 30
0.0
 10
15.15
 20
-1.008679545731852
 30
0.0
  0
SPLINE
  5
B9
330
1F
100
AcDbEntity
  8
0
  6
Continuous
 62
     4
370
    25
100
AcDbSpline
210
0.0
220
0.0
230
1.0
 70
    24
 71
     3
 72
     8
 73
     4
 74
     0
 42
0.000000001
 43
0.00000001
 40
0.0
 40
0.0
 40
0.0
 40
0.0
 40
1.0
 40
1.0
 40
1.0
 40
1.0
 10
15.15
 20
-4.216136139287397
 30
0.0
 10
15.15
 20
-4.424787529373845
 30
0.0
 10
15.15000000000001
 20
-4.631918287405817
 30
0.0
 10
15.15000000000001
 20
-4.834967884982123
 30
0.0
  0
SPLINE
  5
BA
330
1F
100
AcDbEntity
  8
0
  6
Continuous
 62
     4
370
    25
100
AcDbSpline
210
0.0
220
0.0
230
1.0
 70
    24
 71
     3
 72
    10
 73
     6
 74
     0
 42
0.000000001
 43
0.00000001
 40
0.0
 40
0.0
 40
0.0
 40
0.0
 40
0.5
 40
0.5
 40
1.0
 40
1.0
 40
1.0
 40
1.0
 10
15.15
 20
4.74764848396604
 30
0.0
 10
15.15000000000001
 20
4.534142417162405
 30
0.0
 10
15.15
 20
4.299820104297969
 30
0.0
 10
15.15000000000001
 20
3.832116627812567
 30
0.0
 10
15.15
 20
3.599561525426933
 30
0.0
 10
15.15
 20
3.386890427458605
 30
0.0
  0
SPLINE
  5
BB
330
1F
100
AcDbEntity
  8
0
  6
Continuous
 62
     1
370
    25
100
AcDbSpline
210
0.0
220
0.0
230
1.0
 70
     8
 71
     3
 72
    15
 73
    11
 74
     0
 42
0.000000001
 43
0.00000001
 40
0.0
 40
0.0
 40
0.0
 40
0.0
 40
0.1352341727526574
 40
0.2704304436608445
 40
0.4055979579035182
 40
0.5407459272523493
 40
0.6758836088420126
 40
0.811020283717951
 40
0.946165235266642
 40
1.0
 40
1.0
 40
1.0
 40
1.0
 10
40.14999999999999
 20
-3.944861321841076
 30
0.0
 10
39.56532333707204
 20
-3.822531589634104
 30
0.0
 10
38.39613387751925
 20
-3.577906410359708
 30
0.0
 10
36.64265304510121
 20
-3.021621114161362
 30
0.0
 10
34.88959386575125
 20
-2.353474712198816
 30
0.0
 10
33.13682720469575
 20
-1.586401199676325
 30
0.0
 10
31.38421394572715
 20
-0.7544910695809866
 30
0.0
 10
29.63161318022238
 20
0.1050527747087825
 30
0.0
 10
28.23047455180368
 20
0.7988500082949391
 30
0.0
 10
27.41350196627746
 20
1.175002037913647
 30
0.0
 10
27.18077049752148
 20
1.282156691422997
 30
0.0
  0
SPLINE
  5
BC
330
1F
100
AcDbEntity
  8
0
  6
Continuous
 62
     1
370
    25
100
AcDbSpline
210
0.0
220
0.0
230
1.0
 70
    24
 71
     3
 72
     8
 73
     4
 74
     0
 42
0.000000001
 43
0.00000001
 40
0.0
 40
0.0
 40
0.0
 40
0.0
 40
1.0
 40
1.0
 40
1.0
 40
1.0
 10
40.14999999999999
 20
-4.42132023145889
 30
0.0
 10
40.14999999999999
 20
-4.262141667088014
 30
0.0
 10
40.14999999999999
 20
-4.102962573753814
 30
0.0
 10
40.14999999999999
 20
-3.944861321841076
 30
0.0
  0
SPLINE
  5
BD
330
1F
100
AcDbEntity
  8
0
  6
Continuous
 62
     1
370
    25
100
AcDbSpline
210
0.0
220
0.0
230
1.0
 70
     8
 71
     3
 72
    10
 73
     6
 74
     0
 42
0.000000001
 43
0.00000001
 40
0.0
 40
0.0
 40
0.0
 40
0.0
 40
0.5
 40
0.5
 40
1.0
 40
1.0
 40
1.0
 40
1.0
 10
40.14999999999999
 20
-4.421320231458901
 30
0.0
 10
40.15000000000013
 20
-4.504048680582242
 30
0.0
 10
40.11674226624855
 20
-4.586618520580326
 30
0.0
 10
39.99980222130272
 20
-4.686505461765344
 30
0.0
 10
39.92162392788826
 20
-4.701494531941598
 30
0.0
 10
39.84999999999991
 20
-4.68708226987988
 30
0.0
  0
SPLINE
  5
BE
330
1F
100
AcDbEntity
  8
0
  6
Continuous
 62
     1
370
    25
100
AcDbSpline
210
0.0
220
0.0
230
1.0
 70
     8
 71
     3
 72
    21
 73
    17
 74
     0
 42
0.000000001
 43
0.00000001
 40
0.0
 40
0.0
 40
0.0
 40
0.0
 40
0.0716750525931593
 40
0.1433672151913348
 40
0.2150376378431486
 40
0.2866880450404968
 40
0.3583252285603313
 40
0.4299560186508418
 40
0.5015872641894259
 40
0.5732258127257693
 40
0.6482856233679467
 40
0.723352389869784
 40
0.7984276946109969
 40
0.8735131104579874
 40
0.9485984737357543
 40
1.0
 40
1.0
 40
1.0
 40
1.0
 10
39.85000000000001
 20
-4.687082269879665
 30
0.0
 10
39.273515641717
 20
-4.553164702964485
 30
0.0
 10
38.12040930892462
 20
-4.285297600824951
 30
0.0
 10
36.39068776494503
 20
-3.663524336000045
 30
0.0
 10
34.66134258908099
 20
-2.909474088250238
 30
0.0
 10
32.93252311771093
 20
-2.036341902405262
 30
0.0
 10
31.20408914767012
 20
-1.083353362771025
 30
0.0
 10
29.47584161880386
 20
-0.0871222709336325
 30
0.0
 10
27.74757223221491
 20
0.912515834733326
 30
0.0
 10
25.99172399656373
 20
1.891195504607667
 30
0.0
 10
24.20804313292738
 20
2.8066472271026
 30
0.0
 10
22.39673535271547
 20
3.613334027231358
 30
0.0
 10
20.58517070809994
 20
4.26476633848038
 30
0.0
 10
18.77339797833893
 20
4.72211942427809
 30
0.0
 10
17.15203946859288
 20
4.974560195017168
 30
0.0
 10
16.13467684053052
 20
4.975882282097294
 30
0.0
 10
15.72124275233406
 20
4.976419549588168
 30
0.0
  0
SPLINE
  5
BF
330
1F
100
AcDbEntity
  8
0
  6
Continuous
 62
     1
370
    25
100
AcDbSpline
210
0.0
220
0.0
230
1.0
 70
     8
 71
     3
 72
    54
 73
    50
 74
     0
 42
0.000000001
 43
0.00000001
 40
0.0
 40
0.0
 40
0.0
 40
0.0
 40
0.0624999999999994
 40
0.0624999999999994
 40
0.1249999999999988
 40
0.1249999999999988
 40
0.1562499999999982
 40
0.1562499999999982
 40
0.1874999999999976
 40
0.1874999999999976
 40
0.249999999999997
 40
0.249999999999997
 40
0.2812499999999967
 40
0.2812499999999967
 40
0.3124999999999964
 40
0.3124999999999964
 40
0.3749999999999963
 40
0.3749999999999963
 40
0.4062499999999964
 40
0.4062499999999964
 40
0.4374999999999964
 40
0.4374999999999964
 40
0.4687499999999964
 40
0.4687499999999964
 40
0.4999999999999964
 40
0.4999999999999964
 40
0.5312499999999964
 40
0.5312499999999964
 40
0.5624999999999964
 40
0.5624999999999964
 40
0.5937499999999966
 40
0.5937499999999966
 40
0.6249999999999966
 40
0.6249999999999966
 40
0.6874999999999969
 40
0.6874999999999969
 40
0.718749999999997
 40
0.718749999999997
 40
0.7499999999999971
 40
0.7499999999999971
 40
0.8124999999999978
 40
0.8124999999999978
 40
0.8437499999999982
 40
0.8437499999999982
 40
0.8749999999999987
 40
0.8749999999999987
 40
0.9374999999999993
 40
0.9374999999999993
 40
1.0
 40
1.0
 40
1.0
 40
1.0
 10
39.84999999999999
 20
-4.985626428074548
 30
0.0
 10
39.3361588504611
 20
-4.963127525885483
 30
0.0
 10
38.81698476951232
 20
-4.913967721385657
 30
0.0
 10
37.79251392427599
 20
-4.764812231216406
 30
0.0
 10
37.27552949213211
 20
-4.664315593785298
 30
0.0
 10
36.50302355145874
 20
-4.477523691821871
 30
0.0
 10
36.24774188946658
 20
-4.409441172681427
 30
0.0
 10
35.73409566026555
 20
-4.261545755404933
 30
0.0
 10
35.47588376955984
 20
-4.18172104575559
 30
0.0
 10
34.70168391464838
 20
-3.925959710424232
 30
0.0
 10
34.19095610940646
 20
-3.734351868511748
 30
0.0
 10
33.41753925672293
 20
-3.417967944007026
 30
0.0
 10
33.15908321528919
 20
-3.307738383870133
 30
0.0
 10
32.64394802382314
 20
-3.079063665478127
 30
0.0
 10
32.38854861344535
 20
-2.960826851624153
 30
0.0
 10
31.61838334200017
 20
-2.594258701877088
 30
0.0
 10
31.0991663145805
 20
-2.333847496833702
 30
0.0
 10
30.33009287441003
 20
-1.928444359917821
 30
0.0
 10
30.07411848949702
 20
-1.790654686716755
 30
0.0
 10
29.55860447237057
 20
-1.510057495826319
 30
0.0
 10
29.30014183007957
 20
-1.367439541511602
 30
0.0
 10
28.78488327802614
 20
-1.07926524331234
 30
0.0
 10
28.52934033290497
 20
-0.9339499686261513
 30
0.0
 10
28.01610731777105
 20
-0.640835644475827
 30
0.0
 10
27.75799312618537
 20
-0.4929511251327642
 30
0.0
 10
27.24183361669009
 20
-0.1962776677648007
 30
0.0
 10
26.98379236973616
 20
-0.0474910703066731
 30
0.0
 10
26.47084825581434
 20
0.2492108134456622
 30
0.0
 10
26.21507710120101
 20
0.3972944725675154
 30
0.0
 10
25.69966819184444
 20
0.6927597210528288
 30
0.0
 10
25.44120292964845
 20
0.8399135557514141
 30
0.0
 10
24.92582889373479
 20
1.131311304490204
 30
0.0
 10
24.67011663480469
 20
1.275333523033764
 30
0.0
 10
23.90059452118883
 20
1.702229769138054
 30
0.0
 10
23.38136686048545
 20
1.980411679803138
 30
0.0
 10
22.61161959722004
 20
2.378191637692255
 30
0.0
 10
22.35602590543343
 20
2.507653958997065
 30
0.0
 10
21.84072998825186
 20
2.760284416615654
 30
0.0
 10
21.5822660872379
 20
2.883235544500483
 30
0.0
 10
20.80904363151307
 20
3.239796237993093
 30
0.0
 10
20.29816480501444
 20
3.460906365735206
 30
0.0
 10
19.52393366748378
 20
3.764498759937989
 30
0.0
 10
19.26578428695329
 20
3.860836113763627
 30
0.0
 10
18.7524064866181
 20
4.042698991986691
 30
0.0
 10
18.49696448117067
 20
4.128272293148297
 30
0.0
 10
17.72420191161315
 20
4.368972306775474
 30
0.0
 10
17.20789879819565
 20
4.507142003468688
 30
0.0
 10
16.18278895615336
 20
4.73389521050414
 30
0.0
 10
15.66358297757513
 20
4.823160241754803
 30
0.0
 10
15.15
 20
4.886153281885016
 30
0.0
  0
SPLINE
  5
C1
330
1F
100
AcDbEntity
  8
0
  6
Continuous
 62
     1
370
    25
100
AcDbSpline
210
0.0
220
0.0
230
1.0
 70
     8
 71
     3
 72
    13
 73
     9
 74
     0
 42
0.000000001
 43
0.00000001
 40
0.0
 40
0.0
 40
0.0
 40
0.0
 40
0.1271132512765991
 40
0.3130554331117643
 40
0.499032667690407
 40
0.684956305323376
 40
0.8424788224603323
 40
1.0
 40
1.0
 40
1.0
 40
1.0
 10
27.72434552120462
 20
-0.4715990114745728
 30
0.0
 10
27.19157190108242
 20
-0.2577222344232915
 30
0.0
 10
25.87945318235857
 20
0.2690150364741548
 30
0.0
 10
23.78762456411989
 20
1.110247979576235
 30
0.0
 10
21.44929141326459
 20
1.967213266523213
 30
0.0
 10
19.2300455302879
 20
2.642432843160386
 30
0.0
 10
17.13055736910141
 20
3.133624779979928
 30
0.0
 10
15.81018391824725
 20
3.302468784279567
 30
0.0
 10
15.15000000000013
 20
3.386890427458592
 30
0.0
  0
SPLINE
  5
C2
330
1F
100
AcDbEntity
  8
0
  6
Continuous
 62
     4
370
    25
100
AcDbSpline
210
0.0
220
0.0
230
1.0
 70
    24
 71
     3
 72
    10
 73
     6
 74
     0
 42
0.000000001
 43
0.00000001
 40
0.0
 40
0.0
 40
0.0
 40
0.0
 40
0.4999999999999996
 40
0.4999999999999996
 40
1.0
 40
1.0
 40
1.0
 40
1.0
 10
15.15
 20
4.886153281885012
 30
0.0
 10
15.15
 20
4.659995917212862
 30
0.0
 10
15.15
 20
4.403142916713863
 30
0.0
 10
15.15
 20
3.883974388573372
 30
0.0
 10
15.15000000000002
 20
3.623083926865792
 30
0.0
 10
15.15
 20
3.386890427458605
 30
0.0
  0
LINE
  5
C3
330
1F
100
AcDbEntity
  8
0
  6
Continuous
 62
     4
370
    25
100
AcDbLine
 10
15.15
 20
4.886153281885016
 30
0.0
 11
15.15
 21
4.999999999999997
 31
0.0
  0
SPLINE
  5
C4
330
1F
100
AcDbEntity
  8
0
  6
Continuous
 62
     1
370
    25
100
AcDbSpline
210
0.0
220
0.0
230
1.0
 70
     8
 71
     3
 72
    16
 73
    12
 74
     0
 42
0.000000001
 43
0.00000001
 40
0.0
 40
0.0
 40
0.0
 40
0.0
 40
0.1200596910996849
 40
0.2400852639033292
 40
0.3600849503023988
 40
0.4800670423706976
 40
0.6000398731790658
 40
0.7200117974083776
 40
0.8399911718560149
 40
0.959986335931906
 40
1.0
 40
1.0
 40
1.0
 40
1.0
 10
40.14999999999999
 20
0.0000000000000047
 30
0.0
 10
39.56532333214892
 20
0.2699455461958324
 30
0.0
 10
38.39613614856212
 20
0.8097599260624464
 30
0.0
 10
36.64265247968923
 20
1.586511292909652
 30
0.0
 10
34.88959099157958
 20
2.298331349156053
 30
0.0
 10
33.1368221112815
 20
2.916473542842844
 30
0.0
 10
31.38420570571357
 20
3.414696947424738
 30
0.0
 10
29.63160540765649
 20
3.7764964609874
 30
0.0
 10
27.87887812845969
 20
3.972848868936734
 30
0.0
 10
26.5154875077898
 20
4.03202122793588
 30
0.0
 10
25.73630206441225
 20
3.970430056638536
 30
0.0
 10
25.54144991194225
 20
3.955027853732365
 30
0.0
  0
SPLINE
  5
C5
330
1F
100
AcDbEntity
  8
0
  6
Continuous
 62
     1
370
    25
100
AcDbSpline
210
0.0
220
0.0
230
1.0
 70
    24
 71
     3
 72
    14
 73
    10
 74
     0
 42
0.000000001
 43
0.00000001
 40
0.0
 40
0.0
 40
0.0
 40
0.0
 40
0.2500000000000001
 40
0.2500000000000001
 40
0.5000000000000002
 40
0.5000000000000002
 40
0.7500000000000002
 40
0.7500000000000002
 40
1.0
 40
1.0
 40
1.0
 40
1.0
 10
40.14999999999999
 20
-3.944861321841076
 30
0.0
 10
40.14999999999999
 20
-3.731412078843
 30
0.0
 10
40.14999999999999
 20
-3.478744843765186
 30
0.0
 10
40.14999999999999
 20
-2.904948010978884
 30
0.0
 10
40.15000000000001
 20
-2.583899280486886
 30
0.0
 10
40.15000000000002
 20
-1.894437025549264
 30
0.0
 10
40.14999999999999
 20
-1.526222596873481
 30
0.0
 10
40.14999999999999
 20
-0.7704042963972014
 30
0.0
 10
40.14999999999999
 20
-0.3830246231221834
 30
0.0
 10
40.14999999999999
 20
0.0000000000000047
 30
0.0
  0
LINE
  5
C6
330
1F
100
AcDbEntity
  8
0
  6
Continuous
 62
     1
370
    25
100
AcDbLine
 10
40.14999999999999
 20
3.500000000000004
 30
0.0
 11
38.29833923048744
 21
3.399600661895922
 31
0.0
  0
SPLINE
  5
C7
330
1F
100
AcDbEntity
  8
0
  6
Continuous
 62
     1
370
    25
100
AcDbSpline
210
0.0
220
0.0
230
1.0
 70
    24
 71
     3
 72
    14
 73
    10
 74
     0
 42
0.000000001
 43
0.00000001
 40
0.0
 40
0.0
 40
0.0
 40
0.0
 40
0.25
 40
0.25
 40
0.5
 40
0.5
 40
0.75
 40
0.75
 40
1.0
 40
1.0
 40
1.0
 40
1.0
 10
40.14999999999999
 20
0.000000000000004
 30
0.0
 10
40.14999999999999
 20
0.4164217585069829
 30
0.0
 10
40.14999999999999
 20
0.8277178818772734
 30
0.0
 10
40.14999999999999
 20
1.596862749788779
 30
0.0
 10
40.14999999999999
 20
1.954233651873837
 30
0.0
 10
40.14999999999999
 20
2.576284560759137
 30
0.0
 10
40.14999999999999
 20
2.840633112828285
 30
0.0
 10
40.14999999999999
 20
3.255332771056786
 30
0.0
 10
40.14999999999999
 20
3.405703872181956
 30
0.0
 10
40.14999999999999
 20
3.500000000000004
 30
0.0
  0
SPLINE
  5
C8
330
1F
100
AcDbEntity
  8
0
  6
Continuous
 62
     1
370
    25
100
AcDbSpline
210
0.0
220
0.0
230
1.0
 70
     8
 71
     3
 72
     9
 73
     5
 74
     0
 42
0.000000001
 43
0.00000001
 40
0.0
 40
0.0
 40
0.0
 40
0.0
 40
0.3124245205776613
 40
0.9999999999999999
 40
0.9999999999999999
 40
0.9999999999999999
 40
0.9999999999999999
 10
18.03047917798611
 20
-4.132985343340803
 30
0.0
 10
17.73050142888051
 20
-4.169781717519767
 30
0.0
 10
16.77034072014052
 20
-4.28755856202265
 30
0.0
 10
15.81018175842446
 20
-4.24523605638892
 30
0.0
 10
15.15000000000089
 20
-4.216136139287454
 30
0.0
  0
SPLINE
  5
C9
330
1F
100
AcDbEntity
  8
0
  6
Continuous
 62
     1
370
    25
100
AcDbSpline
210
0.0
220
0.0
230
1.0
 70
     8
 71
     3
 72
    15
 73
    11
 74
     0
 42
0.000000001
 43
0.00000001
 40
0.0
 40
0.0
 40
0.0
 40
0.0
 40
0.1166246392412203
 40
0.2382843083450293
 40
0.359968403875146
 40
0.481685286784688
 40
0.6034169584935803
 40
0.7251142550029027
 40
0.8625576967623982
 40
1.0
 40
1.0
 40
1.0
 40
1.0
 10
29.55932275123927
 20
-3.75732606322214
 30
0.0
 10
28.99920105964153
 20
-3.833125904156183
 30
0.0
 10
27.85477556996989
 20
-3.987998088860424
 30
0.0
 10
26.12589464927906
 20
-4.020593007127741
 30
0.0
 10
24.37251177232229
 20
-3.901663574324386
 30
0.0
 10
22.61871671765029
 20
-3.620022827630793
 30
0.0
 10
20.86479254880922
 20
-3.191656119970662
 30
0.0
 10
19.0354949391534
 20
-2.607639283299089
 30
0.0
 10
17.13053221833197
 20
-1.878606087479392
 30
0.0
 10
15.81017558322611
 20
-1.298654258966128
 30
0.0
 10
15.15000000000002
 20
-1.00867954573186
 30
0.0
  0
SPLINE
  5
CA
330
1F
100
AcDbEntity
  8
0
  6
Continuous
 62
     4
370
    25
100
AcDbSpline
210
0.0
220
0.0
230
1.0
 70
    24
 71
     3
 72
    14
 73
    10
 74
     0
 42
0.000000001
 43
0.00000001
 40
0.0
 40
0.0
 40
0.0
 40
0.0
 40
0.2500000000000001
 40
0.2500000000000001
 40
0.5000000000000001
 40
0.5000000000000001
 40
0.7500000000000001
 40
0.7500000000000001
 40
1.0
 40
1.0
 40
1.0
 40
1.0
 10
15.15000000000008
 20
-1.008679545731889
 30
0.0
 10
15.15000000000009
 20
-1.368087456507727
 30
0.0
 10
15.15000000000008
 20
-1.721171881810567
 30
0.0
 10
15.15000000000009
 20
-2.387209537993545
 30
0.0
 10
15.15000000000008
 20
-2.699939923777393
 30
0.0
 10
15.15000000000008
 20
-3.260522432309087
 30
0.0
 10
15.15000000000008
 20
-3.508212675845568
 30
0.0
 10
15.15000000000008
 20
-3.923247959403832
 30
0.0
 10
15.15000000000008
 20
-4.090567804085063
 30
0.0
 10
15.15000000000008
 20
-4.216136139287402
 30
0.0
  0
SPLINE
  5
CB
330
1F
100
AcDbEntity
  8
0
  6
Continuous
 62
     4
370
    25
100
AcDbSpline
210
0.0
220
0.0
230
1.0
 70
    24
 71
     3
 72
    14
 73
    10
 74
     0
 42
0.000000001
 43
0.00000001
 40
0.0
 40
0.0
 40
0.0
 40
0.0
 40
0.25
 40
0.25
 40
0.5
 40
0.5
 40
0.75
 40
0.75
 40
1.0
 40
1.0
 40
1.0
 40
1.0
 10
15.15
 20
3.386890427458605
 30
0.0
 10
15.15
 20
3.186510421603196
 30
0.0
 10
15.15
 20
2.931277883596204
 30
0.0
 10
15.15
 20
2.320287617220861
 30
0.0
 10
15.15
 20
1.964631438127622
 30
0.0
 10
15.15
 20
1.183411924729891
 30
0.0
 10
15.15
 20
0.7582648568435333
 30
0.0
 10
15.15
 20
-0.1175081487888072
 30
0.0
 10
15.15
 20
-0.5676606356153768
 30
0.0
 10
15.15
 20
-1.008679545731852
 30
0.0
  0
LINE
  5
CC
330
1F
100
AcDbEntity
  8
0
  6
Continuous
 62
     1
370
    25
100
AcDbLine
 10
40.14999999999999
 20
-4.42132023145889
 30
0.0
 11
40.14999999999999
 21
-4.692878873995655
 31
0.0
  0
SPLINE
  5
CD
330
1F
100
AcDbEntity
  8
0
  6
Continuous
 62
     1
370
    25
100
AcDbSpline
210
0.0
220
0.0
230
1.0
 70
     8
 71
     3
 72
    11
 73
     7
 74
     0
 42
0.000000001
 43
0.00000001
 40
0.0
 40
0.0
 40
0.0
 40
0.0
 40
0.1345101467802628
 40
0.4230198399357926
 40
0.7115293310982935
 40
1.0
 40
1.0
 40
1.0
 40
1.0
 10
21.42994566161051
 20
-3.93164582551424
 30
0.0
 10
21.14837910647518
 20
-4.035816624220988
 30
0.0
 10
20.26288279310637
 20
-4.363422501173151
 30
0.0
 10
18.77339540369915
 20
-4.718634184664618
 30
0.0
 10
16.96162139945311
 20
-4.996352768594033
 30
0.0
 10
15.75384671133924
 20
-4.991523904833838
 30
0.0
 10
15.15000000000001
 20
-4.989109635409422
 30
0.0
  0
SPLINE
  5
CE
330
1F
100
AcDbEntity
  8
0
  6
Continuous
 62
     4
370
    25
100
AcDbSpline
210
0.0
220
0.0
230
1.0
 70
    24
 71
     3
 72
     8
 73
     4
 74
     0
 42
0.000000001
 43
0.00000001
 40
0.0
 40
0.0
 40
0.0
 40
0.0
 40
1.0
 40
1.0
 40
1.0
 40
1.0
 10
15.15
 20
-4.216136139287397
 30
0.0
 10
15.15
 20
-4.477870431234842
 30
0.0
 10
15.15
 20
-4.737202326635238
 30
0.0
 10
15.15
 20
-4.989109635397114
 30
0.0
  0
SPLINE
  5
CF
330
1F
100
AcDbEntity
  8
0
  6
Continuous
 62
     1
370
    25
100
AcDbSpline
210
0.0
220
0.0
230
1.0
 70
     8
 71
     3
 72
    11
 73
     7
 74
     0
 42
0.000000001
 43
0.00000001
 40
0.0
 40
0.0
 40
0.0
 40
0.0
 40
0.1699816970231432
 40
0.4466790025796732
 40
0.723357320409949
 40
1.0
 40
1.0
 40
1.0
 40
1.0
 10
33.30178325400003
 20
3.349920956073513
 30
0.0
 10
33.67280435833855
 20
3.509932816355335
 30
0.0
 10
34.64777601543044
 20
3.930413017478817
 30
0.0
 10
36.22672791912433
 20
4.427446876190672
 30
0.0
 10
38.03845251057682
 20
4.844188904443179
 30
0.0
 10
39.24617676585092
 20
4.938482611283792
 30
0.0
 10
39.84999999999999
 20
4.985626428074554
 30
0.0
  0
SPLINE
  5
D1
330
1F
100
AcDbEntity
  8
0
  6
Continuous
 62
     1
370
    25
100
AcDbSpline
210
0.0
220
0.0
230
1.0
 70
    24
 71
     3
 72
    10
 73
     6
 74
     0
 42
0.000000001
 43
0.00000001
 40
0.0
 40
0.0
 40
0.0
 40
0.0
 40
0.5000000000000006
 40
0.5000000000000006
 40
1.0
 40
1.0
 40
1.0
 40
1.0
 10
40.14999999999999
 20
3.500000000000004
 30
0.0
 10
40.15000000000001
 20
3.670373008140534
 30
0.0
 10
40.14999999999999
 20
3.86262173741982
 30
0.0
 10
40.14999999999998
 20
4.269377195030156
 30
0.0
 10
40.14999999999999
 20
4.483496449159428
 30
0.0
 10
40.15000000000001
 20
4.692878873993921
 30
0.0
  0
LINE
  5
D2
330
1F
100
AcDbEntity
  8
중심선
100
AcDbLine
 10
-62.84999999999999
 20
-0.0000000000000046
 30
0.0
 11
43.15000000000001
 21
0.0000000000000043
 31
0.0
  0
CIRCLE
  5
D3
330
1F
100
AcDbEntity
  8
외형선
100
AcDbCircle
 10
0.0
 20
0.0
 30
0.0
 40
3.000000000000005
  0
INSERT
  5
D4
330
1F
100
AcDbEntity
  8
0
  6
Continuous
 62
     7
100
AcDbBlockReference
 66
     1
  2
블럭10
 10
-30.87358523345418
 20
-52.04717430164393
 30
0.0
  0
ATTRIB
  5
D5
330
D4
100
AcDbEntity
  8
FORMAT
 62
     2
100
AcDbText
 10
-51.73183276504672
 20
-49.97180738881174
 30
0.0
 40
4.233333333333333
  1
SEME6110003100E [ 2 FLUTE ]
 41
0.75
  7
SLDTEXTSTYLE0
 11
-51.73183276504672
 21
-52.08847405547841
 31
0.0
100
AcDbAttribute
  2
AUTOATTR0
 70
     0
 74
     1
  0
SEQEND
  5
D6
330
D4
100
AcDbEntity
  8
0
  6
Continuous
 62
     7
  0
HATCH
  5
D7
330
1F
100
AcDbEntity
  8
중심선
100
AcDbHatch
 10
0.0
 20
0.0
 30
0.0
210
0.0
220
0.0
230
1.0
  2
SOLID
 70
     1
 71
     0
 91
        1
 92
        0
 93
        4
 72
     1
 10
-25.15867592907333
 20
-35.8
 11
-28.60495117291061
 21
-35.8
 72
     1
 10
-28.60495117291061
 20
-35.8
 11
-30.73318103211463
 21
-38.3363255805726
 72
     1
 10
-30.73318103211463
 20
-38.3363255805726
 11
-27.2868727031642
 21
-38.33628615127011
 72
     1
 10
-27.2868727031642
 20
-38.33628615127011
 11
-25.15867592907333
 21
-35.8
 97
        0
 75
     0
 76
     1
 98
        1
 10
-7.934141545388286
 20
-0.0010749287238925
  0
HATCH
  5
D8
330
1F
100
AcDbEntity
  8
중심선
100
AcDbHatch
 10
0.0
 20
0.0
 30
0.0
210
0.0
220
0.0
230
1.0
  2
SOLID
 70
     1
 71
     0
 91
        1
 92
        0
 93
        4
 72
     1
 10
-20.14591193803738
 20
-35.8
 11
-23.59218718187466
 21
-35.8
 72
     1
 10
-23.59218718187466
 20
-35.8
 11
-28.12332519023204
 21
-41.20000000000002
 72
     1
 10
-28.12332519023205
 20
-41.20000000000002
 11
-24.67704994639476
 21
-41.20000000000002
 72
     1
 10
-24.67704994639476
 20
-41.20000000000002
 11
-20.14591193803738
 21
-35.8
 97
        0
 75
     0
 76
     1
 98
        1
 10
-7.934141545388286
 20
-0.0010749287238925
  0
HATCH
  5
D9
330
1F
100
AcDbEntity
  8
중심선
100
AcDbHatch
 10
0.0
 20
0.0
 30
0.0
210
0.0
220
0.0
230
1.0
  2
SOLID
 70
     1
 71
     0
 91
        1
 92
        0
 93
        4
 72
     1
 10
-15.13314794700148
 20
-35.80000000000003
 11
-18.5794231908386
 21
-35.8
 72
     1
 10
-18.5794231908386
 20
-35.8
 11
-25.62786009272785
 21
-44.20000000000002
 72
     1
 10
-25.62786009272785
 20
-44.20000000000002
 11
-22.18158484889057
 21
-44.20000000000002
 72
     1
 10
-22.18158484889057
 20
-44.20000000000002
 11
-15.13314794700148
 21
-35.80000000000003
 97
        0
 75
     0
 76
     1
 98
        1
 10
-7.934141545388286
 20
-0.0010749287238925
  0
HATCH
  5
DA
330
1F
100
AcDbEntity
  8
중심선
100
AcDbHatch
 10
0.0
 20
0.0
 30
0.0
210
0.0
220
0.0
230
1.0
  2
SOLID
 70
     1
 71
     0
 91
        1
 92
        0
 93
        6
 72
     3
 10
-10.33325751598928
 20
-40.00000000005127
 11
3.960054785062283
 21
1.540882976769353E-10
 40
0.3939339440162628
 50
17.09539180608436
 51
320.0019657685078
 73
     0
 72
     1
 10
-8.650257860288686
 20
-38.5878940046383
 11
-6.344955986587649
 21
-36.65356729459038
 72
     3
 10
-10.33325751604213
 20
-40.00000000000015
 11
6.600054785286829
 21
-1.278976924368180E-13
 40
0.636358354079598
 50
39.99873849337411
 51
368.4976242363724
 73
     1
 72
     1
 10
-3.907925024141519
 20
-39.03999999993002
 11
-11.6531902092062
 21
-39.03999999993
 72
     1
 10
-11.6531902092062
 20
-39.03999999993
 11
-11.65321525365214
 21
-40.95999999992991
 72
     1
 10
-11.65321525365214
 20
-40.95999999992991
 11
-7.211835484180102
 21
-40.95999999992988
 97
        0
 75
     0
 76
     1
 98
        1
 10
-7.934141545388286
 20
-0.0010749287238925
  0
DIMENSION
  5
DB
330
1F
100
AcDbEntity
  8
치수문자_일반주서
100
AcDbDimension
  2
_D
 10
-71.34645802161205
 20
-5.000000000000044
 30
0.0
 11
-71.34645802161207
 21
-0.0000000000000033
 31
0.0
 70
   160
  1
%%c<>
 71
     2
 42
9.999999999999991
 52
-270.0
  3
SLDDIMSTYLE0
100
AcDbAlignedDimension
 13
-58.85000000000001
 23
4.999999999999992
 33
0.0
 14
-58.85000000000001
 24
-4.999999999999999
 34
0.0
 50
90.0000000000002
100
AcDbRotatedDimension
  0
DIMENSION
  5
E9
330
1F
100
AcDbEntity
  8
치수문자_일반주서
100
AcDbDimension
  2
_D_1
 10
15.15
 20
23.19999999999965
 30
0.0
 11
27.64999999999999
 21
23.19999999999965
 31
0.0
 70
   160
  1
<>
 71
     2
 42
24.99999999999999
  3
SLDDIMSTYLE1
100
AcDbAlignedDimension
 13
40.14999999999999
 23
4.699999999999999
 33
0.0
 14
15.15
 24
4.999999999999997
 34
0.0
 50
0.0000000000000407
100
AcDbRotatedDimension
  0
DIMENSION
  5
F5
330
1F
100
AcDbEntity
  8
치수문자_일반주서
100
AcDbDimension
  2
_D_2
 10
-59.85000000000001
 20
45.25832450504429
 30
0.0
 11
-9.850000000000005
 21
45.25832450504429
 31
0.0
 70
   160
  1
<>
 71
     2
 42
100.0
  3
SLDDIMSTYLE1
100
AcDbAlignedDimension
 13
40.14999999999999
 23
4.699999999999999
 33
0.0
 14
-59.85000000000001
 24
3.999999999999993
 34
0.0
100
AcDbRotatedDimension
  0
DIMENSION
  5
FF
330
1F
100
AcDbEntity
  8
치수문자_일반주서
100
AcDbDimension
  2
_D_3
 10
0.1499999999999986
 20
30.31999999999866
 30
0.0
 11
20.15000000000001
 21
30.31999999999866
 31
0.0
 70
   160
  1
<>
 71
     2
 42
40.00000000000003
  3
SLDDIMSTYLE0
100
AcDbAlignedDimension
 13
40.15000000000002
 23
4.692878873993921
 33
0.0
 14
0.1499999999999986
 24
4.849999999999998
 34
0.0
 50
-0.0000000000022354
100
AcDbRotatedDimension
  0
DIMENSION
  5
10B
330
1F
100
AcDbEntity
  8
치수문자_일반주서
100
AcDbDimension
  2
_D_4
 10
54.95488247351267
 20
-4.999999999999849
 30
0.0
 11
54.95488247351265
 21
0.0000000000001385
 31
0.0
 70
   160
  1
%%c<>
 71
     2
 42
9.999999999999998
 52
-270.0
  3
SLDDIMSTYLE0
100
AcDbAlignedDimension
 13
15.15
 23
4.999999999999999
 33
0.0
 14
15.15
 24
-4.999999999999999
 34
0.0
 50
90.0000000000002
100
AcDbRotatedDimension
  0
INSERT
  5
11E
330
1F
100
AcDbEntity
  8
외형선
100
AcDbBlockReference
  2
SW_DOWELSYMBOL_0
 10
0.0
 20
0.0
 30
0.0
  0
ARC
  5
154
330
1F
100
AcDbEntity
  8
0
  6
Continuous
 62
     1
370
    25
100
AcDbCircle
 10
39.84999999999998
 20
4.685626428074555
 30
0.0
 40
0.2999999999999999
100
AcDbArc
 50
0.0000000000001696
 51
90.0
  0
ARC
  5
155
330
1F
100
AcDbEntity
  8
0
  6
Continuous
 62
     1
370
    25
100
AcDbCircle
 10
39.84999999999998
 20
-4.685626428074547
 30
0.0
 40
0.2999999999999999
100
AcDbArc
 50
270.0
 51
359.9999999999998
  0
DIMENSION
  5
157
330
1F
100
AcDbEntity
  8
치수문자_일반주서
100
AcDbDimension
  2
*D8
 10
39.84999999999998
 20
-4.685626428074547
 30
0.0
 11
49.74453685088182
 21
-19.99245375293168
 31
0.0
 70
   164
  1
<>
 71
     5
 42
0.2999999999999951
  3
SLDDIMSTYLE0
100
AcDbRadialDimension
 15
40.01286072864246
 25
-4.937571626611924
 35
0.0
 40
0.0
1001
ACAD_DSTYLE_DIMRADIAL_EXTENSION
1070
   387
1070
     1
1070
   388
1040
4.71238898038469
1070
   390
1040
6.283185307179584
1001
ACAD
1000
DSTYLE
1002
{
1070
    78
1070
     8
1002
}
  0
LINE
  5
186
330
1F
100
AcDbEntity
  8
0
  6
Continuous
 62
     4
370
    25
100
AcDbLine
 10
0.1499999999999986
 20
4.849999999999998
 30
0.0
 11
-0.0000000000000009
 21
4.999999999999997
 31
0.0
1001
PE_URL
1000

  0
LINE
  5
188
330
1F
100
AcDbEntity
  8
0
  6
Continuous
 62
     4
370
    25
100
AcDbLine
 10
-0.0000000000000009
 20
4.999999999999997
 30
0.0
 11
0.0000000000000004
 21
-4.999999999999997
 31
0.0
1001
PE_URL
1000

  0
LINE
  5
189
330
1F
100
AcDbEntity
  8
0
  6
Continuous
 62
     4
370
    25
100
AcDbLine
 10
0.0000000000000004
 20
-4.999999999999997
 30
0.0
 11
0.1499999999999986
 21
-4.849999999999999
 31
0.0
1001
PE_URL
1000

  0
ENDSEC
  0
SECTION
  2
OBJECTS
  0
DICTIONARY
  5
C
330
0
100
AcDbDictionary
281
     1
  3
ACAD_GROUP
350
D
  3
ACAD_IMAGE_VARS
350
142
  3
ACAD_LAYOUT
350
1A
  3
ACAD_MLINESTYLE
350
17
  3
ACAD_PLOTSETTINGS
350
19
  3
ACAD_PLOTSTYLENAME
350
E
  3
ACAD_SCALELIST
350
47
  3
APPDATA
350
140
  3
DWGPROPS
350
18A
  0
DICTIONARY
  5
D
102
{ACAD_REACTORS
330
C
102
}
330
C
100
AcDbDictionary
281
     1
  0
RASTERVARIABLES
  5
142
102
{ACAD_REACTORS
330
C
102
}
330
C
100
AcDbRasterVariables
 90
        0
 70
     1
 71
     1
 72
     1
  0
DICTIONARY
  5
1A
102
{ACAD_REACTORS
330
C
102
}
330
C
100
AcDbDictionary
281
     1
  3
Layout1
350
1E
  3
Layout2
350
26
  3
Model
350
22
  0
DICTIONARY
  5
17
102
{ACAD_REACTORS
330
C
102
}
330
C
100
AcDbDictionary
281
     1
  3
Standard
350
18
  0
DICTIONARY
  5
19
102
{ACAD_REACTORS
330
C
102
}
330
C
100
AcDbDictionary
281
     1
  0
ACDBDICTIONARYWDFLT
  5
E
102
{ACAD_REACTORS
330
C
102
}
330
C
100
AcDbDictionary
281
     1
  3
Normal
350
F
100
AcDbDictionaryWithDefault
340
F
  0
DICTIONARY
  5
47
102
{ACAD_REACTORS
330
C
102
}
330
C
100
AcDbDictionary
281
     1
  3
A0
350
48
  3
A1
350
49
  3
A2
350
4A
  3
A3
350
4B
  3
A4
350
4C
  3
A5
350
4D
  3
A6
350
4E
  3
A7
350
4F
  3
A8
350
50
  3
A9
350
51
  3
B0
350
52
  3
B1
350
53
  3
B2
350
54
  3
B3
350
55
  3
B4
350
56
  3
B5
350
57
  3
B6
350
58
  3
B7
350
59
  3
B8
350
5A
  3
B9
350
5B
  3
C0
350
5C
  3
C1
350
5D
  3
C2
350
5E
  3
C3
350
5F
  3
C4
350
60
  3
C5
350
61
  3
C6
350
62
  3
C7
350
63
  3
C8
350
64
  3
C9
350
65
  3
D0
350
66
  3
D1
350
67
  3
D2
350
68
  0
DICTIONARY
  5
140
102
{ACAD_REACTORS
330
C
102
}
330
C
100
AcDbDictionary
281
     1
  0
XRECORD
  5
18A
102
{ACAD_REACTORS
330
C
102
}
330
C
100
AcDbXrecord
280
     1
  1
DWGPROPS COOKIE
  2

  3

  4

  6

  7

  8
12014102
  9

300
=
301
=
302
=
303
=
304
=
305
=
306
=
307
=
308
=
309
=
 40
0.0
 41
2458263.432761933
 42
2459576.949234803
  1

 90
        0
  0
LAYOUT
  5
1E
102
{ACAD_REACTORS
330
1A
102
}
330
1A
100
AcDbPlotSettings
  1

  2
none_device
  4

  6

 40
0.0
 41
0.0
 42
0.0
 43
0.0
 44
0.0
 45
0.0
 46
0.0
 47
0.0
 48
0.0
 49
0.0
140
0.0
141
0.0
142
1.0
143
1.0
 70
   688
 72
     1
 73
     0
 74
     5
  7

 75
    16
147
1.0
148
0.0
149
0.0
100
AcDbLayout
  1
Layout1
 70
     1
 71
     1
 10
0.0
 20
0.0
 11
420.0
 21
297.0
 12
0.0
 22
0.0
 32
0.0
 14
1.000000000000000E+20
 24
1.000000000000000E+20
 34
1.000000000000000E+20
 15
-1.000000000000000E+20
 25
-1.000000000000000E+20
 35
-1.000000000000000E+20
146
0.0
 13
0.0
 23
0.0
 33
0.0
 16
1.0
 26
0.0
 36
0.0
 17
0.0
 27
1.0
 37
0.0
 76
     0
330
1B
  0
LAYOUT
  5
26
102
{ACAD_REACTORS
330
1A
102
}
330
1A
100
AcDbPlotSettings
  1

  2
none_device
  4

  6

 40
0.0
 41
0.0
 42
0.0
 43
0.0
 44
0.0
 45
0.0
 46
0.0
 47
0.0
 48
0.0
 49
0.0
140
0.0
141
0.0
142
1.0
143
1.0
 70
   688
 72
     1
 73
     0
 74
     5
  7

 75
    16
147
1.0
148
0.0
149
0.0
100
AcDbLayout
  1
Layout2
 70
     1
 71
     2
 10
0.0
 20
0.0
 11
0.0
 21
0.0
 12
0.0
 22
0.0
 32
0.0
 14
0.0
 24
0.0
 34
0.0
 15
0.0
 25
0.0
 35
0.0
146
0.0
 13
0.0
 23
0.0
 33
0.0
 16
1.0
 26
0.0
 36
0.0
 17
0.0
 27
1.0
 37
0.0
 76
     0
330
23
  0
LAYOUT
  5
22
102
{ACAD_REACTORS
330
1A
102
}
330
1A
100
AcDbPlotSettings
  1

  2
none_device
  4
ANSI_A_(11.00_x_8.50_Inches)
  6

 40
6.35
 41
19.05
 42
6.35000508
 43
19.05000254
 44
279.4
 45
215.9
 46
119.2753998439486
 47
89.79386223850179
 48
0.0
 49
0.0
140
0.0
141
0.0
142
0.0745928350685928
143
1.0
 70
  1696
 72
     0
 73
     0
 74
     0
  7

 75
     0
147
0.0235690232323232
148
0.0
149
0.0
100
AcDbLayout
  1
Model
 70
     1
 71
     0
 10
0.0
 20
0.0
 11
420.0
 21
297.0
 12
0.0
 22
0.0
 32
0.0
 14
-75.72145802161208
 24
-49.97180738881174
 34
0.0
 15
55.505215806846
 25
49.63332450504429
 35
0.0
146
0.0
 13
0.0
 23
0.0
 33
0.0
 16
1.0
 26
0.0
 36
0.0
 17
0.0
 27
1.0
 37
0.0
 76
     0
330
1F
331
29
  0
MLINESTYLE
  5
18
102
{ACAD_REACTORS
330
17
102
}
330
17
100
AcDbMlineStyle
  2
Standard
 70
     0
  3

 62
   256
 51
90.0
 52
90.0
 71
     2
 49
0.5
 62
   256
  6
BYLAYER
 49
-0.5
 62
   256
  6
BYLAYER
  0
ACDBPLACEHOLDER
  5
F
102
{ACAD_REACTORS
330
E
102
}
330
E
  0
SCALE
  5
48
102
{ACAD_REACTORS
330
47
102
}
330
47
100
AcDbScale
 70
     0
300
1:1
140
1.0
141
1.0
290
     1
  0
SCALE
  5
49
102
{ACAD_REACTORS
330
47
102
}
330
47
100
AcDbScale
 70
     0
300
1:2
140
1.0
141
2.0
290
     0
  0
SCALE
  5
4A
102
{ACAD_REACTORS
330
47
102
}
330
47
100
AcDbScale
 70
     0
300
1:4
140
1.0
141
4.0
290
     0
  0
SCALE
  5
4B
102
{ACAD_REACTORS
330
47
102
}
330
47
100
AcDbScale
 70
     0
300
1:5
140
1.0
141
5.0
290
     0
  0
SCALE
  5
4C
102
{ACAD_REACTORS
330
47
102
}
330
47
100
AcDbScale
 70
     0
300
1:8
140
1.0
141
8.0
290
     0
  0
SCALE
  5
4D
102
{ACAD_REACTORS
330
47
102
}
330
47
100
AcDbScale
 70
     0
300
1:10
140
1.0
141
10.0
290
     0
  0
SCALE
  5
4E
102
{ACAD_REACTORS
330
47
102
}
330
47
100
AcDbScale
 70
     0
300
1:16
140
1.0
141
16.0
290
     0
  0
SCALE
  5
4F
102
{ACAD_REACTORS
330
47
102
}
330
47
100
AcDbScale
 70
     0
300
1:20
140
1.0
141
20.0
290
     0
  0
SCALE
  5
50
102
{ACAD_REACTORS
330
47
102
}
330
47
100
AcDbScale
 70
     0
300
1:30
140
1.0
141
30.0
290
     0
  0
SCALE
  5
51
102
{ACAD_REACTORS
330
47
102
}
330
47
100
AcDbScale
 70
     0
300
1:40
140
1.0
141
40.0
290
     0
  0
SCALE
  5
52
102
{ACAD_REACTORS
330
47
102
}
330
47
100
AcDbScale
 70
     0
300
1:50
140
1.0
141
50.0
290
     0
  0
SCALE
  5
53
102
{ACAD_REACTORS
330
47
102
}
330
47
100
AcDbScale
 70
     0
300
1:100
140
1.0
141
100.0
290
     0
  0
SCALE
  5
54
102
{ACAD_REACTORS
330
47
102
}
330
47
100
AcDbScale
 70
     0
300
2:1
140
2.0
141
1.0
290
     0
  0
SCALE
  5
55
102
{ACAD_REACTORS
330
47
102
}
330
47
100
AcDbScale
 70
     0
300
4:1
140
4.0
141
1.0
290
     0
  0
SCALE
  5
56
102
{ACAD_REACTORS
330
47
102
}
330
47
100
AcDbScale
 70
     0
300
8:1
140
8.0
141
1.0
290
     0
  0
SCALE
  5
57
102
{ACAD_REACTORS
330
47
102
}
330
47
100
AcDbScale
 70
     0
300
10:1
140
10.0
141
1.0
290
     0
  0
SCALE
  5
58
102
{ACAD_REACTORS
330
47
102
}
330
47
100
AcDbScale
 70
     0
300
100:1
140
100.0
141
1.0
290
     0
  0
SCALE
  5
59
102
{ACAD_REACTORS
330
47
102
}
330
47
100
AcDbScale
 70
     0
300
1/128" = 1'-0"
140
0.0078125
141
12.0
290
     0
  0
SCALE
  5
5A
102
{ACAD_REACTORS
330
47
102
}
330
47
100
AcDbScale
 70
     0
300
1/64" = 1'-0"
140
0.015625
141
12.0
290
     0
  0
SCALE
  5
5B
102
{ACAD_REACTORS
330
47
102
}
330
47
100
AcDbScale
 70
     0
300
1/32" = 1'-0"
140
0.03125
141
12.0
290
     0
  0
SCALE
  5
5C
102
{ACAD_REACTORS
330
47
102
}
330
47
100
AcDbScale
 70
     0
300
1/16" = 1'-0"
140
0.0625
141
12.0
290
     0
  0
SCALE
  5
5D
102
{ACAD_REACTORS
330
47
102
}
330
47
100
AcDbScale
 70
     0
300
3/32" = 1'-0"
140
0.09375
141
12.0
290
     0
  0
SCALE
  5
5E
102
{ACAD_REACTORS
330
47
102
}
330
47
100
AcDbScale
 70
     0
300
1/8" = 1'-0"
140
0.125
141
12.0
290
     0
  0
SCALE
  5
5F
102
{ACAD_REACTORS
330
47
102
}
330
47
100
AcDbScale
 70
     0
300
3/16" = 1'-0"
140
0.1875
141
12.0
290
     0
  0
SCALE
  5
60
102
{ACAD_REACTORS
330
47
102
}
330
47
100
AcDbScale
 70
     0
300
1/4" = 1'-0"
140
0.25
141
12.0
290
     0
  0
SCALE
  5
61
102
{ACAD_REACTORS
330
47
102
}
330
47
100
AcDbScale
 70
     0
300
3/8" = 1'-0"
140
0.375
141
12.0
290
     0
  0
SCALE
  5
62
102
{ACAD_REACTORS
330
47
102
}
330
47
100
AcDbScale
 70
     0
300
1/2" = 1'-0"
140
0.5
141
12.0
290
     0
  0
SCALE
  5
63
102
{ACAD_REACTORS
330
47
102
}
330
47
100
AcDbScale
 70
     0
300
3/4" = 1'-0"
140
0.75
141
12.0
290
     0
  0
SCALE
  5
64
102
{ACAD_REACTORS
330
47
102
}
330
47
100
AcDbScale
 70
     0
300
1" = 1'-0"
140
1.0
141
12.0
290
     0
  0
SCALE
  5
65
102
{ACAD_REACTORS
330
47
102
}
330
47
100
AcDbScale
 70
     0
300
1-1/2" = 1'-0"
140
1.5
141
12.0
290
     0
  0
SCALE
  5
66
102
{ACAD_REACTORS
330
47
102
}
330
47
100
AcDbScale
 70
     0
300
3" = 1'-0"
140
3.0
141
12.0
290
     0
  0
SCALE
  5
67
102
{ACAD_REACTORS
330
47
102
}
330
47
100
AcDbScale
 70
     0
300
6" = 1'-0"
140
6.0
141
12.0
290
     0
  0
SCALE
  5
68
102
{ACAD_REACTORS
330
47
102
}
330
47
100
AcDbScale
 70
     0
300
1'-0" = 1'-0"
140
12.0
141
12.0
290
     0
  0
ENDSEC
  0
EOF
