  0
SECTION
  2
HEADER
  9
$ACADVER
  1
AC1015
  9
$ACADMAINTVER
 70
     6
  9
$DWGCODEPAGE
  3
ANSI_949
  9
$INSBASE
 10
0.0
 20
0.0
 30
0.0
  9
$EXTMIN
 10
-60.72145802161211
 20
-49.97073246008785
 30
0.0
  9
$EXTMAX
 10
49.30306174945417
 20
48.73332450504429
 30
0.0
  9
$LIMMIN
 10
0.0
 20
0.0
  9
$LIMMAX
 10
420.0
 20
297.0
  9
$ORTHOMODE
 70
     1
  9
$REGENMODE
 70
     1
  9
$FILLMODE
 70
     1
  9
$QTEXTMODE
 70
     0
  9
$MIRRTEXT
 70
     1
  9
$LTSCALE
 40
1.0
  9
$ATTMODE
 70
     1
  9
$TEXTSIZE
 40
3.5
  9
$TRACEWID
 40
1.0
  9
$TEXTSTYLE
  7
Standard
  9
$CLAYER
  8
0
  9
$CELTYPE
  6
ByLayer
  9
$CECOLOR
 62
   256
  9
$CELTSCALE
 40
1.0
  9
$DISPSILH
 70
     0
  9
$DIMSCALE
 40
1.0
  9
$DIMASZ
 40
3.302
  9
$DIMEXO
 40
1.0
  9
$DIMDLI
 40
3.75
  9
$DIMRND
 40
0.0
  9
$DIMDLE
 40
0.0
  9
$DIMEXE
 40
1.0
  9
$DIMTP
 40
0.0
  9
$DIMTM
 40
0.0
  9
$DIMTXT
 40
3.5
  9
$DIMCEN
 40
2.5
  9
$DIMTSZ
 40
0.0
  9
$DIMTOL
 70
     0
  9
$DIMLIM
 70
     0
  9
$DIMTIH
 70
     1
  9
$DIMTOH
 70
     1
  9
$DIMSE1
 70
     0
  9
$DIMSE2
 70
     0
  9
$DIMTAD
 70
     1
  9
$DIMZIN
 70
     0
  9
$DIMBLK
  1

  9
$DIMASO
 70
     1
  9
$DIMSHO
 70
     1
  9
$DIMPOST
  1

  9
$DIMAPOST
  1

  9
$DIMALT
 70
     0
  9
$DIMALTD
 70
     3
  9
$DIMALTF
 40
0.0393700787401575
  9
$DIMLFAC
 40
1.0
  9
$DIMTOFL
 70
     1
  9
$DIMTVP
 40
0.0
  9
$DIMTIX
 70
     0
  9
$DIMSOXD
 70
     0
  9
$DIMSAH
 70
     0
  9
$DIMBLK1
  1

  9
$DIMBLK2
  1

  9
$DIMSTYLE
  2
ISO-25
  9
$DIMCLRD
 70
     0
  9
$DIMCLRE
 70
     0
  9
$DIMCLRT
 70
     0
  9
$DIMTFAC
 40
1.0
  9
$DIMGAP
 40
1.524
  9
$DIMJUST
 70
     0
  9
$DIMSD1
 70
     0
  9
$DIMSD2
 70
     0
  9
$DIMTOLJ
 70
     0
  9
$DIMTZIN
 70
     0
  9
$DIMALTZ
 70
     0
  9
$DIMALTTZ
 70
     0
  9
$DIMUPT
 70
     0
  9
$DIMDEC
 70
     2
  9
$DIMTDEC
 70
     2
  9
$DIMALTU
 70
     2
  9
$DIMALTTD
 70
     3
  9
$DIMTXSTY
  7
Standard
  9
$DIMAUNIT
 70
     0
  9
$DIMADEC
 70
     2
  9
$DIMALTRND
 40
0.0
  9
$DIMAZIN
 70
     0
  9
$DIMDSEP
 70
    44
  9
$DIMATFIT
 70
     3
  9
$DIMFRAC
 70
     0
  9
$DIMLDRBLK
  1

  9
$DIMLUNIT
 70
     2
  9
$DIMLWD
 70
    -2
  9
$DIMLWE
 70
    -2
  9
$DIMTMOVE
 70
     0
  9
$LUNITS
 70
     2
  9
$LUPREC
 70
     2
  9
$SKETCHINC
 40
1.0
  9
$FILLETRAD
 40
10.0
  9
$AUNITS
 70
     0
  9
$AUPREC
 70
     2
  9
$MENU
  1
.
  9
$ELEVATION
 40
0.0
  9
$PELEVATION
 40
0.0
  9
$THICKNESS
 40
0.0
  9
$LIMCHECK
 70
     0
  9
$CHAMFERA
 40
0.0
  9
$CHAMFERB
 40
0.0
  9
$CHAMFERC
 40
0.0
  9
$CHAMFERD
 40
0.0
  9
$SKPOLY
 70
     0
  9
$TDCREATE
 40
2458263.807194792
  9
$TDUCREATE
 40
2458263.432194792
  9
$TDUPDATE
 40
2459577.33867434
  9
$TDUUPDATE
 40
2459576.96367434
  9
$TDINDWG
 40
0.0021641435
  9
$TDUSRTIMER
 40
0.0010887153
  9
$USRTIMER
 70
     1
  9
$ANGBASE
 50
0.0
  9
$ANGDIR
 70
     0
  9
$PDMODE
 70
     0
  9
$PDSIZE
 40
-1.0
  9
$PLINEWID
 40
0.0
  9
$SPLFRAME
 70
     0
  9
$SPLINETYPE
 70
     6
  9
$SPLINESEGS
 70
     8
  9
$HANDSEED
  5
2EA
  9
$SURFTAB1
 70
     6
  9
$SURFTAB2
 70
     6
  9
$SURFTYPE
 70
     6
  9
$SURFU
 70
     6
  9
$SURFV
 70
     6
  9
$UCSBASE
  2

  9
$UCSNAME
  2

  9
$UCSORG
 10
0.0
 20
0.0
 30
0.0
  9
$UCSXDIR
 10
1.0
 20
0.0
 30
0.0
  9
$UCSYDIR
 10
0.0
 20
1.0
 30
0.0
  9
$UCSORTHOREF
  2

  9
$UCSORTHOVIEW
 70
     0
  9
$UCSORGTOP
 10
0.0
 20
0.0
 30
0.0
  9
$UCSORGBOTTOM
 10
0.0
 20
0.0
 30
0.0
  9
$UCSORGLEFT
 10
0.0
 20
0.0
 30
0.0
  9
$UCSORGRIGHT
 10
0.0
 20
0.0
 30
0.0
  9
$UCSORGFRONT
 10
0.0
 20
0.0
 30
0.0
  9
$UCSORGBACK
 10
0.0
 20
0.0
 30
0.0
  9
$PUCSBASE
  2

  9
$PUCSNAME
  2

  9
$PUCSORG
 10
0.0
 20
0.0
 30
0.0
  9
$PUCSXDIR
 10
1.0
 20
0.0
 30
0.0
  9
$PUCSYDIR
 10
0.0
 20
1.0
 30
0.0
  9
$PUCSORTHOREF
  2

  9
$PUCSORTHOVIEW
 70
     0
  9
$PUCSORGTOP
 10
0.0
 20
0.0
 30
0.0
  9
$PUCSORGBOTTOM
 10
0.0
 20
0.0
 30
0.0
  9
$PUCSORGLEFT
 10
0.0
 20
0.0
 30
0.0
  9
$PUCSORGRIGHT
 10
0.0
 20
0.0
 30
0.0
  9
$PUCSORGFRONT
 10
0.0
 20
0.0
 30
0.0
  9
$PUCSORGBACK
 10
0.0
 20
0.0
 30
0.0
  9
$USERI1
 70
     0
  9
$USERI2
 70
     0
  9
$USERI3
 70
     0
  9
$USERI4
 70
     0
  9
$USERI5
 70
     0
  9
$USERR1
 40
0.0
  9
$USERR2
 40
0.0
  9
$USERR3
 40
0.0
  9
$USERR4
 40
0.0
  9
$USERR5
 40
0.0
  9
$WORLDVIEW
 70
     1
  9
$SHADEDGE
 70
     3
  9
$SHADEDIF
 70
    70
  9
$TILEMODE
 70
     1
  9
$MAXACTVP
 70
    64
  9
$PINSBASE
 10
0.0
 20
0.0
 30
0.0
  9
$PLIMCHECK
 70
     0
  9
$PEXTMIN
 10
1.000000000000000E+20
 20
1.000000000000000E+20
 30
1.000000000000000E+20
  9
$PEXTMAX
 10
-1.000000000000000E+20
 20
-1.000000000000000E+20
 30
-1.000000000000000E+20
  9
$PLIMMIN
 10
0.0
 20
0.0
  9
$PLIMMAX
 10
0.0
 20
0.0
  9
$UNITMODE
 70
     0
  9
$VISRETAIN
 70
     1
  9
$PLINEGEN
 70
     0
  9
$PSLTSCALE
 70
     1
  9
$TREEDEPTH
 70
  3020
  9
$CMLSTYLE
  2
Standard
  9
$CMLJUST
 70
     0
  9
$CMLSCALE
 40
20.0
  9
$PROXYGRAPHICS
 70
     1
  9
$MEASUREMENT
 70
     1
  9
$CELWEIGHT
370
    -1
  9
$ENDCAPS
280
     0
  9
$JOINSTYLE
280
     0
  9
$LWDISPLAY
290
     1
  9
$INSUNITS
 70
     4
  9
$HYPERLINKBASE
  1

  9
$STYLESHEET
  1

  9
$XEDIT
290
     1
  9
$CEPSNTYPE
380
     0
  9
$PSTYLEMODE
290
     1
  9
$FINGERPRINTGUID
  2
{5604E528-7126-4056-BE1C-03B220B89EF2}
  9
$VERSIONGUID
  2
{FAEB1C32-E019-11D5-929B-00C0DF256EC4}
  9
$EXTNAMES
290
     1
  9
$PSVPSCALE
 40
0.0
  9
$OLESTARTUP
290
     0
  0
ENDSEC
  0
SECTION
  2
CLASSES
  0
CLASS
  1
ACDBDICTIONARYWDFLT
  2
AcDbDictionaryWithDefault
  3
ObjectDBX Classes
 90
        0
280
     0
281
     0
  0
CLASS
  1
VISUALSTYLE
  2
AcDbVisualStyle
  3
ObjectDBX Classes
 90
     4095
280
     0
281
     0
  0
CLASS
  1
MATERIAL
  2
AcDbMaterial
  3
ObjectDBX Classes
 90
     1153
280
     0
281
     0
  0
CLASS
  1
SCALE
  2
AcDbScale
  3
ObjectDBX Classes
 90
     1153
280
     0
281
     0
  0
CLASS
  1
TABLESTYLE
  2
AcDbTableStyle
  3
ObjectDBX Classes
 90
     4095
280
     0
281
     0
  0
CLASS
  1
MLEADERSTYLE
  2
AcDbMLeaderStyle
  3
ACDB_MLEADERSTYLE_CLASS
 90
     4095
280
     0
281
     0
  0
CLASS
  1
SUN
  2
AcDbSun
  3
SCENEOE
 90
     1153
280
     0
281
     0
  0
CLASS
  1
ACDBPLACEHOLDER
  2
AcDbPlaceHolder
  3
ObjectDBX Classes
 90
        0
280
     0
281
     0
  0
CLASS
  1
LAYOUT
  2
AcDbLayout
  3
ObjectDBX Classes
 90
        0
280
     0
281
     0
  0
CLASS
  1
RASTERVARIABLES
  2
AcDbRasterVariables
  3
ISM
 90
        0
280
     0
281
     0
  0
CLASS
  1
DIMASSOC
  2
AcDbDimAssoc
  3
"AcDbDimAssoc|Product Desc:     AcDim ARX App For Dimension|Company:          Autodesk, Inc.|WEB Address:      www.autodesk.com"
 90
        0
280
     0
281
     0
  0
ENDSEC
  0
SECTION
  2
TABLES
  0
TABLE
  2
VPORT
  5
8
330
0
100
AcDbSymbolTable
 70
     1
  0
VPORT
  5
29
330
8
100
AcDbSymbolTableRecord
100
AcDbViewportTableRecord
  2
*Active
 70
     0
 10
0.0
 20
0.0
 11
1.0
 21
1.0
 12
-5.709198136078967
 22
-0.6187039775217826
 13
0.0
 23
0.0
 14
10.0
 24
10.0
 15
10.0
 25
10.0
 16
0.0
 26
0.0
 36
1.0
 17
0.0
 27
0.0
 37
0.0
 40
100.6781381044348
 41
2.070175438596491
 42
50.0
 43
0.0
 44
0.0
 50
0.0
 51
0.0
 71
    16
 72
  2000
 73
     1
 74
     3
 75
     0
 76
     0
 77
     0
 78
     0
281
     0
 65
     1
110
0.0
120
0.0
130
0.0
111
1.0
121
0.0
131
0.0
112
0.0
122
1.0
132
0.0
 79
     0
146
0.0
  0
ENDTAB
  0
TABLE
  2
LTYPE
  5
5
330
0
100
AcDbSymbolTable
 70
     6
  0
LTYPE
  5
14
330
5
100
AcDbSymbolTableRecord
100
AcDbLinetypeTableRecord
  2
ByBlock
 70
     0
  3

 72
    65
 73
     0
 40
0.0
  0
LTYPE
  5
15
330
5
100
AcDbSymbolTableRecord
100
AcDbLinetypeTableRecord
  2
ByLayer
 70
     0
  3

 72
    65
 73
     0
 40
0.0
  0
LTYPE
  5
16
330
5
100
AcDbSymbolTableRecord
100
AcDbLinetypeTableRecord
  2
Continuous
 70
     0
  3
Solid line
 72
    65
 73
     0
 40
0.0
  0
LTYPE
  5
6E
330
5
100
AcDbSymbolTableRecord
100
AcDbLinetypeTableRecord
  2
HIDDEN
 70
     0
  3
Hidden __ __ __ __ __ __ __ __ __ __ __ __ __ __
 72
    65
 73
     2
 40
1.905
 49
1.27
 74
     0
 49
-0.635
 74
     0
  0
LTYPE
  5
6F
330
5
100
AcDbSymbolTableRecord
100
AcDbLinetypeTableRecord
  2
PHANTOM
 70
     0
  3
Phantom ______  __  __  ______  __  __  ______
 72
    65
 73
     6
 40
12.7
 49
6.35
 74
     0
 49
-1.27
 74
     0
 49
1.27
 74
     0
 49
-1.27
 74
     0
 49
1.27
 74
     0
 49
-1.27
 74
     0
  0
LTYPE
  5
70
330
5
100
AcDbSymbolTableRecord
100
AcDbLinetypeTableRecord
  2
CENTER
 70
     0
  3
Center ____ _ ____ _ ____ _ ____ _ ____ _ ____
 72
    65
 73
     4
 40
10.16
 49
6.35
 74
     0
 49
-1.27
 74
     0
 49
1.27
 74
     0
 49
-1.27
 74
     0
  0
LTYPE
  5
71
330
5
100
AcDbSymbolTableRecord
100
AcDbLinetypeTableRecord
  2
CENTERX2
 70
     0
  3
Center (2x) ________  __  ________  __  _____
 72
    65
 73
     4
 40
20.32
 49
12.7
 74
     0
 49
-2.54
 74
     0
 49
2.54
 74
     0
 49
-2.54
 74
     0
  0
LTYPE
  5
72
330
5
100
AcDbSymbolTableRecord
100
AcDbLinetypeTableRecord
  2
DOT2
 70
     0
  3
Dot (.5x) ........................................
 72
    65
 73
     2
 40
0.635
 49
0.0
 74
     0
 49
-0.635
 74
     0
  0
ENDTAB
  0
TABLE
  2
LAYER
  5
2
330
0
100
AcDbSymbolTable
 70
    17
  0
LAYER
  5
10
330
2
100
AcDbSymbolTableRecord
100
AcDbLayerTableRecord
  2
0
 70
     0
 62
     7
  6
Continuous
370
    -3
390
F
  0
LAYER
  5
73
330
2
100
AcDbSymbolTableRecord
100
AcDbLayerTableRecord
  2
FORMAT
 70
     0
 62
     2
  6
Continuous
370
    -3
390
F
  0
LAYER
  5
74
330
2
100
AcDbSymbolTableRecord
100
AcDbLayerTableRecord
  2
외형선
 70
     0
 62
   100
  6
Continuous
370
    35
390
F
  0
LAYER
  5
75
330
2
100
AcDbSymbolTableRecord
100
AcDbLayerTableRecord
  2
숨은선
 70
     0
 62
     2
  6
HIDDEN
370
    25
390
F
  0
LAYER
  5
76
330
2
100
AcDbSymbolTableRecord
100
AcDbLayerTableRecord
  2
중심선
 70
     0
 62
     1
  6
CENTERX2
370
    -3
390
F
  0
LAYER
  5
77
330
2
100
AcDbSymbolTableRecord
100
AcDbLayerTableRecord
  2
파단선
 70
     0
 62
     4
  6
Continuous
370
    -3
390
F
  0
LAYER
  5
78
330
2
100
AcDbSymbolTableRecord
100
AcDbLayerTableRecord
  2
해칭선
 70
     0
 62
     4
  6
Continuous
370
    -3
390
F
  0
LAYER
  5
79
330
2
100
AcDbSymbolTableRecord
100
AcDbLayerTableRecord
  2
가는실선
 70
     0
 62
     4
  6
Continuous
370
    -3
390
F
  0
LAYER
  5
7A
330
2
100
AcDbSymbolTableRecord
100
AcDbLayerTableRecord
  2
치수_보조선
 70
     0
 62
     4
  6
Continuous
370
    -3
390
F
  0
LAYER
  5
7B
330
2
100
AcDbSymbolTableRecord
100
AcDbLayerTableRecord
  2
치수문자_일반주서
 70
     0
 62
     7
  6
Continuous
370
    25
390
F
  0
LAYER
  5
7C
330
2
100
AcDbSymbolTableRecord
100
AcDbLayerTableRecord
  2
개별주서
 70
     0
 62
   100
  6
Continuous
370
    35
390
F
  0
LAYER
  5
7D
330
2
100
AcDbSymbolTableRecord
100
AcDbLayerTableRecord
  2
중간선
 70
     0
 62
     2
  6
Continuous
370
    25
390
F
  0
LAYER
  5
7E
330
2
100
AcDbSymbolTableRecord
100
AcDbLayerTableRecord
  2
윤곽선
 70
     0
 62
     3
  6
Continuous
370
    50
390
F
  0
LAYER
  5
7F
330
2
100
AcDbSymbolTableRecord
100
AcDbLayerTableRecord
  2
중심마크
 70
     0
 62
   100
  6
Continuous
370
    35
390
F
  0
LAYER
  5
80
330
2
100
AcDbSymbolTableRecord
100
AcDbLayerTableRecord
  2
가상선
 70
     0
 62
     4
  6
PHANTOM
370
    -3
390
F
  0
LAYER
  5
81
330
2
100
AcDbSymbolTableRecord
100
AcDbLayerTableRecord
  2
특수지정선
 70
     0
 62
     5
  6
CENTERX2
370
    70
390
F
  0
LAYER
  5
13E
330
2
100
AcDbSymbolTableRecord
100
AcDbLayerTableRecord
  2
Defpoints
 70
     0
 62
     7
  6
Continuous
290
     0
370
    -3
390
F
  0
ENDTAB
  0
TABLE
  2
STYLE
  5
3
330
0
100
AcDbSymbolTable
 70
     2
  0
STYLE
  5
11
330
3
100
AcDbSymbolTableRecord
100
AcDbTextStyleTableRecord
  2
Standard
 70
     0
 40
0.0
 41
1.0
 50
0.0
 71
     0
 42
3.5
  3
txt
  4

  0
STYLE
  5
97
330
3
100
AcDbSymbolTableRecord
100
AcDbTextStyleTableRecord
  2
SLDTEXTSTYLE0
 70
     0
 40
0.0
 41
0.75
 50
0.0
 71
     0
 42
3.5
  3
TXT
  4

  0
ENDTAB
  0
TABLE
  2
VIEW
  5
6
330
0
100
AcDbSymbolTable
 70
     0
  0
ENDTAB
  0
TABLE
  2
UCS
  5
7
330
0
100
AcDbSymbolTable
 70
     0
  0
ENDTAB
  0
TABLE
  2
APPID
  5
9
330
0
100
AcDbSymbolTable
 70
     5
  0
APPID
  5
12
330
9
100
AcDbSymbolTableRecord
100
AcDbRegAppTableRecord
  2
ACAD
 70
     0
  0
APPID
  5
149
330
9
100
AcDbSymbolTableRecord
100
AcDbRegAppTableRecord
  2
ACAD_DSTYLE_DIMRADIAL_EXTENSION
 70
     0
  0
APPID
  5
2C1
330
9
100
AcDbSymbolTableRecord
100
AcDbRegAppTableRecord
  2
ACAD_DSTYLE_DIMFLIPARROW_SYMBOL
 70
     0
  0
APPID
  5
2C2
330
9
100
AcDbSymbolTableRecord
100
AcDbRegAppTableRecord
  2
ACAD_DSTYLE_DIMFLIPARROW_WHICH_SYMBOL
 70
     0
  0
APPID
  5
2E5
330
9
100
AcDbSymbolTableRecord
100
AcDbRegAppTableRecord
  2
PE_URL
 70
     0
  0
ENDTAB
  0
TABLE
  2
DIMSTYLE
  5
A
330
0
100
AcDbSymbolTable
 70
     3
100
AcDbDimStyleTable
  0
DIMSTYLE
105
27
102
{ACAD_REACTORS
330
2B3
102
}
330
A
100
AcDbSymbolTableRecord
100
AcDbDimStyleTableRecord
  2
ISO-25
 70
     0
 41
2.5
 42
0.625
 43
3.75
 44
1.25
 73
     0
 74
     0
 77
     1
 78
     8
140
2.5
141
2.5
143
0.03937007874016
147
0.625
171
     3
172
     1
178
     0
271
     2
272
     2
274
     3
278
    44
283
     0
284
     8
340
11
  0
DIMSTYLE
105
D6
102
{ACAD_REACTORS
330
25B
330
25E
330
260
102
}
330
A
100
AcDbSymbolTableRecord
100
AcDbDimStyleTableRecord
  2
SLDDIMSTYLE0
 70
     0
 41
3.302
 44
0.0
 45
0.000000001
 73
     0
 74
     0
 77
     1
 78
    12
 79
     3
140
3.5
147
0.875
172
     1
173
     1
178
     0
271
     2
272
     2
276
     2
284
    12
289
     0
340
97
  0
DIMSTYLE
105
E4
102
{ACAD_REACTORS
330
25C
330
25D
102
}
330
A
100
AcDbSymbolTableRecord
100
AcDbDimStyleTableRecord
  2
SLDDIMSTYLE1
 70
     0
 41
3.302
 44
0.0
 45
0.000000001
 73
     0
 74
     0
 77
     1
 78
    12
 79
     3
140
3.5
147
0.875
173
     1
178
     0
271
     2
272
     2
276
     2
284
    12
340
97
  0
ENDTAB
  0
TABLE
  2
BLOCK_RECORD
  5
1
330
0
100
AcDbSymbolTable
 70
    21
  0
BLOCK_RECORD
  5
1F
330
1
100
AcDbSymbolTableRecord
100
AcDbBlockTableRecord
  2
*Model_Space
340
22
  0
BLOCK_RECORD
  5
1B
330
1
100
AcDbSymbolTableRecord
100
AcDbBlockTableRecord
  2
*Paper_Space
340
1E
  0
BLOCK_RECORD
  5
23
330
1
100
AcDbSymbolTableRecord
100
AcDbBlockTableRecord
  2
*Paper_Space0
340
26
  0
BLOCK_RECORD
  5
82
330
1
100
AcDbSymbolTableRecord
100
AcDbBlockTableRecord
  2
블럭10
340
0
102
{BLKREFS
331
CE
102
}
  0
BLOCK_RECORD
  5
D7
330
1
100
AcDbSymbolTableRecord
100
AcDbBlockTableRecord
  2
_D
340
0
  0
BLOCK_RECORD
  5
E5
330
1
100
AcDbSymbolTableRecord
100
AcDbBlockTableRecord
  2
_D_1
340
0
  0
BLOCK_RECORD
  5
F0
330
1
100
AcDbSymbolTableRecord
100
AcDbBlockTableRecord
  2
_D_2
340
0
  0
BLOCK_RECORD
  5
FA
330
1
100
AcDbSymbolTableRecord
100
AcDbBlockTableRecord
  2
_D_3
340
0
  0
BLOCK_RECORD
  5
106
330
1
100
AcDbSymbolTableRecord
100
AcDbBlockTableRecord
  2
_D_4
340
0
  0
BLOCK_RECORD
  5
112
330
1
100
AcDbSymbolTableRecord
100
AcDbBlockTableRecord
  2
SW_DOWELSYMBOL_0
340
0
102
{BLKREFS
331
25F
102
}
  0
BLOCK_RECORD
  5
1D9
330
1
100
AcDbSymbolTableRecord
100
AcDbBlockTableRecord
  2
*D8
340
0
  0
BLOCK_RECORD
  5
1E9
330
1
100
AcDbSymbolTableRecord
100
AcDbBlockTableRecord
  2
*D9
340
0
  0
BLOCK_RECORD
  5
1F5
330
1
100
AcDbSymbolTableRecord
100
AcDbBlockTableRecord
  2
*D10
340
0
  0
BLOCK_RECORD
  5
201
330
1
100
AcDbSymbolTableRecord
100
AcDbBlockTableRecord
  2
*D11
340
0
  0
BLOCK_RECORD
  5
20E
330
1
100
AcDbSymbolTableRecord
100
AcDbBlockTableRecord
  2
*D12
340
0
  0
BLOCK_RECORD
  5
21A
330
1
100
AcDbSymbolTableRecord
100
AcDbBlockTableRecord
  2
*D13
340
0
  0
BLOCK_RECORD
  5
264
330
1
100
AcDbSymbolTableRecord
100
AcDbBlockTableRecord
  2
*D14
340
0
  0
BLOCK_RECORD
  5
270
330
1
100
AcDbSymbolTableRecord
100
AcDbBlockTableRecord
  2
*D15
340
0
  0
BLOCK_RECORD
  5
27D
330
1
100
AcDbSymbolTableRecord
100
AcDbBlockTableRecord
  2
*D16
340
0
  0
BLOCK_RECORD
  5
289
330
1
100
AcDbSymbolTableRecord
100
AcDbBlockTableRecord
  2
*D17
340
0
  0
BLOCK_RECORD
  5
298
330
1
100
AcDbSymbolTableRecord
100
AcDbBlockTableRecord
  2
*D18
340
0
  0
BLOCK_RECORD
  5
2A5
330
1
100
AcDbSymbolTableRecord
100
AcDbBlockTableRecord
  2
*D19
340
0
  0
BLOCK_RECORD
  5
2B6
330
1
100
AcDbSymbolTableRecord
100
AcDbBlockTableRecord
  2
*D20
340
0
  0
ENDTAB
  0
ENDSEC
  0
SECTION
  2
BLOCKS
  0
BLOCK
  5
20
330
1F
100
AcDbEntity
  8
0
100
AcDbBlockBegin
  2
*Model_Space
 70
     0
 10
0.0
 20
0.0
 30
0.0
  3
*Model_Space
  1
*Model_Space
  0
ENDBLK
  5
21
330
1F
100
AcDbEntity
  8
0
100
AcDbBlockEnd
  0
BLOCK
  5
1C
330
1B
100
AcDbEntity
 67
     1
  8
0
100
AcDbBlockBegin
  2
*Paper_Space
 70
     0
 10
0.0
 20
0.0
 30
0.0
  3
*Paper_Space
  1
*Paper_Space
  0
ENDBLK
  5
1D
330
1B
100
AcDbEntity
 67
     1
  8
0
100
AcDbBlockEnd
  0
BLOCK
  5
24
330
23
100
AcDbEntity
  8
0
100
AcDbBlockBegin
  2
*Paper_Space0
 70
     0
 10
0.0
 20
0.0
 30
0.0
  3
*Paper_Space0
  1
*Paper_Space0
  0
ENDBLK
  5
25
330
23
100
AcDbEntity
  8
0
100
AcDbBlockEnd
  0
BLOCK
  5
83
330
82
100
AcDbEntity
  8
0
100
AcDbBlockBegin
  2
블럭10
 70
     2
 10
0.0
 20
0.0
 30
0.0
  3
블럭10
  1
블럭10
  0
ELLIPSE
  5
85
330
82
100
AcDbEntity
  8
중심선
100
AcDbEllipse
 10
20.54032771741204
 20
12.0471743016438
 30
0.0
 11
6.600054785286829
 21
-1.261213355974178E-13
 31
0.0
210
0.0
220
0.0
230
1.0
 40
0.636358354079598
 41
0.9219305317359503
 42
6.513795318482858
  0
ELLIPSE
  5
86
330
82
100
AcDbEntity
  8
중심선
100
AcDbEllipse
 10
20.54032771746488
 20
12.04717430159265
 30
0.0
 11
3.960054785062283
 21
1.540847449632565E-10
 31
0.0
210
0.0
220
0.0
230
1.0
 40
0.3939339440162632
 41
1.131841032648279
 42
5.62031148352944
  0
LINE
  5
87
330
82
100
AcDbEntity
  8
중심선
100
AcDbLine
 10
2.268634060543552
 20
16.24717430164393
 30
0.0
 11
5.714909304380834
 21
16.24717430164393
 31
0.0
  0
LINE
  5
88
330
82
100
AcDbEntity
  8
중심선
100
AcDbLine
 10
5.245725140726316
 20
7.84717430164391
 30
0.0
 11
8.692000384563599
 21
7.84717430164391
 31
0.0
  0
LINE
  5
89
330
82
100
AcDbEntity
  8
중심선
100
AcDbLine
 10
15.74043728645272
 20
16.24717430164393
 30
0.0
 11
8.692000384563599
 21
7.84717430164391
 31
0.0
  0
LINE
  5
8A
330
82
100
AcDbEntity
  8
중심선
100
AcDbLine
 10
0.1404042013395286
 20
13.71084872107135
 30
0.0
 11
3.58671253028996
 21
13.71088815037384
 31
0.0
  0
LINE
  5
8B
330
82
100
AcDbEntity
  8
중심선
100
AcDbLine
 10
2.750260043222114
 20
10.84717430164391
 30
0.0
 11
6.196535287059397
 21
10.84717430164391
 31
0.0
  0
LINE
  5
8C
330
82
100
AcDbEntity
  8
중심선
100
AcDbLine
 10
12.29416204261559
 20
16.24717430164393
 30
0.0
 11
5.245725140726316
 21
7.84717430164391
 31
0.0
  0
LINE
  5
8D
330
82
100
AcDbEntity
  8
중심선
100
AcDbLine
 10
10.72767329541681
 20
16.24717430164393
 30
0.0
 11
6.196535287059397
 21
10.84717430164391
 31
0.0
  0
LINE
  5
8E
330
82
100
AcDbEntity
  8
중심선
100
AcDbLine
 10
7.28139805157953
 20
16.24717430164393
 30
0.0
 11
2.750260043222114
 21
10.84717430164391
 31
0.0
  0
LINE
  5
8F
330
82
100
AcDbEntity
  8
중심선
100
AcDbLine
 10
5.714909304380834
 20
16.24717430164393
 30
0.0
 11
3.58671253028996
 21
13.71088815037384
 31
0.0
  0
LINE
  5
90
330
82
100
AcDbEntity
  8
중심선
100
AcDbLine
 10
2.268634060543552
 20
16.24717430164393
 30
0.0
 11
0.1404042013395286
 21
13.71084872107135
 31
0.0
  0
LINE
  5
91
330
82
100
AcDbEntity
  8
중심선
100
AcDbLine
 10
7.28139805157953
 20
16.24717430164393
 30
0.0
 11
10.72767329541681
 21
16.24717430164393
 31
0.0
  0
LINE
  5
92
330
82
100
AcDbEntity
  8
중심선
100
AcDbLine
 10
12.29416204261559
 20
16.24717430164393
 30
0.0
 11
15.74043728645272
 21
16.24717430164393
 31
0.0
  0
LINE
  5
93
330
82
100
AcDbEntity
  8
중심선
100
AcDbLine
 10
19.22036997980202
 20
11.08717430171403
 30
0.0
 11
23.66174974927406
 21
11.08717430171406
 31
0.0
  0
LINE
  5
94
330
82
100
AcDbEntity
  8
중심선
100
AcDbLine
 10
19.22039502424796
 20
13.00717430171391
 30
0.0
 11
19.22036997980202
 21
11.08717430171403
 31
0.0
  0
LINE
  5
95
330
82
100
AcDbEntity
  8
중심선
100
AcDbLine
 10
19.22039502424796
 20
13.00717430171391
 30
0.0
 11
26.96566020931264
 21
13.00717430171391
 31
0.0
  0
LINE
  5
96
330
82
100
AcDbEntity
  8
중심선
100
AcDbLine
 10
22.22332737316547
 20
13.45928029700563
 30
0.0
 11
24.52862924686651
 21
15.39360700705356
 31
0.0
  0
ATTDEF
  5
98
330
82
100
AcDbEntity
  8
FORMAT
 62
     2
100
AcDbText
 10
-16.11926103943555
 20
2.075366912832191
 30
0.0
 40
4.233333333333333
  1
SEME6108020E [ 2 FLUTE ]
 41
0.75
  7
SLDTEXTSTYLE0
 11
-16.11926103943555
 21
-0.0412997538344756
 31
0.0
100
AcDbAttributeDefinition
  3

  2
AUTOATTR0
 70
     0
 74
     1
  0
ENDBLK
  5
84
330
82
100
AcDbEntity
  8
0
100
AcDbBlockEnd
  0
BLOCK
  5
D8
330
D7
100
AcDbEntity
  8
0
100
AcDbBlockBegin
  2
_D
 70
     0
 10
0.0
 20
0.0
 30
0.0
  3
_D
  1
_D
  0
SOLID
  5
DA
330
D7
100
AcDbEntity
  8
치수문자_일반주서
100
AcDbTrace
 10
-46.00250885508846
 20
4.001074928723888
 30
0.0
 11
-45.49450885508845
 21
7.303074928723888
 31
0.0
 12
-46.51050885508846
 22
7.303074928723888
 32
0.0
 13
-46.51050885508846
 23
7.303074928723888
 33
0.0
  0
SOLID
  5
DB
330
D7
100
AcDbEntity
  8
치수문자_일반주서
100
AcDbTrace
 10
-46.00250885508846
 20
-3.998925071276107
 30
0.0
 11
-46.51050885508846
 21
-7.300925071276106
 31
0.0
 12
-45.49450885508845
 22
-7.300925071276106
 32
0.0
 13
-45.49450885508845
 23
-7.300925071276106
 33
0.0
  0
LINE
  5
DC
330
D7
100
AcDbEntity
  8
치수문자_일반주서
100
AcDbLine
 10
-34.50605083347639
 20
4.001074928723888
 30
0.0
 11
-47.00250885508846
 21
4.001074928723888
 31
0.0
  0
LINE
  5
DD
330
D7
100
AcDbEntity
  8
치수문자_일반주서
100
AcDbLine
 10
-34.50605083347639
 20
-3.998925071276107
 30
0.0
 11
-47.00250885508846
 21
-3.998925071276107
 31
0.0
  0
LINE
  5
DE
330
D7
100
AcDbEntity
  8
치수문자_일반주서
100
AcDbLine
 10
-46.00250885508846
 20
4.001074928723888
 30
0.0
 11
-46.00250885508846
 21
10.35107492872389
 31
0.0
  0
LINE
  5
DF
330
D7
100
AcDbEntity
  8
치수문자_일반주서
100
AcDbLine
 10
-46.00250885508846
 20
4.001074928723888
 30
0.0
 11
-46.00250885508846
 21
-3.998925071276107
 31
0.0
  0
LINE
  5
E0
330
D7
100
AcDbEntity
  8
치수문자_일반주서
100
AcDbLine
 10
-46.00250885508846
 20
-3.998925071276107
 30
0.0
 11
-46.00250885508846
 21
-10.34892507127611
 31
0.0
  0
MTEXT
  5
E1
330
D7
100
AcDbEntity
  8
치수문자_일반주서
100
AcDbMText
 10
-50.51424594429032
 20
-3.931199483639909
 30
0.0
 40
3.5
 41
0.0
 71
     1
 72
     1
  1
%%c
  7
SLDTEXTSTYLE0
 11
-7.044195017643634E-15
 21
1.0
 31
0.0
 73
     1
 44
1.0
  0
MTEXT
  5
E2
330
D7
100
AcDbEntity
  8
치수문자_일반주서
100
AcDbMText
 10
-50.56771812095021
 20
1.347237914734172
 30
0.0
 40
3.5
 41
0.0
 71
     1
 72
     1
  1
8
  7
SLDTEXTSTYLE0
 11
-7.044195017643634E-15
 21
1.0
 31
0.0
 73
     1
 44
1.0
  0
ENDBLK
  5
D9
330
D7
100
AcDbEntity
  8
0
100
AcDbBlockEnd
  0
BLOCK
  5
E6
330
E5
100
AcDbEntity
  8
0
100
AcDbBlockBegin
  2
_D_1
 70
     0
 10
0.0
 20
0.0
 30
0.0
  3
_D_1
  1
_D_1
  0
SOLID
  5
E8
330
E5
100
AcDbEntity
  8
치수문자_일반주서
100
AcDbTrace
 10
35.49394916652362
 20
20.50107492872355
 30
0.0
 11
32.19194916652362
 21
21.00907492872355
 31
0.0
 12
32.19194916652362
 22
19.99307492872355
 32
0.0
 13
32.19194916652362
 23
19.99307492872355
 33
0.0
  0
SOLID
  5
E9
330
E5
100
AcDbEntity
  8
치수문자_일반주서
100
AcDbTrace
 10
23.49394916652361
 20
20.50107492872355
 30
0.0
 11
26.79594916652361
 21
19.99307492872355
 31
0.0
 12
26.79594916652361
 22
21.00907492872355
 32
0.0
 13
26.79594916652361
 23
21.00907492872355
 33
0.0
  0
LINE
  5
EA
330
E5
100
AcDbEntity
  8
치수문자_일반주서
100
AcDbLine
 10
35.49394916652362
 20
3.001074928723894
 30
0.0
 11
35.49394916652362
 21
21.50107492872355
 31
0.0
  0
LINE
  5
EB
330
E5
100
AcDbEntity
  8
치수문자_일반주서
100
AcDbLine
 10
23.49394916652361
 20
4.164063557473927
 30
0.0
 11
23.49394916652361
 21
21.50107492872355
 31
0.0
  0
LINE
  5
EC
330
E5
100
AcDbEntity
  8
치수문자_일반주서
100
AcDbLine
 10
35.49394916652362
 20
20.50107492872355
 30
0.0
 11
51.20556225021435
 21
20.50107492872355
 31
0.0
  0
LINE
  5
ED
330
E5
100
AcDbEntity
  8
치수문자_일반주서
100
AcDbLine
 10
35.49394916652362
 20
20.50107492872355
 30
0.0
 11
23.49394916652361
 21
20.50107492872355
 31
0.0
  0
MTEXT
  5
EE
330
E5
100
AcDbEntity
  8
치수문자_일반주서
100
AcDbMText
 10
46.03333986316872
 20
25.01281184330244
 30
0.0
 40
3.5
 41
0.0
 71
     1
 72
     1
  1
12
  7
SLDTEXTSTYLE0
 73
     1
 44
1.0
  0
ENDBLK
  5
E7
330
E5
100
AcDbEntity
  8
0
100
AcDbBlockEnd
  0
BLOCK
  5
F1
330
F0
100
AcDbEntity
  8
0
100
AcDbBlockBegin
  2
_D_2
 70
     0
 10
0.0
 20
0.0
 30
0.0
  3
_D_2
  1
_D_2
  0
SOLID
  5
F3
330
F0
100
AcDbEntity
  8
치수문자_일반주서
100
AcDbTrace
 10
35.49394916652362
 20
42.55939943376818
 30
0.0
 11
32.19194916652362
 21
43.06739943376819
 31
0.0
 12
32.19194916652362
 22
42.05139943376818
 32
0.0
 13
32.19194916652362
 23
42.05139943376818
 33
0.0
  0
SOLID
  5
F4
330
F0
100
AcDbEntity
  8
치수문자_일반주서
100
AcDbTrace
 10
-34.50605083347639
 20
42.55939943376818
 30
0.0
 11
-31.20405083347639
 21
42.05139943376818
 31
0.0
 12
-31.20405083347639
 22
43.06739943376819
 32
0.0
 13
-31.20405083347639
 23
43.06739943376819
 33
0.0
  0
LINE
  5
F5
330
F0
100
AcDbEntity
  8
치수문자_일반주서
100
AcDbLine
 10
35.49394916652362
 20
3.001074928723894
 30
0.0
 11
35.49394916652362
 21
43.55939943376818
 31
0.0
  0
LINE
  5
F6
330
F0
100
AcDbEntity
  8
치수문자_일반주서
100
AcDbLine
 10
-34.50605083347639
 20
4.001074928723888
 30
0.0
 11
-34.50605083347639
 21
43.55939943376818
 31
0.0
  0
LINE
  5
F7
330
F0
100
AcDbEntity
  8
치수문자_일반주서
100
AcDbLine
 10
35.49394916652362
 20
42.55939943376818
 30
0.0
 11
-34.50605083347639
 21
42.55939943376818
 31
0.0
  0
MTEXT
  5
F8
330
F0
100
AcDbEntity
  8
치수문자_일반주서
100
AcDbMText
 10
-2.092162026999203
 20
47.07113634834707
 30
0.0
 40
3.5
 41
0.0
 71
     1
 72
     1
  1
70
  7
SLDTEXTSTYLE0
 73
     1
 44
1.0
  0
ENDBLK
  5
F2
330
F0
100
AcDbEntity
  8
0
100
AcDbBlockEnd
  0
BLOCK
  5
FB
330
FA
100
AcDbEntity
  8
0
100
AcDbBlockBegin
  2
_D_3
 70
     0
 10
0.0
 20
0.0
 30
0.0
  3
_D_3
  1
_D_3
  0
SOLID
  5
FD
330
FA
100
AcDbEntity
  8
치수문자_일반주서
100
AcDbTrace
 10
14.49394916652476
 20
30.32107492872395
 30
0.0
 11
17.79594916652475
 21
29.81307492872382
 31
0.0
 12
17.79594916652478
 22
30.82907492872382
 32
0.0
 13
17.79594916652478
 23
30.82907492872382
 33
0.0
  0
SOLID
  5
FE
330
FA
100
AcDbEntity
  8
치수문자_일반주서
100
AcDbTrace
 10
10.2140453559571
 20
30.32107492872411
 30
0.0
 11
6.912045355957115
 21
30.82907492872424
 31
0.0
 12
6.912045355957076
 22
29.81307492872424
 32
0.0
 13
6.912045355957076
 23
29.81307492872424
 33
0.0
  0
LINE
  5
FF
330
FA
100
AcDbEntity
  8
치수문자_일반주서
100
AcDbLine
 10
14.49394916652365
 20
1.401074928723893
 30
0.0
 11
14.4939491665248
 21
31.32107492872394
 31
0.0
  0
LINE
  5
100
330
FA
100
AcDbEntity
  8
치수문자_일반주서
100
AcDbLine
 10
10.21404535595599
 20
1.551074928723894
 30
0.0
 11
10.21404535595713
 21
31.32107492872411
 31
0.0
  0
LINE
  5
101
330
FA
100
AcDbEntity
  8
치수문자_일반주서
100
AcDbLine
 10
14.49394916652476
 20
30.32107492872395
 30
0.0
 11
55.42440269528608
 21
30.32107492872239
 31
0.0
  0
LINE
  5
102
330
FA
100
AcDbEntity
  8
치수문자_일반주서
100
AcDbLine
 10
14.49394916652476
 20
30.32107492872395
 30
0.0
 11
10.2140453559571
 21
30.32107492872411
 31
0.0
  0
LINE
  5
103
330
FA
100
AcDbEntity
  8
치수문자_일반주서
100
AcDbLine
 10
10.2140453559571
 20
30.32107492872411
 30
0.0
 11
3.864045355957095
 21
30.32107492872435
 31
0.0
  0
MTEXT
  5
104
330
FA
100
AcDbEntity
  8
치수문자_일반주서
100
AcDbMText
 10
46.3730136343715
 20
34.83281184330144
 30
0.0
 40
3.5
 41
0.0
 71
     1
 72
     1
  1
4.28
  7
SLDTEXTSTYLE0
 73
     1
 44
1.0
  0
ENDBLK
  5
FC
330
FA
100
AcDbEntity
  8
0
100
AcDbBlockEnd
  0
BLOCK
  5
107
330
106
100
AcDbEntity
  8
0
100
AcDbBlockBegin
  2
_D_4
 70
     0
 10
0.0
 20
0.0
 30
0.0
  3
_D_4
  1
_D_4
  0
SOLID
  5
109
330
106
100
AcDbEntity
  8
치수문자_일반주서
100
AcDbTrace
 10
42.85059833193548
 20
2.501074928723905
 30
0.0
 11
43.35859833193548
 21
5.803074928723905
 31
0.0
 12
42.34259833193548
 22
5.803074928723905
 32
0.0
 13
42.34259833193548
 23
5.803074928723905
 33
0.0
  0
SOLID
  5
10A
330
106
100
AcDbEntity
  8
치수문자_일반주서
100
AcDbTrace
 10
42.85059833193548
 20
-2.468303391960164
 30
0.0
 11
42.34259833193548
 21
-5.770303391960164
 31
0.0
 12
43.35859833193548
 22
-5.770303391960164
 32
0.0
 13
43.35859833193548
 23
-5.770303391960164
 33
0.0
  0
LINE
  5
10B
330
106
100
AcDbEntity
  8
치수문자_일반주서
100
AcDbLine
 10
25.99394916652362
 20
2.501074928723895
 30
0.0
 11
43.85059833193549
 21
2.501074928723906
 31
0.0
  0
LINE
  5
10C
330
106
100
AcDbEntity
  8
치수문자_일반주서
100
AcDbLine
 10
25.99394916652362
 20
-2.468303391960176
 30
0.0
 11
43.85059833193549
 21
-2.468303391960164
 31
0.0
  0
LINE
  5
10D
330
106
100
AcDbEntity
  8
치수문자_일반주서
100
AcDbLine
 10
42.85059833193548
 20
2.501074928723905
 30
0.0
 11
42.85059833193548
 21
8.851074928723905
 31
0.0
  0
LINE
  5
10E
330
106
100
AcDbEntity
  8
치수문자_일반주서
100
AcDbLine
 10
42.85059833193548
 20
2.501074928723905
 30
0.0
 11
42.85059833193548
 21
-2.468303391960164
 31
0.0
  0
LINE
  5
10F
330
106
100
AcDbEntity
  8
치수문자_일반주서
100
AcDbLine
 10
42.85059833193548
 20
-2.468303391960164
 30
0.0
 11
42.85059833193548
 21
-19.09359001964388
 31
0.0
  0
MTEXT
  5
110
330
106
100
AcDbEntity
  8
치수문자_일반주서
100
AcDbMText
 10
38.33886124273367
 20
-19.0935900196439
 30
0.0
 40
3.5
 41
0.0
 71
     1
 72
     1
  1
%%c
  7
SLDTEXTSTYLE0
 11
-7.932373437343760E-15
 21
1.0
 31
0.0
 73
     1
 44
1.0
  0
MTEXT
  5
111
330
106
100
AcDbEntity
  8
치수문자_일반주서
100
AcDbMText
 10
38.28538906607378
 20
-13.81515262126982
 30
0.0
 40
3.5
 41
0.0
 71
     1
 72
     1
  1
4.97
  7
SLDTEXTSTYLE0
 11
-7.932373437343760E-15
 21
1.0
 31
0.0
 73
     1
 44
1.0
  0
ENDBLK
  5
108
330
106
100
AcDbEntity
  8
0
100
AcDbBlockEnd
  0
BLOCK
  5
113
330
112
100
AcDbEntity
  8
0
100
AcDbBlockBegin
  2
SW_DOWELSYMBOL_0
 70
     0
 10
0.0
 20
0.0
 30
0.0
  3
SW_DOWELSYMBOL_0
  1
SW_DOWELSYMBOL_0
  0
CIRCLE
  5
115
330
112
100
AcDbEntity
  8
외형선
 62
     0
100
AcDbCircle
 10
0.0
 20
0.0
 30
0.0
 40
3.000000000000004
  0
HATCH
  5
116
330
112
100
AcDbEntity
  8
0
  6
Continuous
 62
     0
370
    35
100
AcDbHatch
 10
0.0
 20
0.0
 30
0.0
210
0.0
220
0.0
230
1.0
  2
SOLID
 70
     1
 71
     0
 91
        1
 92
        0
 93
        3
 72
     2
 10
0.0000000000000104
 20
0.0
 40
3.000000000000004
 50
0.0
 51
90.0
 73
     1
 72
     1
 10
0.0000000000000104
 20
3.000000000000004
 11
0.0000000000000104
 21
0.0
 72
     1
 10
0.0000000000000104
 20
0.0
 11
3.000000000000015
 21
0.0
 97
        0
 75
     0
 76
     1
 98
        1
 10
0.0
 20
0.0
  0
HATCH
  5
117
330
112
100
AcDbEntity
  8
0
  6
Continuous
 62
     0
370
    35
100
AcDbHatch
 10
0.0
 20
0.0
 30
0.0
210
0.0
220
0.0
230
1.0
  2
SOLID
 70
     1
 71
     0
 91
        1
 92
        0
 93
        3
 72
     2
 10
0.0000000000000104
 20
0.0
 40
3.000000000000004
 50
180.0
 51
270.0000000000007
 73
     1
 72
     1
 10
0.0000000000000104
 20
-3.000000000000004
 11
0.0000000000000104
 21
0.0
 72
     1
 10
0.0000000000000104
 20
0.0
 11
-2.999999999999994
 21
0.0
 97
        0
 75
     0
 76
     1
 98
        1
 10
0.0
 20
0.0
  0
ENDBLK
  5
114
330
112
100
AcDbEntity
  8
0
100
AcDbBlockEnd
  0
BLOCK
  5
1DA
330
1D9
100
AcDbEntity
  8
0
100
AcDbBlockBegin
  2
*D8
 70
     1
 10
0.0
 20
0.0
 30
0.0
  3
*D8
  1
*D8
  0
LINE
  5
1DB
330
1D9
100
AcDbEntity
  8
치수문자_일반주서
 62
     0
370
    -2
100
AcDbLine
 10
85.73395802161208
 20
16.07338993845307
 30
0.0
 11
93.44581764468253
 21
16.07338993845307
 31
0.0
  0
LINE
  5
1DC
330
1D9
100
AcDbEntity
  8
치수문자_일반주서
 62
     0
370
    -2
100
AcDbLine
 10
83.50945659749047
 20
8.072957262919559
 30
0.0
 11
93.44581764468253
 21
8.072957262919559
 31
0.0
  0
LINE
  5
1DD
330
1D9
100
AcDbEntity
  8
치수문자_일반주서
 62
     0
370
    -2
100
AcDbLine
 10
93.44581764468253
 20
16.07338993845307
 30
0.0
 11
93.44581764468253
 21
31.42738993845307
 31
0.0
  0
LINE
  5
1DE
330
1D9
100
AcDbEntity
  8
치수문자_일반주서
 62
     0
370
    -2
100
AcDbLine
 10
93.44581764468253
 20
12.77138993845307
 30
0.0
 11
93.44581764468253
 21
11.37495726291956
 31
0.0
  0
SOLID
  5
1DF
330
1D9
100
AcDbEntity
  8
치수문자_일반주서
 62
     0
100
AcDbTrace
 10
93.99615097801586
 20
12.77138993845307
 30
0.0
 11
92.89548431134921
 21
12.77138993845307
 31
0.0
 12
93.44581764468253
 22
16.07338993845307
 32
0.0
 13
93.44581764468253
 23
16.07338993845307
 33
0.0
  0
SOLID
  5
1E0
330
1D9
100
AcDbEntity
  8
치수문자_일반주서
 62
     0
100
AcDbTrace
 10
92.89548431134921
 20
11.37495726291956
 30
0.0
 11
93.99615097801586
 21
11.37495726291956
 31
0.0
 12
93.44581764468253
 22
8.072957262919559
 32
0.0
 13
93.44581764468253
 23
8.072957262919559
 33
0.0
  0
MTEXT
  5
1E1
330
1D9
100
AcDbEntity
  8
치수문자_일반주서
 62
     0
100
AcDbMText
 10
90.82081764468253
 20
27.05238993845307
 30
0.0
 40
3.5
 41
0.0
 71
     5
 72
     1
  1
\A1;{%%c 8}
  7
SLDTEXTSTYLE0
 11
0.0
 21
1.0
 31
0.0
 73
     1
 44
1.0
  0
POINT
  5
1E2
330
1D9
100
AcDbEntity
  8
Defpoints
 62
     0
100
AcDbPoint
 10
85.67145802161208
 20
16.07338993845307
 30
0.0
  0
POINT
  5
1E3
330
1D9
100
AcDbEntity
  8
Defpoints
 62
     0
100
AcDbPoint
 10
83.44695659749047
 20
8.072957262919559
 30
0.0
  0
POINT
  5
1E4
330
1D9
100
AcDbEntity
  8
Defpoints
 62
     0
100
AcDbPoint
 10
93.44581764468253
 20
8.072957262919559
 30
0.0
  0
ENDBLK
  5
1E5
330
1D9
100
AcDbEntity
  8
0
100
AcDbBlockEnd
  0
BLOCK
  5
1EA
330
1E9
100
AcDbEntity
  8
0
100
AcDbBlockBegin
  2
*D9
 70
     1
 10
0.0
 20
0.0
 30
0.0
  3
*D9
  1
*D9
  0
LINE
  5
1EB
330
1E9
100
AcDbEntity
  8
0
 62
     0
370
    -2
100
AcDbLine
 10
104.576601270695
 20
0.0
 30
0.0
 11
89.6359346040283
 21
0.0
 31
0.0
  0
LINE
  5
1EC
330
1E9
100
AcDbEntity
  8
0
 62
     0
370
    -2
100
AcDbLine
 10
89.6359346040283
 20
0.0
 30
0.0
 11
87.18187151101371
 21
5.133492141426009
 31
0.0
  0
MTEXT
  5
1ED
330
1E9
100
AcDbEntity
  8
0
 62
     0
100
AcDbMText
 10
97.86826793736162
 20
3.565666666666667
 30
0.0
 40
3.5
 41
0.0
 71
     5
 72
     1
  1
R0,20
 73
     1
 44
1.0
  0
LINE
  5
1EE
330
1E9
100
AcDbEntity
  8
0
 62
     0
370
    -2
100
AcDbLine
 10
85.67145802161208
 20
8.293026140457135
 30
0.0
 11
85.757718072406
 21
8.112584450049875
 31
0.0
  0
SOLID
  5
1EF
330
1E9
100
AcDbEntity
  8
0
 62
     0
100
AcDbTrace
 10
87.67838689578436
 20
5.370851047860626
 30
0.0
 11
86.68535612624306
 21
4.896133234991392
 31
0.0
 12
85.757718072406
 22
8.112584450049875
 32
0.0
 13
85.757718072406
 23
8.112584450049875
 33
0.0
  0
POINT
  5
1F0
330
1E9
100
AcDbEntity
  8
Defpoints
 62
     0
100
AcDbPoint
 10
85.757718072406
 20
8.112584450049875
 30
0.0
  0
POINT
  5
1F1
330
1E9
100
AcDbEntity
  8
Defpoints
 62
     0
100
AcDbPoint
 10
85.67145802161208
 20
8.293026140457135
 30
0.0
  0
ENDBLK
  5
1F2
330
1E9
100
AcDbEntity
  8
0
100
AcDbBlockEnd
  0
BLOCK
  5
1F6
330
1F5
100
AcDbEntity
  8
0
100
AcDbBlockBegin
  2
*D10
 70
     1
 10
0.0
 20
0.0
 30
0.0
  3
*D10
  1
*D11
  0
LINE
  5
1F8
330
1F5
100
AcDbEntity
  8
치수문자_일반주서
 62
     0
370
    -2
100
AcDbLine
 10
16.80895802161209
 20
16.08320803945509
 30
0.0
 11
4.374999999999994
 21
16.08320803945505
 31
0.0
  0
LINE
  5
1F9
330
1F5
100
AcDbEntity
  8
치수문자_일반주서
 62
     0
370
    -2
100
AcDbLine
 10
16.80895802161209
 20
8.0832080394551
 30
0.0
 11
4.375000000000021
 21
8.083208039455053
 31
0.0
  0
LINE
  5
1FA
330
1F5
100
AcDbEntity
  8
치수문자_일반주서
 62
     0
370
    -2
100
AcDbLine
 10
4.375000000000005
 20
12.78120803945505
 30
0.0
 11
4.37500000000001
 21
11.38520803945505
 31
0.0
  0
SOLID
  5
1FB
330
1F5
100
AcDbEntity
  8
치수문자_일반주서
 62
     0
100
AcDbTrace
 10
4.925333333333339
 20
12.78120803945505
 30
0.0
 11
3.824666666666672
 21
12.78120803945505
 31
0.0
 12
4.374999999999994
 22
16.08320803945505
 32
0.0
 13
4.374999999999994
 23
16.08320803945505
 33
0.0
  0
SOLID
  5
1FC
330
1F5
100
AcDbEntity
  8
치수문자_일반주서
 62
     0
100
AcDbTrace
 10
3.824666666666677
 20
11.38520803945505
 30
0.0
 11
4.925333333333343
 21
11.38520803945505
 31
0.0
 12
4.375000000000021
 22
8.083208039455053
 32
0.0
 13
4.375000000000021
 23
8.083208039455053
 33
0.0
  0
MTEXT
  5
1FD
330
1F5
100
AcDbEntity
  8
치수문자_일반주서
 62
     0
100
AcDbMText
 10
0.0000000000000071
 20
12.08320803945508
 30
0.0
 40
3.5
 41
0.0
 71
     2
 72
     1
  1
\A1;%%c8
  7
SLDTEXTSTYLE0
 11
-3.441691376337988E-15
 21
1.0
 31
0.0
 73
     1
 44
1.0
  0
POINT
  5
1FE
330
1F5
100
AcDbEntity
  8
Defpoints
 62
     0
100
AcDbPoint
 10
16.87145802161209
 20
16.08320803945509
 30
0.0
  0
POINT
  5
1FF
330
1F5
100
AcDbEntity
  8
Defpoints
 62
     0
100
AcDbPoint
 10
16.87145802161209
 20
8.0832080394551
 30
0.0
  0
POINT
  5
200
330
1F5
100
AcDbEntity
  8
Defpoints
 62
     0
100
AcDbPoint
 10
4.375000000000021
 20
8.083208039455053
 30
0.0
  0
ENDBLK
  5
1F7
330
1F5
100
AcDbEntity
  8
0
100
AcDbBlockEnd
  0
BLOCK
  5
202
330
201
100
AcDbEntity
  8
0
100
AcDbBlockBegin
  2
*D11
 70
     1
 10
0.0
 20
0.0
 30
0.0
  3
*D11
  1
*D12
  0
LINE
  5
204
330
201
100
AcDbEntity
  8
치수문자_일반주서
 62
     0
370
    -2
100
AcDbLine
 10
85.8714580216121
 20
15.9457080394551
 30
0.0
 11
85.8714580216121
 21
34.38320803945476
 31
0.0
  0
LINE
  5
205
330
201
100
AcDbEntity
  8
치수문자_일반주서
 62
     0
370
    -2
100
AcDbLine
 10
73.87145802161209
 20
15.30869666820513
 30
0.0
 11
73.87145802161209
 21
34.38320803945476
 31
0.0
  0
LINE
  5
206
330
201
100
AcDbEntity
  8
치수문자_일반주서
 62
     0
370
    -2
100
AcDbLine
 10
85.8714580216121
 20
34.38320803945476
 30
0.0
 11
101.62195991178
 21
34.38320803945476
 31
0.0
  0
LINE
  5
207
330
201
100
AcDbEntity
  8
치수문자_일반주서
 62
     0
370
    -2
100
AcDbLine
 10
82.56945802161209
 20
34.38320803945476
 30
0.0
 11
77.17345802161208
 21
34.38320803945476
 31
0.0
  0
SOLID
  5
208
330
201
100
AcDbEntity
  8
치수문자_일반주서
 62
     0
100
AcDbTrace
 10
82.56945802161209
 20
33.83287470612142
 30
0.0
 11
82.56945802161209
 21
34.93354137278809
 31
0.0
 12
85.8714580216121
 22
34.38320803945476
 32
0.0
 13
85.8714580216121
 23
34.38320803945476
 33
0.0
  0
SOLID
  5
209
330
201
100
AcDbEntity
  8
치수문자_일반주서
 62
     0
100
AcDbTrace
 10
77.17345802161208
 20
34.93354137278809
 30
0.0
 11
77.17345802161208
 21
33.83287470612142
 31
0.0
 12
73.87145802161209
 22
34.38320803945476
 32
0.0
 13
73.87145802161209
 23
34.38320803945476
 33
0.0
  0
MTEXT
  5
20A
330
201
100
AcDbEntity
  8
치수문자_일반주서
 62
     0
100
AcDbMText
 10
98.99695991177998
 20
38.75820803945476
 30
0.0
 40
3.5
 41
0.0
 71
     2
 72
     1
  1
\A1;12
  7
SLDTEXTSTYLE0
 73
     1
 44
1.0
  0
POINT
  5
20B
330
201
100
AcDbEntity
  8
Defpoints
 62
     0
100
AcDbPoint
 10
85.8714580216121
 20
15.8832080394551
 30
0.0
  0
POINT
  5
20C
330
201
100
AcDbEntity
  8
Defpoints
 62
     0
100
AcDbPoint
 10
73.87145802161209
 20
15.24619666820513
 30
0.0
  0
POINT
  5
20D
330
201
100
AcDbEntity
  8
Defpoints
 62
     0
100
AcDbPoint
 10
73.87145802161209
 20
34.38320803945476
 30
0.0
  0
ENDBLK
  5
203
330
201
100
AcDbEntity
  8
0
100
AcDbBlockEnd
  0
BLOCK
  5
20F
330
20E
100
AcDbEntity
  8
0
100
AcDbBlockBegin
  2
*D12
 70
     1
 10
0.0
 20
0.0
 30
0.0
  3
*D12
  1
*D13
  0
LINE
  5
211
330
20E
100
AcDbEntity
  8
치수문자_일반주서
 62
     0
370
    -2
100
AcDbLine
 10
85.8714580216121
 20
15.9457080394551
 30
0.0
 11
85.87145802161209
 21
56.44153254449939
 31
0.0
  0
LINE
  5
212
330
20E
100
AcDbEntity
  8
치수문자_일반주서
 62
     0
370
    -2
100
AcDbLine
 10
15.87145802161209
 20
15.1457080394551
 30
0.0
 11
15.87145802161208
 21
56.44153254449939
 31
0.0
  0
LINE
  5
213
330
20E
100
AcDbEntity
  8
치수문자_일반주서
 62
     0
370
    -2
100
AcDbLine
 10
82.56945802161209
 20
56.44153254449939
 30
0.0
 11
19.17345802161208
 21
56.44153254449939
 31
0.0
  0
SOLID
  5
214
330
20E
100
AcDbEntity
  8
치수문자_일반주서
 62
     0
100
AcDbTrace
 10
82.56945802161209
 20
55.89119921116605
 30
0.0
 11
82.56945802161209
 21
56.99186587783272
 31
0.0
 12
85.87145802161209
 22
56.44153254449939
 32
0.0
 13
85.87145802161209
 23
56.44153254449939
 33
0.0
  0
SOLID
  5
215
330
20E
100
AcDbEntity
  8
치수문자_일반주서
 62
     0
100
AcDbTrace
 10
19.17345802161208
 20
56.99186587783272
 30
0.0
 11
19.17345802161208
 21
55.89119921116605
 31
0.0
 12
15.87145802161208
 22
56.44153254449939
 32
0.0
 13
15.87145802161208
 23
56.44153254449939
 33
0.0
  0
MTEXT
  5
216
330
20E
100
AcDbEntity
  8
치수문자_일반주서
 62
     0
100
AcDbMText
 10
50.87145802161209
 20
60.81653254449939
 30
0.0
 40
3.5
 41
0.0
 71
     2
 72
     1
  1
\A1;70
  7
SLDTEXTSTYLE0
 73
     1
 44
1.0
  0
POINT
  5
217
330
20E
100
AcDbEntity
  8
Defpoints
 62
     0
100
AcDbPoint
 10
85.8714580216121
 20
15.8832080394551
 30
0.0
  0
POINT
  5
218
330
20E
100
AcDbEntity
  8
Defpoints
 62
     0
100
AcDbPoint
 10
15.87145802161209
 20
15.0832080394551
 30
0.0
  0
POINT
  5
219
330
20E
100
AcDbEntity
  8
Defpoints
 62
     0
100
AcDbPoint
 10
15.87145802161209
 20
56.44153254449939
 30
0.0
  0
ENDBLK
  5
210
330
20E
100
AcDbEntity
  8
0
100
AcDbBlockEnd
  0
BLOCK
  5
21B
330
21A
100
AcDbEntity
  8
0
100
AcDbBlockBegin
  2
*D13
 70
     1
 10
0.0
 20
0.0
 30
0.0
  3
*D13
  1
*D14
  0
LINE
  5
21D
330
21A
100
AcDbEntity
  8
치수문자_일반주서
 62
     0
370
    -2
100
AcDbLine
 10
85.87145802161209
 20
15.94030966073488
 30
0.0
 11
85.87145802161209
 21
42.40320803945375
 31
0.0
  0
LINE
  5
21E
330
21A
100
AcDbEntity
  8
치수문자_일반주서
 62
     0
370
    -2
100
AcDbLine
 10
60.87145802161209
 20
12.1457080394551
 30
0.0
 11
60.87145802161209
 21
42.40320803945375
 31
0.0
  0
LINE
  5
21F
330
21A
100
AcDbEntity
  8
치수문자_일반주서
 62
     0
370
    -2
100
AcDbLine
 10
85.87145802161209
 20
42.40320803945375
 30
0.0
 11
104.3387170199173
 21
42.40320803945375
 31
0.0
  0
LINE
  5
220
330
21A
100
AcDbEntity
  8
치수문자_일반주서
 62
     0
370
    -2
100
AcDbLine
 10
85.87145802161209
 20
42.40320803945375
 30
0.0
 11
60.87145802161209
 21
42.40320803945375
 31
0.0
  0
LINE
  5
221
330
21A
100
AcDbEntity
  8
치수문자_일반주서
 62
     0
370
    -2
100
AcDbLine
 10
89.17345802161208
 20
42.40320803945375
 30
0.0
 11
92.47545802161207
 21
42.40320803945375
 31
0.0
  0
LINE
  5
222
330
21A
100
AcDbEntity
  8
치수문자_일반주서
 62
     0
370
    -2
100
AcDbLine
 10
57.56945802161209
 20
42.40320803945375
 30
0.0
 11
54.26745802161209
 21
42.40320803945375
 31
0.0
  0
SOLID
  5
223
330
21A
100
AcDbEntity
  8
치수문자_일반주서
 62
     0
100
AcDbTrace
 10
89.17345802161208
 20
42.95354137278709
 30
0.0
 11
89.17345802161208
 21
41.85287470612042
 31
0.0
 12
85.87145802161209
 22
42.40320803945375
 32
0.0
 13
85.87145802161209
 23
42.40320803945375
 33
0.0
  0
SOLID
  5
224
330
21A
100
AcDbEntity
  8
치수문자_일반주서
 62
     0
100
AcDbTrace
 10
57.56945802161209
 20
41.85287470612042
 30
0.0
 11
57.56945802161209
 21
42.95354137278709
 31
0.0
 12
60.87145802161209
 22
42.40320803945375
 32
0.0
 13
60.87145802161209
 23
42.40320803945375
 33
0.0
  0
MTEXT
  5
225
330
21A
100
AcDbEntity
  8
치수문자_일반주서
 62
     0
100
AcDbMText
 10
101.2762170199173
 20
46.77820803945375
 30
0.0
 40
3.5
 41
0.0
 71
     2
 72
     1
  1
\A1;25
  7
SLDTEXTSTYLE0
 73
     1
 44
1.0
  0
POINT
  5
226
330
21A
100
AcDbEntity
  8
Defpoints
 62
     0
100
AcDbPoint
 10
85.87145802161209
 20
15.87780966073488
 30
0.0
  0
POINT
  5
227
330
21A
100
AcDbEntity
  8
Defpoints
 62
     0
100
AcDbPoint
 10
60.87145802161209
 20
12.0832080394551
 30
0.0
  0
POINT
  5
228
330
21A
100
AcDbEntity
  8
Defpoints
 62
     0
100
AcDbPoint
 10
60.87145802161209
 20
42.40320803945375
 30
0.0
  0
ENDBLK
  5
21C
330
21A
100
AcDbEntity
  8
0
100
AcDbBlockEnd
  0
BLOCK
  5
265
330
264
100
AcDbEntity
  8
0
100
AcDbBlockBegin
  2
*D14
 70
     1
 10
0.0
 20
0.0
 30
0.0
  3
*D14
  1
*D15
  0
LINE
  5
267
330
264
100
AcDbEntity
  8
치수문자_일반주서
 62
     0
370
    -2
100
AcDbLine
 10
-43.91250000000002
 20
3.999999999999996
 30
0.0
 11
-56.34645802161211
 21
3.999999999999949
 31
0.0
  0
LINE
  5
268
330
264
100
AcDbEntity
  8
치수문자_일반주서
 62
     0
370
    -2
100
AcDbLine
 10
-43.91250000000002
 20
-3.999999999999996
 30
0.0
 11
-56.34645802161209
 21
-4.000000000000043
 31
0.0
  0
LINE
  5
269
330
264
100
AcDbEntity
  8
치수문자_일반주서
 62
     0
370
    -2
100
AcDbLine
 10
-56.3464580216121
 20
0.6979999999999493
 30
0.0
 11
-56.3464580216121
 21
-0.6980000000000426
 31
0.0
  0
SOLID
  5
26A
330
264
100
AcDbEntity
  8
치수문자_일반주서
 62
     0
100
AcDbTrace
 10
-55.79612468827877
 20
0.6979999999999513
 30
0.0
 11
-56.89679135494544
 21
0.6979999999999473
 31
0.0
 12
-56.34645802161211
 22
3.999999999999949
 32
0.0
 13
-56.34645802161211
 23
3.999999999999949
 33
0.0
  0
SOLID
  5
26B
330
264
100
AcDbEntity
  8
치수문자_일반주서
 62
     0
100
AcDbTrace
 10
-56.89679135494544
 20
-0.6980000000000446
 30
0.0
 11
-55.79612468827877
 21
-0.6980000000000406
 31
0.0
 12
-56.34645802161209
 22
-4.000000000000043
 32
0.0
 13
-56.34645802161209
 23
-4.000000000000043
 33
0.0
  0
MTEXT
  5
26C
330
264
100
AcDbEntity
  8
치수문자_일반주서
 62
     0
100
AcDbMText
 10
-60.7214580216121
 20
-0.0000000000000185
 30
0.0
 40
3.5
 41
0.0
 71
     2
 72
     1
  1
\A1;%%c8
  7
SLDTEXTSTYLE0
 11
-3.552713678800505E-15
 21
1.0
 31
0.0
 73
     1
 44
1.0
  0
POINT
  5
26D
330
264
100
AcDbEntity
  8
Defpoints
 62
     0
100
AcDbPoint
 10
-43.85000000000002
 20
3.999999999999997
 30
0.0
  0
POINT
  5
26E
330
264
100
AcDbEntity
  8
Defpoints
 62
     0
100
AcDbPoint
 10
-43.85000000000002
 20
-3.999999999999996
 30
0.0
  0
POINT
  5
26F
330
264
100
AcDbEntity
  8
Defpoints
 62
     0
100
AcDbPoint
 10
-56.34645802161209
 20
-4.000000000000043
 30
0.0
  0
ENDBLK
  5
266
330
264
100
AcDbEntity
  8
0
100
AcDbBlockEnd
  0
BLOCK
  5
271
330
270
100
AcDbEntity
  8
0
100
AcDbBlockBegin
  2
*D15
 70
     1
 10
0.0
 20
0.0
 30
0.0
  3
*D15
  1
*D16
  0
LINE
  5
273
330
270
100
AcDbEntity
  8
치수문자_일반주서
 62
     0
370
    -2
100
AcDbLine
 10
25.14999999999999
 20
3.862500000000001
 30
0.0
 11
25.14999999999999
 21
22.29999999999966
 31
0.0
  0
LINE
  5
274
330
270
100
AcDbEntity
  8
치수문자_일반주서
 62
     0
370
    -2
100
AcDbLine
 10
13.14999999999997
 20
3.22548862875004
 30
0.0
 11
13.14999999999997
 21
22.29999999999966
 31
0.0
  0
LINE
  5
275
330
270
100
AcDbEntity
  8
치수문자_일반주서
 62
     0
370
    -2
100
AcDbLine
 10
25.14999999999999
 20
22.29999999999966
 30
0.0
 11
40.90050189016789
 21
22.29999999999966
 31
0.0
  0
LINE
  5
276
330
270
100
AcDbEntity
  8
치수문자_일반주서
 62
     0
370
    -2
100
AcDbLine
 10
21.84799999999999
 20
22.29999999999966
 30
0.0
 11
16.45199999999997
 21
22.29999999999966
 31
0.0
  0
SOLID
  5
277
330
270
100
AcDbEntity
  8
치수문자_일반주서
 62
     0
100
AcDbTrace
 10
21.84799999999999
 20
21.74966666666633
 30
0.0
 11
21.84799999999999
 21
22.850333333333
 31
0.0
 12
25.14999999999999
 22
22.29999999999966
 32
0.0
 13
25.14999999999999
 23
22.29999999999966
 33
0.0
  0
SOLID
  5
278
330
270
100
AcDbEntity
  8
치수문자_일반주서
 62
     0
100
AcDbTrace
 10
16.45199999999997
 20
22.850333333333
 30
0.0
 11
16.45199999999997
 21
21.74966666666633
 31
0.0
 12
13.14999999999997
 22
22.29999999999966
 32
0.0
 13
13.14999999999997
 23
22.29999999999966
 33
0.0
  0
MTEXT
  5
279
330
270
100
AcDbEntity
  8
치수문자_일반주서
 62
     0
100
AcDbMText
 10
38.27550189016789
 20
26.67499999999966
 30
0.0
 40
3.5
 41
0.0
 71
     2
 72
     1
  1
\A1;12
  7
SLDTEXTSTYLE0
 73
     1
 44
1.0
  0
POINT
  5
27A
330
270
100
AcDbEntity
  8
Defpoints
 62
     0
100
AcDbPoint
 10
25.14999999999999
 20
3.800000000000001
 30
0.0
  0
POINT
  5
27B
330
270
100
AcDbEntity
  8
Defpoints
 62
     0
100
AcDbPoint
 10
13.14999999999997
 20
3.16298862875004
 30
0.0
  0
POINT
  5
27C
330
270
100
AcDbEntity
  8
Defpoints
 62
     0
100
AcDbPoint
 10
13.14999999999997
 20
22.29999999999966
 30
0.0
  0
ENDBLK
  5
272
330
270
100
AcDbEntity
  8
0
100
AcDbBlockEnd
  0
BLOCK
  5
27E
330
27D
100
AcDbEntity
  8
0
100
AcDbBlockBegin
  2
*D16
 70
     1
 10
0.0
 20
0.0
 30
0.0
  3
*D16
  1
*D17
  0
LINE
  5
280
330
27D
100
AcDbEntity
  8
치수문자_일반주서
 62
     0
370
    -2
100
AcDbLine
 10
25.14999999999999
 20
3.862500000000001
 30
0.0
 11
25.14999999999999
 21
44.35832450504429
 31
0.0
  0
LINE
  5
281
330
27D
100
AcDbEntity
  8
치수문자_일반주서
 62
     0
370
    -2
100
AcDbLine
 10
-44.85000000000002
 20
3.062499999999997
 30
0.0
 11
-44.85000000000002
 21
44.35832450504429
 31
0.0
  0
LINE
  5
282
330
27D
100
AcDbEntity
  8
치수문자_일반주서
 62
     0
370
    -2
100
AcDbLine
 10
21.84799999999999
 20
44.35832450504429
 30
0.0
 11
-41.54800000000002
 21
44.35832450504429
 31
0.0
  0
SOLID
  5
283
330
27D
100
AcDbEntity
  8
치수문자_일반주서
 62
     0
100
AcDbTrace
 10
21.84799999999999
 20
43.80799117171096
 30
0.0
 11
21.84799999999999
 21
44.90865783837763
 31
0.0
 12
25.14999999999999
 22
44.35832450504429
 32
0.0
 13
25.14999999999999
 23
44.35832450504429
 33
0.0
  0
SOLID
  5
284
330
27D
100
AcDbEntity
  8
치수문자_일반주서
 62
     0
100
AcDbTrace
 10
-41.54800000000002
 20
44.90865783837763
 30
0.0
 11
-41.54800000000002
 21
43.80799117171096
 31
0.0
 12
-44.85000000000002
 22
44.35832450504429
 32
0.0
 13
-44.85000000000002
 23
44.35832450504429
 33
0.0
  0
MTEXT
  5
285
330
27D
100
AcDbEntity
  8
치수문자_일반주서
 62
     0
100
AcDbMText
 10
-9.850000000000023
 20
48.73332450504429
 30
0.0
 40
3.5
 41
0.0
 71
     2
 72
     1
  1
\A1;70
  7
SLDTEXTSTYLE0
 73
     1
 44
1.0
  0
POINT
  5
286
330
27D
100
AcDbEntity
  8
Defpoints
 62
     0
100
AcDbPoint
 10
25.14999999999999
 20
3.800000000000001
 30
0.0
  0
POINT
  5
287
330
27D
100
AcDbEntity
  8
Defpoints
 62
     0
100
AcDbPoint
 10
-44.85000000000002
 20
2.999999999999997
 30
0.0
  0
POINT
  5
288
330
27D
100
AcDbEntity
  8
Defpoints
 62
     0
100
AcDbPoint
 10
-44.85000000000002
 20
44.35832450504429
 30
0.0
  0
ENDBLK
  5
27F
330
27D
100
AcDbEntity
  8
0
100
AcDbBlockEnd
  0
BLOCK
  5
28A
330
289
100
AcDbEntity
  8
0
100
AcDbBlockBegin
  2
*D17
 70
     1
 10
0.0
 20
0.0
 30
0.0
  3
*D17
  1
*D18
  0
LINE
  5
28C
330
289
100
AcDbEntity
  8
치수문자_일반주서
 62
     0
370
    -2
100
AcDbLine
 10
25.14999999999997
 20
3.857101621279786
 30
0.0
 11
25.14999999999997
 21
30.31999999999865
 31
0.0
  0
LINE
  5
28D
330
289
100
AcDbEntity
  8
치수문자_일반주서
 62
     0
370
    -2
100
AcDbLine
 10
0.1499999999999919
 20
3.912500000000005
 30
0.0
 11
0.1499999999999915
 21
30.31999999999865
 31
0.0
  0
LINE
  5
28E
330
289
100
AcDbEntity
  8
치수문자_일반주서
 62
     0
370
    -2
100
AcDbLine
 10
25.14999999999997
 20
30.31999999999865
 30
0.0
 11
43.61725899830519
 21
30.31999999999865
 31
0.0
  0
LINE
  5
28F
330
289
100
AcDbEntity
  8
치수문자_일반주서
 62
     0
370
    -2
100
AcDbLine
 10
25.14999999999997
 20
30.31999999999865
 30
0.0
 11
0.1499999999999915
 21
30.31999999999865
 31
0.0
  0
LINE
  5
290
330
289
100
AcDbEntity
  8
치수문자_일반주서
 62
     0
370
    -2
100
AcDbLine
 10
28.45199999999997
 20
30.31999999999865
 30
0.0
 11
31.75399999999997
 21
30.31999999999865
 31
0.0
  0
LINE
  5
291
330
289
100
AcDbEntity
  8
치수문자_일반주서
 62
     0
370
    -2
100
AcDbLine
 10
-3.152000000000009
 20
30.31999999999865
 30
0.0
 11
-6.454000000000009
 21
30.31999999999865
 31
0.0
  0
SOLID
  5
292
330
289
100
AcDbEntity
  8
치수문자_일반주서
 62
     0
100
AcDbTrace
 10
28.45199999999997
 20
30.87033333333199
 30
0.0
 11
28.45199999999997
 21
29.76966666666532
 31
0.0
 12
25.14999999999997
 22
30.31999999999865
 32
0.0
 13
25.14999999999997
 23
30.31999999999865
 33
0.0
  0
SOLID
  5
293
330
289
100
AcDbEntity
  8
치수문자_일반주서
 62
     0
100
AcDbTrace
 10
-3.152000000000009
 20
29.76966666666532
 30
0.0
 11
-3.152000000000009
 21
30.87033333333199
 31
0.0
 12
0.1499999999999915
 22
30.31999999999865
 32
0.0
 13
0.1499999999999915
 23
30.31999999999865
 33
0.0
  0
MTEXT
  5
294
330
289
100
AcDbEntity
  8
치수문자_일반주서
 62
     0
100
AcDbMText
 10
40.55475899830519
 20
34.69499999999866
 30
0.0
 40
3.5
 41
0.0
 71
     2
 72
     1
  1
\A1;25
  7
SLDTEXTSTYLE0
 73
     1
 44
1.0
  0
POINT
  5
295
330
289
100
AcDbEntity
  8
Defpoints
 62
     0
100
AcDbPoint
 10
25.14999999999997
 20
3.794601621279786
 30
0.0
  0
POINT
  5
296
330
289
100
AcDbEntity
  8
Defpoints
 62
     0
100
AcDbPoint
 10
0.1499999999999919
 20
3.850000000000005
 30
0.0
  0
POINT
  5
297
330
289
100
AcDbEntity
  8
Defpoints
 62
     0
100
AcDbPoint
 10
0.1499999999999919
 20
30.31999999999865
 30
0.0
  0
ENDBLK
  5
28B
330
289
100
AcDbEntity
  8
0
100
AcDbBlockEnd
  0
BLOCK
  5
299
330
298
100
AcDbEntity
  8
0
100
AcDbBlockBegin
  2
*D18
 70
     1
 10
0.0
 20
0.0
 30
0.0
  3
*D18
  1
*D19
  0
LINE
  5
29B
330
298
100
AcDbEntity
  8
치수문자_일반주서
 62
     0
370
    -2
100
AcDbLine
 10
25.01249999999998
 20
3.990181898997971
 30
0.0
 11
32.72435962307042
 21
3.990181898997971
 31
0.0
  0
LINE
  5
29C
330
298
100
AcDbEntity
  8
치수문자_일반주서
 62
     0
370
    -2
100
AcDbLine
 10
22.78799857587835
 20
-4.010250776535539
 30
0.0
 11
32.72435962307042
 21
-4.010250776535539
 31
0.0
  0
LINE
  5
29D
330
298
100
AcDbEntity
  8
치수문자_일반주서
 62
     0
370
    -2
100
AcDbLine
 10
32.72435962307042
 20
3.990181898997971
 30
0.0
 11
32.72435962307042
 21
19.34418189899797
 31
0.0
  0
LINE
  5
29E
330
298
100
AcDbEntity
  8
치수문자_일반주서
 62
     0
370
    -2
100
AcDbLine
 10
32.72435962307042
 20
0.6881818989979709
 30
0.0
 11
32.72435962307042
 21
-0.708250776535539
 31
0.0
  0
LINE
  5
29F
330
298
100
AcDbEntity
  8
치수문자_일반주서
 62
     0
370
    -2
100
AcDbLine
 10
32.72435962307042
 20
0.6881818989979709
 30
0.0
 11
32.72435962307042
 21
-2.613818101002029
 31
0.0
  0
SOLID
  5
2A0
330
298
100
AcDbEntity
  8
치수문자_일반주서
 62
     0
100
AcDbTrace
 10
33.27469295640375
 20
0.6881818989979709
 30
0.0
 11
32.17402628973709
 21
0.6881818989979709
 31
0.0
 12
32.72435962307042
 22
3.990181898997971
 32
0.0
 13
32.72435962307042
 23
3.990181898997971
 33
0.0
  0
SOLID
  5
2A1
330
298
100
AcDbEntity
  8
치수문자_일반주서
 62
     0
100
AcDbTrace
 10
32.17402628973709
 20
-0.708250776535539
 30
0.0
 11
33.27469295640375
 21
-0.708250776535539
 31
0.0
 12
32.72435962307042
 22
-4.010250776535539
 32
0.0
 13
32.72435962307042
 23
-4.010250776535539
 33
0.0
  0
MTEXT
  5
2A2
330
298
100
AcDbEntity
  8
치수문자_일반주서
 62
     0
100
AcDbMText
 10
30.09935962307042
 20
14.96918189899797
 30
0.0
 40
3.5
 41
0.0
 71
     5
 72
     1
  1
\A1;{%%c 8}
  7
SLDTEXTSTYLE0
 11
0.0
 21
1.0
 31
0.0
 73
     1
 44
1.0
  0
POINT
  5
2A3
330
298
100
AcDbEntity
  8
Defpoints
 62
     0
100
AcDbPoint
 10
24.94999999999998
 20
3.990181898997971
 30
0.0
  0
POINT
  5
2A4
330
298
100
AcDbEntity
  8
Defpoints
 62
     0
100
AcDbPoint
 10
22.72549857587835
 20
-4.010250776535539
 30
0.0
  0
POINT
  5
2E8
330
298
100
AcDbEntity
  8
Defpoints
 62
     0
100
AcDbPoint
 10
32.72435962307042
 20
-4.01025077653554
 30
0.0
  0
ENDBLK
  5
29A
330
298
100
AcDbEntity
  8
0
100
AcDbBlockEnd
  0
BLOCK
  5
2A6
330
2A5
100
AcDbEntity
  8
0
100
AcDbBlockBegin
  2
*D19
 70
     1
 10
0.0
 20
0.0
 30
0.0
  3
*D19
  1
*D20
  0
LINE
  5
2A8
330
2A5
100
AcDbEntity
  8
0
 62
     0
370
    -2
100
AcDbLine
 10
44.26495087021821
 20
-12.0832080394551
 30
0.0
 11
29.32428420355145
 21
-12.0832080394551
 31
0.0
  0
LINE
  5
2A9
330
2A5
100
AcDbEntity
  8
0
 62
     0
370
    -2
100
AcDbLine
 10
29.32428420355145
 20
-12.0832080394551
 30
0.0
 11
26.87022111053692
 21
-6.949715898029105
 31
0.0
  0
MTEXT
  5
2AA
330
2A5
100
AcDbEntity
  8
0
 62
     0
100
AcDbMText
 10
37.55661753688487
 20
-8.517541372788436
 30
0.0
 40
3.5
 41
0.0
 71
     5
 72
     1
  1
R0,20
 73
     1
 44
1.0
  0
LINE
  5
2AB
330
2A5
100
AcDbEntity
  8
0
 62
     0
370
    -2
100
AcDbLine
 10
25.35980762113532
 20
-3.790181898997965
 30
0.0
 11
25.44606767192924
 21
-3.970623589405228
 31
0.0
  0
SOLID
  5
2AC
330
2A5
100
AcDbEntity
  8
0
 62
     0
100
AcDbTrace
 10
27.36673649530756
 20
-6.712356991594493
 30
0.0
 11
26.37370572576627
 21
-7.187074804463717
 31
0.0
 12
25.44606767192924
 22
-3.970623589405228
 32
0.0
 13
25.44606767192924
 23
-3.970623589405228
 33
0.0
  0
POINT
  5
2AD
330
2A5
100
AcDbEntity
  8
Defpoints
 62
     0
100
AcDbPoint
 10
25.44606767192924
 20
-3.970623589405228
 30
0.0
  0
POINT
  5
2AE
330
2A5
100
AcDbEntity
  8
Defpoints
 62
     0
100
AcDbPoint
 10
25.35980762113532
 20
-3.790181898997965
 30
0.0
  0
ENDBLK
  5
2A7
330
2A5
100
AcDbEntity
  8
0
100
AcDbBlockEnd
  0
BLOCK
  5
2B7
330
2B6
100
AcDbEntity
  8
0
100
AcDbBlockBegin
  2
*D20
 70
     1
 10
0.0
 20
0.0
 30
0.0
  3
*D20
  1
*D21
  0
LINE
  5
2B9
330
2B6
100
AcDbEntity
  8
0
 62
     0
370
    -2
100
AcDbLine
 10
49.30306174945417
 20
-14.43847540621993
 30
0.0
 11
34.36239508278749
 21
-14.43847540621993
 31
0.0
  0
LINE
  5
2BA
330
2B6
100
AcDbEntity
  8
0
 62
     0
370
    -2
100
AcDbLine
 10
34.36239508278749
 20
-14.43847540621993
 30
0.0
 11
26.69773148412137
 21
-5.930740418266064
 31
0.0
  0
MTEXT
  5
2BB
330
2B6
100
AcDbEntity
  8
0
 62
     0
100
AcDbMText
 10
42.59472841612083
 20
-10.87280873955326
 30
0.0
 40
3.5
 41
0.0
 71
     5
 72
     1
  1
R2,00
 73
     1
 44
1.0
  0
LINE
  5
2BC
330
2B6
100
AcDbEntity
  8
0
 62
     0
370
    -2
100
AcDbLine
 10
23.14670504746441
 20
-1.989120349832378
 30
0.0
 11
24.48758317434365
 21
-3.477487791897004
 31
0.0
  0
SOLID
  5
2BD
330
2B6
100
AcDbEntity
  8
0
 62
     0
100
AcDbTrace
 10
27.10660692184954
 20
-5.562382366636443
 30
0.0
 11
26.28885604639319
 21
-6.299098469895684
 31
0.0
 12
24.48758317434365
 22
-3.477487791897004
 32
0.0
 13
24.48758317434365
 23
-3.477487791897004
 33
0.0
  0
POINT
  5
2BE
330
2B6
100
AcDbEntity
  8
Defpoints
 62
     0
100
AcDbPoint
 10
24.48758317434365
 20
-3.477487791897004
 30
0.0
  0
POINT
  5
2BF
330
2B6
100
AcDbEntity
  8
Defpoints
 62
     0
100
AcDbPoint
 10
23.14670504746441
 20
-1.989120349832378
 30
0.0
  0
ENDBLK
  5
2B8
330
2B6
100
AcDbEntity
  8
0
100
AcDbBlockEnd
  0
ENDSEC
  0
SECTION
  2
ENTITIES
  0
INSERT
  5
CE
330
1F
100
AcDbEntity
  8
0
  6
Continuous
 62
     7
100
AcDbBlockReference
 66
     1
  2
블럭10
 10
-22.93944368806589
 20
-52.04609937292004
 30
0.0
  0
ATTRIB
  5
CF
330
CE
100
AcDbEntity
  8
FORMAT
 62
     2
100
AcDbText
 10
-39.05870472750145
 20
-49.97073246008785
 30
0.0
 40
4.233333333333333
  1
SEME6108020E [ 2 FLUTE ]
 41
0.75
  7
SLDTEXTSTYLE0
 11
-39.05870472750145
 21
-52.08739912675452
 31
0.0
100
AcDbAttribute
  2
AUTOATTR0
 70
     0
 74
     1
  0
SEQEND
  5
D0
330
CE
100
AcDbEntity
  8
0
  6
Continuous
 62
     7
  0
HATCH
  5
D1
330
1F
100
AcDbEntity
  8
중심선
100
AcDbHatch
 10
0.0
 20
0.0
 30
0.0
210
0.0
220
0.0
230
1.0
  2
SOLID
 70
     1
 71
     0
 91
        1
 92
        0
 93
        4
 72
     1
 10
-17.22453438368504
 20
-35.7989250712761
 11
-20.67080962752232
 21
-35.7989250712761
 72
     1
 10
-20.67080962752232
 20
-35.7989250712761
 11
-22.79903948672635
 21
-38.3352506518487
 72
     1
 10
-22.79903948672635
 20
-38.3352506518487
 11
-19.35273115777591
 21
-38.33521122254621
 72
     1
 10
-19.35273115777591
 20
-38.33521122254621
 11
-17.22453438368504
 21
-35.7989250712761
 97
        0
 75
     0
 76
     1
 98
        1
 10
0.0
 20
0.0
  0
HATCH
  5
D2
330
1F
100
AcDbEntity
  8
중심선
100
AcDbHatch
 10
0.0
 20
0.0
 30
0.0
210
0.0
220
0.0
230
1.0
  2
SOLID
 70
     1
 71
     0
 91
        1
 92
        0
 93
        4
 72
     1
 10
-12.21177039264909
 20
-35.7989250712761
 11
-15.65804563648637
 21
-35.7989250712761
 72
     1
 10
-15.65804563648637
 20
-35.7989250712761
 11
-20.18918364484376
 21
-41.19892507127612
 72
     1
 10
-20.18918364484376
 20
-41.19892507127612
 11
-16.74290840100648
 21
-41.19892507127612
 72
     1
 10
-16.74290840100648
 20
-41.19892507127612
 11
-12.21177039264909
 21
-35.7989250712761
 97
        0
 75
     0
 76
     1
 98
        1
 10
0.0
 20
0.0
  0
HATCH
  5
D3
330
1F
100
AcDbEntity
  8
중심선
100
AcDbHatch
 10
0.0
 20
0.0
 30
0.0
210
0.0
220
0.0
230
1.0
  2
SOLID
 70
     1
 71
     0
 91
        1
 92
        0
 93
        4
 72
     1
 10
-7.199006401613195
 20
-35.79892507127613
 11
-10.64528164545031
 21
-35.7989250712761
 72
     1
 10
-10.64528164545031
 20
-35.7989250712761
 11
-17.69371854733956
 21
-44.19892507127612
 72
     1
 10
-17.69371854733956
 20
-44.19892507127612
 11
-14.24744330350228
 21
-44.19892507127612
 72
     1
 10
-14.24744330350228
 20
-44.19892507127612
 11
-7.199006401613195
 21
-35.79892507127613
 97
        0
 75
     0
 76
     1
 98
        1
 10
0.0
 20
0.0
  0
HATCH
  5
D4
330
1F
100
AcDbEntity
  8
중심선
100
AcDbHatch
 10
0.0
 20
0.0
 30
0.0
210
0.0
220
0.0
230
1.0
  2
SOLID
 70
     1
 71
     0
 91
        1
 92
        0
 93
        6
 72
     3
 10
-2.399115970600996
 20
-39.99892507132738
 11
3.960054785062284
 21
1.540850780301639E-10
 40
0.3939339440162633
 50
17.09539180608433
 51
320.0019657685079
 73
     0
 72
     1
 10
-0.7161163149004002
 20
-38.58681907591441
 11
1.589185558800638
 21
-36.65249236586649
 72
     3
 10
-2.399115970653842
 20
-39.99892507127625
 11
6.600054785286829
 21
-1.249000902703301E-13
 40
0.6363583540795982
 50
39.99873849337408
 51
368.4976242363724
 73
     1
 72
     1
 10
4.026216521246767
 20
-39.03892507120613
 11
-3.71904866381792
 21
-39.0389250712061
 72
     1
 10
-3.71904866381792
 20
-39.0389250712061
 11
-3.719073708263854
 21
-40.95892507120602
 72
     1
 10
-3.719073708263854
 20
-40.95892507120602
 11
0.7223060612081835
 21
-40.95892507120599
 97
        0
 75
     0
 76
     1
 98
        1
 10
0.0
 20
0.0
  0
LINE
  5
22C
330
1F
100
AcDbEntity
  8
0
  6
Continuous
 62
     4
370
    25
100
AcDbLine
 10
-0.0000000000000001
 20
3.999999999999997
 30
0.0
 11
-43.85000000000002
 21
3.999999999999997
 31
0.0
  0
LINE
  5
22D
330
1F
100
AcDbEntity
  8
0
  6
Continuous
 62
     4
370
    25
100
AcDbLine
 10
-43.85000000000002
 20
-3.999999999999996
 30
0.0
 11
0.0000000000000004
 21
-3.999999999999996
 31
0.0
1001
PE_URL
1000

  0
LINE
  5
22E
330
1F
100
AcDbEntity
  8
0
  6
Continuous
 62
     4
370
    25
100
AcDbLine
 10
-43.85000000000002
 20
3.999999999999997
 30
0.0
 11
-44.85000000000002
 21
2.999999999999997
 31
0.0
  0
LINE
  5
22F
330
1F
100
AcDbEntity
  8
0
  6
Continuous
 62
     4
370
    25
100
AcDbLine
 10
-44.85000000000002
 20
-2.999999999999996
 30
0.0
 11
-43.85000000000002
 21
-3.999999999999996
 31
0.0
  0
LINE
  5
230
330
1F
100
AcDbEntity
  8
0
  6
Continuous
 62
     4
370
    25
100
AcDbLine
 10
10.0999876748183
 20
3.850000000000005
 30
0.0
 11
0.1499999999999919
 21
3.850000000000005
 31
0.0
  0
LINE
  5
231
330
1F
100
AcDbEntity
  8
0
  6
Continuous
 62
     4
370
    25
100
AcDbLine
 10
0.1499999999999919
 20
-3.849999999999997
 30
0.0
 11
10.0999876748183
 21
-3.849999999999997
 31
0.0
  0
SPLINE
  5
232
330
1F
100
AcDbEntity
  8
0
  6
Continuous
 62
     4
370
    25
100
AcDbSpline
210
0.0
220
0.0
230
1.0
 70
     8
 71
     3
 72
    11
 73
     7
 74
     0
 42
0.000000001
 43
0.00000001
 40
0.0
 40
0.0
 40
0.0
 40
0.0
 40
0.3312970219250559
 40
0.5194178999289711
 40
0.6775707689686715
 40
0.9999999999999999
 40
0.9999999999999999
 40
0.9999999999999999
 40
0.9999999999999999
 10
13.14999999999999
 20
3.149004443785611
 30
0.0
 10
12.80994821336558
 20
3.141754562540069
 30
0.0
 10
12.27680431773256
 20
3.130387970503062
 30
0.0
 10
11.57124971879879
 20
3.122873716354317
 30
0.0
 10
10.89897283097386
 20
3.124612616006399
 30
0.0
 10
10.4099195419058
 20
3.138492784187588
 30
0.0
 10
10.08180687207426
 20
3.147805182532398
 30
0.0
  0
SPLINE
  5
233
330
1F
100
AcDbEntity
  8
0
  6
Continuous
 62
     4
370
    25
100
AcDbSpline
210
0.0
220
0.0
230
1.0
 70
     8
 71
     3
 72
    11
 73
     7
 74
     0
 42
0.000000001
 43
0.00000001
 40
0.0
 40
0.0
 40
0.0
 40
0.0
 40
0.2972504290959558
 40
0.4178266334652732
 40
0.6364735620074758
 40
1.0
 40
1.0
 40
1.0
 40
1.0
 10
10.08180687207426
 20
-3.14780518253239
 30
0.0
 10
10.37336322480093
 20
-3.139306675329596
 30
0.0
 10
10.78318604556422
 20
-3.12736084680775
 30
0.0
 10
11.39369677746616
 20
-3.12264203227868
 30
0.0
 10
12.10104201863016
 20
-3.126162889586193
 30
0.0
 10
12.6772032151934
 20
-3.138934164286826
 30
0.0
 10
13.03697547468865
 20
-3.146908929652998
 30
0.0
  0
LINE
  5
234
330
1F
100
AcDbEntity
  8
0
  6
Continuous
 62
     1
370
    25
100
AcDbLine
 10
14.78766605574201
 20
1.024996771045377
 30
0.0
 11
13.67641336057396
 21
1.580132406747961
 31
0.0
  0
LINE
  5
235
330
1F
100
AcDbEntity
  8
0
  6
Continuous
 62
     4
370
    25
100
AcDbLine
 10
13.48654271195271
 20
3.179720017116939
 30
0.0
 11
13.14999999999997
 21
3.149004443785611
 31
0.0
  0
SPLINE
  5
236
330
1F
100
AcDbEntity
  8
0
  6
Continuous
 62
     1
370
    25
100
AcDbSpline
210
0.0
220
0.0
230
1.0
 70
     8
 71
     3
 72
    23
 73
    19
 74
     0
 42
0.000000001
 43
0.00000001
 40
0.0
 40
0.0
 40
0.0
 40
0.0
 40
0.0842657568244074
 40
0.15807043042516
 40
0.2219883231293978
 40
0.2774868214830753
 40
0.3265478295693834
 40
0.3713789558510371
 40
0.4137066189063541
 40
0.4558969103477224
 40
0.5184267718329441
 40
0.5906168798343228
 40
0.6591829755884444
 40
0.6979247795471237
 40
0.748970818421205
 40
0.8163758919720483
 40
0.9003620887545074
 40
0.9999999999999999
 40
0.9999999999999999
 40
0.9999999999999999
 40
0.9999999999999999
 10
23.66299441859774
 20
2.735808538555748
 30
0.0
 10
23.47851752500798
 20
2.72049522285472
 30
0.0
 10
23.13246542659759
 20
2.69176964682811
 30
0.0
 10
22.62069752793385
 20
2.661130033776925
 30
0.0
 10
22.15597953222469
 20
2.644592815569805
 30
0.0
 10
21.75029199844015
 20
2.635344314255829
 30
0.0
 10
21.40261167011794
 20
2.632010898224703
 30
0.0
 10
21.12225198256927
 20
2.629914397396544
 30
0.0
 10
20.81792742259181
 20
2.632642962267344
 30
0.0
 10
20.46139804044514
 20
2.6435699575711
 30
0.0
 10
20.03467785085364
 20
2.659408115811705
 30
0.0
 10
19.55968474469875
 20
2.685145830642153
 30
0.0
 10
19.13908510961095
 20
2.715163310116918
 30
0.0
 10
18.76698697475358
 20
2.74667434744416
 30
0.0
 10
18.39950269519467
 20
2.781956737873199
 30
0.0
 10
17.92661595751752
 20
2.83411621006049
 30
0.0
 10
17.33964679041371
 20
2.90776427778938
 30
0.0
 10
16.90968397627141
 20
2.973089261980551
 30
0.0
 10
16.67637802764371
 20
3.008535832950213
 30
0.0
  0
SPLINE
  5
237
330
1F
100
AcDbEntity
  8
0
  6
Continuous
 62
     1
370
    25
100
AcDbSpline
210
0.0
220
0.0
230
1.0
 70
     8
 71
     3
 72
    14
 73
    10
 74
     0
 42
0.000000001
 43
0.00000001
 40
0.0
 40
0.0
 40
0.0
 40
0.0
 40
0.2394291925869136
 40
0.4371929218949405
 40
0.5915396157491559
 40
0.7142411142733769
 40
0.8215147685480987
 40
0.91378777765679
 40
1.0
 40
1.0
 40
1.0
 40
1.0
 10
16.67637802764368
 20
-3.008535832950205
 30
0.0
 10
16.9090099384524
 20
-2.973072857845021
 30
0.0
 10
17.33379115962923
 20
-2.90831817384927
 30
0.0
 10
17.91657619688492
 20
-2.834523032555917
 30
0.0
 10
18.39460311430527
 20
-2.782307596494657
 30
0.0
 10
18.78599235028115
 20
-2.744867557320755
 30
0.0
 10
19.11134264040094
 20
-2.71748693912929
 30
0.0
 10
19.39306490743003
 20
-2.69682683286928
 30
0.0
 10
19.56649802495342
 20
-2.686260506608231
 30
0.0
 10
19.65026996713577
 20
-2.68115674277546
 30
0.0
  0
LINE
  5
238
330
1F
100
AcDbEntity
  8
0
  6
Continuous
 62
     4
370
    25
100
AcDbLine
 10
13.29873320917891
 20
-3.162579023270129
 30
0.0
 11
13.48654271195271
 21
-3.179720017116931
 31
0.0
  0
LINE
  5
239
330
1F
100
AcDbEntity
  8
0
  6
Continuous
 62
     4
370
    25
100
AcDbLine
 10
0.1499999999999919
 20
3.850000000000005
 30
0.0
 11
0.1499999999999919
 21
-3.850000000000005
 31
0.0
1001
PE_URL
1000

  0
LINE
  5
23B
330
1F
100
AcDbEntity
  8
0
  6
Continuous
 62
     4
370
    25
100
AcDbLine
 10
-43.85000000000002
 20
3.999999999999997
 30
0.0
 11
-43.85000000000002
 21
-3.999999999999996
 31
0.0
  0
LINE
  5
23C
330
1F
100
AcDbEntity
  8
0
  6
Continuous
 62
     4
370
    25
100
AcDbLine
 10
-44.85000000000002
 20
2.999999999999997
 30
0.0
 11
-44.85000000000002
 21
-2.999999999999996
 31
0.0
  0
SPLINE
  5
23D
330
1F
100
AcDbEntity
  8
0
  6
Continuous
 62
     4
370
    25
100
AcDbSpline
210
0.0
220
0.0
230
1.0
 70
     8
 71
     3
 72
    12
 73
     8
 74
     0
 42
0.000000001
 43
0.00000001
 40
0.0
 40
0.0
 40
0.0
 40
0.0
 40
0.2500000000000003
 40
0.2500000000000003
 40
0.5000000000000006
 40
0.5000000000000006
 40
1.0
 40
1.0
 40
1.0
 40
1.0
 10
13.14999999999999
 20
1.839612849837519
 30
0.0
 10
12.89623825826793
 20
1.963586969453968
 30
0.0
 10
12.64078937612087
 20
2.084116069081919
 30
0.0
 10
12.13114339154335
 20
2.31606615849174
 30
0.0
 10
11.87824164736638
 20
2.427305252254112
 30
0.0
 10
11.11920678506634
 20
2.745789068777807
 30
0.0
 10
10.60463946149484
 20
2.938651114034297
 30
0.0
 10
10.09997480358598
 20
3.105198737291144
 30
0.0
  0
SPLINE
  5
23E
330
1F
100
AcDbEntity
  8
0
  6
Continuous
 62
     4
370
    25
100
AcDbSpline
210
0.0
220
0.0
230
1.0
 70
     8
 71
     3
 72
    12
 73
     8
 74
     0
 42
0.000000001
 43
0.00000001
 40
0.0
 40
0.0
 40
0.0
 40
0.0
 40
0.25
 40
0.25
 40
0.5
 40
0.5
 40
1.0
 40
1.0
 40
1.0
 40
1.0
 10
13.14999999999999
 20
0.8107054593072687
 30
0.0
 10
12.89623933694652
 20
0.9486676884711156
 30
0.0
 10
12.64079154783412
 20
1.085295925499143
 30
0.0
 10
12.13114771896842
 20
1.353391525071413
 30
0.0
 10
11.87824698859702
 20
1.484638499071896
 30
0.0
 10
11.11921546142399
 20
1.868707494425035
 30
0.0
 10
10.60465035503021
 20
2.113032736291796
 30
0.0
 10
10.09998767481833
 20
2.336920231512135
 30
0.0
  0
LINE
  5
23F
330
1F
100
AcDbEntity
  8
0
  6
Continuous
 62
     4
370
    25
100
AcDbLine
 10
10.0999876748183
 20
3.105303252677868
 30
0.0
 11
10.09998767481825
 21
3.850000000000005
 31
0.0
  0
LINE
  5
240
330
1F
100
AcDbEntity
  8
0
  6
Continuous
 62
     4
370
    25
100
AcDbLine
 10
10.09998767481825
 20
-3.849999999999997
 30
0.0
 11
10.09998767481833
 21
2.336964820545913
 31
0.0
  0
SPLINE
  5
241
330
1F
100
AcDbEntity
  8
0
  6
Continuous
 62
     4
370
    25
100
AcDbSpline
210
0.0
220
0.0
230
1.0
 70
    24
 71
     3
 72
    10
 73
     6
 74
     0
 42
0.000000001
 43
0.00000001
 40
0.0
 40
0.0
 40
0.0
 40
0.0
 40
0.5
 40
0.5
 40
1.0
 40
1.0
 40
1.0
 40
1.0
 10
13.14999999999999
 20
0.8107054593072687
 30
0.0
 10
13.14999999999997
 20
0.8093131281978185
 30
0.0
 10
13.14999999999999
 20
0.7756202601061273
 30
0.0
 10
13.14999999999997
 20
0.6499967416085153
 30
0.0
 10
13.14999999999997
 20
0.5584616161848683
 30
0.0
 10
13.14999999999997
 20
0.4498602447392241
 30
0.0
  0
SPLINE
  5
242
330
1F
100
AcDbEntity
  8
0
  6
Continuous
 62
     4
370
    25
100
AcDbSpline
210
0.0
220
0.0
230
1.0
 70
     8
 71
     3
 72
    12
 73
     8
 74
     0
 42
0.000000001
 43
0.00000001
 40
0.0
 40
0.0
 40
0.0
 40
0.0
 40
0.25
 40
0.25
 40
0.5
 40
0.5
 40
1.0
 40
1.0
 40
1.0
 40
1.0
 10
13.14999999999997
 20
0.4498602447392241
 30
0.0
 10
12.89623907677178
 20
0.5511644821162034
 30
0.0
 10
12.64079102402204
 20
0.6517831927052069
 30
0.0
 10
12.13114667520375
 20
0.849816162785292
 30
0.0
 10
11.87824570030495
 20
0.9470664777338453
 30
0.0
 10
11.1192133687072
 20
1.23257171689534
 30
0.0
 10
10.6046477275353
 20
1.41547067074124
 30
0.0
 10
10.09998457030725
 20
1.584402767977818
 30
0.0
  0
LINE
  5
243
330
1F
100
AcDbEntity
  8
0
  6
Continuous
 62
     4
370
    25
100
AcDbLine
 10
13.14999999999997
 20
3.15842911307286
 30
0.0
 11
13.036313835413
 21
3.146841491140944
 31
0.0
  0
SPLINE
  5
244
330
1F
100
AcDbEntity
  8
0
  6
Continuous
 62
     4
370
    25
100
AcDbSpline
210
0.0
220
0.0
230
1.0
 70
    24
 71
     3
 72
    12
 73
     8
 74
     0
 42
0.000000001
 43
0.00000001
 40
0.0
 40
0.0
 40
0.0
 40
0.0
 40
0.1445567519506694
 40
0.3787996305751558
 40
0.6198355685484915
 40
0.8309732651282555
 40
1.0
 40
1.0
 40
1.0
 40
1.0
 10
13.14999999999999
 20
3.146295444354618
 30
0.0
 10
13.14999999999999
 20
3.130801161575616
 30
0.0
 10
13.14999999999997
 20
3.090199608804714
 30
0.0
 10
13.14999999999997
 20
2.914529849178085
 30
0.0
 10
13.14999999999999
 20
2.612699462401534
 30
0.0
 10
13.14999999999999
 20
2.255420974859515
 30
0.0
 10
13.14999999999999
 20
1.978424547679336
 30
0.0
 10
13.14999999999999
 20
1.855267834994141
 30
0.0
  0
SPLINE
  5
245
330
1F
100
AcDbEntity
  8
0
  6
Continuous
 62
     4
370
    25
100
AcDbSpline
210
0.0
220
0.0
230
1.0
 70
     8
 71
     3
 72
    12
 73
     8
 74
     0
 42
0.000000001
 43
0.00000001
 40
0.0
 40
0.0
 40
0.0
 40
0.0
 40
0.25
 40
0.25
 40
0.5
 40
0.5
 40
1.0
 40
1.0
 40
1.0
 40
1.0
 10
13.14999999999997
 20
-3.158429113072852
 30
0.0
 10
12.89623894267537
 20
-3.139583155199634
 30
0.0
 10
12.64079075404449
 20
-3.114310322297004
 30
0.0
 10
12.13114613723789
 20
-3.051316414299091
 30
0.0
 10
11.87824503630741
 20
-3.013672971801586
 30
0.0
 10
11.11921229010179
 20
-2.882815170389509
 30
0.0
 10
10.60464637330041
 20
-2.770909233801024
 30
0.0
 10
10.09998297021393
 20
-2.638407973045698
 30
0.0
  0
SPLINE
  5
246
330
1F
100
AcDbEntity
  8
0
  6
Continuous
 62
     4
370
    25
100
AcDbSpline
210
0.0
220
0.0
230
1.0
 70
    24
 71
     3
 72
    14
 73
    10
 74
     0
 42
0.000000001
 43
0.00000001
 40
0.0
 40
0.0
 40
0.0
 40
0.0
 40
0.25
 40
0.25
 40
0.5
 40
0.5
 40
0.75
 40
0.75
 40
1.0
 40
1.0
 40
1.0
 40
1.0
 10
13.14999999999997
 20
0.4498602447392241
 30
0.0
 10
13.14999999999997
 20
0.0960228628898858
 30
0.0
 10
13.14999999999997
 20
-0.2668685275236302
 30
0.0
 10
13.14999999999997
 20
-0.9767702961624098
 30
0.0
 10
13.14999999999999
 20
-1.323404682156113
 30
0.0
 10
13.14999999999997
 20
-1.964701732027013
 30
0.0
 10
13.14999999999997
 20
-2.259022686024554
 30
0.0
 10
13.14999999999999
 20
-2.769593375950069
 30
0.0
 10
13.14999999999997
 20
-2.985747090901934
 30
0.0
 10
13.14999999999997
 20
-3.158429113072852
 30
0.0
  0
SPLINE
  5
247
330
1F
100
AcDbEntity
  8
0
  6
Continuous
 62
     1
370
    25
100
AcDbSpline
210
0.0
220
0.0
230
1.0
 70
     8
 71
     3
 72
    32
 73
    28
 74
     0
 42
0.000000001
 43
0.00000001
 40
0.0984012597473335
 40
0.0984012597473335
 40
0.0984012597473335
 40
0.0984012597473335
 40
0.1250000000000001
 40
0.1250000000000001
 40
0.2500000000000002
 40
0.2500000000000002
 40
0.3125000000000002
 40
0.3125000000000002
 40
0.3750000000000002
 40
0.3750000000000002
 40
0.4375000000000003
 40
0.4375000000000003
 40
0.5000000000000003
 40
0.5000000000000003
 40
0.5625000000000003
 40
0.5625000000000003
 40
0.6250000000000004
 40
0.6250000000000004
 40
0.7499999999999998
 40
0.7499999999999998
 40
0.8124999999999999
 40
0.8124999999999999
 40
0.8749999999999999
 40
0.8749999999999999
 40
0.9375
 40
0.9375
 40
1.0
 40
1.0
 40
1.0
 40
1.0
 10
23.78672556452886
 20
-3.887426313442496
 30
0.0
 10
23.6821679810994
 20
-3.873215072552534
 30
0.0
 10
23.57787684253543
 20
-3.857686737952928
 30
0.0
 10
22.98590165492111
 20
-3.761776792926429
 30
0.0
 10
22.48832936083095
 20
-3.652987594333222
 30
0.0
 10
21.75284746774581
 20
-3.450539008612654
 30
0.0
 10
21.50881539722501
 20
-3.37654171258514
 30
0.0
 10
21.01602534996467
 20
-3.215590291768069
 30
0.0
 10
20.76878462275311
 20
-3.128770957108532
 30
0.0
 10
20.27680880167292
 20
-2.943938758080744
 30
0.0
 10
20.03341313192898
 20
-2.846130684400872
 30
0.0
 10
19.54184173858907
 20
-2.639523828246812
 30
0.0
 10
19.29464448609331
 20
-2.530829028174242
 30
0.0
 10
18.80162146588292
 20
-2.304473003555831
 30
0.0
 10
18.55709120070519
 20
-2.187030181963361
 30
0.0
 10
18.06734415273762
 20
-1.944260060269517
 30
0.0
 10
17.8204990533577
 20
-1.818647769015104
 30
0.0
 10
17.08031125610619
 20
-1.432242842147463
 30
0.0
 10
16.59273935303559
 20
-1.162888862120627
 30
0.0
 10
15.85281852544465
 20
-0.7472064587552114
 30
0.0
 10
15.60573160286525
 20
-0.6068819347267609
 30
0.0
 10
15.11485286047217
 20
-0.325098751000414
 30
0.0
 10
14.87119636417613
 20
-0.1836706385060682
 30
0.0
 10
14.37870654613075
 20
0.1003387556721234
 30
0.0
 10
14.13144643837488
 20
0.2426167289282444
 30
0.0
 10
13.63909395560966
 20
0.5253037199384534
 30
0.0
 10
13.3955448007941
 20
0.6654206776379294
 30
0.0
 10
13.14999999999999
 20
0.8044000053945948
 30
0.0
  0
SPLINE
  5
248
330
1F
100
AcDbEntity
  8
0
  6
Continuous
 62
     1
370
    25
100
AcDbSpline
210
0.0
220
0.0
230
1.0
 70
     8
 71
     3
 72
     9
 73
     5
 74
     0
 42
0.000000001
 43
0.00000001
 40
0.0
 40
0.0
 40
0.0
 40
0.0
 40
0.144396102653213
 40
1.0
 40
1.0
 40
1.0
 40
1.0
 10
15.2070210017519
 20
-0.376004537847304
 30
0.0
 10
15.10801311715436
 20
-0.3371205119837444
 30
0.0
 10
14.4223444406574
 20
-0.0678332864348223
 30
0.0
 10
13.73666769548747
 20
0.2111559590147363
 30
0.0
 10
13.14999999999997
 20
0.4498602447392241
 30
0.0
  0
SPLINE
  5
249
330
1F
100
AcDbEntity
  8
0
  6
Continuous
 62
     4
370
    25
100
AcDbSpline
210
0.0
220
0.0
230
1.0
 70
    24
 71
     3
 72
    11
 73
     7
 74
     0
 42
0.000000001
 43
0.00000001
 40
0.0
 40
0.0
 40
0.0
 40
0.0
 40
0.2460279403722765
 40
0.4878216010837182
 40
0.7366272943360694
 40
1.0
 40
1.0
 40
1.0
 40
1.0
 10
13.14999999999997
 20
0.810487815160212
 30
0.0
 10
13.14999999999997
 20
0.8064671558361565
 30
0.0
 10
13.14999999999999
 20
0.7984950350034379
 30
0.0
 10
13.14999999999999
 20
0.7283560894789756
 30
0.0
 10
13.14999999999999
 20
0.6184915296014108
 30
0.0
 10
13.14999999999997
 20
0.5071264616157731
 30
0.0
 10
13.14999999999997
 20
0.4498602447392241
 30
0.0
  0
SPLINE
  5
24A
330
1F
100
AcDbEntity
  8
0
  6
Continuous
 62
     1
370
    25
100
AcDbSpline
210
0.0
220
0.0
230
1.0
 70
     8
 71
     3
 72
    16
 73
    12
 74
     0
 42
0.000000001
 43
0.00000001
 40
0.0315623084798406
 40
0.0315623084798406
 40
0.0315623084798406
 40
0.0315623084798406
 40
0.1207512413392127
 40
0.2413095233677385
 40
0.3618692433570821
 40
0.4826246899338094
 40
0.6033716839907056
 40
0.7239285704254951
 40
0.8444897707372899
 40
0.9652492968069007
 40
1.0
 40
1.0
 40
1.0
 40
1.0
 10
24.82186684603703
 20
-3.087843617890534
 30
0.0
 10
24.51278924044313
 20
-3.023059833618588
 30
0.0
 10
23.78595090349232
 20
-2.863834532351964
 30
0.0
 10
22.64169068542349
 20
-2.515719986543526
 30
0.0
 10
21.38807663828242
 20
-2.059427150086367
 30
0.0
 10
20.13334872202664
 20
-1.534293412407034
 30
0.0
 10
18.8786577027568
 20
-0.9597600366953887
 30
0.0
 10
17.62506954709692
 20
-0.3524652722759813
 30
0.0
 10
16.37145281696683
 20
0.2636436786779552
 30
0.0
 10
15.41468217945551
 20
0.7340635236804585
 30
0.0
 10
14.87580958858375
 20
0.9807165805795219
 30
0.0
 10
14.75539177714414
 20
1.035834287064862
 30
0.0
  0
SPLINE
  5
24D
330
1F
100
AcDbEntity
  8
0
  6
Continuous
 62
     1
370
    25
100
AcDbSpline
210
0.0
220
0.0
230
1.0
 70
     8
 71
     3
 72
    32
 73
    28
 74
     0
 42
0.000000001
 43
0.00000001
 40
0.0537860301657085
 40
0.0537860301657085
 40
0.0537860301657085
 40
0.0537860301657085
 40
0.125
 40
0.125
 40
0.25
 40
0.25
 40
0.3125
 40
0.3125
 40
0.375
 40
0.375
 40
0.4375
 40
0.4375
 40
0.5
 40
0.5
 40
0.5625
 40
0.5625
 40
0.625
 40
0.625
 40
0.75
 40
0.75
 40
0.8125
 40
0.8125
 40
0.875
 40
0.875
 40
0.9375
 40
0.9375
 40
1.0
 40
1.0
 40
1.0
 40
1.0
 10
24.3143575918624
 20
-3.616303480637039
 30
0.0
 10
24.03323124947515
 20
-3.547097579304778
 30
0.0
 10
23.75209404815352
 20
-3.469049047070986
 30
0.0
 10
22.98590165492111
 20
-3.23185937463651
 30
0.0
 10
22.48832936083095
 20
-3.054070913702734
 30
0.0
 10
21.75284746774587
 20
-2.756162892110612
 30
0.0
 10
21.50881539722501
 20
-2.651640573922893
 30
0.0
 10
21.01602534996467
 20
-2.432298458591891
 30
0.0
 10
20.76878462275313
 20
-2.317680968726055
 30
0.0
 10
20.27680880167292
 20
-2.080513816634347
 30
0.0
 10
20.03341313192901
 20
-1.958206422051407
 30
0.0
 10
19.54184173858907
 20
-1.705880484093587
 30
0.0
 10
19.29464448609331
 20
-1.576007269309034
 30
0.0
 10
18.80162146588292
 20
-1.311026643434562
 30
0.0
 10
18.55709120070519
 20
-1.176164424946843
 30
0.0
 10
18.06734415273765
 20
-0.902403503292422
 30
0.0
 10
17.8204990533577
 20
-0.7631931394289952
 30
0.0
 10
17.08031125610619
 20
-0.342076384407942
 30
0.0
 10
16.59273935303559
 20
-0.0577420046880692
 30
0.0
 10
15.85281852544468
 20
0.3678422305227795
 30
0.0
 10
15.60573160286525
 20
0.5093591429865865
 30
0.0
 10
15.11485286047217
 20
0.7893109271833763
 30
0.0
 10
14.87119636417616
 20
0.9277277208689836
 30
0.0
 10
14.37870654613077
 20
1.201507862301764
 30
0.0
 10
14.13144643837488
 20
1.336566620641886
 30
0.0
 10
13.63909395560966
 20
1.600729730303787
 30
0.0
 10
13.39554480079413
 20
1.729573895895254
 30
0.0
 10
13.14999999999999
 20
1.855267834994141
 30
0.0
  0
LINE
  5
24E
330
1F
100
AcDbEntity
  8
0
  6
Continuous
 62
     4
370
    25
100
AcDbLine
 10
13.14999999999997
 20
0.8044000053945948
 30
0.0
 11
13.14999999999999
 21
1.855267834994141
 31
0.0
  0
SPLINE
  5
24F
330
1F
100
AcDbEntity
  8
0
  6
Continuous
 62
     1
370
    25
100
AcDbSpline
210
0.0
220
0.0
230
1.0
 70
     8
 71
     3
 72
    15
 73
    11
 74
     0
 42
0.000000001
 43
0.00000001
 40
0.0
 40
0.0
 40
0.0
 40
0.0
 40
0.1440365201637837
 40
0.288073107982024
 40
0.432109762987008
 40
0.5761464847107894
 40
0.6894404422287171
 40
0.8025851156737557
 40
0.9156843793640398
 40
1.0
 40
1.0
 40
1.0
 40
1.0
 10
25.14999999999999
 20
0.0000000000000111
 30
0.0
 10
24.58996118380638
 20
0.2586712152542927
 30
0.0
 10
23.46988328836703
 20
0.7760137672616279
 30
0.0
 10
21.78976582497841
 20
1.506595491434699
 30
0.0
 10
20.10964786100856
 20
2.14907855337567
 30
0.0
 10
18.54906111962915
 20
2.62878305699309
 30
0.0
 10
17.10859182131849
 20
2.952856748809051
 30
0.0
 10
15.78874066804783
 20
3.139653290217748
 30
0.0
 10
14.58159680987756
 20
3.21963258994968
 30
0.0
 10
13.81415461239804
 20
3.183927985472931
 30
0.0
 10
13.48638112458049
 20
3.168678598901633
 30
0.0
  0
SPLINE
  5
250
330
1F
100
AcDbEntity
  8
0
  6
Continuous
 62
     1
370
    25
100
AcDbSpline
210
0.0
220
0.0
230
1.0
 70
    24
 71
     3
 72
    12
 73
     8
 74
     0
 42
0.000000001
 43
0.00000001
 40
0.4388501496478381
 40
0.4388501496478381
 40
0.4388501496478381
 40
0.4388501496478381
 40
0.5
 40
0.5
 40
0.75
 40
0.75
 40
1.0
 40
1.0
 40
1.0
 40
1.0
 10
25.14999999999998
 20
-1.990181898997776
 30
0.0
 10
25.14999999999998
 20
-1.92511465350935
 30
0.0
 10
25.14999999999998
 20
-1.858791344355095
 30
0.0
 10
25.14999999999997
 20
-1.515549620439404
 30
0.0
 10
25.14999999999999
 20
-1.220978077498781
 30
0.0
 10
25.14999999999999
 20
-0.6163234371177597
 30
0.0
 10
25.14999999999999
 20
-0.3064196984977445
 30
0.0
 10
25.14999999999999
 20
0.0000000000000111
 30
0.0
  0
SPLINE
  5
251
330
1F
100
AcDbEntity
  8
0
  6
Continuous
 62
     4
370
    25
100
AcDbSpline
210
0.0
220
0.0
230
1.0
 70
    24
 71
     3
 72
    12
 73
     8
 74
     0
 42
0.000000001
 43
0.00000001
 40
0.0
 40
0.0
 40
0.0
 40
0.0
 40
0.1446045664513481
 40
0.3788343522069568
 40
0.6198568176173306
 40
0.8309827127788717
 40
1.0
 40
1.0
 40
1.0
 40
1.0
 10
13.14999999999999
 20
3.146317177674231
 30
0.0
 10
13.14999999999999
 20
3.130817635786674
 30
0.0
 10
13.14999999999999
 20
3.090212010013051
 30
0.0
 10
13.14999999999997
 20
2.914530989307363
 30
0.0
 10
13.14999999999999
 20
2.612699194801263
 30
0.0
 10
13.14999999999997
 20
2.255421023505204
 30
0.0
 10
13.14999999999999
 20
1.97842456265121
 30
0.0
 10
13.14999999999997
 20
1.855267834994141
 30
0.0
  0
LINE
  5
252
330
1F
100
AcDbEntity
  8
0
  6
Continuous
 62
     1
370
    25
100
AcDbLine
 10
24.98231329954561
 20
2.791822699050141
 30
0.0
 11
23.66169798698444
 21
2.727422428661658
 31
0.0
  0
LINE
  5
253
330
1F
100
AcDbEntity
  8
0
  6
Continuous
 62
     1
370
    25
100
AcDbLine
 10
25.14999999999999
 20
0.0000000000000111
 30
0.0
 11
25.14999999999999
 21
1.990181898997976
 31
0.0
  0
SPLINE
  5
254
330
1F
100
AcDbEntity
  8
0
  6
Continuous
 62
     1
370
    25
100
AcDbSpline
210
0.0
220
0.0
230
1.0
 70
     8
 71
     3
 72
    10
 73
     6
 74
     0
 42
0.000000001
 43
0.00000001
 40
0.0
 40
0.0
 40
0.0
 40
0.0
 40
0.2092955679781091
 40
0.6045638205926488
 40
0.9999999999999999
 40
0.9999999999999999
 40
0.9999999999999999
 40
0.9999999999999999
 10
16.68237658654543
 20
-2.99223959181916
 30
0.0
 10
16.43594458617462
 20
-3.033548925394303
 30
0.0
 10
15.72410977237648
 20
-3.152873614271332
 30
0.0
 10
14.54670092108443
 20
-3.221472526329026
 30
0.0
 10
13.61563288592139
 20
-3.17944655926313
 30
0.0
 10
13.14999999999997
 20
-3.158429113072852
 30
0.0
  0
SPLINE
  5
255
330
1F
100
AcDbEntity
  8
0
  6
Continuous
 62
     4
370
    25
100
AcDbSpline
210
0.0
220
0.0
230
1.0
 70
    24
 71
     3
 72
    14
 73
    10
 74
     0
 42
0.000000001
 43
0.00000001
 40
0.0
 40
0.0
 40
0.0
 40
0.0
 40
0.25
 40
0.25
 40
0.5
 40
0.5
 40
0.75
 40
0.75
 40
1.0
 40
1.0
 40
1.0
 40
1.0
 10
13.14999999999997
 20
0.4498602447392241
 30
0.0
 10
13.14999999999997
 20
0.0960228628898858
 30
0.0
 10
13.14999999999997
 20
-0.2668685275236302
 30
0.0
 10
13.14999999999997
 20
-0.9767702961624098
 30
0.0
 10
13.14999999999999
 20
-1.323404682156113
 30
0.0
 10
13.14999999999997
 20
-1.964701732027013
 30
0.0
 10
13.14999999999997
 20
-2.259022686024554
 30
0.0
 10
13.14999999999999
 20
-2.769593375950069
 30
0.0
 10
13.14999999999997
 20
-2.985747090901934
 30
0.0
 10
13.14999999999997
 20
-3.158429113072852
 30
0.0
  0
SPLINE
  5
257
330
1F
100
AcDbEntity
  8
0
  6
Continuous
 62
     1
370
    25
100
AcDbSpline
210
0.0
220
0.0
230
1.0
 70
     8
 71
     3
 72
    12
 73
     8
 74
     0
 42
0.000000001
 43
0.00000001
 40
0.0
 40
0.0
 40
0.0
 40
0.0
 40
0.0201342226691825
 40
0.2649749459643401
 40
0.5097522988038283
 40
0.7547290491485955
 40
0.780546342189359
 40
0.780546342189359
 40
0.780546342189359
 40
0.780546342189359
 10
19.65142799320579
 20
2.681685508685601
 30
0.0
 10
19.68699452944553
 20
2.698011244412652
 30
0.0
 10
20.15506529498264
 20
2.912864880094614
 30
0.0
 10
21.05516854022362
 20
3.240356048563808
 30
0.0
 10
22.35238231398522
 20
3.63187663750394
 30
0.0
 10
23.26295791318354
 20
3.817683619163942
 30
0.0
 10
23.74130564339677
 20
3.880365209959675
 30
0.0
 10
23.78691163659471
 20
3.886057308187662
 30
0.0
  0
LINE
  5
259
330
1F
100
AcDbEntity
  8
중심선
100
AcDbLine
 10
-47.85000000000002
 20
-0.0000000000000031
 30
0.0
 11
28.14999999999999
 21
0.0000000000000111
 31
0.0
  0
CIRCLE
  5
25A
330
1F
100
AcDbEntity
  8
외형선
100
AcDbCircle
 10
0.0
 20
0.0
 30
0.0
 40
3.000000000000005
  0
DIMENSION
  5
25B
330
1F
100
AcDbEntity
  8
치수문자_일반주서
100
AcDbDimension
  2
*D14
 10
-56.34645802161209
 20
-4.000000000000043
 30
0.0
 11
-56.3464580216121
 21
-0.0000000000000031
 31
0.0
 70
   160
  1
%%c<>
 71
     2
 42
7.999999999999993
 52
-270.0
  3
SLDDIMSTYLE0
100
AcDbAlignedDimension
 13
-43.85000000000002
 23
3.999999999999997
 33
0.0
 14
-43.85000000000002
 24
-3.999999999999996
 34
0.0
 50
90.0000000000002
100
AcDbRotatedDimension
  0
DIMENSION
  5
25C
330
1F
100
AcDbEntity
  8
치수문자_일반주서
100
AcDbDimension
  2
*D15
 10
13.14999999999997
 20
22.29999999999966
 30
0.0
 11
38.27550189016789
 21
22.29999999999966
 31
0.0
 70
   160
  1
<>
 71
     2
 42
12.00000000000002
  3
SLDDIMSTYLE1
100
AcDbAlignedDimension
 13
25.14999999999999
 23
3.800000000000001
 33
0.0
 14
13.14999999999997
 24
3.16298862875004
 34
0.0
100
AcDbRotatedDimension
  0
DIMENSION
  5
25D
330
1F
100
AcDbEntity
  8
치수문자_일반주서
100
AcDbDimension
  2
*D16
 10
-44.85000000000002
 20
44.35832450504429
 30
0.0
 11
-9.850000000000023
 21
44.35832450504429
 31
0.0
 70
   160
  1
<>
 71
     2
 42
70.0
  3
SLDDIMSTYLE1
100
AcDbAlignedDimension
 13
25.14999999999999
 23
3.800000000000001
 33
0.0
 14
-44.85000000000002
 24
2.999999999999997
 34
0.0
100
AcDbRotatedDimension
  0
DIMENSION
  5
25E
330
1F
100
AcDbEntity
  8
치수문자_일반주서
100
AcDbDimension
  2
*D17
 10
0.1499999999999915
 20
30.31999999999865
 30
0.0
 11
40.55475899830519
 21
30.31999999999865
 31
0.0
 70
   160
  1
<>
 71
     2
 42
24.99999999999998
  3
SLDDIMSTYLE0
100
AcDbAlignedDimension
 13
25.14999999999997
 23
3.794601621279786
 33
0.0
 14
0.1499999999999919
 24
3.850000000000005
 34
0.0
 50
-0.0000000000022354
100
AcDbRotatedDimension
  0
INSERT
  5
25F
330
1F
100
AcDbEntity
  8
외형선
100
AcDbBlockReference
  2
SW_DOWELSYMBOL_0
 10
0.0
 20
0.0
 30
0.0
  0
DIMENSION
  5
260
330
1F
100
AcDbEntity
  8
치수문자_일반주서
100
AcDbDimension
  2
*D18
 10
32.72435962307042
 20
-4.010250776535539
 30
0.0
 11
32.72435962307042
 21
14.96918189899797
 31
0.0
 70
   160
  1
{%%c <>}
 71
     5
 42
8.00043267553351
  3
SLDDIMSTYLE0
100
AcDbAlignedDimension
 13
24.94999999999998
 23
3.990181898997971
 33
0.0
 14
22.72549857587835
 24
-4.010250776535539
 34
0.0
 50
90.0
100
AcDbRotatedDimension
1001
ACAD
1000
DSTYLE
1002
{
1070
   170
1070
     0
1070
   283
1070
     1
1002
}
1001
ACAD_DSTYLE_DIMFLIPARROW_SYMBOL
1070
   385
1070
     0
1001
ACAD_DSTYLE_DIMFLIPARROW_WHICH_SYMBOL
1070
   386
1070
     3
  0
ARC
  5
2B1
330
1F
100
AcDbEntity
  8
0
  6
Continuous
 62
     1
370
    25
100
AcDbCircle
 10
23.14999999999999
 20
1.990181898997976
 30
0.0
 40
1.999999999999999
100
AcDbArc
 50
0.0
 51
71.43043500093371
  0
ARC
  5
2B2
330
1F
100
AcDbEntity
  8
0
  6
Continuous
 62
     1
370
    25
100
AcDbCircle
 10
23.14670504746441
 20
-1.989120349832378
 30
0.0
 40
2.003295233793855
100
AcDbArc
 50
288.6317145006207
 51
359.9696388786068
  0
DIMENSION
  5
2B3
330
1F
100
AcDbEntity
  8
0
100
AcDbDimension
  2
*D20
 10
23.14670504746441
 20
-1.989120349832378
 30
0.0
 11
42.59472841612083
 21
-14.43847540621993
 31
0.0
 70
   164
  1
<>
 71
     5
 42
2.003295233793855
  3
ISO-25
100
AcDbRadialDimension
 15
24.48758317434365
 25
-3.477487791897004
 35
0.0
 40
0.0
1001
ACAD
1000
DSTYLE
1002
{
1070
   179
1070
     2
1070
   143
1040
0.0393700787401575
1070
    41
1040
3.302
1070
    44
1040
1.0
1070
    42
1040
1.0
1070
   147
1040
1.524
1070
    73
1070
     1
1070
    74
1070
     1
1070
   140
1040
3.5
1070
   284
1070
     0
1070
    78
1070
     0
1002
}
1001
ACAD_DSTYLE_DIMRADIAL_EXTENSION
1070
   387
1070
     1
1070
   388
1040
5.037573743712091
1070
   390
1040
6.282655405646677
  0
LINE
  5
2E4
330
1F
100
AcDbEntity
  8
0
  6
Continuous
 62
     4
370
    25
100
AcDbLine
 10
0.1499999999999919
 20
3.850000000000005
 30
0.0
 11
0.0
 21
3.999999999999997
 31
0.0
1001
PE_URL
1000

  0
LINE
  5
2E6
330
1F
100
AcDbEntity
  8
0
  6
Continuous
 62
     4
370
    25
100
AcDbLine
 10
-0.0000000000000001
 20
3.999999999999997
 30
0.0
 11
0.0
 21
-3.999999999999997
 31
0.0
1001
PE_URL
1000

  0
LINE
  5
2E7
330
1F
100
AcDbEntity
  8
0
  6
Continuous
 62
     4
370
    25
100
AcDbLine
 10
0.0
 20
-3.999999999999997
 30
0.0
 11
0.1499999999999919
 21
-3.849999999999997
 31
0.0
1001
PE_URL
1000

  0
ENDSEC
  0
SECTION
  2
OBJECTS
  0
DICTIONARY
  5
C
330
0
100
AcDbDictionary
281
     1
  3
ACAD_GROUP
350
D
  3
ACAD_IMAGE_VARS
350
13C
  3
ACAD_LAYOUT
350
1A
  3
ACAD_MLINESTYLE
350
17
  3
ACAD_PLOTSETTINGS
350
19
  3
ACAD_PLOTSTYLENAME
350
E
  3
ACAD_SCALELIST
350
47
  3
APPDATA
350
13A
  3
DWGPROPS
350
2E9
  0
DICTIONARY
  5
D
102
{ACAD_REACTORS
330
C
102
}
330
C
100
AcDbDictionary
281
     1
  0
RASTERVARIABLES
  5
13C
102
{ACAD_REACTORS
330
C
102
}
330
C
100
AcDbRasterVariables
 90
        0
 70
     1
 71
     1
 72
     1
  0
DICTIONARY
  5
1A
102
{ACAD_REACTORS
330
C
102
}
330
C
100
AcDbDictionary
281
     1
  3
Layout1
350
1E
  3
Layout2
350
26
  3
Model
350
22
  0
DICTIONARY
  5
17
102
{ACAD_REACTORS
330
C
102
}
330
C
100
AcDbDictionary
281
     1
  3
Standard
350
18
  0
DICTIONARY
  5
19
102
{ACAD_REACTORS
330
C
102
}
330
C
100
AcDbDictionary
281
     1
  0
ACDBDICTIONARYWDFLT
  5
E
102
{ACAD_REACTORS
330
C
102
}
330
C
100
AcDbDictionary
281
     1
  3
Normal
350
F
100
AcDbDictionaryWithDefault
340
F
  0
DICTIONARY
  5
47
102
{ACAD_REACTORS
330
C
102
}
330
C
100
AcDbDictionary
281
     1
  3
A0
350
48
  3
A1
350
49
  3
A2
350
4A
  3
A3
350
4B
  3
A4
350
4C
  3
A5
350
4D
  3
A6
350
4E
  3
A7
350
4F
  3
A8
350
50
  3
A9
350
51
  3
B0
350
52
  3
B1
350
53
  3
B2
350
54
  3
B3
350
55
  3
B4
350
56
  3
B5
350
57
  3
B6
350
58
  3
B7
350
59
  3
B8
350
5A
  3
B9
350
5B
  3
C0
350
5C
  3
C1
350
5D
  3
C2
350
5E
  3
C3
350
5F
  3
C4
350
60
  3
C5
350
61
  3
C6
350
62
  3
C7
350
63
  3
C8
350
64
  3
C9
350
65
  3
D0
350
66
  3
D1
350
67
  3
D2
350
68
  0
DICTIONARY
  5
13A
102
{ACAD_REACTORS
330
C
102
}
330
C
100
AcDbDictionary
281
     1
  0
XRECORD
  5
2E9
102
{ACAD_REACTORS
330
C
102
}
330
C
100
AcDbXrecord
280
     1
  1
DWGPROPS COOKIE
  2

  3

  4

  6

  7

  8
12014102
  9

300
=
301
=
302
=
303
=
304
=
305
=
306
=
307
=
308
=
309
=
 40
0.0
 41
2458263.432194792
 42
2459576.96367434
  1

 90
        0
  0
LAYOUT
  5
1E
102
{ACAD_REACTORS
330
1A
102
}
330
1A
100
AcDbPlotSettings
  1

  2
none_device
  4

  6

 40
0.0
 41
0.0
 42
0.0
 43
0.0
 44
0.0
 45
0.0
 46
0.0
 47
0.0
 48
0.0
 49
0.0
140
0.0
141
0.0
142
1.0
143
1.0
 70
   688
 72
     1
 73
     0
 74
     5
  7

 75
    16
147
1.0
148
0.0
149
0.0
100
AcDbLayout
  1
Layout1
 70
     1
 71
     1
 10
0.0
 20
0.0
 11
420.0
 21
297.0
 12
0.0
 22
0.0
 32
0.0
 14
1.000000000000000E+20
 24
1.000000000000000E+20
 34
1.000000000000000E+20
 15
-1.000000000000000E+20
 25
-1.000000000000000E+20
 35
-1.000000000000000E+20
146
0.0
 13
0.0
 23
0.0
 33
0.0
 16
1.0
 26
0.0
 36
0.0
 17
0.0
 27
1.0
 37
0.0
 76
     0
330
1B
  0
LAYOUT
  5
26
102
{ACAD_REACTORS
330
1A
102
}
330
1A
100
AcDbPlotSettings
  1

  2
none_device
  4

  6

 40
0.0
 41
0.0
 42
0.0
 43
0.0
 44
0.0
 45
0.0
 46
0.0
 47
0.0
 48
0.0
 49
0.0
140
0.0
141
0.0
142
1.0
143
1.0
 70
   688
 72
     1
 73
     0
 74
     5
  7

 75
    16
147
1.0
148
0.0
149
0.0
100
AcDbLayout
  1
Layout2
 70
     1
 71
     2
 10
0.0
 20
0.0
 11
0.0
 21
0.0
 12
0.0
 22
0.0
 32
0.0
 14
0.0
 24
0.0
 34
0.0
 15
0.0
 25
0.0
 35
0.0
146
0.0
 13
0.0
 23
0.0
 33
0.0
 16
1.0
 26
0.0
 36
0.0
 17
0.0
 27
1.0
 37
0.0
 76
     0
330
23
  0
LAYOUT
  5
22
102
{ACAD_REACTORS
330
1A
102
}
330
1A
100
AcDbPlotSettings
  1

  2
none_device
  4
ANSI_A_(11.00_x_8.50_Inches)
  6

 40
6.35
 41
19.05
 42
6.35000508
 43
19.05000254
 44
279.4
 45
215.9
 46
128.04210893801
 47
92.88206094234283
 48
0.0
 49
0.0
140
0.0
141
0.0
142
0.0860554091402151
143
1.0
 70
  1696
 72
     0
 73
     0
 74
     0
  7

 75
     0
147
0.0235690232323232
148
0.0
149
0.0
100
AcDbLayout
  1
Model
 70
     1
 71
     0
 10
0.0
 20
0.0
 11
420.0
 21
297.0
 12
0.0
 22
0.0
 32
0.0
 14
-60.72145802161211
 24
-49.97073246008785
 34
0.0
 15
49.30306174945417
 25
48.73332450504429
 35
0.0
146
0.0
 13
0.0
 23
0.0
 33
0.0
 16
1.0
 26
0.0
 36
0.0
 17
0.0
 27
1.0
 37
0.0
 76
     0
330
1F
331
29
  0
MLINESTYLE
  5
18
102
{ACAD_REACTORS
330
17
102
}
330
17
100
AcDbMlineStyle
  2
Standard
 70
     0
  3

 62
   256
 51
90.0
 52
90.0
 71
     2
 49
0.5
 62
   256
  6
BYLAYER
 49
-0.5
 62
   256
  6
BYLAYER
  0
ACDBPLACEHOLDER
  5
F
102
{ACAD_REACTORS
330
E
102
}
330
E
  0
SCALE
  5
48
102
{ACAD_REACTORS
330
47
102
}
330
47
100
AcDbScale
 70
     0
300
1:1
140
1.0
141
1.0
290
     1
  0
SCALE
  5
49
102
{ACAD_REACTORS
330
47
102
}
330
47
100
AcDbScale
 70
     0
300
1:2
140
1.0
141
2.0
290
     0
  0
SCALE
  5
4A
102
{ACAD_REACTORS
330
47
102
}
330
47
100
AcDbScale
 70
     0
300
1:4
140
1.0
141
4.0
290
     0
  0
SCALE
  5
4B
102
{ACAD_REACTORS
330
47
102
}
330
47
100
AcDbScale
 70
     0
300
1:5
140
1.0
141
5.0
290
     0
  0
SCALE
  5
4C
102
{ACAD_REACTORS
330
47
102
}
330
47
100
AcDbScale
 70
     0
300
1:8
140
1.0
141
8.0
290
     0
  0
SCALE
  5
4D
102
{ACAD_REACTORS
330
47
102
}
330
47
100
AcDbScale
 70
     0
300
1:10
140
1.0
141
10.0
290
     0
  0
SCALE
  5
4E
102
{ACAD_REACTORS
330
47
102
}
330
47
100
AcDbScale
 70
     0
300
1:16
140
1.0
141
16.0
290
     0
  0
SCALE
  5
4F
102
{ACAD_REACTORS
330
47
102
}
330
47
100
AcDbScale
 70
     0
300
1:20
140
1.0
141
20.0
290
     0
  0
SCALE
  5
50
102
{ACAD_REACTORS
330
47
102
}
330
47
100
AcDbScale
 70
     0
300
1:30
140
1.0
141
30.0
290
     0
  0
SCALE
  5
51
102
{ACAD_REACTORS
330
47
102
}
330
47
100
AcDbScale
 70
     0
300
1:40
140
1.0
141
40.0
290
     0
  0
SCALE
  5
52
102
{ACAD_REACTORS
330
47
102
}
330
47
100
AcDbScale
 70
     0
300
1:50
140
1.0
141
50.0
290
     0
  0
SCALE
  5
53
102
{ACAD_REACTORS
330
47
102
}
330
47
100
AcDbScale
 70
     0
300
1:100
140
1.0
141
100.0
290
     0
  0
SCALE
  5
54
102
{ACAD_REACTORS
330
47
102
}
330
47
100
AcDbScale
 70
     0
300
2:1
140
2.0
141
1.0
290
     0
  0
SCALE
  5
55
102
{ACAD_REACTORS
330
47
102
}
330
47
100
AcDbScale
 70
     0
300
4:1
140
4.0
141
1.0
290
     0
  0
SCALE
  5
56
102
{ACAD_REACTORS
330
47
102
}
330
47
100
AcDbScale
 70
     0
300
8:1
140
8.0
141
1.0
290
     0
  0
SCALE
  5
57
102
{ACAD_REACTORS
330
47
102
}
330
47
100
AcDbScale
 70
     0
300
10:1
140
10.0
141
1.0
290
     0
  0
SCALE
  5
58
102
{ACAD_REACTORS
330
47
102
}
330
47
100
AcDbScale
 70
     0
300
100:1
140
100.0
141
1.0
290
     0
  0
SCALE
  5
59
102
{ACAD_REACTORS
330
47
102
}
330
47
100
AcDbScale
 70
     0
300
1/128" = 1'-0"
140
0.0078125
141
12.0
290
     0
  0
SCALE
  5
5A
102
{ACAD_REACTORS
330
47
102
}
330
47
100
AcDbScale
 70
     0
300
1/64" = 1'-0"
140
0.015625
141
12.0
290
     0
  0
SCALE
  5
5B
102
{ACAD_REACTORS
330
47
102
}
330
47
100
AcDbScale
 70
     0
300
1/32" = 1'-0"
140
0.03125
141
12.0
290
     0
  0
SCALE
  5
5C
102
{ACAD_REACTORS
330
47
102
}
330
47
100
AcDbScale
 70
     0
300
1/16" = 1'-0"
140
0.0625
141
12.0
290
     0
  0
SCALE
  5
5D
102
{ACAD_REACTORS
330
47
102
}
330
47
100
AcDbScale
 70
     0
300
3/32" = 1'-0"
140
0.09375
141
12.0
290
     0
  0
SCALE
  5
5E
102
{ACAD_REACTORS
330
47
102
}
330
47
100
AcDbScale
 70
     0
300
1/8" = 1'-0"
140
0.125
141
12.0
290
     0
  0
SCALE
  5
5F
102
{ACAD_REACTORS
330
47
102
}
330
47
100
AcDbScale
 70
     0
300
3/16" = 1'-0"
140
0.1875
141
12.0
290
     0
  0
SCALE
  5
60
102
{ACAD_REACTORS
330
47
102
}
330
47
100
AcDbScale
 70
     0
300
1/4" = 1'-0"
140
0.25
141
12.0
290
     0
  0
SCALE
  5
61
102
{ACAD_REACTORS
330
47
102
}
330
47
100
AcDbScale
 70
     0
300
3/8" = 1'-0"
140
0.375
141
12.0
290
     0
  0
SCALE
  5
62
102
{ACAD_REACTORS
330
47
102
}
330
47
100
AcDbScale
 70
     0
300
1/2" = 1'-0"
140
0.5
141
12.0
290
     0
  0
SCALE
  5
63
102
{ACAD_REACTORS
330
47
102
}
330
47
100
AcDbScale
 70
     0
300
3/4" = 1'-0"
140
0.75
141
12.0
290
     0
  0
SCALE
  5
64
102
{ACAD_REACTORS
330
47
102
}
330
47
100
AcDbScale
 70
     0
300
1" = 1'-0"
140
1.0
141
12.0
290
     0
  0
SCALE
  5
65
102
{ACAD_REACTORS
330
47
102
}
330
47
100
AcDbScale
 70
     0
300
1-1/2" = 1'-0"
140
1.5
141
12.0
290
     0
  0
SCALE
  5
66
102
{ACAD_REACTORS
330
47
102
}
330
47
100
AcDbScale
 70
     0
300
3" = 1'-0"
140
3.0
141
12.0
290
     0
  0
SCALE
  5
67
102
{ACAD_REACTORS
330
47
102
}
330
47
100
AcDbScale
 70
     0
300
6" = 1'-0"
140
6.0
141
12.0
290
     0
  0
SCALE
  5
68
102
{ACAD_REACTORS
330
47
102
}
330
47
100
AcDbScale
 70
     0
300
1'-0" = 1'-0"
140
12.0
141
12.0
290
     0
  0
ENDSEC
  0
EOF
