  0
SECTION
  2
HEADER
  9
$ACADVER
  1
AC1015
  9
$ACADMAINTVER
 70
     6
  9
$DWGCODEPAGE
  3
ANSI_949
  9
$INSBASE
 10
0.0
 20
0.0
 30
0.0
  9
$EXTMIN
 10
-80.7214580216121
 20
-49.97073246008786
 30
0.0
  9
$EXTMAX
 10
59.86958648361316
 20
48.63332450504429
 30
0.0
  9
$LIMMIN
 10
0.0
 20
0.0
  9
$LIMMAX
 10
420.0
 20
297.0
  9
$ORTHOMODE
 70
     1
  9
$REGENMODE
 70
     1
  9
$FILLMODE
 70
     1
  9
$QTEXTMODE
 70
     0
  9
$MIRRTEXT
 70
     1
  9
$LTSCALE
 40
1.0
  9
$ATTMODE
 70
     1
  9
$TEXTSIZE
 40
3.5
  9
$TRACEWID
 40
1.0
  9
$TEXTSTYLE
  7
Standard
  9
$CLAYER
  8
0
  9
$CELTYPE
  6
ByLayer
  9
$CECOLOR
 62
   256
  9
$CELTSCALE
 40
1.0
  9
$DISPSILH
 70
     0
  9
$DIMSCALE
 40
1.0
  9
$DIMASZ
 40
3.302
  9
$DIMEXO
 40
1.0
  9
$DIMDLI
 40
3.75
  9
$DIMRND
 40
0.0
  9
$DIMDLE
 40
0.0
  9
$DIMEXE
 40
1.0
  9
$DIMTP
 40
0.0
  9
$DIMTM
 40
0.0
  9
$DIMTXT
 40
3.5
  9
$DIMCEN
 40
2.5
  9
$DIMTSZ
 40
0.0
  9
$DIMTOL
 70
     0
  9
$DIMLIM
 70
     0
  9
$DIMTIH
 70
     1
  9
$DIMTOH
 70
     1
  9
$DIMSE1
 70
     0
  9
$DIMSE2
 70
     0
  9
$DIMTAD
 70
     1
  9
$DIMZIN
 70
     0
  9
$DIMBLK
  1

  9
$DIMASO
 70
     1
  9
$DIMSHO
 70
     1
  9
$DIMPOST
  1

  9
$DIMAPOST
  1

  9
$DIMALT
 70
     0
  9
$DIMALTD
 70
     3
  9
$DIMALTF
 40
0.0393700787401575
  9
$DIMLFAC
 40
1.0
  9
$DIMTOFL
 70
     1
  9
$DIMTVP
 40
0.0
  9
$DIMTIX
 70
     0
  9
$DIMSOXD
 70
     0
  9
$DIMSAH
 70
     0
  9
$DIMBLK1
  1

  9
$DIMBLK2
  1

  9
$DIMSTYLE
  2
ISO-25
  9
$DIMCLRD
 70
     0
  9
$DIMCLRE
 70
     0
  9
$DIMCLRT
 70
     0
  9
$DIMTFAC
 40
1.0
  9
$DIMGAP
 40
1.524
  9
$DIMJUST
 70
     0
  9
$DIMSD1
 70
     0
  9
$DIMSD2
 70
     0
  9
$DIMTOLJ
 70
     0
  9
$DIMTZIN
 70
     0
  9
$DIMALTZ
 70
     0
  9
$DIMALTTZ
 70
     0
  9
$DIMUPT
 70
     0
  9
$DIMDEC
 70
     2
  9
$DIMTDEC
 70
     2
  9
$DIMALTU
 70
     2
  9
$DIMALTTD
 70
     3
  9
$DIMTXSTY
  7
Standard
  9
$DIMAUNIT
 70
     0
  9
$DIMADEC
 70
     2
  9
$DIMALTRND
 40
0.0
  9
$DIMAZIN
 70
     0
  9
$DIMDSEP
 70
    44
  9
$DIMATFIT
 70
     3
  9
$DIMFRAC
 70
     0
  9
$DIMLDRBLK
  1

  9
$DIMLUNIT
 70
     2
  9
$DIMLWD
 70
    -2
  9
$DIMLWE
 70
    -2
  9
$DIMTMOVE
 70
     0
  9
$LUNITS
 70
     2
  9
$LUPREC
 70
     2
  9
$SKETCHINC
 40
1.0
  9
$FILLETRAD
 40
10.0
  9
$AUNITS
 70
     0
  9
$AUPREC
 70
     2
  9
$MENU
  1
.
  9
$ELEVATION
 40
0.0
  9
$PELEVATION
 40
0.0
  9
$THICKNESS
 40
0.0
  9
$LIMCHECK
 70
     0
  9
$CHAMFERA
 40
0.0
  9
$CHAMFERB
 40
0.0
  9
$CHAMFERC
 40
0.0
  9
$CHAMFERD
 40
0.0
  9
$SKPOLY
 70
     0
  9
$TDCREATE
 40
2458263.805871875
  9
$TDUCREATE
 40
2458263.430871875
  9
$TDUPDATE
 40
2459577.321782164
  9
$TDUUPDATE
 40
2459576.946782164
  9
$TDINDWG
 40
0.0061065509
  9
$TDUSRTIMER
 40
0.0018105324
  9
$USRTIMER
 70
     1
  9
$ANGBASE
 50
0.0
  9
$ANGDIR
 70
     0
  9
$PDMODE
 70
     0
  9
$PDSIZE
 40
-1.0
  9
$PLINEWID
 40
0.0
  9
$SPLFRAME
 70
     0
  9
$SPLINETYPE
 70
     6
  9
$SPLINESEGS
 70
     8
  9
$HANDSEED
  5
1B9
  9
$SURFTAB1
 70
     6
  9
$SURFTAB2
 70
     6
  9
$SURFTYPE
 70
     6
  9
$SURFU
 70
     6
  9
$SURFV
 70
     6
  9
$UCSBASE
  2

  9
$UCSNAME
  2

  9
$UCSORG
 10
0.0
 20
0.0
 30
0.0
  9
$UCSXDIR
 10
1.0
 20
0.0
 30
0.0
  9
$UCSYDIR
 10
0.0
 20
1.0
 30
0.0
  9
$UCSORTHOREF
  2

  9
$UCSORTHOVIEW
 70
     0
  9
$UCSORGTOP
 10
0.0
 20
0.0
 30
0.0
  9
$UCSORGBOTTOM
 10
0.0
 20
0.0
 30
0.0
  9
$UCSORGLEFT
 10
0.0
 20
0.0
 30
0.0
  9
$UCSORGRIGHT
 10
0.0
 20
0.0
 30
0.0
  9
$UCSORGFRONT
 10
0.0
 20
0.0
 30
0.0
  9
$UCSORGBACK
 10
0.0
 20
0.0
 30
0.0
  9
$PUCSBASE
  2

  9
$PUCSNAME
  2

  9
$PUCSORG
 10
0.0
 20
0.0
 30
0.0
  9
$PUCSXDIR
 10
1.0
 20
0.0
 30
0.0
  9
$PUCSYDIR
 10
0.0
 20
1.0
 30
0.0
  9
$PUCSORTHOREF
  2

  9
$PUCSORTHOVIEW
 70
     0
  9
$PUCSORGTOP
 10
0.0
 20
0.0
 30
0.0
  9
$PUCSORGBOTTOM
 10
0.0
 20
0.0
 30
0.0
  9
$PUCSORGLEFT
 10
0.0
 20
0.0
 30
0.0
  9
$PUCSORGRIGHT
 10
0.0
 20
0.0
 30
0.0
  9
$PUCSORGFRONT
 10
0.0
 20
0.0
 30
0.0
  9
$PUCSORGBACK
 10
0.0
 20
0.0
 30
0.0
  9
$USERI1
 70
     0
  9
$USERI2
 70
     0
  9
$USERI3
 70
     0
  9
$USERI4
 70
     0
  9
$USERI5
 70
     0
  9
$USERR1
 40
0.0
  9
$USERR2
 40
0.0
  9
$USERR3
 40
0.0
  9
$USERR4
 40
0.0
  9
$USERR5
 40
0.0
  9
$WORLDVIEW
 70
     1
  9
$SHADEDGE
 70
     3
  9
$SHADEDIF
 70
    70
  9
$TILEMODE
 70
     1
  9
$MAXACTVP
 70
    64
  9
$PINSBASE
 10
0.0
 20
0.0
 30
0.0
  9
$PLIMCHECK
 70
     0
  9
$PEXTMIN
 10
1.000000000000000E+20
 20
1.000000000000000E+20
 30
1.000000000000000E+20
  9
$PEXTMAX
 10
-1.000000000000000E+20
 20
-1.000000000000000E+20
 30
-1.000000000000000E+20
  9
$PLIMMIN
 10
0.0
 20
0.0
  9
$PLIMMAX
 10
0.0
 20
0.0
  9
$UNITMODE
 70
     0
  9
$VISRETAIN
 70
     1
  9
$PLINEGEN
 70
     0
  9
$PSLTSCALE
 70
     1
  9
$TREEDEPTH
 70
  3020
  9
$CMLSTYLE
  2
Standard
  9
$CMLJUST
 70
     0
  9
$CMLSCALE
 40
20.0
  9
$PROXYGRAPHICS
 70
     1
  9
$MEASUREMENT
 70
     1
  9
$CELWEIGHT
370
    -1
  9
$ENDCAPS
280
     0
  9
$JOINSTYLE
280
     0
  9
$LWDISPLAY
290
     1
  9
$INSUNITS
 70
     4
  9
$HYPERLINKBASE
  1

  9
$STYLESHEET
  1

  9
$XEDIT
290
     1
  9
$CEPSNTYPE
380
     0
  9
$PSTYLEMODE
290
     1
  9
$FINGERPRINTGUID
  2
{55D993C9-FE1C-4D56-8523-89E5577D6063}
  9
$VERSIONGUID
  2
{FAEB1C32-E019-11D5-929B-00C0DF256EC4}
  9
$EXTNAMES
290
     1
  9
$PSVPSCALE
 40
0.0
  9
$OLESTARTUP
290
     0
  0
ENDSEC
  0
SECTION
  2
CLASSES
  0
CLASS
  1
ACDBDICTIONARYWDFLT
  2
AcDbDictionaryWithDefault
  3
ObjectDBX Classes
 90
        0
280
     0
281
     0
  0
CLASS
  1
VISUALSTYLE
  2
AcDbVisualStyle
  3
ObjectDBX Classes
 90
     4095
280
     0
281
     0
  0
CLASS
  1
MATERIAL
  2
AcDbMaterial
  3
ObjectDBX Classes
 90
     1153
280
     0
281
     0
  0
CLASS
  1
SCALE
  2
AcDbScale
  3
ObjectDBX Classes
 90
     1153
280
     0
281
     0
  0
CLASS
  1
TABLESTYLE
  2
AcDbTableStyle
  3
ObjectDBX Classes
 90
     4095
280
     0
281
     0
  0
CLASS
  1
MLEADERSTYLE
  2
AcDbMLeaderStyle
  3
ACDB_MLEADERSTYLE_CLASS
 90
     4095
280
     0
281
     0
  0
CLASS
  1
SUN
  2
AcDbSun
  3
SCENEOE
 90
     1153
280
     0
281
     0
  0
CLASS
  1
ACDBPLACEHOLDER
  2
AcDbPlaceHolder
  3
ObjectDBX Classes
 90
        0
280
     0
281
     0
  0
CLASS
  1
LAYOUT
  2
AcDbLayout
  3
ObjectDBX Classes
 90
        0
280
     0
281
     0
  0
CLASS
  1
RASTERVARIABLES
  2
AcDbRasterVariables
  3
ISM
 90
        0
280
     0
281
     0
  0
CLASS
  1
DIMASSOC
  2
AcDbDimAssoc
  3
"AcDbDimAssoc|Product Desc:     AcDim ARX App For Dimension|Company:          Autodesk, Inc.|WEB Address:      www.autodesk.com"
 90
        0
280
     0
281
     0
  0
CLASS
  1
DICTIONARYVAR
  2
AcDbDictionaryVar
  3
ObjectDBX Classes
 90
        0
280
     0
281
     0
  0
ENDSEC
  0
SECTION
  2
TABLES
  0
TABLE
  2
VPORT
  5
8
330
0
100
AcDbSymbolTable
 70
     1
  0
VPORT
  5
29
330
8
100
AcDbSymbolTableRecord
100
AcDbViewportTableRecord
  2
*Active
 70
     0
 10
0.0
 20
0.0
 11
1.0
 21
1.0
 12
-10.42593576899947
 22
-0.6687039775217869
 13
0.0
 23
0.0
 14
10.0
 24
10.0
 15
10.0
 25
10.0
 16
0.0
 26
0.0
 36
1.0
 17
0.0
 27
0.0
 37
0.0
 40
100.5761381044348
 41
2.070175438596491
 42
50.0
 43
0.0
 44
0.0
 50
0.0
 51
0.0
 71
    16
 72
  2000
 73
     1
 74
     3
 75
     0
 76
     0
 77
     0
 78
     0
281
     0
 65
     1
110
0.0
120
0.0
130
0.0
111
1.0
121
0.0
131
0.0
112
0.0
122
1.0
132
0.0
 79
     0
146
0.0
  0
ENDTAB
  0
TABLE
  2
LTYPE
  5
5
330
0
100
AcDbSymbolTable
 70
     6
  0
LTYPE
  5
14
330
5
100
AcDbSymbolTableRecord
100
AcDbLinetypeTableRecord
  2
ByBlock
 70
     0
  3

 72
    65
 73
     0
 40
0.0
  0
LTYPE
  5
15
330
5
100
AcDbSymbolTableRecord
100
AcDbLinetypeTableRecord
  2
ByLayer
 70
     0
  3

 72
    65
 73
     0
 40
0.0
  0
LTYPE
  5
16
330
5
100
AcDbSymbolTableRecord
100
AcDbLinetypeTableRecord
  2
Continuous
 70
     0
  3
Solid line
 72
    65
 73
     0
 40
0.0
  0
LTYPE
  5
6E
330
5
100
AcDbSymbolTableRecord
100
AcDbLinetypeTableRecord
  2
HIDDEN
 70
     0
  3
Hidden __ __ __ __ __ __ __ __ __ __ __ __ __ __
 72
    65
 73
     2
 40
1.905
 49
1.27
 74
     0
 49
-0.635
 74
     0
  0
LTYPE
  5
6F
330
5
100
AcDbSymbolTableRecord
100
AcDbLinetypeTableRecord
  2
PHANTOM
 70
     0
  3
Phantom ______  __  __  ______  __  __  ______
 72
    65
 73
     6
 40
12.7
 49
6.35
 74
     0
 49
-1.27
 74
     0
 49
1.27
 74
     0
 49
-1.27
 74
     0
 49
1.27
 74
     0
 49
-1.27
 74
     0
  0
LTYPE
  5
70
330
5
100
AcDbSymbolTableRecord
100
AcDbLinetypeTableRecord
  2
CENTER
 70
     0
  3
Center ____ _ ____ _ ____ _ ____ _ ____ _ ____
 72
    65
 73
     4
 40
10.16
 49
6.35
 74
     0
 49
-1.27
 74
     0
 49
1.27
 74
     0
 49
-1.27
 74
     0
  0
LTYPE
  5
71
330
5
100
AcDbSymbolTableRecord
100
AcDbLinetypeTableRecord
  2
CENTERX2
 70
     0
  3
Center (2x) ________  __  ________  __  _____
 72
    65
 73
     4
 40
20.32
 49
12.7
 74
     0
 49
-2.54
 74
     0
 49
2.54
 74
     0
 49
-2.54
 74
     0
  0
LTYPE
  5
72
330
5
100
AcDbSymbolTableRecord
100
AcDbLinetypeTableRecord
  2
DOT2
 70
     0
  3
Dot (.5x) ........................................
 72
    65
 73
     2
 40
0.635
 49
0.0
 74
     0
 49
-0.635
 74
     0
  0
ENDTAB
  0
TABLE
  2
LAYER
  5
2
330
0
100
AcDbSymbolTable
 70
    17
  0
LAYER
  5
10
330
2
100
AcDbSymbolTableRecord
100
AcDbLayerTableRecord
  2
0
 70
     0
 62
     7
  6
Continuous
370
    -3
390
F
  0
LAYER
  5
73
330
2
100
AcDbSymbolTableRecord
100
AcDbLayerTableRecord
  2
FORMAT
 70
     0
 62
     2
  6
Continuous
370
    -3
390
F
  0
LAYER
  5
74
330
2
100
AcDbSymbolTableRecord
100
AcDbLayerTableRecord
  2
외형선
 70
     0
 62
   100
  6
Continuous
370
    35
390
F
  0
LAYER
  5
75
330
2
100
AcDbSymbolTableRecord
100
AcDbLayerTableRecord
  2
숨은선
 70
     0
 62
     2
  6
HIDDEN
370
    25
390
F
  0
LAYER
  5
76
330
2
100
AcDbSymbolTableRecord
100
AcDbLayerTableRecord
  2
중심선
 70
     0
 62
     1
  6
CENTERX2
370
    -3
390
F
  0
LAYER
  5
77
330
2
100
AcDbSymbolTableRecord
100
AcDbLayerTableRecord
  2
파단선
 70
     0
 62
     4
  6
Continuous
370
    -3
390
F
  0
LAYER
  5
78
330
2
100
AcDbSymbolTableRecord
100
AcDbLayerTableRecord
  2
해칭선
 70
     0
 62
     4
  6
Continuous
370
    -3
390
F
  0
LAYER
  5
79
330
2
100
AcDbSymbolTableRecord
100
AcDbLayerTableRecord
  2
가는실선
 70
     0
 62
     4
  6
Continuous
370
    -3
390
F
  0
LAYER
  5
7A
330
2
100
AcDbSymbolTableRecord
100
AcDbLayerTableRecord
  2
치수_보조선
 70
     0
 62
     4
  6
Continuous
370
    -3
390
F
  0
LAYER
  5
7B
330
2
100
AcDbSymbolTableRecord
100
AcDbLayerTableRecord
  2
치수문자_일반주서
 70
     0
 62
     7
  6
Continuous
370
    25
390
F
  0
LAYER
  5
7C
330
2
100
AcDbSymbolTableRecord
100
AcDbLayerTableRecord
  2
개별주서
 70
     0
 62
   100
  6
Continuous
370
    35
390
F
  0
LAYER
  5
7D
330
2
100
AcDbSymbolTableRecord
100
AcDbLayerTableRecord
  2
중간선
 70
     0
 62
     2
  6
Continuous
370
    25
390
F
  0
LAYER
  5
7E
330
2
100
AcDbSymbolTableRecord
100
AcDbLayerTableRecord
  2
윤곽선
 70
     0
 62
     3
  6
Continuous
370
    50
390
F
  0
LAYER
  5
7F
330
2
100
AcDbSymbolTableRecord
100
AcDbLayerTableRecord
  2
중심마크
 70
     0
 62
   100
  6
Continuous
370
    35
390
F
  0
LAYER
  5
80
330
2
100
AcDbSymbolTableRecord
100
AcDbLayerTableRecord
  2
가상선
 70
     0
 62
     4
  6
PHANTOM
370
    -3
390
F
  0
LAYER
  5
81
330
2
100
AcDbSymbolTableRecord
100
AcDbLayerTableRecord
  2
특수지정선
 70
     0
 62
     5
  6
CENTERX2
370
    70
390
F
  0
LAYER
  5
144
330
2
100
AcDbSymbolTableRecord
100
AcDbLayerTableRecord
  2
Defpoints
 70
     0
 62
     7
  6
Continuous
290
     0
370
    -3
390
F
  0
ENDTAB
  0
TABLE
  2
STYLE
  5
3
330
0
100
AcDbSymbolTable
 70
     2
  0
STYLE
  5
11
330
3
100
AcDbSymbolTableRecord
100
AcDbTextStyleTableRecord
  2
Standard
 70
     0
 40
0.0
 41
1.0
 50
0.0
 71
     0
 42
3.5
  3
txt
  4

  0
STYLE
  5
97
330
3
100
AcDbSymbolTableRecord
100
AcDbTextStyleTableRecord
  2
SLDTEXTSTYLE0
 70
     0
 40
0.0
 41
0.75
 50
0.0
 71
     0
 42
3.5
  3
TXT
  4

  0
ENDTAB
  0
TABLE
  2
VIEW
  5
6
330
0
100
AcDbSymbolTable
 70
     0
  0
ENDTAB
  0
TABLE
  2
UCS
  5
7
330
0
100
AcDbSymbolTable
 70
     0
  0
ENDTAB
  0
TABLE
  2
APPID
  5
9
330
0
100
AcDbSymbolTable
 70
     3
  0
APPID
  5
12
330
9
100
AcDbSymbolTableRecord
100
AcDbRegAppTableRecord
  2
ACAD
 70
     0
  0
APPID
  5
150
330
9
100
AcDbSymbolTableRecord
100
AcDbRegAppTableRecord
  2
ACAD_DSTYLE_DIMRADIAL_EXTENSION
 70
     0
  0
APPID
  5
1B5
330
9
100
AcDbSymbolTableRecord
100
AcDbRegAppTableRecord
  2
PE_URL
 70
     0
  0
ENDTAB
  0
TABLE
  2
DIMSTYLE
  5
A
330
0
100
AcDbSymbolTable
 70
     3
100
AcDbDimStyleTable
  0
DIMSTYLE
105
27
330
A
100
AcDbSymbolTableRecord
100
AcDbDimStyleTableRecord
  2
ISO-25
 70
     0
 41
2.5
 42
0.625
 43
3.75
 44
1.25
 73
     0
 74
     0
 77
     1
 78
     8
140
2.5
141
2.5
143
0.03937007874016
147
0.625
171
     3
172
     1
178
     0
271
     2
272
     2
274
     3
278
    44
283
     0
284
     8
340
11
  0
DIMSTYLE
105
DD
102
{ACAD_REACTORS
330
DC
330
100
330
10C
330
151
102
}
330
A
100
AcDbSymbolTableRecord
100
AcDbDimStyleTableRecord
  2
SLDDIMSTYLE0
 70
     0
 41
3.302
 44
0.0
 45
0.000000001
 73
     0
 74
     0
 77
     1
 78
    12
 79
     3
140
3.5
147
0.875
172
     1
173
     1
178
     0
271
     2
272
     2
276
     2
284
    12
289
     0
340
97
  0
DIMSTYLE
105
EB
102
{ACAD_REACTORS
330
EA
330
F6
102
}
330
A
100
AcDbSymbolTableRecord
100
AcDbDimStyleTableRecord
  2
SLDDIMSTYLE1
 70
     0
 41
3.302
 44
0.0
 45
0.000000001
 73
     0
 74
     0
 77
     1
 78
    12
 79
     3
140
3.5
147
0.875
173
     1
178
     0
271
     2
272
     2
276
     2
284
    12
340
97
  0
ENDTAB
  0
TABLE
  2
BLOCK_RECORD
  5
1
330
0
100
AcDbSymbolTable
 70
     9
  0
BLOCK_RECORD
  5
1F
330
1
100
AcDbSymbolTableRecord
100
AcDbBlockTableRecord
  2
*Model_Space
340
22
  0
BLOCK_RECORD
  5
1B
330
1
100
AcDbSymbolTableRecord
100
AcDbBlockTableRecord
  2
*Paper_Space
340
1E
  0
BLOCK_RECORD
  5
23
330
1
100
AcDbSymbolTableRecord
100
AcDbBlockTableRecord
  2
*Paper_Space0
340
26
  0
BLOCK_RECORD
  5
82
330
1
100
AcDbSymbolTableRecord
100
AcDbBlockTableRecord
  2
블럭10
340
0
102
{BLKREFS
331
D5
102
}
  0
BLOCK_RECORD
  5
DE
330
1
100
AcDbSymbolTableRecord
100
AcDbBlockTableRecord
  2
_D
340
0
  0
BLOCK_RECORD
  5
EC
330
1
100
AcDbSymbolTableRecord
100
AcDbBlockTableRecord
  2
_D_1
340
0
  0
BLOCK_RECORD
  5
F7
330
1
100
AcDbSymbolTableRecord
100
AcDbBlockTableRecord
  2
_D_2
340
0
  0
BLOCK_RECORD
  5
101
330
1
100
AcDbSymbolTableRecord
100
AcDbBlockTableRecord
  2
_D_3
340
0
  0
BLOCK_RECORD
  5
10D
330
1
100
AcDbSymbolTableRecord
100
AcDbBlockTableRecord
  2
_D_4
340
0
  0
BLOCK_RECORD
  5
119
330
1
100
AcDbSymbolTableRecord
100
AcDbBlockTableRecord
  2
SW_DOWELSYMBOL_0
340
0
102
{BLKREFS
331
11F
102
}
  0
BLOCK_RECORD
  5
154
330
1
100
AcDbSymbolTableRecord
100
AcDbBlockTableRecord
  2
*D8
340
0
  0
ENDTAB
  0
ENDSEC
  0
SECTION
  2
BLOCKS
  0
BLOCK
  5
20
330
1F
100
AcDbEntity
  8
0
100
AcDbBlockBegin
  2
*Model_Space
 70
     0
 10
0.0
 20
0.0
 30
0.0
  3
*Model_Space
  1
*Model_Space
  0
ENDBLK
  5
21
330
1F
100
AcDbEntity
  8
0
100
AcDbBlockEnd
  0
BLOCK
  5
1C
330
1B
100
AcDbEntity
 67
     1
  8
0
100
AcDbBlockBegin
  2
*Paper_Space
 70
     0
 10
0.0
 20
0.0
 30
0.0
  3
*Paper_Space
  1
*Paper_Space
  0
ENDBLK
  5
1D
330
1B
100
AcDbEntity
 67
     1
  8
0
100
AcDbBlockEnd
  0
BLOCK
  5
24
330
23
100
AcDbEntity
  8
0
100
AcDbBlockBegin
  2
*Paper_Space0
 70
     0
 10
0.0
 20
0.0
 30
0.0
  3
*Paper_Space0
  1
*Paper_Space0
  0
ENDBLK
  5
25
330
23
100
AcDbEntity
  8
0
100
AcDbBlockEnd
  0
BLOCK
  5
83
330
82
100
AcDbEntity
  8
0
100
AcDbBlockBegin
  2
블럭10
 70
     2
 10
0.0
 20
0.0
 30
0.0
  3
블럭10
  1
블럭10
  0
ELLIPSE
  5
85
330
82
100
AcDbEntity
  8
중심선
100
AcDbEllipse
 10
20.54032771741204
 20
12.0471743016438
 30
0.0
 11
6.600054785286829
 21
-1.261213355974178E-13
 31
0.0
210
0.0
220
0.0
230
1.0
 40
0.636358354079598
 41
0.9219305317359503
 42
6.513795318482858
  0
ELLIPSE
  5
86
330
82
100
AcDbEntity
  8
중심선
100
AcDbEllipse
 10
20.54032771746488
 20
12.04717430159265
 30
0.0
 11
3.960054785062283
 21
1.540847449632565E-10
 31
0.0
210
0.0
220
0.0
230
1.0
 40
0.3939339440162632
 41
1.131841032648279
 42
5.62031148352944
  0
LINE
  5
87
330
82
100
AcDbEntity
  8
중심선
100
AcDbLine
 10
2.268634060543552
 20
16.24717430164393
 30
0.0
 11
5.714909304380834
 21
16.24717430164393
 31
0.0
  0
LINE
  5
88
330
82
100
AcDbEntity
  8
중심선
100
AcDbLine
 10
5.245725140726316
 20
7.84717430164391
 30
0.0
 11
8.692000384563599
 21
7.84717430164391
 31
0.0
  0
LINE
  5
89
330
82
100
AcDbEntity
  8
중심선
100
AcDbLine
 10
15.74043728645272
 20
16.24717430164393
 30
0.0
 11
8.692000384563599
 21
7.84717430164391
 31
0.0
  0
LINE
  5
8A
330
82
100
AcDbEntity
  8
중심선
100
AcDbLine
 10
0.1404042013395286
 20
13.71084872107135
 30
0.0
 11
3.58671253028996
 21
13.71088815037384
 31
0.0
  0
LINE
  5
8B
330
82
100
AcDbEntity
  8
중심선
100
AcDbLine
 10
2.750260043222114
 20
10.84717430164391
 30
0.0
 11
6.196535287059397
 21
10.84717430164391
 31
0.0
  0
LINE
  5
8C
330
82
100
AcDbEntity
  8
중심선
100
AcDbLine
 10
12.29416204261559
 20
16.24717430164393
 30
0.0
 11
5.245725140726316
 21
7.84717430164391
 31
0.0
  0
LINE
  5
8D
330
82
100
AcDbEntity
  8
중심선
100
AcDbLine
 10
10.72767329541681
 20
16.24717430164393
 30
0.0
 11
6.196535287059397
 21
10.84717430164391
 31
0.0
  0
LINE
  5
8E
330
82
100
AcDbEntity
  8
중심선
100
AcDbLine
 10
7.28139805157953
 20
16.24717430164393
 30
0.0
 11
2.750260043222114
 21
10.84717430164391
 31
0.0
  0
LINE
  5
8F
330
82
100
AcDbEntity
  8
중심선
100
AcDbLine
 10
5.714909304380834
 20
16.24717430164393
 30
0.0
 11
3.58671253028996
 21
13.71088815037384
 31
0.0
  0
LINE
  5
90
330
82
100
AcDbEntity
  8
중심선
100
AcDbLine
 10
2.268634060543552
 20
16.24717430164393
 30
0.0
 11
0.1404042013395286
 21
13.71084872107135
 31
0.0
  0
LINE
  5
91
330
82
100
AcDbEntity
  8
중심선
100
AcDbLine
 10
7.28139805157953
 20
16.24717430164393
 30
0.0
 11
10.72767329541681
 21
16.24717430164393
 31
0.0
  0
LINE
  5
92
330
82
100
AcDbEntity
  8
중심선
100
AcDbLine
 10
12.29416204261559
 20
16.24717430164393
 30
0.0
 11
15.74043728645272
 21
16.24717430164393
 31
0.0
  0
LINE
  5
93
330
82
100
AcDbEntity
  8
중심선
100
AcDbLine
 10
19.22036997980202
 20
11.08717430171403
 30
0.0
 11
23.66174974927406
 21
11.08717430171406
 31
0.0
  0
LINE
  5
94
330
82
100
AcDbEntity
  8
중심선
100
AcDbLine
 10
19.22039502424796
 20
13.00717430171391
 30
0.0
 11
19.22036997980202
 21
11.08717430171403
 31
0.0
  0
LINE
  5
95
330
82
100
AcDbEntity
  8
중심선
100
AcDbLine
 10
19.22039502424796
 20
13.00717430171391
 30
0.0
 11
26.96566020931264
 21
13.00717430171391
 31
0.0
  0
LINE
  5
96
330
82
100
AcDbEntity
  8
중심선
100
AcDbLine
 10
22.22332737316547
 20
13.45928029700563
 30
0.0
 11
24.52862924686651
 21
15.39360700705356
 31
0.0
  0
ATTDEF
  5
98
330
82
100
AcDbEntity
  8
FORMAT
 62
     2
100
AcDbText
 10
-20.85824753159254
 20
2.075366912832191
 30
0.0
 40
4.233333333333333
  1
SEME6108003100E [ 2 FLUTE ]
 41
0.75
  7
SLDTEXTSTYLE0
 11
-20.85824753159254
 21
-0.0412997538344756
 31
0.0
100
AcDbAttributeDefinition
  3

  2
AUTOATTR0
 70
     0
 74
     1
  0
ENDBLK
  5
84
330
82
100
AcDbEntity
  8
0
100
AcDbBlockEnd
  0
BLOCK
  5
DF
330
DE
100
AcDbEntity
  8
0
100
AcDbBlockBegin
  2
_D
 70
     0
 10
0.0
 20
0.0
 30
0.0
  3
_D
  1
_D
  0
LINE
  5
E1
330
DE
100
AcDbEntity
  8
치수문자_일반주서
 62
     0
370
    -2
100
AcDbLine
 10
-63.9125
 20
3.999999999999991
 30
0.0
 11
-76.3464580216121
 21
3.999999999999945
 31
0.0
  0
LINE
  5
E2
330
DE
100
AcDbEntity
  8
치수문자_일반주서
 62
     0
370
    -2
100
AcDbLine
 10
-63.9125
 20
-4.000000000000004
 30
0.0
 11
-76.34645802161207
 21
-4.00000000000005
 31
0.0
  0
LINE
  5
E3
330
DE
100
AcDbEntity
  8
치수문자_일반주서
 62
     0
370
    -2
100
AcDbLine
 10
-76.34645802161208
 20
0.6979999999999449
 30
0.0
 11
-76.34645802161208
 21
-0.6980000000000497
 31
0.0
  0
SOLID
  5
E4
330
DE
100
AcDbEntity
  8
치수문자_일반주서
 62
     0
100
AcDbTrace
 10
-75.79612468827875
 20
0.6979999999999469
 30
0.0
 11
-76.8967913549454
 21
0.6979999999999429
 31
0.0
 12
-76.3464580216121
 22
3.999999999999945
 32
0.0
 13
-76.3464580216121
 23
3.999999999999945
 33
0.0
  0
SOLID
  5
E5
330
DE
100
AcDbEntity
  8
치수문자_일반주서
 62
     0
100
AcDbTrace
 10
-76.8967913549454
 20
-0.6980000000000517
 30
0.0
 11
-75.79612468827875
 21
-0.6980000000000477
 31
0.0
 12
-76.34645802161207
 22
-4.00000000000005
 32
0.0
 13
-76.34645802161207
 23
-4.00000000000005
 33
0.0
  0
MTEXT
  5
E6
330
DE
100
AcDbEntity
  8
치수문자_일반주서
 62
     0
100
AcDbMText
 10
-80.72145802161208
 20
-0.0000000000000209
 30
0.0
 40
3.5
 41
0.0
 71
     2
 72
     1
  1
\A1;%%c8
  7
SLDTEXTSTYLE0
 11
-3.552713678800503E-15
 21
1.0
 31
0.0
 73
     1
 44
1.0
  0
POINT
  5
E7
330
DE
100
AcDbEntity
  8
Defpoints
 62
     0
100
AcDbPoint
 10
-63.85
 20
3.999999999999992
 30
0.0
  0
POINT
  5
E8
330
DE
100
AcDbEntity
  8
Defpoints
 62
     0
100
AcDbPoint
 10
-63.85
 20
-4.000000000000004
 30
0.0
  0
POINT
  5
E9
330
DE
100
AcDbEntity
  8
Defpoints
 62
     0
100
AcDbPoint
 10
-76.34645802161207
 20
-4.000000000000051
 30
0.0
  0
ENDBLK
  5
E0
330
DE
100
AcDbEntity
  8
0
100
AcDbBlockEnd
  0
BLOCK
  5
ED
330
EC
100
AcDbEntity
  8
0
100
AcDbBlockBegin
  2
_D_1
 70
     0
 10
0.0
 20
0.0
 30
0.0
  3
_D_1
  1
_D_1
  0
LINE
  5
EF
330
EC
100
AcDbEntity
  8
치수문자_일반주서
 62
     0
370
    -2
100
AcDbLine
 10
35.15
 20
3.762499999999999
 30
0.0
 11
35.15
 21
22.19999999999965
 31
0.0
  0
LINE
  5
F0
330
EC
100
AcDbEntity
  8
치수문자_일반주서
 62
     0
370
    -2
100
AcDbLine
 10
15.15
 20
4.062499999999996
 30
0.0
 11
15.15
 21
22.19999999999965
 31
0.0
  0
LINE
  5
F1
330
EC
100
AcDbEntity
  8
치수문자_일반주서
 62
     0
370
    -2
100
AcDbLine
 10
35.15
 20
22.19999999999965
 30
0.0
 11
59.86958648361316
 21
22.19999999999965
 31
0.0
  0
LINE
  5
F2
330
EC
100
AcDbEntity
  8
치수문자_일반주서
 62
     0
370
    -2
100
AcDbLine
 10
31.848
 20
22.19999999999965
 30
0.0
 11
18.452
 21
22.19999999999965
 31
0.0
  0
SOLID
  5
F3
330
EC
100
AcDbEntity
  8
치수문자_일반주서
 62
     0
100
AcDbTrace
 10
31.848
 20
21.64966666666632
 30
0.0
 11
31.848
 21
22.75033333333299
 31
0.0
 12
35.15
 22
22.19999999999965
 32
0.0
 13
35.15
 23
22.19999999999965
 33
0.0
  0
SOLID
  5
F4
330
EC
100
AcDbEntity
  8
치수문자_일반주서
 62
     0
100
AcDbTrace
 10
18.452
 20
22.75033333333299
 30
0.0
 11
18.452
 21
21.64966666666632
 31
0.0
 12
15.15
 22
22.19999999999965
 32
0.0
 13
15.15
 23
22.19999999999965
 33
0.0
  0
MTEXT
  5
F5
330
EC
100
AcDbEntity
  8
치수문자_일반주서
 62
     0
100
AcDbMText
 10
57.02583648361316
 20
26.57499999999965
 30
0.0
 40
3.5
 41
0.0
 71
     2
 72
     1
  1
\A1;20
  7
SLDTEXTSTYLE0
 73
     1
 44
1.0
  0
POINT
  5
15F
330
EC
100
AcDbEntity
  8
Defpoints
 62
     0
100
AcDbPoint
 10
35.15
 20
3.699999999999999
 30
0.0
  0
POINT
  5
160
330
EC
100
AcDbEntity
  8
Defpoints
 62
     0
100
AcDbPoint
 10
15.15
 20
3.999999999999997
 30
0.0
  0
POINT
  5
161
330
EC
100
AcDbEntity
  8
Defpoints
 62
     0
100
AcDbPoint
 10
15.15
 20
22.19999999999965
 30
0.0
  0
ENDBLK
  5
EE
330
EC
100
AcDbEntity
  8
0
100
AcDbBlockEnd
  0
BLOCK
  5
F8
330
F7
100
AcDbEntity
  8
0
100
AcDbBlockBegin
  2
_D_2
 70
     0
 10
0.0
 20
0.0
 30
0.0
  3
_D_2
  1
_D_2
  0
LINE
  5
FA
330
F7
100
AcDbEntity
  8
치수문자_일반주서
 62
     0
370
    -2
100
AcDbLine
 10
35.15
 20
3.762499999999999
 30
0.0
 11
35.14999999999999
 21
44.25832450504429
 31
0.0
  0
LINE
  5
FB
330
F7
100
AcDbEntity
  8
치수문자_일반주서
 62
     0
370
    -2
100
AcDbLine
 10
-64.85000000000001
 20
3.06249999999999
 30
0.0
 11
-64.85000000000002
 21
44.25832450504429
 31
0.0
  0
LINE
  5
FC
330
F7
100
AcDbEntity
  8
치수문자_일반주서
 62
     0
370
    -2
100
AcDbLine
 10
31.84799999999999
 20
44.25832450504429
 30
0.0
 11
-61.54800000000002
 21
44.25832450504429
 31
0.0
  0
SOLID
  5
FD
330
F7
100
AcDbEntity
  8
치수문자_일반주서
 62
     0
100
AcDbTrace
 10
31.84799999999999
 20
43.70799117171096
 30
0.0
 11
31.84799999999999
 21
44.80865783837763
 31
0.0
 12
35.14999999999999
 22
44.25832450504429
 32
0.0
 13
35.14999999999999
 23
44.25832450504429
 33
0.0
  0
SOLID
  5
FE
330
F7
100
AcDbEntity
  8
치수문자_일반주서
 62
     0
100
AcDbTrace
 10
-61.54800000000002
 20
44.80865783837763
 30
0.0
 11
-61.54800000000002
 21
43.70799117171096
 31
0.0
 12
-64.85000000000002
 22
44.25832450504429
 32
0.0
 13
-64.85000000000002
 23
44.25832450504429
 33
0.0
  0
MTEXT
  5
FF
330
F7
100
AcDbEntity
  8
치수문자_일반주서
 62
     0
100
AcDbMText
 10
-14.85
 20
48.63332450504429
 30
0.0
 40
3.5
 41
0.0
 71
     2
 72
     1
  1
\A1;100
  7
SLDTEXTSTYLE0
 73
     1
 44
1.0
  0
POINT
  5
162
330
F7
100
AcDbEntity
  8
Defpoints
 62
     0
100
AcDbPoint
 10
35.15
 20
3.699999999999999
 30
0.0
  0
POINT
  5
163
330
F7
100
AcDbEntity
  8
Defpoints
 62
     0
100
AcDbPoint
 10
-64.85000000000001
 20
2.99999999999999
 30
0.0
  0
POINT
  5
164
330
F7
100
AcDbEntity
  8
Defpoints
 62
     0
100
AcDbPoint
 10
-64.85000000000001
 20
44.25832450504429
 30
0.0
  0
ENDBLK
  5
F9
330
F7
100
AcDbEntity
  8
0
100
AcDbBlockEnd
  0
BLOCK
  5
102
330
101
100
AcDbEntity
  8
0
100
AcDbBlockBegin
  2
_D_3
 70
     0
 10
0.0
 20
0.0
 30
0.0
  3
_D_3
  1
_D_3
  0
LINE
  5
104
330
101
100
AcDbEntity
  8
치수문자_일반주서
 62
     0
370
    -2
100
AcDbLine
 10
35.15
 20
4.062500000000069
 30
0.0
 11
35.15
 21
30.31999999999865
 31
0.0
  0
LINE
  5
105
330
101
100
AcDbEntity
  8
치수문자_일반주서
 62
     0
370
    -2
100
AcDbLine
 10
0.1499999999999981
 20
3.912499999999998
 30
0.0
 11
0.1499999999999986
 21
30.31999999999865
 31
0.0
  0
LINE
  5
106
330
101
100
AcDbEntity
  8
치수문자_일반주서
 62
     0
370
    -2
100
AcDbLine
 10
35.15
 20
30.31999999999865
 30
0.0
 11
50.9415
 21
30.31999999999865
 31
0.0
  0
LINE
  5
107
330
101
100
AcDbEntity
  8
치수문자_일반주서
 62
     0
370
    -2
100
AcDbLine
 10
35.15
 20
30.31999999999865
 30
0.0
 11
0.1499999999999986
 21
30.31999999999865
 31
0.0
  0
LINE
  5
108
330
101
100
AcDbEntity
  8
치수문자_일반주서
 62
     0
370
    -2
100
AcDbLine
 10
38.452
 20
30.31999999999865
 30
0.0
 11
41.754
 21
30.31999999999865
 31
0.0
  0
LINE
  5
109
330
101
100
AcDbEntity
  8
치수문자_일반주서
 62
     0
370
    -2
100
AcDbLine
 10
-3.152000000000001
 20
30.31999999999865
 30
0.0
 11
-6.454000000000002
 21
30.31999999999865
 31
0.0
  0
SOLID
  5
10A
330
101
100
AcDbEntity
  8
치수문자_일반주서
 62
     0
100
AcDbTrace
 10
38.452
 20
30.87033333333199
 30
0.0
 11
38.452
 21
29.76966666666532
 31
0.0
 12
35.15
 22
30.31999999999865
 32
0.0
 13
35.15
 23
30.31999999999865
 33
0.0
  0
SOLID
  5
10B
330
101
100
AcDbEntity
  8
치수문자_일반주서
 62
     0
100
AcDbTrace
 10
-3.152000000000001
 20
29.76966666666532
 30
0.0
 11
-3.152000000000001
 21
30.87033333333199
 31
0.0
 12
0.1499999999999986
 22
30.31999999999865
 32
0.0
 13
0.1499999999999986
 23
30.31999999999865
 33
0.0
  0
MTEXT
  5
145
330
101
100
AcDbEntity
  8
치수문자_일반주서
 62
     0
100
AcDbMText
 10
47.879
 20
34.69499999999866
 30
0.0
 40
3.5
 41
0.0
 71
     2
 72
     1
  1
\A1;35
  7
SLDTEXTSTYLE0
 73
     1
 44
1.0
  0
POINT
  5
146
330
101
100
AcDbEntity
  8
Defpoints
 62
     0
100
AcDbPoint
 10
35.15
 20
4.000000000000069
 30
0.0
  0
POINT
  5
147
330
101
100
AcDbEntity
  8
Defpoints
 62
     0
100
AcDbPoint
 10
0.1499999999999981
 20
3.849999999999998
 30
0.0
  0
POINT
  5
148
330
101
100
AcDbEntity
  8
Defpoints
 62
     0
100
AcDbPoint
 10
0.1499999999999981
 20
30.31999999999865
 30
0.0
  0
ENDBLK
  5
103
330
101
100
AcDbEntity
  8
0
100
AcDbBlockEnd
  0
BLOCK
  5
10E
330
10D
100
AcDbEntity
  8
0
100
AcDbBlockBegin
  2
_D_4
 70
     0
 10
0.0
 20
0.0
 30
0.0
  3
_D_4
  1
_D_4
  0
LINE
  5
110
330
10D
100
AcDbEntity
  8
치수문자_일반주서
 62
     0
370
    -2
100
AcDbLine
 10
15.2125
 20
3.999999999999999
 30
0.0
 11
53.62420791556352
 21
4.000000000000142
 31
0.0
  0
LINE
  5
111
330
10D
100
AcDbEntity
  8
치수문자_일반주서
 62
     0
370
    -2
100
AcDbLine
 10
15.2125
 20
-4.000000000000002
 30
0.0
 11
53.62420791556355
 21
-3.999999999999858
 31
0.0
  0
LINE
  5
112
330
10D
100
AcDbEntity
  8
치수문자_일반주서
 62
     0
370
    -2
100
AcDbLine
 10
53.62420791556354
 20
0.6980000000001421
 30
0.0
 11
53.62420791556354
 21
-0.6979999999998583
 31
0.0
  0
SOLID
  5
113
330
10D
100
AcDbEntity
  8
치수문자_일반주서
 62
     0
100
AcDbTrace
 10
54.17454124889687
 20
0.6980000000001441
 30
0.0
 11
53.0738745822302
 21
0.6980000000001401
 31
0.0
 12
53.62420791556352
 22
4.000000000000142
 32
0.0
 13
53.62420791556352
 23
4.000000000000142
 33
0.0
  0
SOLID
  5
114
330
10D
100
AcDbEntity
  8
치수문자_일반주서
 62
     0
100
AcDbTrace
 10
53.0738745822302
 20
-0.6979999999998603
 30
0.0
 11
54.17454124889687
 21
-0.6979999999998563
 31
0.0
 12
53.62420791556355
 22
-3.999999999999858
 32
0.0
 13
53.62420791556355
 23
-3.999999999999858
 33
0.0
  0
MTEXT
  5
115
330
10D
100
AcDbEntity
  8
치수문자_일반주서
 62
     0
100
AcDbMText
 10
49.24920791556354
 20
0.000000000000118
 30
0.0
 40
3.5
 41
0.0
 71
     2
 72
     1
  1
\A1;%%c8
  7
SLDTEXTSTYLE0
 11
-3.552713678800501E-15
 21
1.0
 31
0.0
 73
     1
 44
1.0
  0
POINT
  5
116
330
10D
100
AcDbEntity
  8
Defpoints
 62
     0
100
AcDbPoint
 10
15.15
 20
3.999999999999999
 30
0.0
  0
POINT
  5
117
330
10D
100
AcDbEntity
  8
Defpoints
 62
     0
100
AcDbPoint
 10
15.15
 20
-4.000000000000002
 30
0.0
  0
POINT
  5
118
330
10D
100
AcDbEntity
  8
Defpoints
 62
     0
100
AcDbPoint
 10
53.62420791556355
 20
-3.999999999999858
 30
0.0
  0
ENDBLK
  5
10F
330
10D
100
AcDbEntity
  8
0
100
AcDbBlockEnd
  0
BLOCK
  5
11A
330
119
100
AcDbEntity
  8
0
100
AcDbBlockBegin
  2
SW_DOWELSYMBOL_0
 70
     0
 10
0.0
 20
0.0
 30
0.0
  3
SW_DOWELSYMBOL_0
  1
SW_DOWELSYMBOL_0
  0
CIRCLE
  5
11C
330
119
100
AcDbEntity
  8
외형선
 62
     0
100
AcDbCircle
 10
0.0
 20
0.0
 30
0.0
 40
3.000000000000004
  0
HATCH
  5
11D
330
119
100
AcDbEntity
  8
0
  6
Continuous
 62
     0
370
    35
100
AcDbHatch
 10
0.0
 20
0.0
 30
0.0
210
0.0
220
0.0
230
1.0
  2
SOLID
 70
     1
 71
     0
 91
        1
 92
        0
 93
        3
 72
     2
 10
0.0000000000000104
 20
0.0
 40
3.000000000000004
 50
0.0
 51
90.0
 73
     1
 72
     1
 10
0.0000000000000104
 20
3.000000000000004
 11
0.0000000000000104
 21
0.0
 72
     1
 10
0.0000000000000104
 20
0.0
 11
3.000000000000015
 21
0.0
 97
        0
 75
     0
 76
     1
 98
        1
 10
0.0
 20
0.0
  0
HATCH
  5
11E
330
119
100
AcDbEntity
  8
0
  6
Continuous
 62
     0
370
    35
100
AcDbHatch
 10
0.0
 20
0.0
 30
0.0
210
0.0
220
0.0
230
1.0
  2
SOLID
 70
     1
 71
     0
 91
        1
 92
        0
 93
        3
 72
     2
 10
0.0000000000000104
 20
0.0
 40
3.000000000000004
 50
180.0
 51
270.0000000000007
 73
     1
 72
     1
 10
0.0000000000000104
 20
-3.000000000000004
 11
0.0000000000000104
 21
0.0
 72
     1
 10
0.0000000000000104
 20
0.0
 11
-2.999999999999994
 21
0.0
 97
        0
 75
     0
 76
     1
 98
        1
 10
0.0
 20
0.0
  0
ENDBLK
  5
11B
330
119
100
AcDbEntity
  8
0
100
AcDbBlockEnd
  0
BLOCK
  5
155
330
154
100
AcDbEntity
  8
0
100
AcDbBlockBegin
  2
*D8
 70
     1
 10
0.0
 20
0.0
 30
0.0
  3
*D8
  1
*D8
  0
LINE
  5
157
330
154
100
AcDbEntity
  8
치수문자_일반주서
 62
     0
370
    -2
100
AcDbLine
 10
36.99500231074792
 20
-6.579395475632234
 30
0.0
 11
48.272626787184
 21
-21.79327533162439
 31
0.0
  0
MTEXT
  5
158
330
154
100
AcDbEntity
  8
치수문자_일반주서
 62
     0
100
AcDbMText
 10
48.29716736860939
 20
-17.41834415960999
 30
0.0
 40
3.5
 41
0.0
 71
     5
 72
     1
  1
\A1;R.3
  7
SLDTEXTSTYLE0
 11
0.5955031401299041
 21
-0.8033529797638296
 31
0.0
 73
     1
 44
1.0
  0
LINE
  5
159
330
154
100
AcDbEntity
  8
치수문자_일반주서
 62
     0
370
    -2
100
AcDbLine
 10
34.85000000000001
 20
-3.685718042522921
 30
0.0
 11
35.02865094203898
 21
-3.926723936452069
 31
0.0
  0
SOLID
  5
15A
330
154
100
AcDbEntity
  8
치수문자_일반주서
 62
     0
100
AcDbTrace
 10
37.43711423394461
 20
-6.251670247514077
 30
0.0
 11
36.55289038755123
 21
-6.907120703750391
 31
0.0
 12
35.02865094203898
 22
-3.926723936452069
 32
0.0
 13
35.02865094203898
 23
-3.926723936452069
 33
0.0
  0
POINT
  5
15B
330
154
100
AcDbEntity
  8
Defpoints
 62
     0
100
AcDbPoint
 10
35.02865094203898
 20
-3.926723936452069
 30
0.0
  0
POINT
  5
15C
330
154
100
AcDbEntity
  8
Defpoints
 62
     0
100
AcDbPoint
 10
34.85000000000001
 20
-3.685718042522921
 30
0.0
  0
ENDBLK
  5
156
330
154
100
AcDbEntity
  8
0
100
AcDbBlockEnd
  0
ENDSEC
  0
SECTION
  2
ENTITIES
  0
LINE
  5
9B
330
1F
100
AcDbEntity
  8
0
  6
Continuous
 62
     4
370
    25
100
AcDbLine
 10
-0.0000000000000004
 20
3.999999999999997
 30
0.0
 11
-63.85
 21
3.999999999999993
 31
0.0
  0
LINE
  5
9C
330
1F
100
AcDbEntity
  8
0
  6
Continuous
 62
     4
370
    25
100
AcDbLine
 10
-63.85
 20
-4.000000000000004
 30
0.0
 11
-0.0000000000000022
 21
-4.0
 31
0.0
  0
LINE
  5
9D
330
1F
100
AcDbEntity
  8
0
  6
Continuous
 62
     4
370
    25
100
AcDbLine
 10
-63.85
 20
3.999999999999992
 30
0.0
 11
-64.85000000000001
 21
2.999999999999989
 31
0.0
  0
LINE
  5
9E
330
1F
100
AcDbEntity
  8
0
  6
Continuous
 62
     4
370
    25
100
AcDbLine
 10
-64.85000000000001
 20
-3.000000000000001
 30
0.0
 11
-63.85
 21
-4.000000000000004
 31
0.0
  0
LINE
  5
9F
330
1F
100
AcDbEntity
  8
0
  6
Continuous
 62
     4
370
    25
100
AcDbLine
 10
12.09989071626888
 20
3.849999999999999
 30
0.0
 11
0.1499999999999981
 21
3.849999999999998
 31
0.0
  0
LINE
  5
A0
330
1F
100
AcDbEntity
  8
0
  6
Continuous
 62
     4
370
    25
100
AcDbLine
 10
15.15
 20
3.849999999999999
 30
0.0
 11
13.73611051744233
 21
3.849999999999999
 31
0.0
  0
LINE
  5
A1
330
1F
100
AcDbEntity
  8
0
  6
Continuous
 62
     4
370
    25
100
AcDbLine
 10
13.73611051744233
 20
-3.85
 30
0.0
 11
15.15
 21
-3.85
 31
0.0
  0
LINE
  5
A2
330
1F
100
AcDbEntity
  8
0
  6
Continuous
 62
     4
370
    25
100
AcDbLine
 10
0.1499999999999981
 20
-3.850000000000001
 30
0.0
 11
12.09989071626888
 21
-3.85
 31
0.0
1001
PE_URL
1000

  0
SPLINE
  5
A3
330
1F
100
AcDbEntity
  8
0
  6
Continuous
 62
     1
370
    25
100
AcDbSpline
210
0.0
220
0.0
230
1.0
 70
     8
 71
     3
 72
     9
 73
     5
 74
     0
 42
0.000000001
 43
0.00000001
 40
0.0
 40
0.0
 40
0.0
 40
0.0
 40
0.4371375353090405
 40
1.0
 40
1.0
 40
1.0
 40
1.0
 10
24.78804429011116
 20
1.024819719705395
 30
0.0
 10
24.62608738961823
 20
1.101746467750433
 30
0.0
 10
24.25559323752392
 20
1.277724831151903
 30
0.0
 10
23.88518226828433
 20
1.471126171707405
 30
0.0
 10
23.67669183718958
 20
1.579984526927011
 30
0.0
  0
LINE
  5
A4
330
1F
100
AcDbEntity
  8
0
  6
Continuous
 62
     4
370
    25
100
AcDbLine
 10
15.60665882924567
 20
3.999999999999999
 30
0.0
 11
15.15
 21
3.999999999999999
 31
0.0
  0
SPLINE
  5
A5
330
1F
100
AcDbEntity
  8
0
  6
Continuous
 62
     1
370
    25
100
AcDbSpline
210
0.0
220
0.0
230
1.0
 70
     8
 71
     3
 72
    10
 73
     6
 74
     0
 42
0.000000001
 43
0.00000001
 40
0.0
 40
0.0
 40
0.0
 40
0.0
 40
0.3825457994169695
 40
0.9173860444672126
 40
1.0
 40
1.0
 40
1.0
 40
1.0
 10
23.46434270460445
 20
3.178546247970974
 30
0.0
 10
23.04684394164389
 20
3.160749279880985
 30
0.0
 10
22.04563692458587
 20
3.118070232863692
 30
0.0
 10
20.95498854641676
 20
3.114291727970577
 30
0.0
 10
20.28146125919195
 20
3.143375275551418
 30
0.0
 10
20.19134485330407
 20
3.147266587497001
 30
0.0
  0
SPLINE
  5
A6
330
1F
100
AcDbEntity
  8
0
  6
Continuous
 62
     1
370
    25
100
AcDbSpline
210
0.0
220
0.0
230
1.0
 70
     8
 71
     3
 72
    21
 73
    17
 74
     0
 42
0.000000001
 43
0.00000001
 40
0.0
 40
0.0
 40
0.0
 40
0.0
 40
0.0823327149983362
 40
0.1401062159249207
 40
0.1834192728143683
 40
0.2327615531970306
 40
0.2874292393916129
 40
0.3999460115064543
 40
0.5042307799178787
 40
0.6214985464157007
 40
0.7294672058767914
 40
0.7586593576051689
 40
0.7915392411221109
 40
0.8425965713134254
 40
0.9123029701178218
 40
0.9999999999999999
 40
0.9999999999999999
 40
0.9999999999999999
 40
0.9999999999999999
 10
33.68488487304653
 20
2.737681742449093
 30
0.0
 10
33.4936485995576
 20
2.72207938738834
 30
0.0
 10
33.16822035846708
 20
2.695528739482178
 30
0.0
 10
32.73928815265002
 20
2.670525345212434
 30
0.0
 10
32.3832659121913
 20
2.653980988409936
 30
0.0
 10
32.03806338823153
 20
2.642037681671056
 30
0.0
 10
31.53265320131922
 20
2.631236466519227
 30
0.0
 10
30.90149025442194
 20
2.631360616242912
 30
0.0
 10
30.10802182930444
 20
2.653624207131205
 30
0.0
 10
29.34860987795349
 20
2.697081142888154
 30
0.0
 10
28.75573976972623
 20
2.746751536926034
 30
0.0
 10
28.35894817312226
 20
2.786928059778613
 30
0.0
 10
28.09514930304559
 20
2.815464092827308
 30
0.0
 10
27.73676713312111
 20
2.857687493165975
 30
0.0
 10
27.24991149863703
 20
2.920945851124665
 30
0.0
 10
26.8816909443543
 20
2.977179933830169
 30
0.0
 10
26.67653754190545
 20
3.00851064925722
 30
0.0
  0
SPLINE
  5
A7
330
1F
100
AcDbEntity
  8
0
  6
Continuous
 62
     1
370
    25
100
AcDbSpline
210
0.0
220
0.0
230
1.0
 70
     8
 71
     3
 72
    12
 73
     8
 74
     0
 42
0.000000001
 43
0.00000001
 40
0.0
 40
0.0
 40
0.0
 40
0.0
 40
0.2086137590576895
 40
0.5009080909893958
 40
0.698770943843862
 40
0.7918879485694519
 40
1.0
 40
1.0
 40
1.0
 40
1.0
 10
17.44809672604286
 20
-3.328570877897815
 30
0.0
 10
17.86657998777009
 20
-3.290151399602126
 30
0.0
 10
18.87141136940889
 20
-3.197901360022614
 30
0.0
 10
20.27211890629741
 20
-3.132105636892482
 30
0.0
 10
21.44225529803697
 20
-3.120489789690472
 30
0.0
 10
22.44229648266962
 20
-3.133005869534252
 30
0.0
 10
23.04674409978832
 20
-3.159938871817308
 30
0.0
 10
23.46434270460445
 20
-3.178546247970974
 30
0.0
  0
SPLINE
  5
A8
330
1F
100
AcDbEntity
  8
0
  6
Continuous
 62
     1
370
    25
100
AcDbSpline
210
0.0
220
0.0
230
1.0
 70
     8
 71
     3
 72
    14
 73
    10
 74
     0
 42
0.000000001
 43
0.00000001
 40
0.0
 40
0.0
 40
0.0
 40
0.0
 40
0.1976644978210704
 40
0.3328945037757
 40
0.4515917315802024
 40
0.5924895973229979
 40
0.7432785107344538
 40
0.8956688033501518
 40
1.0
 40
1.0
 40
1.0
 40
1.0
 10
26.67653754190545
 20
-3.00851064925722
 30
0.0
 10
26.87055233859025
 20
-2.978763379584056
 30
0.0
 10
27.19730023808405
 20
-2.928664840465039
 30
0.0
 10
27.64876971756192
 20
-2.868882370803419
 30
0.0
 10
28.04671334912771
 20
-2.820669131514747
 30
0.0
 10
28.45522486947163
 20
-2.776130960751871
 30
0.0
 10
28.89676562600852
 20
-2.73475123346887
 30
0.0
 10
29.3023829676575
 20
-2.702478198746422
 30
0.0
 10
29.55778983281591
 20
-2.687217949335261
 30
0.0
 10
29.66158676836188
 20
-2.681016208737713
 30
0.0
  0
LINE
  5
A9
330
1F
100
AcDbEntity
  8
0
  6
Continuous
 62
     4
370
    25
100
AcDbLine
 10
15.15
 20
-4.000000000000002
 30
0.0
 11
15.60665882924566
 21
-4.000000000000002
 31
0.0
  0
LINE
  5
AA
330
1F
100
AcDbEntity
  8
0
  6
Continuous
 62
     4
370
    25
100
AcDbLine
 10
0.1499999999999981
 20
3.849999999999999
 30
0.0
 11
0.1499999999999981
 21
-3.850000000000002
 31
0.0
1001
PE_URL
1000

  0
LINE
  5
AC
330
1F
100
AcDbEntity
  8
0
  6
Continuous
 62
     4
370
    25
100
AcDbLine
 10
-63.85
 20
3.999999999999992
 30
0.0
 11
-63.85
 21
-4.000000000000004
 31
0.0
  0
LINE
  5
AD
330
1F
100
AcDbEntity
  8
0
  6
Continuous
 62
     4
370
    25
100
AcDbLine
 10
-64.85000000000001
 20
2.99999999999999
 30
0.0
 11
-64.85000000000001
 21
-3.000000000000001
 31
0.0
  0
SPLINE
  5
AE
330
1F
100
AcDbEntity
  8
0
  6
Continuous
 62
     4
370
    25
100
AcDbSpline
210
0.0
220
0.0
230
1.0
 70
     8
 71
     3
 72
    12
 73
     8
 74
     0
 42
0.000000001
 43
0.00000001
 40
0.0
 40
0.0
 40
0.0
 40
0.0
 40
0.25
 40
0.25
 40
0.5
 40
0.5
 40
1.0
 40
1.0
 40
1.0
 40
1.0
 10
12.09989071626891
 20
3.743201909772017
 30
0.0
 10
12.35415198131545
 20
3.776238820437568
 30
0.0
 10
12.60976972478111
 20
3.80175442095412
 30
0.0
 10
13.11908234821133
 20
3.837256548861547
 30
0.0
 10
13.37109544590731
 20
3.847248199191462
 30
0.0
 10
14.13202102775104
 20
3.854024267052233
 30
0.0
 10
14.64430570877076
 20
3.827239028018644
 30
0.0
 10
15.15
 20
3.77008986709023
 30
0.0
  0
SPLINE
  5
AF
330
1F
100
AcDbEntity
  8
0
  6
Continuous
 62
     4
370
    25
100
AcDbSpline
210
0.0
220
0.0
230
1.0
 70
     8
 71
     3
 72
    12
 73
     8
 74
     0
 42
0.000000001
 43
0.00000001
 40
0.0
 40
0.0
 40
0.0
 40
0.0
 40
0.5000000000000007
 40
0.5000000000000007
 40
0.7500000000000003
 40
0.7500000000000003
 40
1.0
 40
1.0
 40
1.0
 40
1.0
 10
15.15
 20
-3.837090711764647
 30
0.0
 10
14.64428673969161
 20
-3.814019132266513
 30
0.0
 10
14.13198242920426
 20
-3.759694713187195
 30
0.0
 10
13.37102911607544
 20
-3.63375241568524
 30
0.0
 10
13.11900614527503
 20
-3.584472048628238
 30
0.0
 10
12.60967398438787
 20
-3.471297772984692
 30
0.0
 10
12.35404666149832
 20
-3.407488124662831
 30
0.0
 10
12.09977626534567
 20
-3.337045437508387
 30
0.0
  0
LINE
  5
B0
330
1F
100
AcDbEntity
  8
0
  6
Continuous
 62
     4
370
    25
100
AcDbLine
 10
15.15
 20
-3.837090711764647
 30
0.0
 11
15.15
 21
-3.85
 31
0.0
  0
SPLINE
  5
B1
330
1F
100
AcDbEntity
  8
0
  6
Continuous
 62
     4
370
    25
100
AcDbSpline
210
0.0
220
0.0
230
1.0
 70
     8
 71
     3
 72
    10
 73
     6
 74
     0
 42
0.000000001
 43
0.00000001
 40
0.0
 40
0.0
 40
0.0
 40
0.0
 40
0.3884436408681861
 40
0.7776588541793732
 40
1.0
 40
1.0
 40
1.0
 40
1.0
 10
12.09989071626891
 20
-3.743201909772018
 30
0.0
 10
12.31186225939912
 20
-3.767380800985674
 30
0.0
 10
12.73622638846774
 20
-3.815786610370309
 30
0.0
 10
13.28141279527582
 20
-3.847837347278786
 30
0.0
 10
13.61487497956374
 20
-3.846458338211074
 30
0.0
 10
13.73611051744233
 20
-3.845956977295382
 30
0.0
  0
LINE
  5
B2
330
1F
100
AcDbEntity
  8
0
  6
Continuous
 62
     4
370
    25
100
AcDbLine
 10
12.09989071626889
 20
-3.850000000000001
 30
0.0
 11
12.09989071626891
 21
-3.743188785666612
 31
0.0
  0
LINE
  5
B3
330
1F
100
AcDbEntity
  8
0
  6
Continuous
 62
     4
370
    25
100
AcDbLine
 10
12.09989071626888
 20
-3.336957261418398
 30
0.0
 11
12.09989071626889
 21
3.849999999999999
 31
0.0
  0
SPLINE
  5
B4
330
1F
100
AcDbEntity
  8
0
  6
Continuous
 62
     4
370
    25
100
AcDbSpline
210
0.0
220
0.0
230
1.0
 70
     8
 71
     3
 72
    12
 73
     8
 74
     0
 42
0.000000001
 43
0.00000001
 40
0.0
 40
0.0
 40
0.0
 40
0.0
 40
0.5000000000000007
 40
0.5000000000000007
 40
0.7500000000000003
 40
0.7500000000000003
 40
1.0
 40
1.0
 40
1.0
 40
1.0
 10
15.15000000000346
 20
-3.372897613169338
 30
0.0
 10
14.64428673969446
 20
-3.341518822583803
 30
0.0
 10
14.1319824292066
 20
-3.282620613853119
 30
0.0
 10
13.37102911607689
 20
-3.155651450309865
 30
0.0
 10
13.11900614527619
 20
-3.106989923887894
 30
0.0
 10
12.60967398438845
 20
-2.996982719922087
 30
0.0
 10
12.35404666149861
 20
-2.93572333159891
 30
0.0
 10
12.09977626534567
 20
-2.868773019570336
 30
0.0
  0
SPLINE
  5
B5
330
1F
100
AcDbEntity
  8
0
  6
Continuous
 62
     4
370
    25
100
AcDbSpline
210
0.0
220
0.0
230
1.0
 70
     8
 71
     3
 72
    12
 73
     8
 74
     0
 42
0.000000001
 43
0.00000001
 40
0.0
 40
0.0
 40
0.0
 40
0.0
 40
0.5
 40
0.5
 40
0.75
 40
0.75
 40
1.0
 40
1.0
 40
1.0
 40
1.0
 10
15.15000000000001
 20
-0.8068619689032044
 30
0.0
 10
14.64429878160458
 20
-0.5800735362744024
 30
0.0
 10
14.13200693226027
 20
-0.3457657576426204
 30
0.0
 10
13.37107122343451
 20
0.0059296739605359
 30
0.0
 10
13.11905452028428
 20
0.1231354086678684
 30
0.0
 10
12.60973476211672
 20
0.3573900568521367
 30
0.0
 10
12.35411352040866
 20
0.4741768396746614
 30
0.0
 10
12.09984892083103
 20
0.5895652504186255
 30
0.0
  0
SPLINE
  5
B6
330
1F
100
AcDbEntity
  8
0
  6
Continuous
 62
     4
370
    25
100
AcDbSpline
210
0.0
220
0.0
230
1.0
 70
    24
 71
     3
 72
    14
 73
    10
 74
     0
 42
0.000000001
 43
0.00000001
 40
0.0
 40
0.0
 40
0.0
 40
0.0
 40
0.25
 40
0.25
 40
0.5
 40
0.5
 40
0.75
 40
0.75
 40
1.0
 40
1.0
 40
1.0
 40
1.0
 10
15.15000000000005
 20
-0.8068619689032236
 30
0.0
 10
15.15000000000005
 20
-1.094391245210807
 30
0.0
 10
15.15000000000005
 20
-1.376862609501518
 30
0.0
 10
15.15000000000005
 20
-1.909702046994145
 30
0.0
 10
15.15000000000005
 20
-2.159891843403299
 30
0.0
 10
15.15000000000005
 20
-2.608370149028551
 30
0.0
 10
15.15000000000004
 20
-2.806529151324036
 30
0.0
 10
15.15000000000005
 20
-3.138571783631224
 30
0.0
 10
15.15000000000005
 20
-3.272435252644374
 30
0.0
 10
15.15000000000005
 20
-3.372897613169125
 30
0.0
  0
SPLINE
  5
B7
330
1F
100
AcDbEntity
  8
0
  6
Continuous
 62
     4
370
    25
100
AcDbSpline
210
0.0
220
0.0
230
1.0
 70
     8
 71
     3
 72
    12
 73
     8
 74
     0
 42
0.000000001
 43
0.00000001
 40
0.0
 40
0.0
 40
0.0
 40
0.0
 40
0.4999999999999993
 40
0.4999999999999993
 40
0.7499999999999997
 40
0.7499999999999997
 40
1.0
 40
1.0
 40
1.0
 40
1.0
 10
15.15000000000151
 20
2.709530962620912
 30
0.0
 10
14.64430113846698
 20
2.761236863463107
 30
0.0
 10
14.1320117280345
 20
2.791165487941471
 30
0.0
 10
13.37107946475532
 20
2.801875795666924
 30
0.0
 10
13.11906398830835
 20
2.799813400743192
 30
0.0
 10
12.60974665762332
 20
2.784380435549152
 30
0.0
 10
12.35412660613683
 20
2.770994474997073
 30
0.0
 10
12.09986314107971
 20
2.752069110272156
 30
0.0
  0
SPLINE
  5
B8
330
1F
100
AcDbEntity
  8
0
  6
Continuous
 62
     4
370
    25
100
AcDbSpline
210
0.0
220
0.0
230
1.0
 70
    24
 71
     3
 72
    14
 73
    10
 74
     0
 42
0.000000001
 43
0.00000001
 40
0.0
 40
0.0
 40
0.0
 40
0.0
 40
0.25
 40
0.25
 40
0.5
 40
0.5
 40
0.75
 40
0.75
 40
1.0
 40
1.0
 40
1.0
 40
1.0
 10
15.15
 20
2.709530962621067
 30
0.0
 10
15.15
 20
2.549235292069023
 30
0.0
 10
15.15
 20
2.345057345214229
 30
0.0
 10
15.15
 20
1.856279903572858
 30
0.0
 10
15.15
 20
1.571761638311492
 30
0.0
 10
15.15
 20
0.9467972328679153
 30
0.0
 10
15.15
 20
0.6066840998495754
 30
0.0
 10
15.15
 20
-0.0939277510068879
 30
0.0
 10
15.15
 20
-0.4540477064620048
 30
0.0
 10
15.15
 20
-0.8068619689032029
 30
0.0
  0
SPLINE
  5
B9
330
1F
100
AcDbEntity
  8
0
  6
Continuous
 62
     4
370
    25
100
AcDbSpline
210
0.0
220
0.0
230
1.0
 70
    24
 71
     3
 72
     8
 73
     4
 74
     0
 42
0.000000001
 43
0.00000001
 40
0.0
 40
0.0
 40
0.0
 40
0.0
 40
1.0
 40
1.0
 40
1.0
 40
1.0
 10
15.15
 20
-3.372897613169123
 30
0.0
 10
15.15
 20
-3.52925700973402
 30
0.0
 10
15.15
 20
-3.684550005798123
 30
0.0
 10
15.15
 20
-3.837090711764722
 30
0.0
  0
SPLINE
  5
BA
330
1F
100
AcDbEntity
  8
0
  6
Continuous
 62
     4
370
    25
100
AcDbSpline
210
0.0
220
0.0
230
1.0
 70
    24
 71
     3
 72
    10
 73
     6
 74
     0
 42
0.000000001
 43
0.00000001
 40
0.0
 40
0.0
 40
0.0
 40
0.0
 40
0.5
 40
0.5
 40
1.0
 40
1.0
 40
1.0
 40
1.0
 10
15.15
 20
3.770089867090056
 30
0.0
 10
15.15
 20
3.602247834554659
 30
0.0
 10
15.15
 20
3.419456732637184
 30
0.0
 10
15.15
 20
3.055564127303184
 30
0.0
 10
15.15
 20
2.875033712822249
 30
0.0
 10
15.15
 20
2.709530962621067
 30
0.0
  0
SPLINE
  5
BB
330
1F
100
AcDbEntity
  8
0
  6
Continuous
 62
     1
370
    25
100
AcDbSpline
210
0.0
220
0.0
230
1.0
 70
     8
 71
     3
 72
    48
 73
    44
 74
     0
 42
0.000000001
 43
0.00000001
 40
0.0
 40
0.0
 40
0.0
 40
0.0
 40
0.0625
 40
0.0625
 40
0.09375
 40
0.09375
 40
0.125
 40
0.125
 40
0.15625
 40
0.15625
 40
0.1875000000000001
 40
0.1875000000000001
 40
0.2500000000000001
 40
0.2500000000000001
 40
0.3125000000000002
 40
0.3125000000000002
 40
0.3750000000000002
 40
0.3750000000000002
 40
0.4062500000000002
 40
0.4062500000000002
 40
0.4375000000000003
 40
0.4375000000000003
 40
0.5
 40
0.5
 40
0.5624999999999996
 40
0.5624999999999996
 40
0.6249999999999993
 40
0.6249999999999993
 40
0.6562499999999993
 40
0.6562499999999993
 40
0.6874999999999993
 40
0.6874999999999993
 40
0.7499999999999998
 40
0.7499999999999998
 40
0.7812499999999998
 40
0.7812499999999998
 40
0.8124999999999998
 40
0.8124999999999998
 40
0.8749999999999999
 40
0.8749999999999999
 40
0.9375
 40
0.9375
 40
1.0
 40
1.0
 40
1.0
 40
1.0
 10
15.15
 20
3.908945007729815
 30
0.0
 10
15.5583164891705
 20
3.858762898461769
 30
0.0
 10
15.97252161156481
 20
3.787675979922908
 30
0.0
 10
16.58806528594398
 20
3.652045407679792
 30
0.0
 10
16.7912794230841
 20
3.602131205305983
 30
0.0
 10
17.20105099798533
 20
3.492710773964781
 30
0.0
 10
17.40706985237699
 20
3.433227801404791
 30
0.0
 10
17.81894044792805
 20
3.305373455514928
 30
0.0
 10
18.02478897819337
 20
3.237003098210254
 30
0.0
 10
18.43388593669223
 20
3.092242040339696
 30
0.0
 10
18.63743794116873
 20
3.015833614658049
 30
0.0
 10
19.25371238888352
 20
2.774306878712665
 30
0.0
 10
19.66772365991136
 20
2.597303747198729
 30
0.0
 10
20.48263669367129
 20
2.21987448319452
 30
0.0
 10
20.89647573812094
 20
2.017468575992019
 30
0.0
 10
21.71830436358797
 20
1.594465431259266
 30
0.0
 10
22.12535454114033
 20
1.37413217074763
 30
0.0
 10
22.74314830440546
 20
1.033244072631704
 30
0.0
 10
22.94918852710894
 20
0.9180796259134796
 30
0.0
 10
23.35905282342943
 20
0.6860553511548559
 30
0.0
 10
23.56224527122754
 20
0.5693200750864817
 30
0.0
 10
24.17766791192129
 20
0.2162204656671456
 30
0.0
 10
24.59189372376794
 20
-0.0223164565741716
 30
0.0
 10
25.40876765399027
 20
-0.4944473371743882
 30
0.0
 10
25.82043610429959
 20
-0.7297700216329301
 30
0.0
 10
26.64312127936163
 20
-1.190147686427256
 30
0.0
 10
27.04971591788333
 20
-1.414405285794272
 30
0.0
 10
27.66731073701364
 20
-1.739274862599596
 30
0.0
 10
27.87348027233984
 20
-1.845462833866067
 30
0.0
 10
28.2839893718433
 20
-2.052392068939909
 30
0.0
 10
28.48726477741277
 20
-2.152967338273826
 30
0.0
 10
29.10165118132006
 20
-2.446572560219406
 30
0.0
 10
29.51596462339501
 20
-2.631128190405143
 30
0.0
 10
30.1299090820495
 20
-2.884696286894673
 30
0.0
 10
30.33333204689371
 20
-2.965383319985122
 30
0.0
 10
30.74405391708141
 20
-3.119253809312168
 30
0.0
 10
30.95025620767674
 20
-3.19228093654985
 30
0.0
 10
31.56772647255196
 20
-3.398313177773145
 30
0.0
 10
31.97424835736815
 20
-3.51794878931558
 30
0.0
 10
32.79719403923914
 20
-3.719977349471445
 30
0.0
 10
33.20813654692927
 20
-3.8017978479346
 30
0.0
 10
34.02569224804234
 20
-3.92452341243576
 30
0.0
 10
34.4399663195956
 20
-3.965719642426233
 30
0.0
 10
34.85000000000001
 20
-3.985718042522932
 30
0.0
  0
SPLINE
  5
BD
330
1F
100
AcDbEntity
  8
0
  6
Continuous
 62
     1
370
    25
100
AcDbSpline
210
0.0
220
0.0
230
1.0
 70
     8
 71
     3
 72
    13
 73
     9
 74
     0
 42
0.000000001
 43
0.00000001
 40
0.0
 40
0.0
 40
0.0
 40
0.0
 40
0.1580771818381922
 40
0.3487659671869721
 40
0.5394990360924672
 40
0.7303244139414423
 40
0.8650852710995682
 40
0.9999999999999999
 40
0.9999999999999999
 40
0.9999999999999999
 40
0.9999999999999999
 10
25.21581723936417
 20
-0.3813099408212788
 30
0.0
 10
24.68538770343927
 20
-0.1674567366257586
 30
0.0
 10
23.51510007577428
 20
0.3043679678001377
 30
0.0
 10
21.70495983568946
 20
1.025524114354295
 30
0.0
 10
19.78493210764215
 20
1.710255616234845
 30
0.0
 10
18.05218196796253
 20
2.20764579284717
 30
0.0
 10
16.50750743758481
 20
2.541220788489616
 30
0.0
 10
15.60267457264923
 20
2.65340623428586
 30
0.0
 10
15.15000000000001
 20
2.709530962621067
 30
0.0
  0
SPLINE
  5
BE
330
1F
100
AcDbEntity
  8
0
  6
Continuous
 62
     4
370
    25
100
AcDbSpline
210
0.0
220
0.0
230
1.0
 70
    24
 71
     3
 72
    10
 73
     6
 74
     0
 42
0.000000001
 43
0.00000001
 40
0.0
 40
0.0
 40
0.0
 40
0.0
 40
0.5
 40
0.5
 40
1.0
 40
1.0
 40
1.0
 40
1.0
 10
15.15
 20
3.90894500772981
 30
0.0
 10
15.15
 20
3.728016475619676
 30
0.0
 10
15.14999999999999
 20
3.522532331714152
 30
0.0
 10
15.15
 20
3.107196264950676
 30
0.0
 10
15.15
 20
2.898484389987838
 30
0.0
 10
15.15
 20
2.709530962621067
 30
0.0
  0
SPLINE
  5
BF
330
1F
100
AcDbEntity
  8
0
  6
Continuous
 62
     1
370
    25
100
AcDbSpline
210
0.0
220
0.0
230
1.0
 70
     8
 71
     3
 72
    13
 73
     9
 74
     0
 42
0.000000001
 43
0.00000001
 40
0.0
 40
0.0
 40
0.0
 40
0.0
 40
0.1850779766587501
 40
0.3702500486316446
 40
0.5554771660912728
 40
0.7407199383947716
 40
0.9259388777654813
 40
1.0
 40
1.0
 40
1.0
 40
1.0
 10
35.15
 20
-3.155889057472861
 30
0.0
 10
34.51012059938041
 20
-3.015490548313055
 30
0.0
 10
33.23003647767738
 20
-2.734622150123925
 30
0.0
 10
31.3093581541538
 20
-2.040369558619786
 30
0.0
 10
29.38803782413675
 20
-1.206167546674917
 30
0.0
 10
27.46653514965296
 20
-0.2802367840949235
 30
0.0
 10
25.92943764666012
 20
0.4917702195143898
 30
0.0
 10
25.03295065696731
 20
0.9021112592183624
 30
0.0
 10
24.77687684969405
 20
1.019321652147174
 30
0.0
  0
SPLINE
  5
C0
330
1F
100
AcDbEntity
  8
0
  6
Continuous
 62
     1
370
    25
100
AcDbSpline
210
0.0
220
0.0
230
1.0
 70
    24
 71
     3
 72
     8
 73
     4
 74
     0
 42
0.000000001
 43
0.00000001
 40
0.0
 40
0.0
 40
0.0
 40
0.0
 40
1.0
 40
1.0
 40
1.0
 40
1.0
 10
35.15
 20
-3.472916249429457
 30
0.0
 10
35.15
 20
-3.366974491466465
 30
0.0
 10
35.15
 20
-3.26113347711237
 30
0.0
 10
35.15
 20
-3.155889057472861
 30
0.0
  0
SPLINE
  5
C1
330
1F
100
AcDbEntity
  8
0
  6
Continuous
 62
     1
370
    25
100
AcDbSpline
210
0.0
220
0.0
230
1.0
 70
     8
 71
     3
 72
    10
 73
     6
 74
     0
 42
0.000000001
 43
0.00000001
 40
0.0
 40
0.0
 40
0.0
 40
0.0
 40
0.5
 40
0.5
 40
1.0
 40
1.0
 40
1.0
 40
1.0
 10
35.15
 20
-3.472916249429458
 30
0.0
 10
35.15000000000017
 20
-3.555616888447619
 30
0.0
 10
35.11661544390241
 20
-3.637931496224868
 30
0.0
 10
34.9997381212447
 20
-3.73737365016847
 30
0.0
 10
34.92159308512068
 20
-3.752163233836241
 30
0.0
 10
34.84999999999998
 20
-3.737425857519873
 30
0.0
  0
SPLINE
  5
C2
330
1F
100
AcDbEntity
  8
0
  6
Continuous
 62
     1
370
    25
100
AcDbSpline
210
0.0
220
0.0
230
1.0
 70
     8
 71
     3
 72
    19
 73
    15
 74
     0
 42
0.000000001
 43
0.00000001
 40
0.0
 40
0.0
 40
0.0
 40
0.0
 40
0.0819038566324059
 40
0.1638160227937193
 40
0.2457377661537683
 40
0.3276607060211489
 40
0.4095739563335217
 40
0.4914787443220254
 40
0.5733763447240199
 40
0.6634524915388659
 40
0.7535262244650545
 40
0.8435972655170658
 40
0.9336653376517068
 40
1.0
 40
1.0
 40
1.0
 40
1.0
 10
34.85000000000003
 20
-3.737425857519619
 30
0.0
 10
34.32465812409686
 20
-3.610664559665563
 30
0.0
 10
33.27392107390285
 20
-3.357129103431559
 30
0.0
 10
31.69769036066578
 20
-2.752268709829783
 30
0.0
 10
30.12129393214384
 20
-2.019435169470121
 30
0.0
 10
28.54488026270729
 20
-1.178864374695469
 30
0.0
 10
26.96863226042619
 20
-0.2785167398836235
 30
0.0
 10
25.39255258989629
 20
0.6363690171001457
 30
0.0
 10
23.7642328745196
 20
1.547880797736664
 30
0.0
 10
22.08318374073808
 20
2.400653740388767
 30
0.0
 10
20.34981005406972
 20
3.132755916119589
 30
0.0
 10
18.61647232706539
 20
3.661319692129383
 30
0.0
 10
17.03542933260979
 20
3.964277249501276
 30
0.0
 10
16.03216891539286
 20
3.972339400065264
 30
0.0
 10
15.60665882924567
 20
3.975758777848086
 30
0.0
  0
LINE
  5
C3
330
1F
100
AcDbEntity
  8
0
  6
Continuous
 62
     4
370
    25
100
AcDbLine
 10
15.15
 20
3.908945007729817
 30
0.0
 11
15.15
 21
3.999999999999997
 31
0.0
  0
SPLINE
  5
C4
330
1F
100
AcDbEntity
  8
0
  6
Continuous
 62
     1
370
    25
100
AcDbSpline
210
0.0
220
0.0
230
1.0
 70
     8
 71
     3
 72
    14
 73
    10
 74
     0
 42
0.000000001
 43
0.00000001
 40
0.0
 40
0.0
 40
0.0
 40
0.0
 40
0.1642677924125053
 40
0.3286202644330649
 40
0.4930222754765524
 40
0.6574383775205672
 40
0.8218330349086138
 40
0.9861708453191095
 40
1.0
 40
1.0
 40
1.0
 40
1.0
 10
35.15
 20
0.0000000000000048
 30
0.0
 10
34.5101216120563
 20
0.2956481405592161
 30
0.0
 10
33.2300349805697
 20
0.8870968275041053
 30
0.0
 10
31.30936599040835
 20
1.706768540979203
 30
0.0
 10
29.38805682313194
 20
2.394398688897674
 30
0.0
 10
27.46655375170747
 20
2.905984593421878
 30
0.0
 10
25.54535047640707
 20
3.170141641976128
 30
0.0
 10
24.21082325249385
 20
3.251472841394823
 30
0.0
 10
23.5168031974168
 20
3.175134405076539
 30
0.0
 10
23.4629340040544
 20
3.169209086410414
 30
0.0
  0
SPLINE
  5
C5
330
1F
100
AcDbEntity
  8
0
  6
Continuous
 62
     1
370
    25
100
AcDbSpline
210
0.0
220
0.0
230
1.0
 70
    24
 71
     3
 72
    14
 73
    10
 74
     0
 42
0.000000001
 43
0.00000001
 40
0.0
 40
0.0
 40
0.0
 40
0.0
 40
0.25
 40
0.25
 40
0.5
 40
0.5
 40
0.75
 40
0.75
 40
1.0
 40
1.0
 40
1.0
 40
1.0
 10
35.15
 20
-3.15588905747286
 30
0.0
 10
35.15000000000001
 20
-2.9851296630744
 30
0.0
 10
35.15
 20
-2.782995875012148
 30
0.0
 10
35.15
 20
-2.323958408783105
 30
0.0
 10
35.15
 20
-2.067119424389508
 30
0.0
 10
35.15000000000001
 20
-1.51554962043941
 30
0.0
 10
35.15
 20
-1.220978077498784
 30
0.0
 10
35.15000000000001
 20
-0.6163234371177599
 30
0.0
 10
35.15
 20
-0.3064196984977454
 30
0.0
 10
35.15
 20
0.0000000000000048
 30
0.0
  0
LINE
  5
C6
330
1F
100
AcDbEntity
  8
0
  6
Continuous
 62
     1
370
    25
100
AcDbLine
 10
35.15
 20
2.800000000000003
 30
0.0
 11
33.68042868070621
 21
2.718182334671717
 31
0.0
  0
SPLINE
  5
C7
330
1F
100
AcDbEntity
  8
0
  6
Continuous
 62
     1
370
    25
100
AcDbSpline
210
0.0
220
0.0
230
1.0
 70
    24
 71
     3
 72
    14
 73
    10
 74
     0
 42
0.000000001
 43
0.00000001
 40
0.0
 40
0.0
 40
0.0
 40
0.0
 40
0.2500000000000001
 40
0.2500000000000001
 40
0.5000000000000001
 40
0.5000000000000001
 40
0.7500000000000001
 40
0.7500000000000001
 40
1.0
 40
1.0
 40
1.0
 40
1.0
 10
35.15
 20
0.0000000000000058
 30
0.0
 10
35.15000000000002
 20
0.3331374068055883
 30
0.0
 10
35.15
 20
0.6621743055018204
 30
0.0
 10
35.15
 20
1.277490199831024
 30
0.0
 10
35.14999999999999
 20
1.563386921499069
 30
0.0
 10
35.14999999999999
 20
2.061027648607309
 30
0.0
 10
35.15
 20
2.272506490262627
 30
0.0
 10
35.14999999999998
 20
2.604266216845426
 30
0.0
 10
35.15
 20
2.724563097745563
 30
0.0
 10
35.15
 20
2.800000000000003
 30
0.0
  0
SPLINE
  5
C8
330
1F
100
AcDbEntity
  8
0
  6
Continuous
 62
     1
370
    25
100
AcDbSpline
210
0.0
220
0.0
230
1.0
 70
     8
 71
     3
 72
     9
 73
     5
 74
     0
 42
0.000000001
 43
0.00000001
 40
0.0
 40
0.0
 40
0.0
 40
0.0
 40
0.4102724666258756
 40
1.0
 40
1.0
 40
1.0
 40
1.0
 10
17.45248352667917
 20
-3.314686979536381
 30
0.0
 10
17.13764235669249
 20
-3.346560028650449
 30
0.0
 10
16.37024703870791
 20
-3.424247545378526
 30
0.0
 10
15.60266453599155
 20
-3.391946455329341
 30
0.0
 10
15.15000000000349
 20
-3.37289761316934
 30
0.0
  0
SPLINE
  5
C9
330
1F
100
AcDbEntity
  8
0
  6
Continuous
 62
     1
370
    25
100
AcDbSpline
210
0.0
220
0.0
230
1.0
 70
     8
 71
     3
 72
    14
 73
    10
 74
     0
 42
0.000000001
 43
0.00000001
 40
0.0
 40
0.0
 40
0.0
 40
0.0
 40
0.0990908029426275
 40
0.2655299776096748
 40
0.4318812621927768
 40
0.5982701784858836
 40
0.7647375249915953
 40
0.8823033881203216
 40
1.0
 40
1.0
 40
1.0
 40
1.0
 10
26.68862522117393
 20
-2.97848465243412
 30
0.0
 10
26.30745930407541
 20
-3.04181551625047
 30
0.0
 10
25.28606302483301
 20
-3.211520901127539
 30
0.0
 10
23.62485113186056
 20
-3.220986919136531
 30
0.0
 10
21.70495361314367
 20
-3.023729186183113
 30
0.0
 10
19.78494876373874
 20
-2.585685811742587
 30
0.0
 10
18.05210589120953
 20
-2.01412125052641
 30
0.0
 10
16.50753138179549
 20
-1.404007780243853
 30
0.0
 10
15.60267808676175
 20
-1.005984307451246
 30
0.0
 10
15.15
 20
-0.8068619689032065
 30
0.0
  0
SPLINE
  5
CA
330
1F
100
AcDbEntity
  8
0
  6
Continuous
 62
     4
370
    25
100
AcDbSpline
210
0.0
220
0.0
230
1.0
 70
    24
 71
     3
 72
    14
 73
    10
 74
     0
 42
0.000000001
 43
0.00000001
 40
0.0
 40
0.0
 40
0.0
 40
0.0
 40
0.25
 40
0.25
 40
0.5
 40
0.5
 40
0.75
 40
0.75
 40
1.0
 40
1.0
 40
1.0
 40
1.0
 10
15.15000000000005
 20
-0.8068619689032236
 30
0.0
 10
15.15000000000005
 20
-1.094391245210807
 30
0.0
 10
15.15000000000005
 20
-1.376862609501518
 30
0.0
 10
15.15000000000005
 20
-1.909702046994145
 30
0.0
 10
15.15000000000005
 20
-2.159891843403299
 30
0.0
 10
15.15000000000005
 20
-2.608370149028551
 30
0.0
 10
15.15000000000004
 20
-2.806529151324036
 30
0.0
 10
15.15000000000005
 20
-3.138571783631224
 30
0.0
 10
15.15000000000005
 20
-3.272435252644374
 30
0.0
 10
15.15000000000005
 20
-3.372897613169125
 30
0.0
  0
SPLINE
  5
CB
330
1F
100
AcDbEntity
  8
0
  6
Continuous
 62
     4
370
    25
100
AcDbSpline
210
0.0
220
0.0
230
1.0
 70
    24
 71
     3
 72
    14
 73
    10
 74
     0
 42
0.000000001
 43
0.00000001
 40
0.0
 40
0.0
 40
0.0
 40
0.0
 40
0.25
 40
0.25
 40
0.5
 40
0.5
 40
0.75
 40
0.75
 40
1.0
 40
1.0
 40
1.0
 40
1.0
 10
15.15
 20
2.709530962621067
 30
0.0
 10
15.15
 20
2.549235292069023
 30
0.0
 10
15.15
 20
2.345057345214229
 30
0.0
 10
15.15
 20
1.856279903572858
 30
0.0
 10
15.15
 20
1.571761638311492
 30
0.0
 10
15.15
 20
0.9467972328679153
 30
0.0
 10
15.15
 20
0.6066840998495754
 30
0.0
 10
15.15
 20
-0.0939277510068879
 30
0.0
 10
15.15
 20
-0.4540477064620048
 30
0.0
 10
15.15
 20
-0.8068619689032029
 30
0.0
  0
LINE
  5
CC
330
1F
100
AcDbEntity
  8
0
  6
Continuous
 62
     1
370
    25
100
AcDbLine
 10
35.15000000000001
 20
-3.472916249429457
 30
0.0
 11
35.15000000000001
 21
-3.685718042522921
 31
0.0
  0
SPLINE
  5
CD
330
1F
100
AcDbEntity
  8
0
  6
Continuous
 62
     1
370
    25
100
AcDbSpline
210
0.0
220
0.0
230
1.0
 70
     8
 71
     3
 72
    10
 73
     6
 74
     0
 42
0.000000001
 43
0.00000001
 40
0.0
 40
0.0
 40
0.0
 40
0.0
 40
0.3113548050405027
 40
0.6556836051640146
 40
1.0
 40
1.0
 40
1.0
 40
1.0
 10
20.18374903374855
 20
-3.149588036422886
 30
0.0
 10
19.66131742068933
 20
-3.321871085247276
 30
0.0
 10
18.56112613423154
 20
-3.684682799513669
 30
0.0
 10
16.88320887570583
 20
-3.982010430277731
 30
0.0
 10
15.72772935361412
 20
-3.988190679233074
 30
0.0
 10
15.15
 20
-3.991280748045093
 30
0.0
  0
SPLINE
  5
CE
330
1F
100
AcDbEntity
  8
0
  6
Continuous
 62
     4
370
    25
100
AcDbSpline
210
0.0
220
0.0
230
1.0
 70
    24
 71
     3
 72
     8
 73
     4
 74
     0
 42
0.000000001
 43
0.00000001
 40
0.0
 40
0.0
 40
0.0
 40
0.0
 40
1.0
 40
1.0
 40
1.0
 40
1.0
 10
15.15
 20
-3.372897613169123
 30
0.0
 10
15.15
 20
-3.582286051039872
 30
0.0
 10
15.15
 20
-3.789753020686542
 30
0.0
 10
15.15
 20
-3.991280748035264
 30
0.0
  0
SPLINE
  5
CF
330
1F
100
AcDbEntity
  8
0
  6
Continuous
 62
     1
370
    25
100
AcDbSpline
210
0.0
220
0.0
230
1.0
 70
     8
 71
     3
 72
    14
 73
    10
 74
     0
 42
0.000000001
 43
0.00000001
 40
0.0
 40
0.0
 40
0.0
 40
0.0
 40
0.0271858412443177
 40
0.2490609817563048
 40
0.3605020329581618
 40
0.5189536299007044
 40
0.6779668117178392
 40
0.8386904023179277
 40
1.0
 40
1.0
 40
1.0
 40
1.0
 10
29.65195099379818
 20
2.683709104013282
 30
0.0
 10
29.69907156396922
 20
2.704311033190573
 30
0.0
 10
30.13076302285186
 20
2.893054013805249
 30
0.0
 10
30.75499373361187
 20
3.129667496538231
 30
0.0
 10
31.60760842268213
 20
3.410605372677494
 30
0.0
 10
32.34987294496878
 20
3.619087596062048
 30
0.0
 10
33.17938722206855
 20
3.797941564709889
 30
0.0
 10
34.01193492226415
 20
3.928278044158743
 30
0.0
 10
34.5703062827321
 20
3.966548162892885
 30
0.0
 10
34.85000000000001
 20
3.985718042522932
 30
0.0
  0
LINE
  5
D0
330
1F
100
AcDbEntity
  8
0
  6
Continuous
 62
     4
370
    25
100
AcDbLine
 10
15.15
 20
-3.999999999999999
 30
0.0
 11
15.15
 21
-3.991280748045093
 31
0.0
  0
SPLINE
  5
D2
330
1F
100
AcDbEntity
  8
0
  6
Continuous
 62
     1
370
    25
100
AcDbSpline
210
0.0
220
0.0
230
1.0
 70
    24
 71
     3
 72
    10
 73
     6
 74
     0
 42
0.000000001
 43
0.00000001
 40
0.0
 40
0.0
 40
0.0
 40
0.0
 40
0.5
 40
0.5
 40
1.0
 40
1.0
 40
1.0
 40
1.0
 10
35.15
 20
2.800000000000003
 30
0.0
 10
35.15000000000001
 20
2.928132366293669
 30
0.0
 10
35.15
 20
3.071683361811652
 30
0.0
 10
35.15
 20
3.375614605689294
 30
0.0
 10
35.15
 20
3.535777455766598
 30
0.0
 10
35.15
 20
3.693944486626046
 30
0.0
  0
LINE
  5
D3
330
1F
100
AcDbEntity
  8
중심선
100
AcDbLine
 10
-67.85
 20
-0.0000000000000055
 30
0.0
 11
38.15000000000001
 21
0.0000000000000051
 31
0.0
  0
CIRCLE
  5
D4
330
1F
100
AcDbEntity
  8
외형선
100
AcDbCircle
 10
0.0
 20
0.0
 30
0.0
 40
3.000000000000005
  0
INSERT
  5
D5
330
1F
100
AcDbEntity
  8
0
  6
Continuous
 62
     7
100
AcDbBlockReference
 66
     1
  2
블럭10
 10
-30.87358523345418
 20
-52.04609937292004
 30
0.0
  0
ATTRIB
  5
D6
330
D5
100
AcDbEntity
  8
FORMAT
 62
     2
100
AcDbText
 10
-51.73183276504672
 20
-49.97073246008785
 30
0.0
 40
4.233333333333333
  1
SEME6108003100E [ 2 FLUTE ]
 41
0.75
  7
SLDTEXTSTYLE0
 11
-51.73183276504672
 21
-52.08739912675452
 31
0.0
100
AcDbAttribute
  2
AUTOATTR0
 70
     0
 74
     1
  0
SEQEND
  5
D7
330
D5
100
AcDbEntity
  8
0
  6
Continuous
 62
     7
  0
HATCH
  5
D8
330
1F
100
AcDbEntity
  8
중심선
100
AcDbHatch
 10
0.0
 20
0.0
 30
0.0
210
0.0
220
0.0
230
1.0
  2
SOLID
 70
     1
 71
     0
 91
        1
 92
        0
 93
        4
 72
     1
 10
-25.15867592907333
 20
-35.7989250712761
 11
-28.60495117291061
 21
-35.7989250712761
 72
     1
 10
-28.60495117291061
 20
-35.7989250712761
 11
-30.73318103211463
 21
-38.3352506518487
 72
     1
 10
-30.73318103211464
 20
-38.3352506518487
 11
-27.2868727031642
 21
-38.33521122254621
 72
     1
 10
-27.2868727031642
 20
-38.33521122254621
 11
-25.15867592907333
 21
-35.7989250712761
 97
        0
 75
     0
 76
     1
 98
        1
 10
-7.934141545388288
 20
0.0
  0
HATCH
  5
D9
330
1F
100
AcDbEntity
  8
중심선
100
AcDbHatch
 10
0.0
 20
0.0
 30
0.0
210
0.0
220
0.0
230
1.0
  2
SOLID
 70
     1
 71
     0
 91
        1
 92
        0
 93
        4
 72
     1
 10
-20.14591193803738
 20
-35.7989250712761
 11
-23.59218718187466
 21
-35.7989250712761
 72
     1
 10
-23.59218718187466
 20
-35.7989250712761
 11
-28.12332519023205
 21
-41.19892507127612
 72
     1
 10
-28.12332519023205
 20
-41.19892507127612
 11
-24.67704994639477
 21
-41.19892507127612
 72
     1
 10
-24.67704994639477
 20
-41.19892507127612
 11
-20.14591193803738
 21
-35.7989250712761
 97
        0
 75
     0
 76
     1
 98
        1
 10
-7.934141545388288
 20
0.0
  0
HATCH
  5
DA
330
1F
100
AcDbEntity
  8
중심선
100
AcDbHatch
 10
0.0
 20
0.0
 30
0.0
210
0.0
220
0.0
230
1.0
  2
SOLID
 70
     1
 71
     0
 91
        1
 92
        0
 93
        4
 72
     1
 10
-15.13314794700148
 20
-35.79892507127613
 11
-18.5794231908386
 21
-35.7989250712761
 72
     1
 10
-18.5794231908386
 20
-35.7989250712761
 11
-25.62786009272785
 21
-44.19892507127612
 72
     1
 10
-25.62786009272785
 20
-44.19892507127612
 11
-22.18158484889057
 21
-44.19892507127612
 72
     1
 10
-22.18158484889057
 20
-44.19892507127612
 11
-15.13314794700148
 21
-35.79892507127613
 97
        0
 75
     0
 76
     1
 98
        1
 10
-7.934141545388288
 20
0.0
  0
HATCH
  5
DB
330
1F
100
AcDbEntity
  8
중심선
100
AcDbHatch
 10
0.0
 20
0.0
 30
0.0
210
0.0
220
0.0
230
1.0
  2
SOLID
 70
     1
 71
     0
 91
        1
 92
        0
 93
        6
 72
     3
 10
-10.33325751598928
 20
-39.99892507132738
 11
3.960054785062283
 21
1.540882976769353E-10
 40
0.3939339440162628
 50
17.09539180608436
 51
320.0019657685078
 73
     0
 72
     1
 10
-8.650257860288688
 20
-38.58681907591441
 11
-6.34495598658765
 21
-36.65249236586649
 72
     3
 10
-10.33325751604213
 20
-39.99892507127625
 11
6.600054785286829
 21
-1.278976924368180E-13
 40
0.636358354079598
 50
39.99873849337411
 51
368.4976242363724
 73
     1
 72
     1
 10
-3.90792502414152
 20
-39.03892507120613
 11
-11.65319020920621
 21
-39.0389250712061
 72
     1
 10
-11.65319020920621
 20
-39.0389250712061
 11
-11.65321525365214
 21
-40.95892507120602
 72
     1
 10
-11.65321525365214
 20
-40.95892507120602
 11
-7.211835484180106
 21
-40.95892507120599
 97
        0
 75
     0
 76
     1
 98
        1
 10
-7.934141545388288
 20
0.0
  0
DIMENSION
  5
DC
330
1F
100
AcDbEntity
  8
치수문자_일반주서
100
AcDbDimension
  2
_D
 10
-76.34645802161207
 20
-4.00000000000005
 30
0.0
 11
-76.34645802161208
 21
-0.0000000000000055
 31
0.0
 70
   160
  1
%%c<>
 71
     2
 42
7.999999999999995
 52
-270.0
  3
SLDDIMSTYLE0
100
AcDbAlignedDimension
 13
-63.85
 23
3.999999999999992
 33
0.0
 14
-63.85
 24
-4.000000000000004
 34
0.0
 50
90.0000000000002
100
AcDbRotatedDimension
  0
DIMENSION
  5
EA
330
1F
100
AcDbEntity
  8
치수문자_일반주서
100
AcDbDimension
  2
_D_1
 10
15.15
 20
22.19999999999965
 30
0.0
 11
57.02583648361316
 21
22.19999999999965
 31
0.0
 70
   160
  1
<>
 71
     2
 42
20.0
  3
SLDDIMSTYLE1
100
AcDbAlignedDimension
 13
35.15
 23
3.699999999999999
 33
0.0
 14
15.15
 24
3.999999999999997
 34
0.0
 50
0.0000000000000102
100
AcDbRotatedDimension
  0
DIMENSION
  5
F6
330
1F
100
AcDbEntity
  8
치수문자_일반주서
100
AcDbDimension
  2
_D_2
 10
-64.85000000000002
 20
44.25832450504429
 30
0.0
 11
-14.85
 21
44.25832450504429
 31
0.0
 70
   160
  1
<>
 71
     2
 42
100.0
  3
SLDDIMSTYLE1
100
AcDbAlignedDimension
 13
35.15
 23
3.699999999999999
 33
0.0
 14
-64.85000000000001
 24
2.99999999999999
 34
0.0
100
AcDbRotatedDimension
  0
DIMENSION
  5
100
330
1F
100
AcDbEntity
  8
치수문자_일반주서
100
AcDbDimension
  2
_D_3
 10
0.1499999999999986
 20
30.31999999999865
 30
0.0
 11
47.879
 21
30.31999999999865
 31
0.0
 70
   160
  1
<>
 71
     2
 42
34.99999999999999
  3
SLDDIMSTYLE0
100
AcDbAlignedDimension
 13
35.15
 23
4.000000000000069
 33
0.0
 14
0.1499999999999981
 24
3.849999999999998
 34
0.0
 50
-0.0000000000022354
100
AcDbRotatedDimension
  0
DIMENSION
  5
10C
330
1F
100
AcDbEntity
  8
치수문자_일반주서
100
AcDbDimension
  2
_D_4
 10
53.62420791556355
 20
-3.999999999999858
 30
0.0
 11
53.62420791556354
 21
0.0000000000001334
 31
0.0
 70
   160
  1
%%c<>
 71
     2
 42
8.0
 52
-270.0
  3
SLDDIMSTYLE0
100
AcDbAlignedDimension
 13
15.15
 23
3.999999999999999
 33
0.0
 14
15.15
 24
-4.000000000000002
 34
0.0
 50
90.0000000000002
100
AcDbRotatedDimension
  0
INSERT
  5
11F
330
1F
100
AcDbEntity
  8
외형선
100
AcDbBlockReference
  2
SW_DOWELSYMBOL_0
 10
0.0
 20
0.0
 30
0.0
  0
ARC
  5
14E
330
1F
100
AcDbEntity
  8
0
  6
Continuous
 62
     1
370
    25
100
AcDbCircle
 10
34.85000000000001
 20
3.685718042522932
 30
0.0
 40
0.3000000000000001
100
AcDbArc
 50
359.9999999999998
 51
90.0
  0
ARC
  5
14F
330
1F
100
AcDbEntity
  8
0
  6
Continuous
 62
     1
370
    25
100
AcDbCircle
 10
34.85000000000001
 20
-3.685718042522921
 30
0.0
 40
0.3000000000000001
100
AcDbArc
 50
270.0
 51
0.0000000000000848
  0
DIMENSION
  5
151
330
1F
100
AcDbEntity
  8
치수문자_일반주서
100
AcDbDimension
  2
*D8
 10
34.85000000000001
 20
-3.685718042522921
 30
0.0
 11
46.18836579672934
 21
-18.98153990245099
 31
0.0
 70
   164
  1
<>
 71
     5
 42
0.2999999999999989
  3
SLDDIMSTYLE0
100
AcDbRadialDimension
 15
35.02865094203898
 25
-3.926723936452069
 35
0.0
 40
0.0
1001
ACAD_DSTYLE_DIMRADIAL_EXTENSION
1070
   387
1070
     1
1070
   388
1040
4.71238898038469
1070
   390
1040
0.0000000000000015
  0
LINE
  5
1AD
330
1F
100
AcDbEntity
  8
0
  6
Continuous
 62
     4
370
    25
100
AcDbLine
 10
0.1499999999999981
 20
3.849999999999998
 30
0.0
 11
-0.0000000000000004
 21
3.999999999999997
 31
0.0
1001
PE_URL
1000

  0
LINE
  5
1B6
330
1F
100
AcDbEntity
  8
0
  6
Continuous
 62
     4
370
    25
100
AcDbLine
 10
-0.0000000000000004
 20
3.999999999999997
 30
0.0
 11
0.0000000000000004
 21
-3.999999999999997
 31
0.0
1001
PE_URL
1000

  0
LINE
  5
1B7
330
1F
100
AcDbEntity
  8
0
  6
Continuous
 62
     4
370
    25
100
AcDbLine
 10
0.0000000000000004
 20
-3.999999999999997
 30
0.0
 11
0.1499999999999981
 21
-3.850000000000001
 31
0.0
1001
PE_URL
1000

  0
ENDSEC
  0
SECTION
  2
OBJECTS
  0
DICTIONARY
  5
C
330
0
100
AcDbDictionary
281
     1
  3
ACAD_DETAILVIEWSTYLE
350
1B3
  3
ACAD_GROUP
350
D
  3
ACAD_IMAGE_VARS
350
143
  3
ACAD_LAYOUT
350
1A
  3
ACAD_MLINESTYLE
350
17
  3
ACAD_PLOTSETTINGS
350
19
  3
ACAD_PLOTSTYLENAME
350
E
  3
ACAD_SCALELIST
350
47
  3
ACAD_SECTIONVIEWSTYLE
350
1B4
  3
AcDbVariableDictionary
350
1AE
  3
APPDATA
350
141
  3
DWGPROPS
350
1B8
  0
DICTIONARY
  5
1B3
102
{ACAD_REACTORS
330
C
102
}
330
C
100
AcDbDictionary
281
     1
  0
DICTIONARY
  5
D
102
{ACAD_REACTORS
330
C
102
}
330
C
100
AcDbDictionary
281
     1
  0
RASTERVARIABLES
  5
143
102
{ACAD_REACTORS
330
C
102
}
330
C
100
AcDbRasterVariables
 90
        0
 70
     1
 71
     1
 72
     1
  0
DICTIONARY
  5
1A
102
{ACAD_REACTORS
330
C
102
}
330
C
100
AcDbDictionary
281
     1
  3
Layout1
350
1E
  3
Layout2
350
26
  3
Model
350
22
  0
DICTIONARY
  5
17
102
{ACAD_REACTORS
330
C
102
}
330
C
100
AcDbDictionary
281
     1
  3
Standard
350
18
  0
DICTIONARY
  5
19
102
{ACAD_REACTORS
330
C
102
}
330
C
100
AcDbDictionary
281
     1
  0
ACDBDICTIONARYWDFLT
  5
E
102
{ACAD_REACTORS
330
C
102
}
330
C
100
AcDbDictionary
281
     1
  3
Normal
350
F
100
AcDbDictionaryWithDefault
340
F
  0
DICTIONARY
  5
47
102
{ACAD_REACTORS
330
C
102
}
330
C
100
AcDbDictionary
281
     1
  3
A0
350
48
  3
A1
350
49
  3
A2
350
4A
  3
A3
350
4B
  3
A4
350
4C
  3
A5
350
4D
  3
A6
350
4E
  3
A7
350
4F
  3
A8
350
50
  3
A9
350
51
  3
B0
350
52
  3
B1
350
53
  3
B2
350
54
  3
B3
350
55
  3
B4
350
56
  3
B5
350
57
  3
B6
350
58
  3
B7
350
59
  3
B8
350
5A
  3
B9
350
5B
  3
C0
350
5C
  3
C1
350
5D
  3
C2
350
5E
  3
C3
350
5F
  3
C4
350
60
  3
C5
350
61
  3
C6
350
62
  3
C7
350
63
  3
C8
350
64
  3
C9
350
65
  3
D0
350
66
  3
D1
350
67
  3
D2
350
68
  0
DICTIONARY
  5
1B4
102
{ACAD_REACTORS
330
C
102
}
330
C
100
AcDbDictionary
281
     1
  0
DICTIONARY
  5
1AE
102
{ACAD_REACTORS
330
C
102
}
330
C
100
AcDbDictionary
281
     1
  0
DICTIONARY
  5
141
102
{ACAD_REACTORS
330
C
102
}
330
C
100
AcDbDictionary
281
     1
  0
XRECORD
  5
1B8
102
{ACAD_REACTORS
330
C
102
}
330
C
100
AcDbXrecord
280
     1
  1
DWGPROPS COOKIE
  2

  3

  4

  6

  7

  8
12014102
  9

300
=
301
=
302
=
303
=
304
=
305
=
306
=
307
=
308
=
309
=
 40
0.0
 41
2458263.430871875
 42
2459576.946782164
  1

 90
        0
  0
LAYOUT
  5
1E
102
{ACAD_REACTORS
330
1A
102
}
330
1A
100
AcDbPlotSettings
  1

  2
none_device
  4

  6

 40
0.0
 41
0.0
 42
0.0
 43
0.0
 44
0.0
 45
0.0
 46
0.0
 47
0.0
 48
0.0
 49
0.0
140
0.0
141
0.0
142
1.0
143
1.0
 70
   688
 72
     1
 73
     0
 74
     5
  7

 75
    16
147
1.0
148
0.0
149
0.0
100
AcDbLayout
  1
Layout1
 70
     1
 71
     1
 10
0.0
 20
0.0
 11
420.0
 21
297.0
 12
0.0
 22
0.0
 32
0.0
 14
1.000000000000000E+20
 24
1.000000000000000E+20
 34
1.000000000000000E+20
 15
-1.000000000000000E+20
 25
-1.000000000000000E+20
 35
-1.000000000000000E+20
146
0.0
 13
0.0
 23
0.0
 33
0.0
 16
1.0
 26
0.0
 36
0.0
 17
0.0
 27
1.0
 37
0.0
 76
     0
330
1B
  0
LAYOUT
  5
26
102
{ACAD_REACTORS
330
1A
102
}
330
1A
100
AcDbPlotSettings
  1

  2
none_device
  4

  6

 40
0.0
 41
0.0
 42
0.0
 43
0.0
 44
0.0
 45
0.0
 46
0.0
 47
0.0
 48
0.0
 49
0.0
140
0.0
141
0.0
142
1.0
143
1.0
 70
   688
 72
     1
 73
     0
 74
     5
  7

 75
    16
147
1.0
148
0.0
149
0.0
100
AcDbLayout
  1
Layout2
 70
     1
 71
     2
 10
0.0
 20
0.0
 11
0.0
 21
0.0
 12
0.0
 22
0.0
 32
0.0
 14
0.0
 24
0.0
 34
0.0
 15
0.0
 25
0.0
 35
0.0
146
0.0
 13
0.0
 23
0.0
 33
0.0
 16
1.0
 26
0.0
 36
0.0
 17
0.0
 27
1.0
 37
0.0
 76
     0
330
23
  0
LAYOUT
  5
22
102
{ACAD_REACTORS
330
1A
102
}
330
1A
100
AcDbPlotSettings
  1

  2
none_device
  4
ANSI_A_(11.00_x_8.50_Inches)
  6

 40
6.35
 41
19.05
 42
6.35000508
 43
19.05000254
 44
279.4
 45
215.9
 46
133.9521504727476
 47
90.81284757433822
 48
0.0
 49
0.0
140
0.0
141
0.0
142
0.0774958714429784
143
1.0
 70
  1696
 72
     0
 73
     0
 74
     0
  7

 75
     0
147
0.0235690232323232
148
0.0
149
0.0
100
AcDbLayout
  1
Model
 70
     1
 71
     0
 10
0.0
 20
0.0
 11
420.0
 21
297.0
 12
0.0
 22
0.0
 32
0.0
 14
-80.7214580216121
 24
-49.97073246008786
 34
0.0
 15
59.86958648361316
 25
48.63332450504429
 35
0.0
146
0.0
 13
0.0
 23
0.0
 33
0.0
 16
1.0
 26
0.0
 36
0.0
 17
0.0
 27
1.0
 37
0.0
 76
     0
330
1F
331
29
  0
MLINESTYLE
  5
18
102
{ACAD_REACTORS
330
17
102
}
330
17
100
AcDbMlineStyle
  2
Standard
 70
     0
  3

 62
   256
 51
90.0
 52
90.0
 71
     2
 49
0.5
 62
   256
  6
BYLAYER
 49
-0.5
 62
   256
  6
BYLAYER
  0
ACDBPLACEHOLDER
  5
F
102
{ACAD_REACTORS
330
E
102
}
330
E
  0
SCALE
  5
48
102
{ACAD_REACTORS
330
47
102
}
330
47
100
AcDbScale
 70
     0
300
1:1
140
1.0
141
1.0
290
     1
  0
SCALE
  5
49
102
{ACAD_REACTORS
330
47
102
}
330
47
100
AcDbScale
 70
     0
300
1:2
140
1.0
141
2.0
290
     0
  0
SCALE
  5
4A
102
{ACAD_REACTORS
330
47
102
}
330
47
100
AcDbScale
 70
     0
300
1:4
140
1.0
141
4.0
290
     0
  0
SCALE
  5
4B
102
{ACAD_REACTORS
330
47
102
}
330
47
100
AcDbScale
 70
     0
300
1:5
140
1.0
141
5.0
290
     0
  0
SCALE
  5
4C
102
{ACAD_REACTORS
330
47
102
}
330
47
100
AcDbScale
 70
     0
300
1:8
140
1.0
141
8.0
290
     0
  0
SCALE
  5
4D
102
{ACAD_REACTORS
330
47
102
}
330
47
100
AcDbScale
 70
     0
300
1:10
140
1.0
141
10.0
290
     0
  0
SCALE
  5
4E
102
{ACAD_REACTORS
330
47
102
}
330
47
100
AcDbScale
 70
     0
300
1:16
140
1.0
141
16.0
290
     0
  0
SCALE
  5
4F
102
{ACAD_REACTORS
330
47
102
}
330
47
100
AcDbScale
 70
     0
300
1:20
140
1.0
141
20.0
290
     0
  0
SCALE
  5
50
102
{ACAD_REACTORS
330
47
102
}
330
47
100
AcDbScale
 70
     0
300
1:30
140
1.0
141
30.0
290
     0
  0
SCALE
  5
51
102
{ACAD_REACTORS
330
47
102
}
330
47
100
AcDbScale
 70
     0
300
1:40
140
1.0
141
40.0
290
     0
  0
SCALE
  5
52
102
{ACAD_REACTORS
330
47
102
}
330
47
100
AcDbScale
 70
     0
300
1:50
140
1.0
141
50.0
290
     0
  0
SCALE
  5
53
102
{ACAD_REACTORS
330
47
102
}
330
47
100
AcDbScale
 70
     0
300
1:100
140
1.0
141
100.0
290
     0
  0
SCALE
  5
54
102
{ACAD_REACTORS
330
47
102
}
330
47
100
AcDbScale
 70
     0
300
2:1
140
2.0
141
1.0
290
     0
  0
SCALE
  5
55
102
{ACAD_REACTORS
330
47
102
}
330
47
100
AcDbScale
 70
     0
300
4:1
140
4.0
141
1.0
290
     0
  0
SCALE
  5
56
102
{ACAD_REACTORS
330
47
102
}
330
47
100
AcDbScale
 70
     0
300
8:1
140
8.0
141
1.0
290
     0
  0
SCALE
  5
57
102
{ACAD_REACTORS
330
47
102
}
330
47
100
AcDbScale
 70
     0
300
10:1
140
10.0
141
1.0
290
     0
  0
SCALE
  5
58
102
{ACAD_REACTORS
330
47
102
}
330
47
100
AcDbScale
 70
     0
300
100:1
140
100.0
141
1.0
290
     0
  0
SCALE
  5
59
102
{ACAD_REACTORS
330
47
102
}
330
47
100
AcDbScale
 70
     0
300
1/128" = 1'-0"
140
0.0078125
141
12.0
290
     0
  0
SCALE
  5
5A
102
{ACAD_REACTORS
330
47
102
}
330
47
100
AcDbScale
 70
     0
300
1/64" = 1'-0"
140
0.015625
141
12.0
290
     0
  0
SCALE
  5
5B
102
{ACAD_REACTORS
330
47
102
}
330
47
100
AcDbScale
 70
     0
300
1/32" = 1'-0"
140
0.03125
141
12.0
290
     0
  0
SCALE
  5
5C
102
{ACAD_REACTORS
330
47
102
}
330
47
100
AcDbScale
 70
     0
300
1/16" = 1'-0"
140
0.0625
141
12.0
290
     0
  0
SCALE
  5
5D
102
{ACAD_REACTORS
330
47
102
}
330
47
100
AcDbScale
 70
     0
300
3/32" = 1'-0"
140
0.09375
141
12.0
290
     0
  0
SCALE
  5
5E
102
{ACAD_REACTORS
330
47
102
}
330
47
100
AcDbScale
 70
     0
300
1/8" = 1'-0"
140
0.125
141
12.0
290
     0
  0
SCALE
  5
5F
102
{ACAD_REACTORS
330
47
102
}
330
47
100
AcDbScale
 70
     0
300
3/16" = 1'-0"
140
0.1875
141
12.0
290
     0
  0
SCALE
  5
60
102
{ACAD_REACTORS
330
47
102
}
330
47
100
AcDbScale
 70
     0
300
1/4" = 1'-0"
140
0.25
141
12.0
290
     0
  0
SCALE
  5
61
102
{ACAD_REACTORS
330
47
102
}
330
47
100
AcDbScale
 70
     0
300
3/8" = 1'-0"
140
0.375
141
12.0
290
     0
  0
SCALE
  5
62
102
{ACAD_REACTORS
330
47
102
}
330
47
100
AcDbScale
 70
     0
300
1/2" = 1'-0"
140
0.5
141
12.0
290
     0
  0
SCALE
  5
63
102
{ACAD_REACTORS
330
47
102
}
330
47
100
AcDbScale
 70
     0
300
3/4" = 1'-0"
140
0.75
141
12.0
290
     0
  0
SCALE
  5
64
102
{ACAD_REACTORS
330
47
102
}
330
47
100
AcDbScale
 70
     0
300
1" = 1'-0"
140
1.0
141
12.0
290
     0
  0
SCALE
  5
65
102
{ACAD_REACTORS
330
47
102
}
330
47
100
AcDbScale
 70
     0
300
1-1/2" = 1'-0"
140
1.5
141
12.0
290
     0
  0
SCALE
  5
66
102
{ACAD_REACTORS
330
47
102
}
330
47
100
AcDbScale
 70
     0
300
3" = 1'-0"
140
3.0
141
12.0
290
     0
  0
SCALE
  5
67
102
{ACAD_REACTORS
330
47
102
}
330
47
100
AcDbScale
 70
     0
300
6" = 1'-0"
140
6.0
141
12.0
290
     0
  0
SCALE
  5
68
102
{ACAD_REACTORS
330
47
102
}
330
47
100
AcDbScale
 70
     0
300
1'-0" = 1'-0"
140
12.0
141
12.0
290
     0
  0
ENDSEC
  0
EOF
