  0
SECTION
  2
HEADER
  9
$ACADVER
  1
AC1015
  9
$ACADMAINTVER
 70
     6
  9
$DWGCODEPAGE
  3
ANSI_949
  9
$INSBASE
 10
0.0
 20
0.0
 30
0.0
  9
$EXTMIN
 10
-75.59155421104442
 20
-49.97180738881174
 30
0.0
  9
$EXTMAX
 10
41.56527324144051
 20
47.63332450504429
 30
0.0
  9
$LIMMIN
 10
0.0
 20
0.0
  9
$LIMMAX
 10
420.0
 20
297.0
  9
$ORTHOMODE
 70
     1
  9
$REGENMODE
 70
     1
  9
$FILLMODE
 70
     1
  9
$QTEXTMODE
 70
     0
  9
$MIRRTEXT
 70
     1
  9
$LTSCALE
 40
1.0
  9
$ATTMODE
 70
     1
  9
$TEXTSIZE
 40
3.5
  9
$TRACEWID
 40
1.0
  9
$TEXTSTYLE
  7
Standard
  9
$CLAYER
  8
0
  9
$CELTYPE
  6
ByLayer
  9
$CECOLOR
 62
   256
  9
$CELTSCALE
 40
1.0
  9
$DISPSILH
 70
     0
  9
$DIMSCALE
 40
1.0
  9
$DIMASZ
 40
3.302
  9
$DIMEXO
 40
1.0
  9
$DIMDLI
 40
3.75
  9
$DIMRND
 40
0.0
  9
$DIMDLE
 40
0.0
  9
$DIMEXE
 40
1.0
  9
$DIMTP
 40
0.0
  9
$DIMTM
 40
0.0
  9
$DIMTXT
 40
3.5
  9
$DIMCEN
 40
2.5
  9
$DIMTSZ
 40
0.0
  9
$DIMTOL
 70
     0
  9
$DIMLIM
 70
     0
  9
$DIMTIH
 70
     1
  9
$DIMTOH
 70
     1
  9
$DIMSE1
 70
     0
  9
$DIMSE2
 70
     0
  9
$DIMTAD
 70
     1
  9
$DIMZIN
 70
     0
  9
$DIMBLK
  1

  9
$DIMASO
 70
     1
  9
$DIMSHO
 70
     1
  9
$DIMPOST
  1

  9
$DIMAPOST
  1

  9
$DIMALT
 70
     0
  9
$DIMALTD
 70
     3
  9
$DIMALTF
 40
0.0393700787401575
  9
$DIMLFAC
 40
1.0
  9
$DIMTOFL
 70
     1
  9
$DIMTVP
 40
0.0
  9
$DIMTIX
 70
     0
  9
$DIMSOXD
 70
     0
  9
$DIMSAH
 70
     0
  9
$DIMBLK1
  1

  9
$DIMBLK2
  1

  9
$DIMSTYLE
  2
ISO-25
  9
$DIMCLRD
 70
     0
  9
$DIMCLRE
 70
     0
  9
$DIMCLRT
 70
     0
  9
$DIMTFAC
 40
1.0
  9
$DIMGAP
 40
1.524
  9
$DIMJUST
 70
     0
  9
$DIMSD1
 70
     0
  9
$DIMSD2
 70
     0
  9
$DIMTOLJ
 70
     0
  9
$DIMTZIN
 70
     0
  9
$DIMALTZ
 70
     0
  9
$DIMALTTZ
 70
     0
  9
$DIMUPT
 70
     0
  9
$DIMDEC
 70
     2
  9
$DIMTDEC
 70
     2
  9
$DIMALTU
 70
     2
  9
$DIMALTTD
 70
     3
  9
$DIMTXSTY
  7
Standard
  9
$DIMAUNIT
 70
     0
  9
$DIMADEC
 70
     2
  9
$DIMALTRND
 40
0.0
  9
$DIMAZIN
 70
     0
  9
$DIMDSEP
 70
    44
  9
$DIMATFIT
 70
     3
  9
$DIMFRAC
 70
     0
  9
$DIMLDRBLK
  1

  9
$DIMLUNIT
 70
     2
  9
$DIMLWD
 70
    -2
  9
$DIMLWE
 70
    -2
  9
$DIMTMOVE
 70
     0
  9
$LUNITS
 70
     2
  9
$LUPREC
 70
     2
  9
$SKETCHINC
 40
1.0
  9
$FILLETRAD
 40
10.0
  9
$AUNITS
 70
     0
  9
$AUPREC
 70
     2
  9
$MENU
  1
.
  9
$ELEVATION
 40
0.0
  9
$PELEVATION
 40
0.0
  9
$THICKNESS
 40
0.0
  9
$LIMCHECK
 70
     0
  9
$CHAMFERA
 40
0.0
  9
$CHAMFERB
 40
0.0
  9
$CHAMFERC
 40
0.0
  9
$CHAMFERD
 40
0.0
  9
$SKPOLY
 70
     0
  9
$TDCREATE
 40
2458263.803980903
  9
$TDUCREATE
 40
2458263.428980903
  9
$TDUPDATE
 40
2459577.318951262
  9
$TDUUPDATE
 40
2459576.943951262
  9
$TDINDWG
 40
0.0024882986
  9
$TDUSRTIMER
 40
0.0008464468
  9
$USRTIMER
 70
     1
  9
$ANGBASE
 50
0.0
  9
$ANGDIR
 70
     0
  9
$PDMODE
 70
     0
  9
$PDSIZE
 40
-1.0
  9
$PLINEWID
 40
0.0
  9
$SPLFRAME
 70
     0
  9
$SPLINETYPE
 70
     6
  9
$SPLINESEGS
 70
     8
  9
$HANDSEED
  5
188
  9
$SURFTAB1
 70
     6
  9
$SURFTAB2
 70
     6
  9
$SURFTYPE
 70
     6
  9
$SURFU
 70
     6
  9
$SURFV
 70
     6
  9
$UCSBASE
  2

  9
$UCSNAME
  2

  9
$UCSORG
 10
0.0
 20
0.0
 30
0.0
  9
$UCSXDIR
 10
1.0
 20
0.0
 30
0.0
  9
$UCSYDIR
 10
0.0
 20
1.0
 30
0.0
  9
$UCSORTHOREF
  2

  9
$UCSORTHOVIEW
 70
     0
  9
$UCSORGTOP
 10
0.0
 20
0.0
 30
0.0
  9
$UCSORGBOTTOM
 10
0.0
 20
0.0
 30
0.0
  9
$UCSORGLEFT
 10
0.0
 20
0.0
 30
0.0
  9
$UCSORGRIGHT
 10
0.0
 20
0.0
 30
0.0
  9
$UCSORGFRONT
 10
0.0
 20
0.0
 30
0.0
  9
$UCSORGBACK
 10
0.0
 20
0.0
 30
0.0
  9
$PUCSBASE
  2

  9
$PUCSNAME
  2

  9
$PUCSORG
 10
0.0
 20
0.0
 30
0.0
  9
$PUCSXDIR
 10
1.0
 20
0.0
 30
0.0
  9
$PUCSYDIR
 10
0.0
 20
1.0
 30
0.0
  9
$PUCSORTHOREF
  2

  9
$PUCSORTHOVIEW
 70
     0
  9
$PUCSORGTOP
 10
0.0
 20
0.0
 30
0.0
  9
$PUCSORGBOTTOM
 10
0.0
 20
0.0
 30
0.0
  9
$PUCSORGLEFT
 10
0.0
 20
0.0
 30
0.0
  9
$PUCSORGRIGHT
 10
0.0
 20
0.0
 30
0.0
  9
$PUCSORGFRONT
 10
0.0
 20
0.0
 30
0.0
  9
$PUCSORGBACK
 10
0.0
 20
0.0
 30
0.0
  9
$USERI1
 70
     0
  9
$USERI2
 70
     0
  9
$USERI3
 70
     0
  9
$USERI4
 70
     0
  9
$USERI5
 70
     0
  9
$USERR1
 40
0.0
  9
$USERR2
 40
0.0
  9
$USERR3
 40
0.0
  9
$USERR4
 40
0.0
  9
$USERR5
 40
0.0
  9
$WORLDVIEW
 70
     1
  9
$SHADEDGE
 70
     3
  9
$SHADEDIF
 70
    70
  9
$TILEMODE
 70
     1
  9
$MAXACTVP
 70
    64
  9
$PINSBASE
 10
0.0
 20
0.0
 30
0.0
  9
$PLIMCHECK
 70
     0
  9
$PEXTMIN
 10
1.000000000000000E+20
 20
1.000000000000000E+20
 30
1.000000000000000E+20
  9
$PEXTMAX
 10
-1.000000000000000E+20
 20
-1.000000000000000E+20
 30
-1.000000000000000E+20
  9
$PLIMMIN
 10
0.0
 20
0.0
  9
$PLIMMAX
 10
0.0
 20
0.0
  9
$UNITMODE
 70
     0
  9
$VISRETAIN
 70
     1
  9
$PLINEGEN
 70
     0
  9
$PSLTSCALE
 70
     1
  9
$TREEDEPTH
 70
  3020
  9
$CMLSTYLE
  2
Standard
  9
$CMLJUST
 70
     0
  9
$CMLSCALE
 40
20.0
  9
$PROXYGRAPHICS
 70
     1
  9
$MEASUREMENT
 70
     1
  9
$CELWEIGHT
370
    -1
  9
$ENDCAPS
280
     0
  9
$JOINSTYLE
280
     0
  9
$LWDISPLAY
290
     1
  9
$INSUNITS
 70
     4
  9
$HYPERLINKBASE
  1

  9
$STYLESHEET
  1

  9
$XEDIT
290
     1
  9
$CEPSNTYPE
380
     0
  9
$PSTYLEMODE
290
     1
  9
$FINGERPRINTGUID
  2
{B19D2177-790E-4E1F-A39C-A0E61500D1BB}
  9
$VERSIONGUID
  2
{FAEB1C32-E019-11D5-929B-00C0DF256EC4}
  9
$EXTNAMES
290
     1
  9
$PSVPSCALE
 40
0.0
  9
$OLESTARTUP
290
     0
  0
ENDSEC
  0
SECTION
  2
CLASSES
  0
CLASS
  1
ACDBDICTIONARYWDFLT
  2
AcDbDictionaryWithDefault
  3
ObjectDBX Classes
 90
        0
280
     0
281
     0
  0
CLASS
  1
VISUALSTYLE
  2
AcDbVisualStyle
  3
ObjectDBX Classes
 90
     4095
280
     0
281
     0
  0
CLASS
  1
MATERIAL
  2
AcDbMaterial
  3
ObjectDBX Classes
 90
     1153
280
     0
281
     0
  0
CLASS
  1
SCALE
  2
AcDbScale
  3
ObjectDBX Classes
 90
     1153
280
     0
281
     0
  0
CLASS
  1
TABLESTYLE
  2
AcDbTableStyle
  3
ObjectDBX Classes
 90
     4095
280
     0
281
     0
  0
CLASS
  1
MLEADERSTYLE
  2
AcDbMLeaderStyle
  3
ACDB_MLEADERSTYLE_CLASS
 90
     4095
280
     0
281
     0
  0
CLASS
  1
SUN
  2
AcDbSun
  3
SCENEOE
 90
     1153
280
     0
281
     0
  0
CLASS
  1
ACDBPLACEHOLDER
  2
AcDbPlaceHolder
  3
ObjectDBX Classes
 90
        0
280
     0
281
     0
  0
CLASS
  1
LAYOUT
  2
AcDbLayout
  3
ObjectDBX Classes
 90
        0
280
     0
281
     0
  0
CLASS
  1
RASTERVARIABLES
  2
AcDbRasterVariables
  3
ISM
 90
        0
280
     0
281
     0
  0
CLASS
  1
DIMASSOC
  2
AcDbDimAssoc
  3
"AcDbDimAssoc|Product Desc:     AcDim ARX App For Dimension|Company:          Autodesk, Inc.|WEB Address:      www.autodesk.com"
 90
        0
280
     0
281
     0
  0
ENDSEC
  0
SECTION
  2
TABLES
  0
TABLE
  2
VPORT
  5
8
330
0
100
AcDbSymbolTable
 70
     1
  0
VPORT
  5
29
330
8
100
AcDbSymbolTableRecord
100
AcDbViewportTableRecord
  2
*Active
 70
     0
 10
0.0
 20
0.0
 11
1.0
 21
1.0
 12
-17.01314048480196
 22
-1.169241441883727
 13
0.0
 23
0.0
 14
10.0
 24
10.0
 15
10.0
 25
10.0
 16
0.0
 26
0.0
 36
1.0
 17
0.0
 27
0.0
 37
0.0
 40
99.55723453173314
 41
2.070175438596491
 42
50.0
 43
0.0
 44
0.0
 50
0.0
 51
0.0
 71
    16
 72
  2000
 73
     1
 74
     3
 75
     0
 76
     0
 77
     0
 78
     0
281
     0
 65
     1
110
0.0
120
0.0
130
0.0
111
1.0
121
0.0
131
0.0
112
0.0
122
1.0
132
0.0
 79
     0
146
0.0
  0
ENDTAB
  0
TABLE
  2
LTYPE
  5
5
330
0
100
AcDbSymbolTable
 70
     6
  0
LTYPE
  5
14
330
5
100
AcDbSymbolTableRecord
100
AcDbLinetypeTableRecord
  2
ByBlock
 70
     0
  3

 72
    65
 73
     0
 40
0.0
  0
LTYPE
  5
15
330
5
100
AcDbSymbolTableRecord
100
AcDbLinetypeTableRecord
  2
ByLayer
 70
     0
  3

 72
    65
 73
     0
 40
0.0
  0
LTYPE
  5
16
330
5
100
AcDbSymbolTableRecord
100
AcDbLinetypeTableRecord
  2
Continuous
 70
     0
  3
Solid line
 72
    65
 73
     0
 40
0.0
  0
LTYPE
  5
6E
330
5
100
AcDbSymbolTableRecord
100
AcDbLinetypeTableRecord
  2
HIDDEN
 70
     0
  3
Hidden __ __ __ __ __ __ __ __ __ __ __ __ __ __
 72
    65
 73
     2
 40
1.905
 49
1.27
 74
     0
 49
-0.635
 74
     0
  0
LTYPE
  5
6F
330
5
100
AcDbSymbolTableRecord
100
AcDbLinetypeTableRecord
  2
PHANTOM
 70
     0
  3
Phantom ______  __  __  ______  __  __  ______
 72
    65
 73
     6
 40
12.7
 49
6.35
 74
     0
 49
-1.27
 74
     0
 49
1.27
 74
     0
 49
-1.27
 74
     0
 49
1.27
 74
     0
 49
-1.27
 74
     0
  0
LTYPE
  5
70
330
5
100
AcDbSymbolTableRecord
100
AcDbLinetypeTableRecord
  2
CENTER
 70
     0
  3
Center ____ _ ____ _ ____ _ ____ _ ____ _ ____
 72
    65
 73
     4
 40
10.16
 49
6.35
 74
     0
 49
-1.27
 74
     0
 49
1.27
 74
     0
 49
-1.27
 74
     0
  0
LTYPE
  5
71
330
5
100
AcDbSymbolTableRecord
100
AcDbLinetypeTableRecord
  2
CENTERX2
 70
     0
  3
Center (2x) ________  __  ________  __  _____
 72
    65
 73
     4
 40
20.32
 49
12.7
 74
     0
 49
-2.54
 74
     0
 49
2.54
 74
     0
 49
-2.54
 74
     0
  0
LTYPE
  5
72
330
5
100
AcDbSymbolTableRecord
100
AcDbLinetypeTableRecord
  2
DOT2
 70
     0
  3
Dot (.5x) ........................................
 72
    65
 73
     2
 40
0.635
 49
0.0
 74
     0
 49
-0.635
 74
     0
  0
ENDTAB
  0
TABLE
  2
LAYER
  5
2
330
0
100
AcDbSymbolTable
 70
    17
  0
LAYER
  5
10
330
2
100
AcDbSymbolTableRecord
100
AcDbLayerTableRecord
  2
0
 70
     0
 62
     7
  6
Continuous
370
    -3
390
F
  0
LAYER
  5
73
330
2
100
AcDbSymbolTableRecord
100
AcDbLayerTableRecord
  2
FORMAT
 70
     0
 62
     2
  6
Continuous
370
    -3
390
F
  0
LAYER
  5
74
330
2
100
AcDbSymbolTableRecord
100
AcDbLayerTableRecord
  2
외형선
 70
     0
 62
   100
  6
Continuous
370
    35
390
F
  0
LAYER
  5
75
330
2
100
AcDbSymbolTableRecord
100
AcDbLayerTableRecord
  2
숨은선
 70
     0
 62
     2
  6
HIDDEN
370
    25
390
F
  0
LAYER
  5
76
330
2
100
AcDbSymbolTableRecord
100
AcDbLayerTableRecord
  2
중심선
 70
     0
 62
     1
  6
CENTERX2
370
    -3
390
F
  0
LAYER
  5
77
330
2
100
AcDbSymbolTableRecord
100
AcDbLayerTableRecord
  2
파단선
 70
     0
 62
     4
  6
Continuous
370
    -3
390
F
  0
LAYER
  5
78
330
2
100
AcDbSymbolTableRecord
100
AcDbLayerTableRecord
  2
해칭선
 70
     0
 62
     4
  6
Continuous
370
    -3
390
F
  0
LAYER
  5
79
330
2
100
AcDbSymbolTableRecord
100
AcDbLayerTableRecord
  2
가는실선
 70
     0
 62
     4
  6
Continuous
370
    -3
390
F
  0
LAYER
  5
7A
330
2
100
AcDbSymbolTableRecord
100
AcDbLayerTableRecord
  2
치수_보조선
 70
     0
 62
     4
  6
Continuous
370
    -3
390
F
  0
LAYER
  5
7B
330
2
100
AcDbSymbolTableRecord
100
AcDbLayerTableRecord
  2
치수문자_일반주서
 70
     0
 62
     7
  6
Continuous
370
    25
390
F
  0
LAYER
  5
7C
330
2
100
AcDbSymbolTableRecord
100
AcDbLayerTableRecord
  2
개별주서
 70
     0
 62
   100
  6
Continuous
370
    35
390
F
  0
LAYER
  5
7D
330
2
100
AcDbSymbolTableRecord
100
AcDbLayerTableRecord
  2
중간선
 70
     0
 62
     2
  6
Continuous
370
    25
390
F
  0
LAYER
  5
7E
330
2
100
AcDbSymbolTableRecord
100
AcDbLayerTableRecord
  2
윤곽선
 70
     0
 62
     3
  6
Continuous
370
    50
390
F
  0
LAYER
  5
7F
330
2
100
AcDbSymbolTableRecord
100
AcDbLayerTableRecord
  2
중심마크
 70
     0
 62
   100
  6
Continuous
370
    35
390
F
  0
LAYER
  5
80
330
2
100
AcDbSymbolTableRecord
100
AcDbLayerTableRecord
  2
가상선
 70
     0
 62
     4
  6
PHANTOM
370
    -3
390
F
  0
LAYER
  5
81
330
2
100
AcDbSymbolTableRecord
100
AcDbLayerTableRecord
  2
특수지정선
 70
     0
 62
     5
  6
CENTERX2
370
    70
390
F
  0
LAYER
  5
144
330
2
100
AcDbSymbolTableRecord
100
AcDbLayerTableRecord
  2
Defpoints
 70
     0
 62
     7
  6
Continuous
290
     0
370
    -3
390
F
  0
ENDTAB
  0
TABLE
  2
STYLE
  5
3
330
0
100
AcDbSymbolTable
 70
     2
  0
STYLE
  5
11
330
3
100
AcDbSymbolTableRecord
100
AcDbTextStyleTableRecord
  2
Standard
 70
     0
 40
0.0
 41
1.0
 50
0.0
 71
     0
 42
3.5
  3
txt
  4

  0
STYLE
  5
97
330
3
100
AcDbSymbolTableRecord
100
AcDbTextStyleTableRecord
  2
SLDTEXTSTYLE0
 70
     0
 40
0.0
 41
0.75
 50
0.0
 71
     0
 42
3.5
  3
TXT
  4

  0
ENDTAB
  0
TABLE
  2
VIEW
  5
6
330
0
100
AcDbSymbolTable
 70
     0
  0
ENDTAB
  0
TABLE
  2
UCS
  5
7
330
0
100
AcDbSymbolTable
 70
     0
  0
ENDTAB
  0
TABLE
  2
APPID
  5
9
330
0
100
AcDbSymbolTable
 70
     2
  0
APPID
  5
12
330
9
100
AcDbSymbolTableRecord
100
AcDbRegAppTableRecord
  2
ACAD
 70
     0
  0
APPID
  5
152
330
9
100
AcDbSymbolTableRecord
100
AcDbRegAppTableRecord
  2
ACAD_DSTYLE_DIMRADIAL_EXTENSION
 70
     0
  0
ENDTAB
  0
TABLE
  2
DIMSTYLE
  5
A
330
0
100
AcDbSymbolTable
 70
     3
100
AcDbDimStyleTable
  0
DIMSTYLE
105
27
330
A
100
AcDbSymbolTableRecord
100
AcDbDimStyleTableRecord
  2
ISO-25
 70
     0
 41
2.5
 42
0.625
 43
3.75
 44
1.25
 73
     0
 74
     0
 77
     1
 78
     8
140
2.5
141
2.5
143
0.03937007874016
147
0.625
171
     3
172
     1
178
     0
271
     2
272
     2
274
     3
278
    44
283
     0
284
     8
340
11
  0
DIMSTYLE
105
DD
102
{ACAD_REACTORS
330
DC
330
100
330
10C
330
153
102
}
330
A
100
AcDbSymbolTableRecord
100
AcDbDimStyleTableRecord
  2
SLDDIMSTYLE0
 70
     0
 41
3.302
 44
0.0
 45
0.000000001
 73
     0
 74
     0
 77
     1
 78
    12
 79
     3
140
3.5
147
0.875
172
     1
173
     1
178
     0
271
     2
272
     2
276
     2
284
    12
289
     0
340
97
  0
DIMSTYLE
105
EB
102
{ACAD_REACTORS
330
EA
330
F6
102
}
330
A
100
AcDbSymbolTableRecord
100
AcDbDimStyleTableRecord
  2
SLDDIMSTYLE1
 70
     0
 41
3.302
 44
0.0
 45
0.000000001
 73
     0
 74
     0
 77
     1
 78
    12
 79
     3
140
3.5
147
0.875
173
     1
178
     0
271
     2
272
     2
276
     2
284
    12
340
97
  0
ENDTAB
  0
TABLE
  2
BLOCK_RECORD
  5
1
330
0
100
AcDbSymbolTable
 70
     9
  0
BLOCK_RECORD
  5
1F
330
1
100
AcDbSymbolTableRecord
100
AcDbBlockTableRecord
  2
*Model_Space
340
22
  0
BLOCK_RECORD
  5
1B
330
1
100
AcDbSymbolTableRecord
100
AcDbBlockTableRecord
  2
*Paper_Space
340
1E
  0
BLOCK_RECORD
  5
23
330
1
100
AcDbSymbolTableRecord
100
AcDbBlockTableRecord
  2
*Paper_Space0
340
26
  0
BLOCK_RECORD
  5
82
330
1
100
AcDbSymbolTableRecord
100
AcDbBlockTableRecord
  2
블럭10
340
0
102
{BLKREFS
331
D5
102
}
  0
BLOCK_RECORD
  5
DE
330
1
100
AcDbSymbolTableRecord
100
AcDbBlockTableRecord
  2
_D
340
0
  0
BLOCK_RECORD
  5
EC
330
1
100
AcDbSymbolTableRecord
100
AcDbBlockTableRecord
  2
_D_1
340
0
  0
BLOCK_RECORD
  5
F7
330
1
100
AcDbSymbolTableRecord
100
AcDbBlockTableRecord
  2
_D_2
340
0
  0
BLOCK_RECORD
  5
101
330
1
100
AcDbSymbolTableRecord
100
AcDbBlockTableRecord
  2
_D_3
340
0
  0
BLOCK_RECORD
  5
10D
330
1
100
AcDbSymbolTableRecord
100
AcDbBlockTableRecord
  2
_D_4
340
0
  0
BLOCK_RECORD
  5
119
330
1
100
AcDbSymbolTableRecord
100
AcDbBlockTableRecord
  2
SW_DOWELSYMBOL_0
340
0
102
{BLKREFS
331
11F
102
}
  0
BLOCK_RECORD
  5
156
330
1
100
AcDbSymbolTableRecord
100
AcDbBlockTableRecord
  2
*D8
340
0
  0
ENDTAB
  0
ENDSEC
  0
SECTION
  2
BLOCKS
  0
BLOCK
  5
20
330
1F
100
AcDbEntity
  8
0
100
AcDbBlockBegin
  2
*Model_Space
 70
     0
 10
0.0
 20
0.0
 30
0.0
  3
*Model_Space
  1
*Model_Space
  0
ENDBLK
  5
21
330
1F
100
AcDbEntity
  8
0
100
AcDbBlockEnd
  0
BLOCK
  5
1C
330
1B
100
AcDbEntity
 67
     1
  8
0
100
AcDbBlockBegin
  2
*Paper_Space
 70
     0
 10
0.0
 20
0.0
 30
0.0
  3
*Paper_Space
  1
*Paper_Space
  0
ENDBLK
  5
1D
330
1B
100
AcDbEntity
 67
     1
  8
0
100
AcDbBlockEnd
  0
BLOCK
  5
24
330
23
100
AcDbEntity
  8
0
100
AcDbBlockBegin
  2
*Paper_Space0
 70
     0
 10
0.0
 20
0.0
 30
0.0
  3
*Paper_Space0
  1
*Paper_Space0
  0
ENDBLK
  5
25
330
23
100
AcDbEntity
  8
0
100
AcDbBlockEnd
  0
BLOCK
  5
83
330
82
100
AcDbEntity
  8
0
100
AcDbBlockBegin
  2
블럭10
 70
     2
 10
0.0
 20
0.0
 30
0.0
  3
블럭10
  1
블럭10
  0
ELLIPSE
  5
85
330
82
100
AcDbEntity
  8
중심선
100
AcDbEllipse
 10
20.54032771741204
 20
12.0471743016438
 30
0.0
 11
6.600054785286829
 21
-1.261213355974178E-13
 31
0.0
210
0.0
220
0.0
230
1.0
 40
0.636358354079598
 41
0.9219305317359503
 42
6.513795318482858
  0
ELLIPSE
  5
86
330
82
100
AcDbEntity
  8
중심선
100
AcDbEllipse
 10
20.54032771746488
 20
12.04717430159265
 30
0.0
 11
3.960054785062283
 21
1.540847449632565E-10
 31
0.0
210
0.0
220
0.0
230
1.0
 40
0.3939339440162632
 41
1.131841032648279
 42
5.62031148352944
  0
LINE
  5
87
330
82
100
AcDbEntity
  8
중심선
100
AcDbLine
 10
2.268634060543552
 20
16.24717430164393
 30
0.0
 11
5.714909304380834
 21
16.24717430164393
 31
0.0
  0
LINE
  5
88
330
82
100
AcDbEntity
  8
중심선
100
AcDbLine
 10
5.245725140726316
 20
7.84717430164391
 30
0.0
 11
8.692000384563599
 21
7.84717430164391
 31
0.0
  0
LINE
  5
89
330
82
100
AcDbEntity
  8
중심선
100
AcDbLine
 10
15.74043728645272
 20
16.24717430164393
 30
0.0
 11
8.692000384563599
 21
7.84717430164391
 31
0.0
  0
LINE
  5
8A
330
82
100
AcDbEntity
  8
중심선
100
AcDbLine
 10
0.1404042013395286
 20
13.71084872107135
 30
0.0
 11
3.58671253028996
 21
13.71088815037384
 31
0.0
  0
LINE
  5
8B
330
82
100
AcDbEntity
  8
중심선
100
AcDbLine
 10
2.750260043222114
 20
10.84717430164391
 30
0.0
 11
6.196535287059397
 21
10.84717430164391
 31
0.0
  0
LINE
  5
8C
330
82
100
AcDbEntity
  8
중심선
100
AcDbLine
 10
12.29416204261559
 20
16.24717430164393
 30
0.0
 11
5.245725140726316
 21
7.84717430164391
 31
0.0
  0
LINE
  5
8D
330
82
100
AcDbEntity
  8
중심선
100
AcDbLine
 10
10.72767329541681
 20
16.24717430164393
 30
0.0
 11
6.196535287059397
 21
10.84717430164391
 31
0.0
  0
LINE
  5
8E
330
82
100
AcDbEntity
  8
중심선
100
AcDbLine
 10
7.28139805157953
 20
16.24717430164393
 30
0.0
 11
2.750260043222114
 21
10.84717430164391
 31
0.0
  0
LINE
  5
8F
330
82
100
AcDbEntity
  8
중심선
100
AcDbLine
 10
5.714909304380834
 20
16.24717430164393
 30
0.0
 11
3.58671253028996
 21
13.71088815037384
 31
0.0
  0
LINE
  5
90
330
82
100
AcDbEntity
  8
중심선
100
AcDbLine
 10
2.268634060543552
 20
16.24717430164393
 30
0.0
 11
0.1404042013395286
 21
13.71084872107135
 31
0.0
  0
LINE
  5
91
330
82
100
AcDbEntity
  8
중심선
100
AcDbLine
 10
7.28139805157953
 20
16.24717430164393
 30
0.0
 11
10.72767329541681
 21
16.24717430164393
 31
0.0
  0
LINE
  5
92
330
82
100
AcDbEntity
  8
중심선
100
AcDbLine
 10
12.29416204261559
 20
16.24717430164393
 30
0.0
 11
15.74043728645272
 21
16.24717430164393
 31
0.0
  0
LINE
  5
93
330
82
100
AcDbEntity
  8
중심선
100
AcDbLine
 10
19.22036997980202
 20
11.08717430171403
 30
0.0
 11
23.66174974927406
 21
11.08717430171406
 31
0.0
  0
LINE
  5
94
330
82
100
AcDbEntity
  8
중심선
100
AcDbLine
 10
19.22039502424796
 20
13.00717430171391
 30
0.0
 11
19.22036997980202
 21
11.08717430171403
 31
0.0
  0
LINE
  5
95
330
82
100
AcDbEntity
  8
중심선
100
AcDbLine
 10
19.22039502424796
 20
13.00717430171391
 30
0.0
 11
26.96566020931264
 21
13.00717430171391
 31
0.0
  0
LINE
  5
96
330
82
100
AcDbEntity
  8
중심선
100
AcDbLine
 10
22.22332737316547
 20
13.45928029700563
 30
0.0
 11
24.52862924686651
 21
15.39360700705356
 31
0.0
  0
ATTDEF
  5
98
330
82
100
AcDbEntity
  8
FORMAT
 62
     2
100
AcDbText
 10
-20.85824753159254
 20
2.075366912832191
 30
0.0
 40
4.233333333333333
  1
SEME6106003090E [ 2 FLUTE ]
 41
0.75
  7
SLDTEXTSTYLE0
 11
-20.85824753159254
 21
-0.0412997538344756
 31
0.0
100
AcDbAttributeDefinition
  3

  2
AUTOATTR0
 70
     0
 74
     1
  0
ENDBLK
  5
84
330
82
100
AcDbEntity
  8
0
100
AcDbBlockEnd
  0
BLOCK
  5
DF
330
DE
100
AcDbEntity
  8
0
100
AcDbBlockBegin
  2
_D
 70
     0
 10
0.0
 20
0.0
 30
0.0
  3
_D
  1
_D
  0
LINE
  5
E1
330
DE
100
AcDbEntity
  8
치수문자_일반주서
 62
     0
370
    -2
100
AcDbLine
 10
-58.78259618943233
 20
2.999999999999992
 30
0.0
 11
-71.21655421104441
 21
2.999999999999945
 31
0.0
  0
LINE
  5
E2
330
DE
100
AcDbEntity
  8
치수문자_일반주서
 62
     0
370
    -2
100
AcDbLine
 10
-58.78259618943233
 20
-3.0
 30
0.0
 11
-71.2165542110444
 21
-3.000000000000048
 31
0.0
  0
LINE
  5
E3
330
DE
100
AcDbEntity
  8
치수문자_일반주서
 62
     0
370
    -2
100
AcDbLine
 10
-71.2165542110444
 20
-0.3020000000000547
 30
0.0
 11
-71.21655421104441
 21
0.3019999999999525
 31
0.0
  0
SOLID
  5
E4
330
DE
100
AcDbEntity
  8
치수문자_일반주서
 62
     0
100
AcDbTrace
 10
-70.66622087771107
 20
-0.3020000000000534
 30
0.0
 11
-71.76688754437772
 21
-0.3020000000000559
 31
0.0
 12
-71.21655421104441
 22
2.999999999999945
 32
0.0
 13
-71.21655421104441
 23
2.999999999999945
 33
0.0
  0
SOLID
  5
E5
330
DE
100
AcDbEntity
  8
치수문자_일반주서
 62
     0
100
AcDbTrace
 10
-71.76688754437774
 20
0.3019999999999513
 30
0.0
 11
-70.66622087771108
 21
0.3019999999999538
 31
0.0
 12
-71.2165542110444
 22
-3.000000000000048
 32
0.0
 13
-71.2165542110444
 23
-3.000000000000048
 33
0.0
  0
MTEXT
  5
E6
330
DE
100
AcDbEntity
  8
치수문자_일반주서
 62
     0
100
AcDbMText
 10
-75.59155421104441
 20
-0.0000000000000137
 30
0.0
 40
3.5
 41
0.0
 71
     2
 72
     1
  1
\A1;%%c6
  7
SLDTEXTSTYLE0
 11
-2.368475785867004E-15
 21
1.0
 31
0.0
 73
     1
 44
1.0
  0
POINT
  5
E7
330
DE
100
AcDbEntity
  8
Defpoints
 62
     0
100
AcDbPoint
 10
-58.72009618943233
 20
2.999999999999993
 30
0.0
  0
POINT
  5
E8
330
DE
100
AcDbEntity
  8
Defpoints
 62
     0
100
AcDbPoint
 10
-58.72009618943233
 20
-3.0
 30
0.0
  0
POINT
  5
E9
330
DE
100
AcDbEntity
  8
Defpoints
 62
     0
100
AcDbPoint
 10
-71.2165542110444
 20
-3.000000000000047
 30
0.0
  0
ENDBLK
  5
E0
330
DE
100
AcDbEntity
  8
0
100
AcDbBlockEnd
  0
BLOCK
  5
ED
330
EC
100
AcDbEntity
  8
0
100
AcDbBlockBegin
  2
_D_1
 70
     0
 10
0.0
 20
0.0
 30
0.0
  3
_D_1
  1
_D_1
  0
LINE
  5
EF
330
EC
100
AcDbEntity
  8
치수문자_일반주서
 62
     0
370
    -2
100
AcDbLine
 10
30.27990381056766
 20
2.762499999999999
 30
0.0
 11
30.27990381056766
 21
21.19999999999965
 31
0.0
  0
LINE
  5
F0
330
EC
100
AcDbEntity
  8
치수문자_일반주서
 62
     0
370
    -2
100
AcDbLine
 10
15.27990381056767
 20
3.062499999999998
 30
0.0
 11
15.27990381056767
 21
21.19999999999965
 31
0.0
  0
LINE
  5
F1
330
EC
100
AcDbEntity
  8
치수문자_일반주서
 62
     0
370
    -2
100
AcDbLine
 10
26.97790381056766
 20
21.19999999999965
 30
0.0
 11
18.58190381056767
 21
21.19999999999965
 31
0.0
  0
SOLID
  5
F2
330
EC
100
AcDbEntity
  8
치수문자_일반주서
 62
     0
100
AcDbTrace
 10
26.97790381056766
 20
20.64966666666632
 30
0.0
 11
26.97790381056766
 21
21.75033333333299
 31
0.0
 12
30.27990381056766
 22
21.19999999999965
 32
0.0
 13
30.27990381056766
 23
21.19999999999965
 33
0.0
  0
SOLID
  5
F3
330
EC
100
AcDbEntity
  8
치수문자_일반주서
 62
     0
100
AcDbTrace
 10
18.58190381056767
 20
21.75033333333299
 30
0.0
 11
18.58190381056767
 21
20.64966666666632
 31
0.0
 12
15.27990381056767
 22
21.19999999999965
 32
0.0
 13
15.27990381056767
 23
21.19999999999965
 33
0.0
  0
MTEXT
  5
F4
330
EC
100
AcDbEntity
  8
치수문자_일반주서
 62
     0
100
AcDbMText
 10
22.77990381056766
 20
25.57499999999965
 30
0.0
 40
3.5
 41
0.0
 71
     2
 72
     1
  1
\A1;15
  7
SLDTEXTSTYLE0
 73
     1
 44
1.0
  0
POINT
  5
F5
330
EC
100
AcDbEntity
  8
Defpoints
 62
     0
100
AcDbPoint
 10
30.27990381056766
 20
2.699999999999999
 30
0.0
  0
POINT
  5
14C
330
EC
100
AcDbEntity
  8
Defpoints
 62
     0
100
AcDbPoint
 10
15.27990381056767
 20
2.999999999999998
 30
0.0
  0
POINT
  5
14D
330
EC
100
AcDbEntity
  8
Defpoints
 62
     0
100
AcDbPoint
 10
15.27990381056767
 20
21.19999999999965
 30
0.0
  0
ENDBLK
  5
EE
330
EC
100
AcDbEntity
  8
0
100
AcDbBlockEnd
  0
BLOCK
  5
F8
330
F7
100
AcDbEntity
  8
0
100
AcDbBlockBegin
  2
_D_2
 70
     0
 10
0.0
 20
0.0
 30
0.0
  3
_D_2
  1
_D_2
  0
LINE
  5
FA
330
F7
100
AcDbEntity
  8
치수문자_일반주서
 62
     0
370
    -2
100
AcDbLine
 10
30.27990381056766
 20
2.762499999999999
 30
0.0
 11
30.27990381056767
 21
43.25832450504429
 31
0.0
  0
LINE
  5
FB
330
F7
100
AcDbEntity
  8
치수문자_일반주서
 62
     0
370
    -2
100
AcDbLine
 10
-59.72009618943233
 20
2.062499999999993
 30
0.0
 11
-59.72009618943233
 21
43.25832450504429
 31
0.0
  0
LINE
  5
FC
330
F7
100
AcDbEntity
  8
치수문자_일반주서
 62
     0
370
    -2
100
AcDbLine
 10
26.97790381056767
 20
43.25832450504429
 30
0.0
 11
-56.41809618943233
 21
43.25832450504429
 31
0.0
  0
SOLID
  5
FD
330
F7
100
AcDbEntity
  8
치수문자_일반주서
 62
     0
100
AcDbTrace
 10
26.97790381056767
 20
42.70799117171096
 30
0.0
 11
26.97790381056767
 21
43.80865783837763
 31
0.0
 12
30.27990381056767
 22
43.25832450504429
 32
0.0
 13
30.27990381056767
 23
43.25832450504429
 33
0.0
  0
SOLID
  5
FE
330
F7
100
AcDbEntity
  8
치수문자_일반주서
 62
     0
100
AcDbTrace
 10
-56.41809618943233
 20
43.80865783837763
 30
0.0
 11
-56.41809618943233
 21
42.70799117171096
 31
0.0
 12
-59.72009618943233
 22
43.25832450504429
 32
0.0
 13
-59.72009618943233
 23
43.25832450504429
 33
0.0
  0
MTEXT
  5
FF
330
F7
100
AcDbEntity
  8
치수문자_일반주서
 62
     0
100
AcDbMText
 10
-14.72009618943234
 20
47.63332450504429
 30
0.0
 40
3.5
 41
0.0
 71
     2
 72
     1
  1
\A1;90
  7
SLDTEXTSTYLE0
 73
     1
 44
1.0
  0
POINT
  5
162
330
F7
100
AcDbEntity
  8
Defpoints
 62
     0
100
AcDbPoint
 10
30.27990381056766
 20
2.699999999999999
 30
0.0
  0
POINT
  5
163
330
F7
100
AcDbEntity
  8
Defpoints
 62
     0
100
AcDbPoint
 10
-59.72009618943233
 20
1.999999999999993
 30
0.0
  0
POINT
  5
164
330
F7
100
AcDbEntity
  8
Defpoints
 62
     0
100
AcDbPoint
 10
-59.72009618943233
 20
43.25832450504429
 30
0.0
  0
ENDBLK
  5
F9
330
F7
100
AcDbEntity
  8
0
100
AcDbBlockEnd
  0
BLOCK
  5
102
330
101
100
AcDbEntity
  8
0
100
AcDbBlockBegin
  2
_D_3
 70
     0
 10
0.0
 20
0.0
 30
0.0
  3
_D_3
  1
_D_3
  0
LINE
  5
104
330
101
100
AcDbEntity
  8
치수문자_일반주서
 62
     0
370
    -2
100
AcDbLine
 10
30.27990381056765
 20
2.757709868807218
 30
0.0
 11
30.27990381056765
 21
30.31999999999866
 31
0.0
  0
LINE
  5
105
330
101
100
AcDbEntity
  8
치수문자_일반주서
 62
     0
370
    -2
100
AcDbLine
 10
0.2799038105676672
 20
2.987499999999999
 30
0.0
 11
0.2799038105676672
 21
30.31999999999866
 31
0.0
  0
LINE
  5
106
330
101
100
AcDbEntity
  8
치수문자_일반주서
 62
     0
370
    -2
100
AcDbLine
 10
26.97790381056765
 20
30.31999999999866
 30
0.0
 11
3.581903810567667
 21
30.31999999999866
 31
0.0
  0
SOLID
  5
107
330
101
100
AcDbEntity
  8
치수문자_일반주서
 62
     0
100
AcDbTrace
 10
26.97790381056765
 20
29.76966666666533
 30
0.0
 11
26.97790381056765
 21
30.870333333332
 31
0.0
 12
30.27990381056765
 22
30.31999999999866
 32
0.0
 13
30.27990381056765
 23
30.31999999999866
 33
0.0
  0
SOLID
  5
108
330
101
100
AcDbEntity
  8
치수문자_일반주서
 62
     0
100
AcDbTrace
 10
3.581903810567667
 20
30.870333333332
 30
0.0
 11
3.581903810567667
 21
29.76966666666533
 31
0.0
 12
0.2799038105676672
 22
30.31999999999866
 32
0.0
 13
0.2799038105676672
 23
30.31999999999866
 33
0.0
  0
MTEXT
  5
109
330
101
100
AcDbEntity
  8
치수문자_일반주서
 62
     0
100
AcDbMText
 10
15.27990381056766
 20
34.69499999999866
 30
0.0
 40
3.5
 41
0.0
 71
     2
 72
     1
  1
\A1;30
  7
SLDTEXTSTYLE0
 73
     1
 44
1.0
  0
POINT
  5
10A
330
101
100
AcDbEntity
  8
Defpoints
 62
     0
100
AcDbPoint
 10
30.27990381056765
 20
2.695209868807218
 30
0.0
  0
POINT
  5
10B
330
101
100
AcDbEntity
  8
Defpoints
 62
     0
100
AcDbPoint
 10
0.2799038105676672
 20
2.924999999999999
 30
0.0
  0
POINT
  5
148
330
101
100
AcDbEntity
  8
Defpoints
 62
     0
100
AcDbPoint
 10
0.2799038105676672
 20
30.31999999999866
 30
0.0
  0
ENDBLK
  5
103
330
101
100
AcDbEntity
  8
0
100
AcDbBlockEnd
  0
BLOCK
  5
10E
330
10D
100
AcDbEntity
  8
0
100
AcDbBlockBegin
  2
_D_4
 70
     0
 10
0.0
 20
0.0
 30
0.0
  3
_D_4
  1
_D_4
  0
LINE
  5
110
330
10D
100
AcDbEntity
  8
치수문자_일반주서
 62
     0
370
    -2
100
AcDbLine
 10
15.34240381056767
 20
3.0
 30
0.0
 11
41.01493990810716
 21
3.000000000000095
 31
0.0
  0
LINE
  5
111
330
10D
100
AcDbEntity
  8
치수문자_일반주서
 62
     0
370
    -2
100
AcDbLine
 10
15.34240381056767
 20
-2.999999999999999
 30
0.0
 11
41.01493990810718
 21
-2.999999999999904
 31
0.0
  0
LINE
  5
112
330
10D
100
AcDbEntity
  8
치수문자_일반주서
 62
     0
370
    -2
100
AcDbLine
 10
41.01493990810717
 20
-0.3019999999999046
 30
0.0
 11
41.01493990810717
 21
0.3020000000000964
 31
0.0
  0
SOLID
  5
113
330
10D
100
AcDbEntity
  8
치수문자_일반주서
 62
     0
100
AcDbTrace
 10
41.56527324144051
 20
-0.3019999999999026
 30
0.0
 11
40.46460657477384
 21
-0.3019999999999065
 31
0.0
 12
41.01493990810716
 22
3.000000000000095
 32
0.0
 13
41.01493990810716
 23
3.000000000000095
 33
0.0
  0
SOLID
  5
114
330
10D
100
AcDbEntity
  8
치수문자_일반주서
 62
     0
100
AcDbTrace
 10
40.46460657477383
 20
0.3020000000000945
 30
0.0
 11
41.5652732414405
 21
0.3020000000000984
 31
0.0
 12
41.01493990810718
 22
-2.999999999999904
 32
0.0
 13
41.01493990810718
 23
-2.999999999999904
 33
0.0
  0
MTEXT
  5
115
330
10D
100
AcDbEntity
  8
치수문자_일반주서
 62
     0
100
AcDbMText
 10
36.63993990810717
 20
0.0000000000000752
 30
0.0
 40
3.5
 41
0.0
 71
     2
 72
     1
  1
\A1;%%c6
  7
SLDTEXTSTYLE0
 11
-3.552713678800502E-15
 21
1.0
 31
0.0
 73
     1
 44
1.0
  0
POINT
  5
116
330
10D
100
AcDbEntity
  8
Defpoints
 62
     0
100
AcDbPoint
 10
15.27990381056767
 20
3.0
 30
0.0
  0
POINT
  5
117
330
10D
100
AcDbEntity
  8
Defpoints
 62
     0
100
AcDbPoint
 10
15.27990381056767
 20
-2.999999999999999
 30
0.0
  0
POINT
  5
118
330
10D
100
AcDbEntity
  8
Defpoints
 62
     0
100
AcDbPoint
 10
41.01493990810718
 20
-2.999999999999903
 30
0.0
  0
ENDBLK
  5
10F
330
10D
100
AcDbEntity
  8
0
100
AcDbBlockEnd
  0
BLOCK
  5
11A
330
119
100
AcDbEntity
  8
0
100
AcDbBlockBegin
  2
SW_DOWELSYMBOL_0
 70
     0
 10
0.0
 20
0.0
 30
0.0
  3
SW_DOWELSYMBOL_0
  1
SW_DOWELSYMBOL_0
  0
CIRCLE
  5
11C
330
119
100
AcDbEntity
  8
외형선
 62
     0
100
AcDbCircle
 10
0.0
 20
0.0
 30
0.0
 40
3.000000000000004
  0
HATCH
  5
11D
330
119
100
AcDbEntity
  8
0
  6
Continuous
 62
     0
370
    35
100
AcDbHatch
 10
0.0
 20
0.0
 30
0.0
210
0.0
220
0.0
230
1.0
  2
SOLID
 70
     1
 71
     0
 91
        1
 92
        0
 93
        3
 72
     2
 10
0.0000000000000104
 20
0.0
 40
3.000000000000004
 50
0.0
 51
90.0
 73
     1
 72
     1
 10
0.0000000000000104
 20
3.000000000000004
 11
0.0000000000000104
 21
0.0
 72
     1
 10
0.0000000000000104
 20
0.0
 11
3.000000000000015
 21
0.0
 97
        0
 75
     0
 76
     1
 98
        1
 10
0.0
 20
0.0
  0
HATCH
  5
11E
330
119
100
AcDbEntity
  8
0
  6
Continuous
 62
     0
370
    35
100
AcDbHatch
 10
0.0
 20
0.0
 30
0.0
210
0.0
220
0.0
230
1.0
  2
SOLID
 70
     1
 71
     0
 91
        1
 92
        0
 93
        3
 72
     2
 10
0.0000000000000104
 20
0.0
 40
3.000000000000004
 50
180.0
 51
270.0000000000007
 73
     1
 72
     1
 10
0.0000000000000104
 20
-3.000000000000004
 11
0.0000000000000104
 21
0.0
 72
     1
 10
0.0000000000000104
 20
0.0
 11
-2.999999999999994
 21
0.0
 97
        0
 75
     0
 76
     1
 98
        1
 10
0.0
 20
0.0
  0
ENDBLK
  5
11B
330
119
100
AcDbEntity
  8
0
100
AcDbBlockEnd
  0
BLOCK
  5
157
330
156
100
AcDbEntity
  8
0
100
AcDbBlockBegin
  2
*D8
 70
     1
 10
0.0
 20
0.0
 30
0.0
  3
*D8
  1
*D8
  0
LINE
  5
159
330
156
100
AcDbEntity
  8
치수문자_일반주서
 62
     0
370
    -2
100
AcDbLine
 10
31.23221865358998
 20
-6.062605236276909
 30
0.0
 11
35.88741256799339
 21
-18.61692122039871
 31
0.0
  0
MTEXT
  5
15A
330
156
100
AcDbEntity
  8
치수문자_일반주서
 62
     0
100
AcDbMText
 10
36.75153643950782
 20
-13.3971076224645
 30
0.0
 40
3.5
 41
0.0
 71
     5
 72
     1
  1
\A1;R0.3
  7
SLDTEXTSTYLE0
 11
0.3476720830156387
 21
-0.9376161915685792
 31
0.0
 73
     1
 44
1.0
  0
LINE
  5
15B
330
156
100
AcDbEntity
  8
치수문자_일반주서
 62
     0
370
    -2
100
AcDbLine
 10
29.97990381056765
 20
-2.685311714246883
 30
0.0
 11
30.08420543547234
 21
-2.96659657171746
 31
0.0
  0
SOLID
  5
15C
330
156
100
AcDbEntity
  8
치수문자_일반주서
 62
     0
100
AcDbTrace
 10
31.74822009768322
 20
-5.871269699923969
 30
0.0
 11
30.71621720949674
 21
-6.253940772629848
 31
0.0
 12
30.08420543547234
 22
-2.96659657171746
 32
0.0
 13
30.08420543547234
 23
-2.96659657171746
 33
0.0
  0
POINT
  5
15D
330
156
100
AcDbEntity
  8
Defpoints
 62
     0
100
AcDbPoint
 10
30.08420543547234
 20
-2.96659657171746
 30
0.0
  0
POINT
  5
15E
330
156
100
AcDbEntity
  8
Defpoints
 62
     0
100
AcDbPoint
 10
29.97990381056765
 20
-2.685311714246883
 30
0.0
  0
ENDBLK
  5
158
330
156
100
AcDbEntity
  8
0
100
AcDbBlockEnd
  0
ENDSEC
  0
SECTION
  2
ENTITIES
  0
LINE
  5
99
330
1F
100
AcDbEntity
  8
0
  6
Continuous
 62
     4
370
    25
100
AcDbLine
 10
0.0
 20
2.999999999999999
 30
0.0
 11
-58.72009618943233
 21
2.999999999999996
 31
0.0
  0
LINE
  5
9A
330
1F
100
AcDbEntity
  8
0
  6
Continuous
 62
     4
370
    25
100
AcDbLine
 10
-58.72009618943233
 20
-3.000000000000002
 30
0.0
 11
0.0
 21
-2.999999999999999
 31
0.0
  0
LINE
  5
9B
330
1F
100
AcDbEntity
  8
0
  6
Continuous
 62
     4
370
    25
100
AcDbLine
 10
0.0
 20
-3.000000000000001
 30
0.0
 11
0.2799038105676672
 21
-2.924999999999999
 31
0.0
  0
LINE
  5
9C
330
1F
100
AcDbEntity
  8
0
  6
Continuous
 62
     4
370
    25
100
AcDbLine
 10
0.2799038105676672
 20
2.925
 30
0.0
 11
0.0
 21
3.000000000000001
 31
0.0
  0
LINE
  5
9D
330
1F
100
AcDbEntity
  8
0
  6
Continuous
 62
     4
370
    25
100
AcDbLine
 10
-58.72009618943233
 20
2.999999999999993
 30
0.0
 11
-59.72009618943233
 21
1.999999999999992
 31
0.0
  0
LINE
  5
9E
330
1F
100
AcDbEntity
  8
0
  6
Continuous
 62
     4
370
    25
100
AcDbLine
 10
-59.72009618943233
 20
-2.0
 30
0.0
 11
-58.72009618943233
 21
-3.0
 31
0.0
  0
LINE
  5
9F
330
1F
100
AcDbEntity
  8
0
  6
Continuous
 62
     4
370
    25
100
AcDbLine
 10
12.2300029874389
 20
2.925
 30
0.0
 11
0.2799038105676672
 21
2.924999999999999
 31
0.0
  0
LINE
  5
A0
330
1F
100
AcDbEntity
  8
0
  6
Continuous
 62
     4
370
    25
100
AcDbLine
 10
15.27990381056767
 20
2.925
 30
0.0
 11
14.20412941756461
 21
2.925
 31
0.0
  0
LINE
  5
A1
330
1F
100
AcDbEntity
  8
0
  6
Continuous
 62
     4
370
    25
100
AcDbLine
 10
14.2041294175646
 20
-2.924999999999998
 30
0.0
 11
15.27990381056767
 21
-2.924999999999998
 31
0.0
  0
LINE
  5
A2
330
1F
100
AcDbEntity
  8
0
  6
Continuous
 62
     4
370
    25
100
AcDbLine
 10
0.2799038105676672
 20
-2.924999999999999
 30
0.0
 11
12.2300029874389
 21
-2.924999999999998
 31
0.0
  0
SPLINE
  5
A3
330
1F
100
AcDbEntity
  8
0
  6
Continuous
 62
     4
370
    25
100
AcDbSpline
210
0.0
220
0.0
230
1.0
 70
     8
 71
     3
 72
     9
 73
     5
 74
     0
 42
0.000000001
 43
0.00000001
 40
0.0
 40
0.0
 40
0.0
 40
0.0
 40
0.4992749110487213
 40
1.0
 40
1.0
 40
1.0
 40
1.0
 10
12.89758570009342
 20
2.056670290674867
 30
0.0
 10
12.78638625735462
 20
2.047261765120645
 30
0.0
 10
12.56366438554011
 20
2.028417386310464
 30
0.0
 10
12.3413476077521
 20
2.014803548746448
 30
0.0
 10
12.23002801941884
 20
2.007986758721238
 30
0.0
  0
SPLINE
  5
A4
330
1F
100
AcDbEntity
  8
0
  6
Continuous
 62
     1
370
    25
100
AcDbSpline
210
0.0
220
0.0
230
1.0
 70
     8
 71
     3
 72
     9
 73
     5
 74
     0
 42
0.000000001
 43
0.00000001
 40
0.0
 40
0.0
 40
0.0
 40
0.0
 40
0.4942653159565977
 40
1.0
 40
1.0
 40
1.0
 40
1.0
 10
22.50690853295865
 20
0.7687390031539933
 30
0.0
 10
22.37002154341844
 20
0.8341321207280442
 30
0.0
 10
22.09307111796669
 20
0.9664357954204293
 30
0.0
 10
21.81607088988018
 20
1.111610933128404
 30
0.0
 10
21.67598226704889
 20
1.185031035528105
 30
0.0
  0
LINE
  5
A5
330
1F
100
AcDbEntity
  8
0
  6
Continuous
 62
     4
370
    25
100
AcDbLine
 10
15.62298819028741
 20
3.0
 30
0.0
 11
15.27990381056767
 21
3.0
 31
0.0
  0
SPLINE
  5
A6
330
1F
100
AcDbEntity
  8
0
  6
Continuous
 62
     1
370
    25
100
AcDbSpline
210
0.0
220
0.0
230
1.0
 70
     8
 71
     3
 72
    13
 73
     9
 74
     0
 42
0.000000001
 43
0.00000001
 40
0.0
 40
0.0
 40
0.0
 40
0.0
 40
0.2562303751010204
 40
0.4261260146385125
 40
0.5336976625343858
 40
0.6394002734260684
 40
0.9748399673274745
 40
1.0
 40
1.0
 40
1.0
 40
1.0
 10
21.51623579102654
 20
2.383922256787681
 30
0.0
 10
21.30730868350778
 20
2.374031591585927
 30
0.0
 10
20.95985075373727
 20
2.35758284017273
 30
0.0
 10
20.52597102142895
 20
2.347316710620006
 30
0.0
 10
20.21395188374041
 20
2.343308314695143
 30
0.0
 10
19.76715855815252
 20
2.342042966981465
 30
0.0
 10
19.38768538558715
 20
2.346307204563654
 30
0.0
 10
19.09408841176519
 20
2.357222341957288
 30
0.0
 10
19.07360334505673
 20
2.357983921052365
 30
0.0
  0
SPLINE
  5
A7
330
1F
100
AcDbEntity
  8
0
  6
Continuous
 62
     1
370
    25
100
AcDbSpline
210
0.0
220
0.0
230
1.0
 70
     8
 71
     3
 72
    18
 73
    14
 74
     0
 42
0.000000001
 43
0.00000001
 40
0.0
 40
0.0
 40
0.0
 40
0.0
 40
0.1246450968474953
 40
0.2086903681497464
 40
0.263958608730083
 40
0.3202532226047985
 40
0.5028761488243888
 40
0.6979788354159415
 40
0.7281402301225169
 40
0.7577493874444811
 40
0.7948733706486127
 40
0.8795880905949909
 40
1.0
 40
1.0
 40
1.0
 40
1.0
 10
29.1644037067653
 20
2.051857859892006
 30
0.0
 10
28.94518356359113
 20
2.034804413297648
 30
0.0
 10
28.57814840904483
 20
2.006252226825741
 30
0.0
 10
28.11659572756026
 20
1.986563390960367
 30
0.0
 10
27.77894151829169
 20
1.977467190271573
 30
0.0
 10
27.2663141546413
 20
1.971000555349908
 30
0.0
 10
26.50682480626
 20
1.98474629046894
 30
0.0
 10
25.79488954901086
 20
2.032176444989679
 30
0.0
 10
25.3496280960869
 20
2.073696668550748
 30
0.0
 10
25.18034524226466
 20
2.090692500520858
 30
0.0
 10
24.91605912097127
 20
2.119411210941431
 30
0.0
 10
24.49364456316185
 20
2.170942529136465
 30
0.0
 10
24.13441861482785
 20
2.224815448649768
 30
0.0
 10
23.92354846850168
 20
2.256439529464291
 30
0.0
  0
SPLINE
  5
A8
330
1F
100
AcDbEntity
  8
0
  6
Continuous
 62
     1
370
    25
100
AcDbSpline
210
0.0
220
0.0
230
1.0
 70
     8
 71
     3
 72
    17
 73
    13
 74
     0
 42
0.000000001
 43
0.00000001
 40
0.0
 40
0.0
 40
0.0
 40
0.0
 40
0.1197035670343536
 40
0.2061654611063719
 40
0.2821914063060049
 40
0.3634814867224691
 40
0.4453781179870002
 40
0.6456012814023668
 40
0.6917137625673042
 40
0.7596245243757509
 40
0.8620365396352896
 40
0.9999999999999999
 40
0.9999999999999999
 40
0.9999999999999999
 40
0.9999999999999999
 10
17.00285803815158
 20
-2.496437988874694
 30
0.0
 10
17.18335496038333
 20
-2.479236683472243
 30
0.0
 10
17.4942248210075
 20
-2.44961087408504
 30
0.0
 10
17.91825212969202
 20
-2.41716956102717
 30
0.0
 10
18.28426258967443
 20
-2.393045712413791
 30
0.0
 10
18.64430461929793
 20
-2.373902012086079
 30
0.0
 10
19.1911220561415
 20
-2.351629113795682
 30
0.0
 10
19.68467873823444
 20
-2.342410114931848
 30
0.0
 10
20.15758762845649
 20
-2.342950604632406
 30
0.0
 10
20.48292905242225
 20
-2.346337717091732
 30
0.0
 10
20.94609877688303
 20
-2.356943412028411
 30
0.0
 10
21.30833206272633
 20
-2.374084266494922
 30
0.0
 10
21.51623579102654
 20
-2.383922256787677
 30
0.0
  0
SPLINE
  5
A9
330
1F
100
AcDbEntity
  8
0
  6
Continuous
 62
     1
370
    25
100
AcDbSpline
210
0.0
220
0.0
230
1.0
 70
     8
 71
     3
 72
    13
 73
     9
 74
     0
 42
0.000000001
 43
0.00000001
 40
0.0
 40
0.0
 40
0.0
 40
0.0
 40
0.2827062408583954
 40
0.4816016835081663
 40
0.6242688471841915
 40
0.7521654287495613
 40
0.8840262374825696
 40
1.0
 40
1.0
 40
1.0
 40
1.0
 10
23.92354846850168
 20
-2.256439529464287
 30
0.0
 10
24.13442492767951
 20
-2.224816804328315
 30
0.0
 10
24.49366163021537
 20
-2.170946194269061
 30
0.0
 10
24.95724305383913
 20
-2.114373540005654
 30
0.0
 10
25.30637037576264
 20
-2.077382755581797
 30
0.0
 10
25.60583615849629
 20
-2.050006904996029
 30
0.0
 10
25.88542177699319
 20
-2.027725634839737
 30
0.0
 10
26.06971450149826
 20
-2.016335050548693
 30
0.0
 10
26.1559539658216
 20
-2.011004846167443
 30
0.0
  0
LINE
  5
AA
330
1F
100
AcDbEntity
  8
0
  6
Continuous
 62
     4
370
    25
100
AcDbLine
 10
15.27990381056767
 20
-2.999999999999999
 30
0.0
 11
15.6229881902874
 21
-2.999999999999999
 31
0.0
  0
LINE
  5
AB
330
1F
100
AcDbEntity
  8
0
  6
Continuous
 62
     4
370
    25
100
AcDbLine
 10
0.0
 20
3.000000000000001
 30
0.0
 11
0.0
 21
-3.000000000000001
 31
0.0
  0
LINE
  5
AC
330
1F
100
AcDbEntity
  8
0
  6
Continuous
 62
     4
370
    25
100
AcDbLine
 10
-58.72009618943233
 20
2.999999999999993
 30
0.0
 11
-58.72009618943233
 21
-3.0
 31
0.0
  0
LINE
  5
AD
330
1F
100
AcDbEntity
  8
0
  6
Continuous
 62
     4
370
    25
100
AcDbLine
 10
0.2799038105676672
 20
2.925
 30
0.0
 11
0.2799038105676672
 21
-2.924999999999999
 31
0.0
  0
LINE
  5
AE
330
1F
100
AcDbEntity
  8
0
  6
Continuous
 62
     4
370
    25
100
AcDbLine
 10
-59.72009618943233
 20
1.999999999999993
 30
0.0
 11
-59.72009618943233
 21
-2.0
 31
0.0
  0
SPLINE
  5
AF
330
1F
100
AcDbEntity
  8
0
  6
Continuous
 62
     4
370
    25
100
AcDbSpline
210
0.0
220
0.0
230
1.0
 70
     8
 71
     3
 72
    14
 73
    10
 74
     0
 42
0.000000001
 43
0.00000001
 40
0.0
 40
0.0
 40
0.0
 40
0.0
 40
0.25
 40
0.25
 40
0.5
 40
0.5
 40
0.75
 40
0.75
 40
1.0
 40
1.0
 40
1.0
 40
1.0
 10
15.27990381056767
 20
2.862628440094301
 30
0.0
 10
15.02751738912504
 20
2.891952835026021
 30
0.0
 10
14.77166719768623
 20
2.911126695510858
 30
0.0
 10
14.26123851410769
 20
2.928327162596307
 30
0.0
 10
14.00900582400494
 20
2.926405156765852
 30
0.0
 10
13.50162470343377
 20
2.901660970006496
 30
0.0
 10
13.24534715548953
 20
2.878742306896314
 30
0.0
 10
12.73586256062442
 20
2.812464149927859
 30
0.0
 10
12.48461881254373
 20
2.769288557220021
 30
0.0
 10
12.23000298743888
 20
2.716157270576646
 30
0.0
  0
SPLINE
  5
B0
330
1F
100
AcDbEntity
  8
0
  6
Continuous
 62
     4
370
    25
100
AcDbSpline
210
0.0
220
0.0
230
1.0
 70
     8
 71
     3
 72
    14
 73
    10
 74
     0
 42
0.000000001
 43
0.00000001
 40
0.0
 40
0.0
 40
0.0
 40
0.0
 40
0.25
 40
0.25
 40
0.5
 40
0.5
 40
0.75
 40
0.75
 40
1.0
 40
1.0
 40
1.0
 40
1.0
 10
15.27990381056767
 20
-2.916384937571267
 30
0.0
 10
15.02752597225343
 20
-2.905436357626919
 30
0.0
 10
14.77168460014378
 20
-2.883961319311859
 30
0.0
 10
14.26127318745454
 20
-2.820418648681871
 30
0.0
 10
14.00904861059406
 20
-2.778526218162148
 30
0.0
 10
13.5016854465259
 20
-2.675033010100174
 30
0.0
 10
13.24541677493096
 20
-2.613282451634992
 30
0.0
 10
12.73594887972058
 20
-2.47168247661956
 30
0.0
 10
12.48471359916417
 20
-2.392104174606573
 30
0.0
 10
12.2301068946931
 20
-2.303891699700187
 30
0.0
  0
LINE
  5
B1
330
1F
100
AcDbEntity
  8
0
  6
Continuous
 62
     4
370
    25
100
AcDbLine
 10
15.27990381056767
 20
-2.916384937571267
 30
0.0
 11
15.27990381056767
 21
-2.924999999999998
 31
0.0
  0
SPLINE
  5
B2
330
1F
100
AcDbEntity
  8
0
  6
Continuous
 62
     4
370
    25
100
AcDbSpline
210
0.0
220
0.0
230
1.0
 70
     8
 71
     3
 72
    10
 73
     6
 74
     0
 42
0.000000001
 43
0.00000001
 40
0.0
 40
0.0
 40
0.0
 40
0.0
 40
0.4319100403714082
 40
0.8649817025250807
 40
1.0
 40
1.0
 40
1.0
 40
1.0
 10
12.23000298743888
 20
-2.716157270576644
 30
0.0
 10
12.51409275159214
 20
-2.766683393682798
 30
0.0
 10
13.0830363391409
 20
-2.867871529871463
 30
0.0
 10
13.74124786892774
 20
-2.935506884309782
 30
0.0
 10
14.11524199802701
 20
-2.914501040557457
 30
0.0
 10
14.20412941756461
 20
-2.90950856848082
 30
0.0
  0
LINE
  5
B3
330
1F
100
AcDbEntity
  8
0
  6
Continuous
 62
     4
370
    25
100
AcDbLine
 10
12.23000298743888
 20
-2.924999999999998
 30
0.0
 11
12.23000298743888
 21
-2.715910486534576
 31
0.0
  0
LINE
  5
B4
330
1F
100
AcDbEntity
  8
0
  6
Continuous
 62
     4
370
    25
100
AcDbLine
 10
12.2300029874389
 20
-2.303807479258927
 30
0.0
 11
12.23000298743888
 21
2.925
 31
0.0
  0
SPLINE
  5
B5
330
1F
100
AcDbEntity
  8
0
  6
Continuous
 62
     4
370
    25
100
AcDbSpline
210
0.0
220
0.0
230
1.0
 70
     8
 71
     3
 72
    14
 73
    10
 74
     0
 42
0.000000001
 43
0.00000001
 40
0.0
 40
0.0
 40
0.0
 40
0.0
 40
0.25
 40
0.25
 40
0.5
 40
0.5
 40
0.75
 40
0.75
 40
1.0
 40
1.0
 40
1.0
 40
1.0
 10
15.27990381056241
 20
-2.52964391779934
 30
0.0
 10
15.02752597224857
 20
-2.513949890676622
 30
0.0
 10
14.77168460013933
 20
-2.489097076497935
 30
0.0
 10
14.26127318745101
 20
-2.421673898573127
 30
0.0
 10
14.009048610591
 20
-2.379274155777239
 30
0.0
 10
13.50168544652368
 20
-2.277620135710434
 30
0.0
 10
13.24541677492919
 20
-2.218228122787671
 30
0.0
 10
12.7359488797197
 20
-2.084158939214148
 30
0.0
 10
12.48471359916373
 20
-2.009729644643155
 30
0.0
 10
12.2301068946931
 20
-1.928040055459269
 30
0.0
  0
SPLINE
  5
B6
330
1F
100
AcDbEntity
  8
0
  6
Continuous
 62
     4
370
    25
100
AcDbSpline
210
0.0
220
0.0
230
1.0
 70
     8
 71
     3
 72
    14
 73
    10
 74
     0
 42
0.000000001
 43
0.00000001
 40
0.0
 40
0.0
 40
0.0
 40
0.0
 40
0.25
 40
0.25
 40
0.5
 40
0.5
 40
0.75
 40
0.75
 40
1.0
 40
1.0
 40
1.0
 40
1.0
 10
15.27990381056464
 20
-0.6049348382052577
 30
0.0
 10
15.02752052315713
 20
-0.491580621177111
 30
0.0
 10
14.77167355200051
 20
-0.3755366603287189
 30
0.0
 10
14.26125117469477
 20
-0.1417631211733308
 30
0.0
 10
14.00902144706528
 20
-0.0244042468760285
 30
0.0
 10
13.50164688311094
 20
0.2100945442112236
 30
0.0
 10
13.24537257626278
 20
0.3274055477026446
 30
0.0
 10
12.7358940790686
 20
0.5583677057844694
 30
0.0
 10
12.48465342287078
 20
0.67173480426196
 30
0.0
 10
12.23004092805131
 20
0.7827898440544113
 30
0.0
  0
SPLINE
  5
B7
330
1F
100
AcDbEntity
  8
0
  6
Continuous
 62
     4
370
    25
100
AcDbSpline
210
0.0
220
0.0
230
1.0
 70
    24
 71
     3
 72
    10
 73
     6
 74
     0
 42
0.000000001
 43
0.00000001
 40
0.0
 40
0.0
 40
0.0
 40
0.0
 40
0.5
 40
0.5
 40
1.0
 40
1.0
 40
1.0
 40
1.0
 10
15.27990381056767
 20
-0.6049348382066183
 30
0.0
 10
15.27990381056767
 20
-1.036244027746184
 30
0.0
 10
15.27990381056766
 20
-1.451567841532639
 30
0.0
 10
15.27990381056767
 20
-2.124349039070814
 30
0.0
 10
15.27990381056767
 20
-2.378910509539699
 30
0.0
 10
15.27990381056767
 20
-2.529643917799664
 30
0.0
  0
SPLINE
  5
B8
330
1F
100
AcDbEntity
  8
0
  6
Continuous
 62
     4
370
    25
100
AcDbSpline
210
0.0
220
0.0
230
1.0
 70
     8
 71
     3
 72
     9
 73
     5
 74
     0
 42
0.000000001
 43
0.00000001
 40
0.0
 40
0.0
 40
0.0
 40
0.0
 40
0.6383385643133979
 40
1.0
 40
1.0
 40
1.0
 40
1.0
 10
15.27990381056477
 20
2.032196465014631
 30
0.0
 10
14.77171897321359
 20
2.073365629733855
 30
0.0
 10
13.97561348035841
 20
2.137859876236896
 30
0.0
 10
13.17945506591064
 20
2.061791180271501
 30
0.0
 10
12.89151527070749
 20
2.034280066477849
 30
0.0
  0
SPLINE
  5
B9
330
1F
100
AcDbEntity
  8
0
  6
Continuous
 62
     4
370
    25
100
AcDbSpline
210
0.0
220
0.0
230
1.0
 70
    24
 71
     3
 72
    14
 73
    10
 74
     0
 42
0.000000001
 43
0.00000001
 40
0.0
 40
0.0
 40
0.0
 40
0.0
 40
0.2500000000000001
 40
0.2500000000000001
 40
0.5000000000000002
 40
0.5000000000000002
 40
0.7500000000000001
 40
0.7500000000000001
 40
1.0
 40
1.0
 40
1.0
 40
1.0
 10
15.27990381056767
 20
2.032196465014334
 30
0.0
 10
15.27990381056767
 20
1.911996309977519
 30
0.0
 10
15.27990381056767
 20
1.758883798528073
 30
0.0
 10
15.27990381056767
 20
1.392338998307449
 30
0.0
 10
15.27990381056767
 20
1.178967606038063
 30
0.0
 10
15.27990381056767
 20
0.7102733420327854
 30
0.0
 10
15.27990381056767
 20
0.4552002101960293
 30
0.0
 10
15.27990381056767
 20
-0.0702416918778003
 30
0.0
 10
15.27990381056767
 20
-0.3403263860598409
 30
0.0
 10
15.27990381056767
 20
-0.604934838206619
 30
0.0
  0
SPLINE
  5
BA
330
1F
100
AcDbEntity
  8
0
  6
Continuous
 62
     4
370
    25
100
AcDbSpline
210
0.0
220
0.0
230
1.0
 70
    24
 71
     3
 72
     8
 73
     4
 74
     0
 42
0.000000001
 43
0.00000001
 40
0.0
 40
0.0
 40
0.0
 40
0.0
 40
1.0
 40
1.0
 40
1.0
 40
1.0
 10
15.27990381056767
 20
-2.529643917799666
 30
0.0
 10
15.27990381056767
 20
-2.660127476417074
 30
0.0
 10
15.27990381056767
 20
-2.789620420972413
 30
0.0
 10
15.27990381056767
 20
-2.916384937571264
 30
0.0
  0
SPLINE
  5
BB
330
1F
100
AcDbEntity
  8
0
  6
Continuous
 62
     4
370
    25
100
AcDbSpline
210
0.0
220
0.0
230
1.0
 70
    24
 71
     3
 72
    10
 73
     6
 74
     0
 42
0.000000001
 43
0.00000001
 40
0.0
 40
0.0
 40
0.0
 40
0.0
 40
0.5
 40
0.5
 40
1.0
 40
1.0
 40
1.0
 40
1.0
 10
15.27990381056767
 20
2.862628440094289
 30
0.0
 10
15.27990381056767
 20
2.733104810207998
 30
0.0
 10
15.27990381056766
 20
2.590197840443747
 30
0.0
 10
15.27990381056767
 20
2.304433980989008
 30
0.0
 10
15.27990381056767
 20
2.16212213227106
 30
0.0
 10
15.27990381056767
 20
2.032196465014334
 30
0.0
  0
SPLINE
  5
BC
330
1F
100
AcDbEntity
  8
0
  6
Continuous
 62
     1
370
    25
100
AcDbSpline
210
0.0
220
0.0
230
1.0
 70
     8
 71
     3
 72
    13
 73
     9
 74
     0
 42
0.000000001
 43
0.00000001
 40
0.0
 40
0.0
 40
0.0
 40
0.0
 40
0.1930102220130224
 40
0.3860892675026737
 40
0.5792188743200787
 40
0.7723805914597388
 40
0.9655558475940147
 40
1.0
 40
1.0
 40
1.0
 40
1.0
 10
30.27990381056766
 20
-2.366916793104644
 30
0.0
 10
29.77878679096755
 20
-2.256134357539539
 30
0.0
 10
28.77637406374177
 20
-2.034529983670637
 30
0.0
 10
27.27242799580318
 20
-1.480568219816351
 30
0.0
 10
25.76803697885157
 20
-0.8156595600609196
 30
0.0
 10
24.26335833919192
 20
-0.0858664580538097
 30
0.0
 10
23.17071770256118
 20
0.4670415746386438
 30
0.0
 10
22.5796647240923
 20
0.7311370292638095
 30
0.0
 10
22.49022455288302
 20
0.7711008625202703
 30
0.0
  0
SPLINE
  5
BD
330
1F
100
AcDbEntity
  8
0
  6
Continuous
 62
     1
370
    25
100
AcDbSpline
210
0.0
220
0.0
230
1.0
 70
    24
 71
     3
 72
     8
 73
     4
 74
     0
 42
0.000000001
 43
0.00000001
 40
0.0
 40
0.0
 40
0.0
 40
0.0
 40
1.0
 40
1.0
 40
1.0
 40
1.0
 10
30.27990381056766
 20
-2.524904239423122
 30
0.0
 10
30.27990381056766
 20
-2.472116628345736
 30
0.0
 10
30.27990381056766
 20
-2.419417843837088
 30
0.0
 10
30.27990381056766
 20
-2.366916793104644
 30
0.0
  0
SPLINE
  5
BE
330
1F
100
AcDbEntity
  8
0
  6
Continuous
 62
     1
370
    25
100
AcDbSpline
210
0.0
220
0.0
230
1.0
 70
     8
 71
     3
 72
    10
 73
     6
 74
     0
 42
0.000000001
 43
0.00000001
 40
0.0
 40
0.0
 40
0.0
 40
0.0
 40
0.5
 40
0.5
 40
1.0
 40
1.0
 40
1.0
 40
1.0
 10
30.27990381056766
 20
-2.524904239423125
 30
0.0
 10
30.27990381056769
 20
-2.607513504906112
 30
0.0
 10
30.24632041970649
 20
-2.689404132443162
 30
0.0
 10
30.12954268027195
 20
-2.788123621211165
 30
0.0
 10
30.05145045676336
 20
-2.802585117212237
 30
0.0
 10
29.97990381056765
 20
-2.787311724593958
 30
0.0
  0
SPLINE
  5
BF
330
1F
100
AcDbEntity
  8
0
  6
Continuous
 62
     1
370
    25
100
AcDbSpline
210
0.0
220
0.0
230
1.0
 70
     8
 71
     3
 72
    18
 73
    14
 74
     0
 42
0.000000001
 43
0.00000001
 40
0.0
 40
0.0
 40
0.0
 40
0.0
 40
0.0955560817569648
 40
0.1911123227120991
 40
0.2866687178903289
 40
0.3822252623129065
 40
0.4777819509975325
 40
0.5733387789584695
 40
0.6634376182205727
 40
0.7535418936272699
 40
0.8436525598129362
 40
0.9337705663809798
 40
1.0
 40
1.0
 40
1.0
 40
1.0
 10
29.97990381056768
 20
-2.787311724593712
 30
0.0
 10
29.52259490244613
 20
-2.670866517618039
 30
0.0
 10
28.60797632431808
 20
-2.43797590966686
 30
0.0
 10
27.23604646134545
 20
-1.867910627799317
 30
0.0
 10
25.86411515131345
 20
-1.182259183702105
 30
0.0
 10
24.49217685227071
 20
-0.4109429596592934
 30
0.0
 10
23.12025253115226
 20
0.3878221411813976
 30
0.0
 10
21.77438663436816
 20
1.14540911801945
 30
0.0
 10
20.45482955720142
 20
1.812626250524465
 30
0.0
 10
19.16125991382589
 20
2.356604812762101
 30
0.0
 10
17.8675948913147
 20
2.74899409041751
 30
0.0
 10
16.68816172494356
 20
2.973633571760331
 30
0.0
 10
15.93993863846248
 20
2.97945635774849
 30
0.0
 10
15.62298819028741
 20
2.981922914397062
 30
0.0
  0
SPLINE
  5
C0
330
1F
100
AcDbEntity
  8
0
  6
Continuous
 62
     1
370
    25
100
AcDbSpline
210
0.0
220
0.0
230
1.0
 70
     8
 71
     3
 72
    38
 73
    34
 74
     0
 42
0.000000001
 43
0.00000001
 40
0.0
 40
0.0
 40
0.0
 40
0.0
 40
0.0625
 40
0.0625
 40
0.1250000000000001
 40
0.1250000000000001
 40
0.1875000000000001
 40
0.1875000000000001
 40
0.2500000000000001
 40
0.2500000000000001
 40
0.3125000000000001
 40
0.3125000000000001
 40
0.3750000000000002
 40
0.3750000000000002
 40
0.4375000000000002
 40
0.4375000000000002
 40
0.5000000000000002
 40
0.5000000000000002
 40
0.5625000000000002
 40
0.5625000000000002
 40
0.6250000000000002
 40
0.6250000000000002
 40
0.6875000000000003
 40
0.6875000000000003
 40
0.7500000000000003
 40
0.7500000000000003
 40
0.8125000000000003
 40
0.8125000000000003
 40
0.8750000000000004
 40
0.8750000000000004
 40
0.9375000000000004
 40
0.9375000000000004
 40
1.0
 40
1.0
 40
1.0
 40
1.0
 10
29.97990381056766
 20
-2.985311714246891
 30
0.0
 10
29.6735838789395
 20
-2.967835787241562
 30
0.0
 10
29.36429248857331
 20
-2.934626645468613
 30
0.0
 10
28.75416367447162
 20
-2.838412960443464
 30
0.0
 10
28.4484406107272
 20
-2.775243570992008
 30
0.0
 10
27.83350875286529
 20
-2.620369797292428
 30
0.0
 10
27.53032545620654
 20
-2.529241592796888
 30
0.0
 10
26.917249050746
 20
-2.321015736826885
 30
0.0
 10
26.60801822567235
 20
-2.203861823981391
 30
0.0
 10
25.99855898164354
 20
-1.949063428931935
 30
0.0
 10
25.69213812887248
 20
-1.810612260199282
 30
0.0
 10
25.07734653968663
 20
-1.515957133983189
 30
0.0
 10
24.77438193744534
 20
-1.360680050267046
 30
0.0
 10
24.16091145244869
 20
-1.036339837243543
 30
0.0
 10
23.85176304731526
 20
-0.8674538447215621
 30
0.0
 10
23.24301500089486
 20
-0.5241854553058521
 30
0.0
 10
22.93582356145751
 20
-0.3483967005042883
 30
0.0
 10
22.32121510173264
 20
0.0050422683592455
 30
0.0
 10
22.01839559685748
 20
0.1817948046896848
 30
0.0
 10
21.40457358634351
 20
0.5331417791344387
 30
0.0
 10
21.09552943623913
 20
0.7073324128373236
 30
0.0
 10
20.48753405147256
 20
1.044705012454222
 30
0.0
 10
20.17949940552707
 20
1.209564147010626
 30
0.0
 10
19.56511689347648
 20
1.524649370424575
 30
0.0
 10
19.26236885528616
 20
1.674321840444766
 30
0.0
 10
18.64823795482065
 20
1.95610857374721
 30
0.0
 10
18.33934390903874
 20
2.087725788169311
 30
0.0
 10
17.73209431693006
 20
2.32654190994057
 30
0.0
 10
17.4231681603448
 20
2.435116913007421
 30
0.0
 10
16.80905436167772
 20
2.625276106686858
 30
0.0
 10
16.50630414292467
 20
2.70675513200809
 30
0.0
 10
15.89190705977693
 20
2.841504949535434
 30
0.0
 10
15.58392436305976
 20
2.894363221316535
 30
0.0
 10
15.27990381056767
 20
2.931766741829978
 30
0.0
  0
SPLINE
  5
C2
330
1F
100
AcDbEntity
  8
0
  6
Continuous
 62
     1
370
    25
100
AcDbSpline
210
0.0
220
0.0
230
1.0
 70
     8
 71
     3
 72
    13
 73
     9
 74
     0
 42
0.000000001
 43
0.00000001
 40
0.0
 40
0.0
 40
0.0
 40
0.0
 40
0.0102410103684042
 40
0.2093859618378279
 40
0.4085054835689743
 40
0.6075797026610771
 40
0.8065889169618419
 40
1.0
 40
1.0
 40
1.0
 40
1.0
 10
22.83589696623695
 20
-0.2883716196996496
 30
0.0
 10
22.81010205607572
 20
-0.2783690421118771
 30
0.0
 10
22.28270369592084
 20
-0.0738580364854266
 30
0.0
 10
21.25376688515984
 20
0.3548566534245135
 30
0.0
 10
19.74922010276865
 20
0.9369806192088508
 30
0.0
 10
18.24505148649681
 20
1.442191108143262
 30
0.0
 10
16.75530672616651
 20
1.834524106038067
 30
0.0
 10
15.76700519397055
 20
1.966935322786716
 30
0.0
 10
15.27990381056478
 20
2.032196465014631
 30
0.0
  0
SPLINE
  5
C3
330
1F
100
AcDbEntity
  8
0
  6
Continuous
 62
     4
370
    25
100
AcDbSpline
210
0.0
220
0.0
230
1.0
 70
    24
 71
     3
 72
    10
 73
     6
 74
     0
 42
0.000000001
 43
0.00000001
 40
0.0
 40
0.0
 40
0.0
 40
0.0
 40
0.5
 40
0.5
 40
1.0
 40
1.0
 40
1.0
 40
1.0
 10
15.27990381056767
 20
2.931766741829974
 30
0.0
 10
15.27990381056767
 20
2.796063501161058
 30
0.0
 10
15.27990381056767
 20
2.641945875900551
 30
0.0
 10
15.27990381056767
 20
2.33044060311898
 30
0.0
 10
15.27990381056767
 20
2.173907978941084
 30
0.0
 10
15.27990381056767
 20
2.032196465014335
 30
0.0
  0
SPLINE
  5
C4
330
1F
100
AcDbEntity
  8
0
  6
Continuous
 62
     1
370
    25
100
AcDbSpline
210
0.0
220
0.0
230
1.0
 70
     8
 71
     3
 72
    13
 73
     9
 74
     0
 42
0.000000001
 43
0.00000001
 40
0.0
 40
0.0
 40
0.0
 40
0.0
 40
0.1715064403483119
 40
0.3430748947691912
 40
0.5146889076465443
 40
0.6863318527399747
 40
0.8579869951068525
 40
1.0
 40
1.0
 40
1.0
 40
1.0
 10
30.27990381056766
 20
0.0000000000000051
 30
0.0
 10
29.77878441425844
 20
0.2315717142177513
 30
0.0
 10
28.77636442462752
 20
0.6947988753985614
 30
0.0
 10
27.27241434129214
 20
1.331351943812549
 30
0.0
 10
25.76801880725695
 20
1.858690671181394
 30
0.0
 10
24.26333513481808
 20
2.225733039000589
 30
0.0
 10
22.84513704951065
 20
2.416857238311803
 30
0.0
 10
21.92852903933737
 20
2.384253105897332
 30
0.0
 10
21.51353548971842
 20
2.369491610805913
 30
0.0
  0
SPLINE
  5
C5
330
1F
100
AcDbEntity
  8
0
  6
Continuous
 62
     1
370
    25
100
AcDbSpline
210
0.0
220
0.0
230
1.0
 70
    24
 71
     3
 72
    10
 73
     6
 74
     0
 42
0.000000001
 43
0.00000001
 40
0.0
 40
0.0
 40
0.0
 40
0.0
 40
0.5
 40
0.5
 40
1.0
 40
1.0
 40
1.0
 40
1.0
 10
30.27990381056766
 20
-2.366916793104644
 30
0.0
 10
30.27990381056766
 20
-2.110777701506952
 30
0.0
 10
30.27990381056766
 20
-1.757178244773416
 30
0.0
 10
30.27990381056765
 20
-0.9298235388482693
 30
0.0
 10
30.27990381056766
 20
-0.4596295477466203
 30
0.0
 10
30.27990381056766
 20
0.0000000000000054
 30
0.0
  0
LINE
  5
C6
330
1F
100
AcDbEntity
  8
0
  6
Continuous
 62
     1
370
    25
100
AcDbLine
 10
30.27990381056766
 20
2.100000000000003
 30
0.0
 11
29.16044292546848
 21
2.034956681273402
 31
0.0
  0
SPLINE
  5
C7
330
1F
100
AcDbEntity
  8
0
  6
Continuous
 62
     1
370
    25
100
AcDbSpline
210
0.0
220
0.0
230
1.0
 70
    24
 71
     3
 72
    14
 73
    10
 74
     0
 42
0.000000001
 43
0.00000001
 40
0.0
 40
0.0
 40
0.0
 40
0.0
 40
0.2500000000000001
 40
0.2500000000000001
 40
0.5
 40
0.5
 40
0.7499999999999999
 40
0.7499999999999999
 40
1.0
 40
1.0
 40
1.0
 40
1.0
 10
30.27990381056766
 20
0.0000000000000054
 30
0.0
 10
30.27990381056766
 20
0.2498530551041924
 30
0.0
 10
30.27990381056766
 20
0.4966307291263667
 30
0.0
 10
30.27990381056766
 20
0.95811764987327
 30
0.0
 10
30.27990381056766
 20
1.172540191124304
 30
0.0
 10
30.27990381056766
 20
1.545770736455484
 30
0.0
 10
30.27990381056765
 20
1.704379867696972
 30
0.0
 10
30.27990381056766
 20
1.953199662634072
 30
0.0
 10
30.27990381056766
 20
2.043422323309174
 30
0.0
 10
30.27990381056766
 20
2.100000000000003
 30
0.0
  0
SPLINE
  5
C8
330
1F
100
AcDbEntity
  8
0
  6
Continuous
 62
     1
370
    25
100
AcDbSpline
210
0.0
220
0.0
230
1.0
 70
     8
 71
     3
 72
     9
 73
     5
 74
     0
 42
0.000000001
 43
0.00000001
 40
0.0
 40
0.0
 40
0.0
 40
0.0
 40
0.1539857887385236
 40
1.0
 40
1.0
 40
1.0
 40
1.0
 10
17.00728412521736
 20
-2.48106164340335
 30
0.0
 10
16.91861551604083
 20
-2.494801974412389
 30
0.0
 10
16.34279218907722
 20
-2.584033137376199
 30
0.0
 10
15.76701743499861
 20
-2.554570081650487
 30
0.0
 10
15.27990381056252
 20
-2.529643917799346
 30
0.0
  0
SPLINE
  5
C9
330
1F
100
AcDbEntity
  8
0
  6
Continuous
 62
     1
370
    25
100
AcDbSpline
210
0.0
220
0.0
230
1.0
 70
     8
 71
     3
 72
    13
 73
     9
 74
     0
 42
0.000000001
 43
0.00000001
 40
0.0
 40
0.0
 40
0.0
 40
0.0
 40
0.1356376216294531
 40
0.3095498237209641
 40
0.4834403973756684
 40
0.6572924394660422
 40
0.8310891914065861
 40
1.0
 40
1.0
 40
1.0
 40
1.0
 10
23.93214944803425
 20
-2.238719429929979
 30
0.0
 10
23.54093877989261
 20
-2.296013415591778
 30
0.0
 10
22.64812458935899
 20
-2.426768754330558
 30
0.0
 10
21.25377077445714
 20
-2.396471722845684
 30
0.0
 10
19.74922314687069
 20
-2.18656909159374
 30
0.0
 10
18.24505383488198
 20
-1.787887607427709
 30
0.0
 10
16.75530437824324
 20
-1.250599676365873
 30
0.0
 10
15.76700731959391
 20
-0.8181010896048305
 30
0.0
 10
15.27990381056464
 20
-0.6049348382052563
 30
0.0
  0
SPLINE
  5
CA
330
1F
100
AcDbEntity
  8
0
  6
Continuous
 62
     4
370
    25
100
AcDbSpline
210
0.0
220
0.0
230
1.0
 70
    24
 71
     3
 72
    10
 73
     6
 74
     0
 42
0.000000001
 43
0.00000001
 40
0.0
 40
0.0
 40
0.0
 40
0.0
 40
0.5
 40
0.5
 40
1.0
 40
1.0
 40
1.0
 40
1.0
 10
15.27990381056767
 20
-0.6049348382066174
 30
0.0
 10
15.27990381056767
 20
-1.036244027746183
 30
0.0
 10
15.27990381056767
 20
-1.451567841532638
 30
0.0
 10
15.27990381056767
 20
-2.124349039070814
 30
0.0
 10
15.27990381056767
 20
-2.378910509539697
 30
0.0
 10
15.27990381056767
 20
-2.529643917799664
 30
0.0
  0
SPLINE
  5
CB
330
1F
100
AcDbEntity
  8
0
  6
Continuous
 62
     4
370
    25
100
AcDbSpline
210
0.0
220
0.0
230
1.0
 70
    24
 71
     3
 72
    14
 73
    10
 74
     0
 42
0.000000001
 43
0.00000001
 40
0.0
 40
0.0
 40
0.0
 40
0.0
 40
0.2500000000000001
 40
0.2500000000000001
 40
0.5000000000000001
 40
0.5000000000000001
 40
0.75
 40
0.75
 40
1.0
 40
1.0
 40
1.0
 40
1.0
 10
15.27990381056767
 20
2.032196465014334
 30
0.0
 10
15.27990381056767
 20
1.91199630997752
 30
0.0
 10
15.27990381056767
 20
1.758883798528074
 30
0.0
 10
15.27990381056767
 20
1.39233899830745
 30
0.0
 10
15.27990381056767
 20
1.178967606038064
 30
0.0
 10
15.27990381056767
 20
0.7102733420327861
 30
0.0
 10
15.27990381056767
 20
0.4552002101960303
 30
0.0
 10
15.27990381056767
 20
-0.0702416918777995
 30
0.0
 10
15.27990381056767
 20
-0.3403263860598402
 30
0.0
 10
15.27990381056767
 20
-0.6049348382066182
 30
0.0
  0
LINE
  5
CC
330
1F
100
AcDbEntity
  8
0
  6
Continuous
 62
     1
370
    25
100
AcDbLine
 10
30.27990381056766
 20
-2.524904239423122
 30
0.0
 11
30.27990381056766
 21
-2.695209868807362
 31
0.0
  0
SPLINE
  5
CD
330
1F
100
AcDbEntity
  8
0
  6
Continuous
 62
     1
370
    25
100
AcDbSpline
210
0.0
220
0.0
230
1.0
 70
     8
 71
     3
 72
    10
 73
     6
 74
     0
 42
0.000000001
 43
0.00000001
 40
0.0
 40
0.0
 40
0.0
 40
0.0
 40
0.3175389905643162
 40
0.6587538119651645
 40
1.0
 40
1.0
 40
1.0
 40
1.0
 10
19.07162468446525
 20
-2.35858551945125
 30
0.0
 10
18.67029311635427
 20
-2.490404196220101
 30
0.0
 10
17.83770654207176
 20
-2.763870001648792
 30
0.0
 10
16.5738016522557
 20
-2.986993881841099
 30
0.0
 10
15.71121630624372
 20
-2.991292900081709
 30
0.0
 10
15.27990381056767
 20
-2.993442507995738
 30
0.0
  0
SPLINE
  5
CE
330
1F
100
AcDbEntity
  8
0
  6
Continuous
 62
     4
370
    25
100
AcDbSpline
210
0.0
220
0.0
230
1.0
 70
    24
 71
     3
 72
     8
 73
     4
 74
     0
 42
0.000000001
 43
0.00000001
 40
0.0
 40
0.0
 40
0.0
 40
0.0
 40
1.0
 40
1.0
 40
1.0
 40
1.0
 10
15.27990381056767
 20
-2.529643917799666
 30
0.0
 10
15.27990381056767
 20
-2.686687847956604
 30
0.0
 10
15.27990381056767
 20
-2.84229184053575
 30
0.0
 10
15.27990381056767
 20
-2.993442507984882
 30
0.0
  0
SPLINE
  5
CF
330
1F
100
AcDbEntity
  8
0
  6
Continuous
 62
     1
370
    25
100
AcDbSpline
210
0.0
220
0.0
230
1.0
 70
     8
 71
     3
 72
    10
 73
     6
 74
     0
 42
0.000000001
 43
0.00000001
 40
0.0
 40
0.0
 40
0.0
 40
0.0
 40
0.3212543074509697
 40
0.6606392586388067
 40
1.0
 40
1.0
 40
1.0
 40
1.0
 10
26.16810043496036
 20
2.01562355299282
 30
0.0
 10
26.5762943751829
 20
2.17981554731277
 30
0.0
 10
27.41571951531313
 20
2.517466046889386
 30
0.0
 10
28.68631906886806
 20
2.856182188749445
 30
0.0
 10
29.54871915016759
 20
2.942269562616314
 30
0.0
 10
29.97990381056766
 20
2.985311714246894
 30
0.0
  0
LINE
  5
D0
330
1F
100
AcDbEntity
  8
0
  6
Continuous
 62
     4
370
    25
100
AcDbLine
 10
15.27990381056767
 20
-2.999999999999997
 30
0.0
 11
15.27990381056767
 21
-2.993442507995738
 31
0.0
  0
SPLINE
  5
D2
330
1F
100
AcDbEntity
  8
0
  6
Continuous
 62
     1
370
    25
100
AcDbSpline
210
0.0
220
0.0
230
1.0
 70
    24
 71
     3
 72
     8
 73
     4
 74
     0
 42
0.000000001
 43
0.00000001
 40
0.0
 40
0.0
 40
0.0
 40
0.0
 40
1.0
 40
1.0
 40
1.0
 40
1.0
 10
30.27990381056766
 20
2.100000000000003
 30
0.0
 10
30.27990381056766
 20
2.271914913334979
 30
0.0
 10
30.27990381056766
 20
2.482449774288017
 30
0.0
 10
30.27990381056766
 20
2.695209868807515
 30
0.0
  0
LINE
  5
D3
330
1F
100
AcDbEntity
  8
중심선
100
AcDbLine
 10
-62.72009618943233
 20
-0.0000000000000041
 30
0.0
 11
33.27990381056766
 21
0.0000000000000054
 31
0.0
  0
CIRCLE
  5
D4
330
1F
100
AcDbEntity
  8
외형선
100
AcDbCircle
 10
0.0
 20
0.0
 30
0.0
 40
3.000000000000005
  0
INSERT
  5
D5
330
1F
100
AcDbEntity
  8
0
  6
Continuous
 62
     7
100
AcDbBlockReference
 66
     1
  2
블럭10
 10
-31.15348904402184
 20
-52.04717430164393
 30
0.0
  0
ATTRIB
  5
D6
330
D5
100
AcDbEntity
  8
FORMAT
 62
     2
100
AcDbText
 10
-52.01173657561438
 20
-49.97180738881174
 30
0.0
 40
4.233333333333333
  1
SEME6106003090E [ 2 FLUTE ]
 41
0.75
  7
SLDTEXTSTYLE0
 11
-52.01173657561438
 21
-52.08847405547841
 31
0.0
100
AcDbAttribute
  2
AUTOATTR0
 70
     0
 74
     1
  0
SEQEND
  5
D7
330
D5
100
AcDbEntity
  8
0
  6
Continuous
 62
     7
  0
HATCH
  5
D8
330
1F
100
AcDbEntity
  8
중심선
100
AcDbHatch
 10
0.0
 20
0.0
 30
0.0
210
0.0
220
0.0
230
1.0
  2
SOLID
 70
     1
 71
     0
 91
        1
 92
        0
 93
        4
 72
     1
 10
-25.43857973964099
 20
-35.8
 11
-28.88485498347827
 21
-35.8
 72
     1
 10
-28.88485498347827
 20
-35.8
 11
-31.0130848426823
 21
-38.3363255805726
 72
     1
 10
-31.0130848426823
 20
-38.3363255805726
 11
-27.56677651373186
 21
-38.33628615127011
 72
     1
 10
-27.56677651373186
 20
-38.33628615127011
 11
-25.43857973964099
 21
-35.8
 97
        0
 75
     0
 76
     1
 98
        1
 10
-8.21404535595595
 20
-0.0010749287238934
  0
HATCH
  5
D9
330
1F
100
AcDbEntity
  8
중심선
100
AcDbHatch
 10
0.0
 20
0.0
 30
0.0
210
0.0
220
0.0
230
1.0
  2
SOLID
 70
     1
 71
     0
 91
        1
 92
        0
 93
        4
 72
     1
 10
-20.42581574860504
 20
-35.8
 11
-23.87209099244232
 21
-35.8
 72
     1
 10
-23.87209099244232
 20
-35.8
 11
-28.40322900079971
 21
-41.20000000000002
 72
     1
 10
-28.40322900079971
 20
-41.20000000000002
 11
-24.95695375696243
 21
-41.20000000000002
 72
     1
 10
-24.95695375696243
 20
-41.20000000000002
 11
-20.42581574860504
 21
-35.8
 97
        0
 75
     0
 76
     1
 98
        1
 10
-8.21404535595595
 20
-0.0010749287238934
  0
HATCH
  5
DA
330
1F
100
AcDbEntity
  8
중심선
100
AcDbHatch
 10
0.0
 20
0.0
 30
0.0
210
0.0
220
0.0
230
1.0
  2
SOLID
 70
     1
 71
     0
 91
        1
 92
        0
 93
        4
 72
     1
 10
-15.41305175756914
 20
-35.80000000000003
 11
-18.85932700140626
 21
-35.8
 72
     1
 10
-18.85932700140626
 20
-35.8
 11
-25.90776390329551
 21
-44.20000000000002
 72
     1
 10
-25.90776390329551
 20
-44.20000000000002
 11
-22.46148865945823
 21
-44.20000000000002
 72
     1
 10
-22.46148865945823
 20
-44.20000000000002
 11
-15.41305175756914
 21
-35.80000000000003
 97
        0
 75
     0
 76
     1
 98
        1
 10
-8.21404535595595
 20
-0.0010749287238934
  0
HATCH
  5
DB
330
1F
100
AcDbEntity
  8
중심선
100
AcDbHatch
 10
0.0
 20
0.0
 30
0.0
210
0.0
220
0.0
230
1.0
  2
SOLID
 70
     1
 71
     0
 91
        1
 92
        0
 93
        6
 72
     3
 10
-10.61316132655694
 20
-40.00000000005127
 11
3.960054785062283
 21
1.540882976769353E-10
 40
0.3939339440162628
 50
17.09539180608436
 51
320.0019657685078
 73
     0
 72
     1
 10
-8.93016167085635
 20
-38.5878940046383
 11
-6.624859797155312
 21
-36.65356729459038
 72
     3
 10
-10.61316132660979
 20
-40.00000000000015
 11
6.600054785286829
 21
-1.278976924368180E-13
 40
0.636358354079598
 50
39.99873849337411
 51
368.4976242363724
 73
     1
 72
     1
 10
-4.187828834709182
 20
-39.03999999993002
 11
-11.93309401977387
 21
-39.03999999993
 72
     1
 10
-11.93309401977387
 20
-39.03999999993
 11
-11.9331190642198
 21
-40.95999999992991
 72
     1
 10
-11.9331190642198
 20
-40.95999999992991
 11
-7.491739294747766
 21
-40.95999999992988
 97
        0
 75
     0
 76
     1
 98
        1
 10
-8.21404535595595
 20
-0.0010749287238934
  0
DIMENSION
  5
DC
330
1F
100
AcDbEntity
  8
치수문자_일반주서
100
AcDbDimension
  2
_D
 10
-71.2165542110444
 20
-3.000000000000048
 30
0.0
 11
-71.21655421104441
 21
-0.0000000000000033
 31
0.0
 70
   160
  1
%%c<>
 71
     2
 42
5.999999999999993
 52
-270.0
  3
SLDDIMSTYLE0
100
AcDbAlignedDimension
 13
-58.72009618943233
 23
2.999999999999993
 33
0.0
 14
-58.72009618943233
 24
-3.0
 34
0.0
 50
90.0000000000002
100
AcDbRotatedDimension
  0
DIMENSION
  5
EA
330
1F
100
AcDbEntity
  8
치수문자_일반주서
100
AcDbDimension
  2
_D_1
 10
15.27990381056767
 20
21.19999999999965
 30
0.0
 11
22.77990381056766
 21
21.19999999999965
 31
0.0
 70
   160
  1
<>
 71
     2
 42
14.99999999999999
  3
SLDDIMSTYLE1
100
AcDbAlignedDimension
 13
30.27990381056766
 23
2.699999999999999
 33
0.0
 14
15.27990381056767
 24
2.999999999999998
 34
0.0
 50
0.0000000000000136
100
AcDbRotatedDimension
  0
DIMENSION
  5
F6
330
1F
100
AcDbEntity
  8
치수문자_일반주서
100
AcDbDimension
  2
_D_2
 10
-59.72009618943233
 20
43.25832450504429
 30
0.0
 11
-14.72009618943234
 21
43.25832450504429
 31
0.0
 70
   160
  1
<>
 71
     2
 42
90.0
  3
SLDDIMSTYLE1
100
AcDbAlignedDimension
 13
30.27990381056766
 23
2.699999999999999
 33
0.0
 14
-59.72009618943233
 24
1.999999999999993
 34
0.0
100
AcDbRotatedDimension
  0
DIMENSION
  5
100
330
1F
100
AcDbEntity
  8
치수문자_일반주서
100
AcDbDimension
  2
_D_3
 10
0.2799038105676672
 20
30.31999999999866
 30
0.0
 11
15.27990381056766
 21
30.31999999999866
 31
0.0
 70
   160
  1
<>
 71
     2
 42
30.0
  3
SLDDIMSTYLE0
100
AcDbAlignedDimension
 13
30.27990381056765
 23
2.695209868807218
 33
0.0
 14
0.2799038105676672
 24
2.924999999999999
 34
0.0
 50
-0.0000000000022354
100
AcDbRotatedDimension
  0
DIMENSION
  5
10C
330
1F
100
AcDbEntity
  8
치수문자_일반주서
100
AcDbDimension
  2
_D_4
 10
41.01493990810718
 20
-2.999999999999904
 30
0.0
 11
41.01493990810717
 21
0.0000000000000906
 31
0.0
 70
   160
  1
%%c<>
 71
     2
 42
5.999999999999999
 52
-270.0
  3
SLDDIMSTYLE0
100
AcDbAlignedDimension
 13
15.27990381056767
 23
3.0
 33
0.0
 14
15.27990381056767
 24
-2.999999999999999
 34
0.0
 50
90.0000000000002
100
AcDbRotatedDimension
  0
INSERT
  5
11F
330
1F
100
AcDbEntity
  8
외형선
100
AcDbBlockReference
  2
SW_DOWELSYMBOL_0
 10
0.0
 20
0.0
 30
0.0
  0
ARC
  5
150
330
1F
100
AcDbEntity
  8
0
  6
Continuous
 62
     1
370
    25
100
AcDbCircle
 10
29.97990381056765
 20
2.685311714246893
 30
0.0
 40
0.2999999999999999
100
AcDbArc
 50
0.0000000000000848
 51
101.4077405431672
  0
ARC
  5
151
330
1F
100
AcDbEntity
  8
0
  6
Continuous
 62
     1
370
    25
100
AcDbCircle
 10
29.97990381056765
 20
-2.685311714246883
 30
0.0
 40
0.2999999999999999
100
AcDbArc
 50
270.0
 51
359.9999999999998
  0
DIMENSION
  5
153
330
1F
100
AcDbEntity
  8
치수문자_일반주서
100
AcDbDimension
  2
*D8
 10
29.97990381056765
 20
-2.685311714246883
 30
0.0
 11
34.2902939366403
 21
-14.30974684038055
 31
0.0
 70
   164
  1
<>
 71
     5
 42
0.3000000000000035
  3
SLDDIMSTYLE0
100
AcDbRadialDimension
 15
30.08420543547234
 25
-2.96659657171746
 35
0.0
 40
0.0
1001
ACAD_DSTYLE_DIMRADIAL_EXTENSION
1070
   387
1070
     1
1070
   388
1040
4.71238898038469
1070
   390
1040
6.283185307179584
1001
ACAD
1000
DSTYLE
1002
{
1070
    78
1070
     8
1002
}
  0
ENDSEC
  0
SECTION
  2
OBJECTS
  0
DICTIONARY
  5
C
330
0
100
AcDbDictionary
281
     1
  3
ACAD_GROUP
350
D
  3
ACAD_IMAGE_VARS
350
143
  3
ACAD_LAYOUT
350
1A
  3
ACAD_MLINESTYLE
350
17
  3
ACAD_PLOTSETTINGS
350
19
  3
ACAD_PLOTSTYLENAME
350
E
  3
ACAD_SCALELIST
350
47
  3
APPDATA
350
141
  3
DWGPROPS
350
187
  0
DICTIONARY
  5
D
102
{ACAD_REACTORS
330
C
102
}
330
C
100
AcDbDictionary
281
     1
  0
RASTERVARIABLES
  5
143
102
{ACAD_REACTORS
330
C
102
}
330
C
100
AcDbRasterVariables
 90
        0
 70
     1
 71
     1
 72
     1
  0
DICTIONARY
  5
1A
102
{ACAD_REACTORS
330
C
102
}
330
C
100
AcDbDictionary
281
     1
  3
Layout1
350
1E
  3
Layout2
350
26
  3
Model
350
22
  0
DICTIONARY
  5
17
102
{ACAD_REACTORS
330
C
102
}
330
C
100
AcDbDictionary
281
     1
  3
Standard
350
18
  0
DICTIONARY
  5
19
102
{ACAD_REACTORS
330
C
102
}
330
C
100
AcDbDictionary
281
     1
  0
ACDBDICTIONARYWDFLT
  5
E
102
{ACAD_REACTORS
330
C
102
}
330
C
100
AcDbDictionary
281
     1
  3
Normal
350
F
100
AcDbDictionaryWithDefault
340
F
  0
DICTIONARY
  5
47
102
{ACAD_REACTORS
330
C
102
}
330
C
100
AcDbDictionary
281
     1
  3
A0
350
48
  3
A1
350
49
  3
A2
350
4A
  3
A3
350
4B
  3
A4
350
4C
  3
A5
350
4D
  3
A6
350
4E
  3
A7
350
4F
  3
A8
350
50
  3
A9
350
51
  3
B0
350
52
  3
B1
350
53
  3
B2
350
54
  3
B3
350
55
  3
B4
350
56
  3
B5
350
57
  3
B6
350
58
  3
B7
350
59
  3
B8
350
5A
  3
B9
350
5B
  3
C0
350
5C
  3
C1
350
5D
  3
C2
350
5E
  3
C3
350
5F
  3
C4
350
60
  3
C5
350
61
  3
C6
350
62
  3
C7
350
63
  3
C8
350
64
  3
C9
350
65
  3
D0
350
66
  3
D1
350
67
  3
D2
350
68
  0
DICTIONARY
  5
141
102
{ACAD_REACTORS
330
C
102
}
330
C
100
AcDbDictionary
281
     1
  0
XRECORD
  5
187
102
{ACAD_REACTORS
330
C
102
}
330
C
100
AcDbXrecord
280
     1
  1
DWGPROPS COOKIE
  2

  3

  4

  6

  7

  8
12014102
  9

300
=
301
=
302
=
303
=
304
=
305
=
306
=
307
=
308
=
309
=
 40
0.0
 41
2458263.428980903
 42
2459576.943951262
  1

 90
        0
  0
LAYOUT
  5
1E
102
{ACAD_REACTORS
330
1A
102
}
330
1A
100
AcDbPlotSettings
  1

  2
none_device
  4

  6

 40
0.0
 41
0.0
 42
0.0
 43
0.0
 44
0.0
 45
0.0
 46
0.0
 47
0.0
 48
0.0
 49
0.0
140
0.0
141
0.0
142
1.0
143
1.0
 70
   688
 72
     1
 73
     0
 74
     5
  7

 75
    16
147
1.0
148
0.0
149
0.0
100
AcDbLayout
  1
Layout1
 70
     1
 71
     1
 10
0.0
 20
0.0
 11
420.0
 21
297.0
 12
0.0
 22
0.0
 32
0.0
 14
1.000000000000000E+20
 24
1.000000000000000E+20
 34
1.000000000000000E+20
 15
-1.000000000000000E+20
 25
-1.000000000000000E+20
 35
-1.000000000000000E+20
146
0.0
 13
0.0
 23
0.0
 33
0.0
 16
1.0
 26
0.0
 36
0.0
 17
0.0
 27
1.0
 37
0.0
 76
     0
330
1B
  0
LAYOUT
  5
26
102
{ACAD_REACTORS
330
1A
102
}
330
1A
100
AcDbPlotSettings
  1

  2
none_device
  4

  6

 40
0.0
 41
0.0
 42
0.0
 43
0.0
 44
0.0
 45
0.0
 46
0.0
 47
0.0
 48
0.0
 49
0.0
140
0.0
141
0.0
142
1.0
143
1.0
 70
   688
 72
     1
 73
     0
 74
     5
  7

 75
    16
147
1.0
148
0.0
149
0.0
100
AcDbLayout
  1
Layout2
 70
     1
 71
     2
 10
0.0
 20
0.0
 11
0.0
 21
0.0
 12
0.0
 22
0.0
 32
0.0
 14
0.0
 24
0.0
 34
0.0
 15
0.0
 25
0.0
 35
0.0
146
0.0
 13
0.0
 23
0.0
 33
0.0
 16
1.0
 26
0.0
 36
0.0
 17
0.0
 27
1.0
 37
0.0
 76
     0
330
23
  0
LAYOUT
  5
22
102
{ACAD_REACTORS
330
1A
102
}
330
1A
100
AcDbPlotSettings
  1

  2
none_device
  4
ANSI_A_(11.00_x_8.50_Inches)
  6

 40
6.35
 41
19.05
 42
6.35000508
 43
19.05000254
 44
279.4
 45
215.9
 46
139.948469662006
 47
92.09416292730238
 48
0.0
 49
0.0
140
0.0
141
0.0
142
0.0854437598946596
143
1.0
 70
  1696
 72
     0
 73
     0
 74
     0
  7

 75
     0
147
0.0235690232323232
148
0.0
149
0.0
100
AcDbLayout
  1
Model
 70
     1
 71
     0
 10
0.0
 20
0.0
 11
420.0
 21
297.0
 12
0.0
 22
0.0
 32
0.0
 14
-75.59155421104442
 24
-49.97180738881174
 34
0.0
 15
41.56527324144051
 25
47.63332450504429
 35
0.0
146
0.0
 13
0.0
 23
0.0
 33
0.0
 16
1.0
 26
0.0
 36
0.0
 17
0.0
 27
1.0
 37
0.0
 76
     0
330
1F
331
29
  0
MLINESTYLE
  5
18
102
{ACAD_REACTORS
330
17
102
}
330
17
100
AcDbMlineStyle
  2
Standard
 70
     0
  3

 62
   256
 51
90.0
 52
90.0
 71
     2
 49
0.5
 62
   256
  6
BYLAYER
 49
-0.5
 62
   256
  6
BYLAYER
  0
ACDBPLACEHOLDER
  5
F
102
{ACAD_REACTORS
330
E
102
}
330
E
  0
SCALE
  5
48
102
{ACAD_REACTORS
330
47
102
}
330
47
100
AcDbScale
 70
     0
300
1:1
140
1.0
141
1.0
290
     1
  0
SCALE
  5
49
102
{ACAD_REACTORS
330
47
102
}
330
47
100
AcDbScale
 70
     0
300
1:2
140
1.0
141
2.0
290
     0
  0
SCALE
  5
4A
102
{ACAD_REACTORS
330
47
102
}
330
47
100
AcDbScale
 70
     0
300
1:4
140
1.0
141
4.0
290
     0
  0
SCALE
  5
4B
102
{ACAD_REACTORS
330
47
102
}
330
47
100
AcDbScale
 70
     0
300
1:5
140
1.0
141
5.0
290
     0
  0
SCALE
  5
4C
102
{ACAD_REACTORS
330
47
102
}
330
47
100
AcDbScale
 70
     0
300
1:8
140
1.0
141
8.0
290
     0
  0
SCALE
  5
4D
102
{ACAD_REACTORS
330
47
102
}
330
47
100
AcDbScale
 70
     0
300
1:10
140
1.0
141
10.0
290
     0
  0
SCALE
  5
4E
102
{ACAD_REACTORS
330
47
102
}
330
47
100
AcDbScale
 70
     0
300
1:16
140
1.0
141
16.0
290
     0
  0
SCALE
  5
4F
102
{ACAD_REACTORS
330
47
102
}
330
47
100
AcDbScale
 70
     0
300
1:20
140
1.0
141
20.0
290
     0
  0
SCALE
  5
50
102
{ACAD_REACTORS
330
47
102
}
330
47
100
AcDbScale
 70
     0
300
1:30
140
1.0
141
30.0
290
     0
  0
SCALE
  5
51
102
{ACAD_REACTORS
330
47
102
}
330
47
100
AcDbScale
 70
     0
300
1:40
140
1.0
141
40.0
290
     0
  0
SCALE
  5
52
102
{ACAD_REACTORS
330
47
102
}
330
47
100
AcDbScale
 70
     0
300
1:50
140
1.0
141
50.0
290
     0
  0
SCALE
  5
53
102
{ACAD_REACTORS
330
47
102
}
330
47
100
AcDbScale
 70
     0
300
1:100
140
1.0
141
100.0
290
     0
  0
SCALE
  5
54
102
{ACAD_REACTORS
330
47
102
}
330
47
100
AcDbScale
 70
     0
300
2:1
140
2.0
141
1.0
290
     0
  0
SCALE
  5
55
102
{ACAD_REACTORS
330
47
102
}
330
47
100
AcDbScale
 70
     0
300
4:1
140
4.0
141
1.0
290
     0
  0
SCALE
  5
56
102
{ACAD_REACTORS
330
47
102
}
330
47
100
AcDbScale
 70
     0
300
8:1
140
8.0
141
1.0
290
     0
  0
SCALE
  5
57
102
{ACAD_REACTORS
330
47
102
}
330
47
100
AcDbScale
 70
     0
300
10:1
140
10.0
141
1.0
290
     0
  0
SCALE
  5
58
102
{ACAD_REACTORS
330
47
102
}
330
47
100
AcDbScale
 70
     0
300
100:1
140
100.0
141
1.0
290
     0
  0
SCALE
  5
59
102
{ACAD_REACTORS
330
47
102
}
330
47
100
AcDbScale
 70
     0
300
1/128" = 1'-0"
140
0.0078125
141
12.0
290
     0
  0
SCALE
  5
5A
102
{ACAD_REACTORS
330
47
102
}
330
47
100
AcDbScale
 70
     0
300
1/64" = 1'-0"
140
0.015625
141
12.0
290
     0
  0
SCALE
  5
5B
102
{ACAD_REACTORS
330
47
102
}
330
47
100
AcDbScale
 70
     0
300
1/32" = 1'-0"
140
0.03125
141
12.0
290
     0
  0
SCALE
  5
5C
102
{ACAD_REACTORS
330
47
102
}
330
47
100
AcDbScale
 70
     0
300
1/16" = 1'-0"
140
0.0625
141
12.0
290
     0
  0
SCALE
  5
5D
102
{ACAD_REACTORS
330
47
102
}
330
47
100
AcDbScale
 70
     0
300
3/32" = 1'-0"
140
0.09375
141
12.0
290
     0
  0
SCALE
  5
5E
102
{ACAD_REACTORS
330
47
102
}
330
47
100
AcDbScale
 70
     0
300
1/8" = 1'-0"
140
0.125
141
12.0
290
     0
  0
SCALE
  5
5F
102
{ACAD_REACTORS
330
47
102
}
330
47
100
AcDbScale
 70
     0
300
3/16" = 1'-0"
140
0.1875
141
12.0
290
     0
  0
SCALE
  5
60
102
{ACAD_REACTORS
330
47
102
}
330
47
100
AcDbScale
 70
     0
300
1/4" = 1'-0"
140
0.25
141
12.0
290
     0
  0
SCALE
  5
61
102
{ACAD_REACTORS
330
47
102
}
330
47
100
AcDbScale
 70
     0
300
3/8" = 1'-0"
140
0.375
141
12.0
290
     0
  0
SCALE
  5
62
102
{ACAD_REACTORS
330
47
102
}
330
47
100
AcDbScale
 70
     0
300
1/2" = 1'-0"
140
0.5
141
12.0
290
     0
  0
SCALE
  5
63
102
{ACAD_REACTORS
330
47
102
}
330
47
100
AcDbScale
 70
     0
300
3/4" = 1'-0"
140
0.75
141
12.0
290
     0
  0
SCALE
  5
64
102
{ACAD_REACTORS
330
47
102
}
330
47
100
AcDbScale
 70
     0
300
1" = 1'-0"
140
1.0
141
12.0
290
     0
  0
SCALE
  5
65
102
{ACAD_REACTORS
330
47
102
}
330
47
100
AcDbScale
 70
     0
300
1-1/2" = 1'-0"
140
1.5
141
12.0
290
     0
  0
SCALE
  5
66
102
{ACAD_REACTORS
330
47
102
}
330
47
100
AcDbScale
 70
     0
300
3" = 1'-0"
140
3.0
141
12.0
290
     0
  0
SCALE
  5
67
102
{ACAD_REACTORS
330
47
102
}
330
47
100
AcDbScale
 70
     0
300
6" = 1'-0"
140
6.0
141
12.0
290
     0
  0
SCALE
  5
68
102
{ACAD_REACTORS
330
47
102
}
330
47
100
AcDbScale
 70
     0
300
1'-0" = 1'-0"
140
12.0
141
12.0
290
     0
  0
ENDSEC
  0
EOF
