  0
SECTION
  2
HEADER
  9
$ACADVER
  1
AC1015
  9
$ACADMAINTVER
 70
     6
  9
$DWGCODEPAGE
  3
ANSI_949
  9
$INSBASE
 10
0.0
 20
0.0
 30
0.0
  9
$EXTMIN
 10
1.000000000000000E+20
 20
1.000000000000000E+20
 30
1.000000000000000E+20
  9
$EXTMAX
 10
-1.000000000000000E+20
 20
-1.000000000000000E+20
 30
-1.000000000000000E+20
  9
$LIMMIN
 10
0.0
 20
0.0
  9
$LIMMAX
 10
420.0
 20
297.0
  9
$ORTHOMODE
 70
     1
  9
$REGENMODE
 70
     1
  9
$FILLMODE
 70
     1
  9
$QTEXTMODE
 70
     0
  9
$MIRRTEXT
 70
     1
  9
$LTSCALE
 40
1.0
  9
$ATTMODE
 70
     1
  9
$TEXTSIZE
 40
3.5
  9
$TRACEWID
 40
1.0
  9
$TEXTSTYLE
  7
Standard
  9
$CLAYER
  8
0
  9
$CELTYPE
  6
ByLayer
  9
$CECOLOR
 62
   256
  9
$CELTSCALE
 40
1.0
  9
$DISPSILH
 70
     0
  9
$DIMSCALE
 40
1.0
  9
$DIMASZ
 40
3.302
  9
$DIMEXO
 40
1.0
  9
$DIMDLI
 40
3.75
  9
$DIMRND
 40
0.0
  9
$DIMDLE
 40
0.0
  9
$DIMEXE
 40
1.0
  9
$DIMTP
 40
0.0
  9
$DIMTM
 40
0.0
  9
$DIMTXT
 40
3.5
  9
$DIMCEN
 40
2.5
  9
$DIMTSZ
 40
0.0
  9
$DIMTOL
 70
     0
  9
$DIMLIM
 70
     0
  9
$DIMTIH
 70
     1
  9
$DIMTOH
 70
     1
  9
$DIMSE1
 70
     0
  9
$DIMSE2
 70
     0
  9
$DIMTAD
 70
     1
  9
$DIMZIN
 70
     0
  9
$DIMBLK
  1

  9
$DIMASO
 70
     1
  9
$DIMSHO
 70
     1
  9
$DIMPOST
  1

  9
$DIMAPOST
  1

  9
$DIMALT
 70
     0
  9
$DIMALTD
 70
     3
  9
$DIMALTF
 40
0.0393700787401575
  9
$DIMLFAC
 40
1.0
  9
$DIMTOFL
 70
     1
  9
$DIMTVP
 40
0.0
  9
$DIMTIX
 70
     0
  9
$DIMSOXD
 70
     0
  9
$DIMSAH
 70
     0
  9
$DIMBLK1
  1

  9
$DIMBLK2
  1

  9
$DIMSTYLE
  2
ISO-25
  9
$DIMCLRD
 70
     0
  9
$DIMCLRE
 70
     0
  9
$DIMCLRT
 70
     0
  9
$DIMTFAC
 40
1.0
  9
$DIMGAP
 40
1.524
  9
$DIMJUST
 70
     0
  9
$DIMSD1
 70
     0
  9
$DIMSD2
 70
     0
  9
$DIMTOLJ
 70
     0
  9
$DIMTZIN
 70
     0
  9
$DIMALTZ
 70
     0
  9
$DIMALTTZ
 70
     0
  9
$DIMUPT
 70
     0
  9
$DIMDEC
 70
     2
  9
$DIMTDEC
 70
     2
  9
$DIMALTU
 70
     2
  9
$DIMALTTD
 70
     3
  9
$DIMTXSTY
  7
Standard
  9
$DIMAUNIT
 70
     0
  9
$DIMADEC
 70
     2
  9
$DIMALTRND
 40
0.0
  9
$DIMAZIN
 70
     0
  9
$DIMDSEP
 70
    44
  9
$DIMATFIT
 70
     3
  9
$DIMFRAC
 70
     0
  9
$DIMLDRBLK
  1

  9
$DIMLUNIT
 70
     2
  9
$DIMLWD
 70
    -2
  9
$DIMLWE
 70
    -2
  9
$DIMTMOVE
 70
     0
  9
$LUNITS
 70
     2
  9
$LUPREC
 70
     2
  9
$SKETCHINC
 40
1.0
  9
$FILLETRAD
 40
10.0
  9
$AUNITS
 70
     0
  9
$AUPREC
 70
     2
  9
$MENU
  1
.
  9
$ELEVATION
 40
0.0
  9
$PELEVATION
 40
0.0
  9
$THICKNESS
 40
0.0
  9
$LIMCHECK
 70
     0
  9
$CHAMFERA
 40
0.0
  9
$CHAMFERB
 40
0.0
  9
$CHAMFERC
 40
0.0
  9
$CHAMFERD
 40
0.0
  9
$SKPOLY
 70
     0
  9
$TDCREATE
 40
2458263.802657801
  9
$TDUCREATE
 40
2458263.427657801
  9
$TDUPDATE
 40
2458264.784722407
  9
$TDUUPDATE
 40
2458264.409722407
  9
$TDINDWG
 40
0.0006711343
  9
$TDUSRTIMER
 40
2458264.409051412
  9
$USRTIMER
 70
     1
  9
$ANGBASE
 50
0.0
  9
$ANGDIR
 70
     0
  9
$PDMODE
 70
     0
  9
$PDSIZE
 40
-1.0
  9
$PLINEWID
 40
0.0
  9
$SPLFRAME
 70
     0
  9
$SPLINETYPE
 70
     6
  9
$SPLINESEGS
 70
     8
  9
$HANDSEED
  5
2C5
  9
$SURFTAB1
 70
     6
  9
$SURFTAB2
 70
     6
  9
$SURFTYPE
 70
     6
  9
$SURFU
 70
     6
  9
$SURFV
 70
     6
  9
$UCSBASE
  2

  9
$UCSNAME
  2

  9
$UCSORG
 10
0.0
 20
0.0
 30
0.0
  9
$UCSXDIR
 10
1.0
 20
0.0
 30
0.0
  9
$UCSYDIR
 10
0.0
 20
1.0
 30
0.0
  9
$UCSORTHOREF
  2

  9
$UCSORTHOVIEW
 70
     0
  9
$UCSORGTOP
 10
0.0
 20
0.0
 30
0.0
  9
$UCSORGBOTTOM
 10
0.0
 20
0.0
 30
0.0
  9
$UCSORGLEFT
 10
0.0
 20
0.0
 30
0.0
  9
$UCSORGRIGHT
 10
0.0
 20
0.0
 30
0.0
  9
$UCSORGFRONT
 10
0.0
 20
0.0
 30
0.0
  9
$UCSORGBACK
 10
0.0
 20
0.0
 30
0.0
  9
$PUCSBASE
  2

  9
$PUCSNAME
  2

  9
$PUCSORG
 10
0.0
 20
0.0
 30
0.0
  9
$PUCSXDIR
 10
1.0
 20
0.0
 30
0.0
  9
$PUCSYDIR
 10
0.0
 20
1.0
 30
0.0
  9
$PUCSORTHOREF
  2

  9
$PUCSORTHOVIEW
 70
     0
  9
$PUCSORGTOP
 10
0.0
 20
0.0
 30
0.0
  9
$PUCSORGBOTTOM
 10
0.0
 20
0.0
 30
0.0
  9
$PUCSORGLEFT
 10
0.0
 20
0.0
 30
0.0
  9
$PUCSORGRIGHT
 10
0.0
 20
0.0
 30
0.0
  9
$PUCSORGFRONT
 10
0.0
 20
0.0
 30
0.0
  9
$PUCSORGBACK
 10
0.0
 20
0.0
 30
0.0
  9
$USERI1
 70
     0
  9
$USERI2
 70
     0
  9
$USERI3
 70
     0
  9
$USERI4
 70
     0
  9
$USERI5
 70
     0
  9
$USERR1
 40
0.0
  9
$USERR2
 40
0.0
  9
$USERR3
 40
0.0
  9
$USERR4
 40
0.0
  9
$USERR5
 40
0.0
  9
$WORLDVIEW
 70
     1
  9
$SHADEDGE
 70
     3
  9
$SHADEDIF
 70
    70
  9
$TILEMODE
 70
     1
  9
$MAXACTVP
 70
    64
  9
$PINSBASE
 10
0.0
 20
0.0
 30
0.0
  9
$PLIMCHECK
 70
     0
  9
$PEXTMIN
 10
1.000000000000000E+20
 20
1.000000000000000E+20
 30
1.000000000000000E+20
  9
$PEXTMAX
 10
-1.000000000000000E+20
 20
-1.000000000000000E+20
 30
-1.000000000000000E+20
  9
$PLIMMIN
 10
0.0
 20
0.0
  9
$PLIMMAX
 10
0.0
 20
0.0
  9
$UNITMODE
 70
     0
  9
$VISRETAIN
 70
     1
  9
$PLINEGEN
 70
     0
  9
$PSLTSCALE
 70
     1
  9
$TREEDEPTH
 70
  3020
  9
$CMLSTYLE
  2
Standard
  9
$CMLJUST
 70
     0
  9
$CMLSCALE
 40
20.0
  9
$PROXYGRAPHICS
 70
     1
  9
$MEASUREMENT
 70
     1
  9
$CELWEIGHT
370
    -1
  9
$ENDCAPS
280
     0
  9
$JOINSTYLE
280
     0
  9
$LWDISPLAY
290
     1
  9
$INSUNITS
 70
     4
  9
$HYPERLINKBASE
  1

  9
$STYLESHEET
  1

  9
$XEDIT
290
     1
  9
$CEPSNTYPE
380
     0
  9
$PSTYLEMODE
290
     1
  9
$FINGERPRINTGUID
  2
{C32E9729-A39A-42F6-AB94-D9359E0D37CA}
  9
$VERSIONGUID
  2
{FAEB1C32-E019-11D5-929B-00C0DF256EC4}
  9
$EXTNAMES
290
     1
  9
$PSVPSCALE
 40
0.0
  9
$OLESTARTUP
290
     0
  0
ENDSEC
  0
SECTION
  2
CLASSES
  0
CLASS
  1
ACDBDICTIONARYWDFLT
  2
AcDbDictionaryWithDefault
  3
ObjectDBX Classes
 90
        0
280
     0
281
     0
  0
CLASS
  1
VISUALSTYLE
  2
AcDbVisualStyle
  3
ObjectDBX Classes
 90
     4095
280
     0
281
     0
  0
CLASS
  1
MATERIAL
  2
AcDbMaterial
  3
ObjectDBX Classes
 90
     1153
280
     0
281
     0
  0
CLASS
  1
SCALE
  2
AcDbScale
  3
ObjectDBX Classes
 90
     1153
280
     0
281
     0
  0
CLASS
  1
TABLESTYLE
  2
AcDbTableStyle
  3
ObjectDBX Classes
 90
     4095
280
     0
281
     0
  0
CLASS
  1
MLEADERSTYLE
  2
AcDbMLeaderStyle
  3
ACDB_MLEADERSTYLE_CLASS
 90
     4095
280
     0
281
     0
  0
CLASS
  1
SUN
  2
AcDbSun
  3
SCENEOE
 90
     1153
280
     0
281
     0
  0
CLASS
  1
ACDBPLACEHOLDER
  2
AcDbPlaceHolder
  3
ObjectDBX Classes
 90
        0
280
     0
281
     0
  0
CLASS
  1
LAYOUT
  2
AcDbLayout
  3
ObjectDBX Classes
 90
        0
280
     0
281
     0
  0
CLASS
  1
RASTERVARIABLES
  2
AcDbRasterVariables
  3
ISM
 90
        0
280
     0
281
     0
  0
CLASS
  1
DIMASSOC
  2
AcDbDimAssoc
  3
"AcDbDimAssoc|Product Desc:     AcDim ARX App For Dimension|Company:          Autodesk, Inc.|WEB Address:      www.autodesk.com"
 90
        0
280
     0
281
     0
  0
ENDSEC
  0
SECTION
  2
TABLES
  0
TABLE
  2
VPORT
  5
8
330
0
100
AcDbSymbolTable
 70
     1
  0
VPORT
  5
29
330
8
100
AcDbSymbolTableRecord
100
AcDbViewportTableRecord
  2
*Active
 70
     0
 10
0.0
 20
0.0
 11
1.0
 21
1.0
 12
44.55801836450063
 22
-13.06219268476464
 13
0.0
 23
0.0
 14
10.0
 24
10.0
 15
10.0
 25
10.0
 16
0.0
 26
0.0
 36
1.0
 17
0.0
 27
0.0
 37
0.0
 40
33.20865677756038
 41
2.538461538461538
 42
50.0
 43
0.0
 44
0.0
 50
0.0
 51
0.0
 71
    16
 72
  2000
 73
     1
 74
     3
 75
     0
 76
     0
 77
     0
 78
     0
281
     0
 65
     1
110
0.0
120
0.0
130
0.0
111
1.0
121
0.0
131
0.0
112
0.0
122
1.0
132
0.0
 79
     0
146
0.0
  0
ENDTAB
  0
TABLE
  2
LTYPE
  5
5
330
0
100
AcDbSymbolTable
 70
     6
  0
LTYPE
  5
14
330
5
100
AcDbSymbolTableRecord
100
AcDbLinetypeTableRecord
  2
ByBlock
 70
     0
  3

 72
    65
 73
     0
 40
0.0
  0
LTYPE
  5
15
330
5
100
AcDbSymbolTableRecord
100
AcDbLinetypeTableRecord
  2
ByLayer
 70
     0
  3

 72
    65
 73
     0
 40
0.0
  0
LTYPE
  5
16
330
5
100
AcDbSymbolTableRecord
100
AcDbLinetypeTableRecord
  2
Continuous
 70
     0
  3
Solid line
 72
    65
 73
     0
 40
0.0
  0
LTYPE
  5
6E
330
5
100
AcDbSymbolTableRecord
100
AcDbLinetypeTableRecord
  2
HIDDEN
 70
     0
  3
Hidden __ __ __ __ __ __ __ __ __ __ __ __ __ __
 72
    65
 73
     2
 40
1.905
 49
1.27
 74
     0
 49
-0.635
 74
     0
  0
LTYPE
  5
6F
330
5
100
AcDbSymbolTableRecord
100
AcDbLinetypeTableRecord
  2
PHANTOM
 70
     0
  3
Phantom ______  __  __  ______  __  __  ______
 72
    65
 73
     6
 40
12.7
 49
6.35
 74
     0
 49
-1.27
 74
     0
 49
1.27
 74
     0
 49
-1.27
 74
     0
 49
1.27
 74
     0
 49
-1.27
 74
     0
  0
LTYPE
  5
70
330
5
100
AcDbSymbolTableRecord
100
AcDbLinetypeTableRecord
  2
CENTER
 70
     0
  3
Center ____ _ ____ _ ____ _ ____ _ ____ _ ____
 72
    65
 73
     4
 40
10.16
 49
6.35
 74
     0
 49
-1.27
 74
     0
 49
1.27
 74
     0
 49
-1.27
 74
     0
  0
LTYPE
  5
71
330
5
100
AcDbSymbolTableRecord
100
AcDbLinetypeTableRecord
  2
CENTERX2
 70
     0
  3
Center (2x) ________  __  ________  __  _____
 72
    65
 73
     4
 40
20.32
 49
12.7
 74
     0
 49
-2.54
 74
     0
 49
2.54
 74
     0
 49
-2.54
 74
     0
  0
LTYPE
  5
72
330
5
100
AcDbSymbolTableRecord
100
AcDbLinetypeTableRecord
  2
DOT2
 70
     0
  3
Dot (.5x) ........................................
 72
    65
 73
     2
 40
0.635
 49
0.0
 74
     0
 49
-0.635
 74
     0
  0
ENDTAB
  0
TABLE
  2
LAYER
  5
2
330
0
100
AcDbSymbolTable
 70
    17
  0
LAYER
  5
10
330
2
100
AcDbSymbolTableRecord
100
AcDbLayerTableRecord
  2
0
 70
     0
 62
     7
  6
Continuous
370
    -3
390
F
  0
LAYER
  5
73
330
2
100
AcDbSymbolTableRecord
100
AcDbLayerTableRecord
  2
FORMAT
 70
     0
 62
     2
  6
Continuous
370
    -3
390
F
  0
LAYER
  5
74
330
2
100
AcDbSymbolTableRecord
100
AcDbLayerTableRecord
  2
외형선
 70
     0
 62
   100
  6
Continuous
370
    35
390
F
  0
LAYER
  5
75
330
2
100
AcDbSymbolTableRecord
100
AcDbLayerTableRecord
  2
숨은선
 70
     0
 62
     2
  6
HIDDEN
370
    25
390
F
  0
LAYER
  5
76
330
2
100
AcDbSymbolTableRecord
100
AcDbLayerTableRecord
  2
중심선
 70
     0
 62
     1
  6
CENTERX2
370
    -3
390
F
  0
LAYER
  5
77
330
2
100
AcDbSymbolTableRecord
100
AcDbLayerTableRecord
  2
파단선
 70
     0
 62
     4
  6
Continuous
370
    -3
390
F
  0
LAYER
  5
78
330
2
100
AcDbSymbolTableRecord
100
AcDbLayerTableRecord
  2
해칭선
 70
     0
 62
     4
  6
Continuous
370
    -3
390
F
  0
LAYER
  5
79
330
2
100
AcDbSymbolTableRecord
100
AcDbLayerTableRecord
  2
가는실선
 70
     0
 62
     4
  6
Continuous
370
    -3
390
F
  0
LAYER
  5
7A
330
2
100
AcDbSymbolTableRecord
100
AcDbLayerTableRecord
  2
치수_보조선
 70
     0
 62
     4
  6
Continuous
370
    -3
390
F
  0
LAYER
  5
7B
330
2
100
AcDbSymbolTableRecord
100
AcDbLayerTableRecord
  2
치수문자_일반주서
 70
     0
 62
     7
  6
Continuous
370
    25
390
F
  0
LAYER
  5
7C
330
2
100
AcDbSymbolTableRecord
100
AcDbLayerTableRecord
  2
개별주서
 70
     0
 62
   100
  6
Continuous
370
    35
390
F
  0
LAYER
  5
7D
330
2
100
AcDbSymbolTableRecord
100
AcDbLayerTableRecord
  2
중간선
 70
     0
 62
     2
  6
Continuous
370
    25
390
F
  0
LAYER
  5
7E
330
2
100
AcDbSymbolTableRecord
100
AcDbLayerTableRecord
  2
윤곽선
 70
     0
 62
     3
  6
Continuous
370
    50
390
F
  0
LAYER
  5
7F
330
2
100
AcDbSymbolTableRecord
100
AcDbLayerTableRecord
  2
중심마크
 70
     0
 62
   100
  6
Continuous
370
    35
390
F
  0
LAYER
  5
80
330
2
100
AcDbSymbolTableRecord
100
AcDbLayerTableRecord
  2
가상선
 70
     0
 62
     4
  6
PHANTOM
370
    -3
390
F
  0
LAYER
  5
81
330
2
100
AcDbSymbolTableRecord
100
AcDbLayerTableRecord
  2
특수지정선
 70
     0
 62
     5
  6
CENTERX2
370
    70
390
F
  0
LAYER
  5
13C
330
2
100
AcDbSymbolTableRecord
100
AcDbLayerTableRecord
  2
Defpoints
 70
     0
 62
     7
  6
Continuous
290
     0
370
    -3
390
F
  0
ENDTAB
  0
TABLE
  2
STYLE
  5
3
330
0
100
AcDbSymbolTable
 70
     2
  0
STYLE
  5
11
330
3
100
AcDbSymbolTableRecord
100
AcDbTextStyleTableRecord
  2
Standard
 70
     0
 40
0.0
 41
1.0
 50
0.0
 71
     0
 42
3.5
  3
txt
  4

  0
STYLE
  5
97
330
3
100
AcDbSymbolTableRecord
100
AcDbTextStyleTableRecord
  2
SLDTEXTSTYLE0
 70
     0
 40
0.0
 41
0.75
 50
0.0
 71
     0
 42
3.5
  3
TXT
  4

  0
ENDTAB
  0
TABLE
  2
VIEW
  5
6
330
0
100
AcDbSymbolTable
 70
     0
  0
ENDTAB
  0
TABLE
  2
UCS
  5
7
330
0
100
AcDbSymbolTable
 70
     0
  0
ENDTAB
  0
TABLE
  2
APPID
  5
9
330
0
100
AcDbSymbolTable
 70
     4
  0
APPID
  5
12
330
9
100
AcDbSymbolTableRecord
100
AcDbRegAppTableRecord
  2
ACAD
 70
     0
  0
APPID
  5
147
330
9
100
AcDbSymbolTableRecord
100
AcDbRegAppTableRecord
  2
ACAD_DSTYLE_DIMRADIAL_EXTENSION
 70
     0
  0
APPID
  5
2C3
330
9
100
AcDbSymbolTableRecord
100
AcDbRegAppTableRecord
  2
ACAD_DSTYLE_DIMFLIPARROW_SYMBOL
 70
     0
  0
APPID
  5
2C4
330
9
100
AcDbSymbolTableRecord
100
AcDbRegAppTableRecord
  2
ACAD_DSTYLE_DIMFLIPARROW_WHICH_SYMBOL
 70
     0
  0
ENDTAB
  0
TABLE
  2
DIMSTYLE
  5
A
330
0
100
AcDbSymbolTable
 70
     3
100
AcDbDimStyleTable
  0
DIMSTYLE
105
27
330
A
100
AcDbSymbolTableRecord
100
AcDbDimStyleTableRecord
  2
ISO-25
 70
     0
 41
2.5
 42
0.625
 43
3.75
 44
1.25
 73
     0
 74
     0
 77
     1
 78
     8
140
2.5
141
2.5
143
0.03937007874016
147
0.625
171
     3
172
     1
178
     0
271
     2
272
     2
274
     3
278
    44
283
     0
284
     8
340
11
  0
DIMSTYLE
105
D4
102
{ACAD_REACTORS
330
197
330
1BD
330
1CA
330
1E2
330
25F
330
262
330
263
330
2B5
102
}
330
A
100
AcDbSymbolTableRecord
100
AcDbDimStyleTableRecord
  2
SLDDIMSTYLE0
 70
     0
 41
3.302
 44
0.0
 45
0.000000001
 73
     0
 74
     0
 77
     1
 78
    12
 79
     3
140
3.5
147
0.875
172
     1
173
     1
178
     0
271
     2
272
     2
276
     2
284
    12
289
     0
340
97
  0
DIMSTYLE
105
E2
102
{ACAD_REACTORS
330
1A4
330
1B0
330
260
330
261
102
}
330
A
100
AcDbSymbolTableRecord
100
AcDbDimStyleTableRecord
  2
SLDDIMSTYLE1
 70
     0
 41
3.302
 44
0.0
 45
0.000000001
 73
     0
 74
     0
 77
     1
 78
    12
 79
     3
140
3.5
147
0.875
173
     1
178
     0
271
     2
272
     2
276
     2
284
    12
340
97
  0
ENDTAB
  0
TABLE
  2
BLOCK_RECORD
  5
1
330
0
100
AcDbSymbolTable
 70
    22
  0
BLOCK_RECORD
  5
1F
330
1
100
AcDbSymbolTableRecord
100
AcDbBlockTableRecord
  2
*Model_Space
340
22
  0
BLOCK_RECORD
  5
1B
330
1
100
AcDbSymbolTableRecord
100
AcDbBlockTableRecord
  2
*Paper_Space
340
1E
  0
BLOCK_RECORD
  5
23
330
1
100
AcDbSymbolTableRecord
100
AcDbBlockTableRecord
  2
*Paper_Space0
340
26
  0
BLOCK_RECORD
  5
82
330
1
100
AcDbSymbolTableRecord
100
AcDbBlockTableRecord
  2
블럭10
340
0
102
{BLKREFS
331
CC
102
}
  0
BLOCK_RECORD
  5
D5
330
1
100
AcDbSymbolTableRecord
100
AcDbBlockTableRecord
  2
_D
340
0
  0
BLOCK_RECORD
  5
E3
330
1
100
AcDbSymbolTableRecord
100
AcDbBlockTableRecord
  2
_D_1
340
0
  0
BLOCK_RECORD
  5
EE
330
1
100
AcDbSymbolTableRecord
100
AcDbBlockTableRecord
  2
_D_2
340
0
  0
BLOCK_RECORD
  5
F8
330
1
100
AcDbSymbolTableRecord
100
AcDbBlockTableRecord
  2
_D_3
340
0
  0
BLOCK_RECORD
  5
104
330
1
100
AcDbSymbolTableRecord
100
AcDbBlockTableRecord
  2
_D_4
340
0
  0
BLOCK_RECORD
  5
110
330
1
100
AcDbSymbolTableRecord
100
AcDbBlockTableRecord
  2
SW_DOWELSYMBOL_0
340
0
102
{BLKREFS
331
0
331
1D9
331
264
102
}
  0
BLOCK_RECORD
  5
1E5
330
1
100
AcDbSymbolTableRecord
100
AcDbBlockTableRecord
  2
*D9
340
0
  0
BLOCK_RECORD
  5
1F0
330
1
100
AcDbSymbolTableRecord
100
AcDbBlockTableRecord
  2
*D10
340
0
  0
BLOCK_RECORD
  5
1FC
330
1
100
AcDbSymbolTableRecord
100
AcDbBlockTableRecord
  2
*D11
340
0
  0
BLOCK_RECORD
  5
207
330
1
100
AcDbSymbolTableRecord
100
AcDbBlockTableRecord
  2
*D12
340
0
  0
BLOCK_RECORD
  5
213
330
1
100
AcDbSymbolTableRecord
100
AcDbBlockTableRecord
  2
*D13
340
0
  0
BLOCK_RECORD
  5
21F
330
1
100
AcDbSymbolTableRecord
100
AcDbBlockTableRecord
  2
*D14
340
0
  0
BLOCK_RECORD
  5
26A
330
1
100
AcDbSymbolTableRecord
100
AcDbBlockTableRecord
  2
*D15
340
0
  0
BLOCK_RECORD
  5
276
330
1
100
AcDbSymbolTableRecord
100
AcDbBlockTableRecord
  2
*D16
340
0
  0
BLOCK_RECORD
  5
281
330
1
100
AcDbSymbolTableRecord
100
AcDbBlockTableRecord
  2
*D17
340
0
  0
BLOCK_RECORD
  5
28D
330
1
100
AcDbSymbolTableRecord
100
AcDbBlockTableRecord
  2
*D18
340
0
  0
BLOCK_RECORD
  5
299
330
1
100
AcDbSymbolTableRecord
100
AcDbBlockTableRecord
  2
*D19
340
0
  0
BLOCK_RECORD
  5
2A7
330
1
100
AcDbSymbolTableRecord
100
AcDbBlockTableRecord
  2
*D20
340
0
  0
BLOCK_RECORD
  5
2B8
330
1
100
AcDbSymbolTableRecord
100
AcDbBlockTableRecord
  2
*D21
340
0
  0
ENDTAB
  0
ENDSEC
  0
SECTION
  2
BLOCKS
  0
BLOCK
  5
20
330
1F
100
AcDbEntity
  8
0
100
AcDbBlockBegin
  2
*Model_Space
 70
     0
 10
0.0
 20
0.0
 30
0.0
  3
*Model_Space
  1
*Model_Space
  0
ENDBLK
  5
21
330
1F
100
AcDbEntity
  8
0
100
AcDbBlockEnd
  0
BLOCK
  5
1C
330
1B
100
AcDbEntity
 67
     1
  8
0
100
AcDbBlockBegin
  2
*Paper_Space
 70
     0
 10
0.0
 20
0.0
 30
0.0
  3
*Paper_Space
  1
*Paper_Space
  0
ENDBLK
  5
1D
330
1B
100
AcDbEntity
 67
     1
  8
0
100
AcDbBlockEnd
  0
BLOCK
  5
24
330
23
100
AcDbEntity
  8
0
100
AcDbBlockBegin
  2
*Paper_Space0
 70
     0
 10
0.0
 20
0.0
 30
0.0
  3
*Paper_Space0
  1
*Paper_Space0
  0
ENDBLK
  5
25
330
23
100
AcDbEntity
  8
0
100
AcDbBlockEnd
  0
BLOCK
  5
83
330
82
100
AcDbEntity
  8
0
100
AcDbBlockBegin
  2
블럭10
 70
     2
 10
0.0
 20
0.0
 30
0.0
  3
블럭10
  1
블럭10
  0
ELLIPSE
  5
85
330
82
100
AcDbEntity
  8
중심선
100
AcDbEllipse
 10
20.54032771741204
 20
12.0471743016438
 30
0.0
 11
6.600054785286829
 21
-1.261213355974178E-13
 31
0.0
210
0.0
220
0.0
230
1.0
 40
0.636358354079598
 41
0.9219305317359503
 42
6.513795318482858
  0
ELLIPSE
  5
86
330
82
100
AcDbEntity
  8
중심선
100
AcDbEllipse
 10
20.54032771746488
 20
12.04717430159265
 30
0.0
 11
3.960054785062283
 21
1.540847449632565E-10
 31
0.0
210
0.0
220
0.0
230
1.0
 40
0.3939339440162632
 41
1.131841032648279
 42
5.62031148352944
  0
LINE
  5
87
330
82
100
AcDbEntity
  8
중심선
100
AcDbLine
 10
2.268634060543552
 20
16.24717430164393
 30
0.0
 11
5.714909304380834
 21
16.24717430164393
 31
0.0
  0
LINE
  5
88
330
82
100
AcDbEntity
  8
중심선
100
AcDbLine
 10
5.245725140726316
 20
7.84717430164391
 30
0.0
 11
8.692000384563599
 21
7.84717430164391
 31
0.0
  0
LINE
  5
89
330
82
100
AcDbEntity
  8
중심선
100
AcDbLine
 10
15.74043728645272
 20
16.24717430164393
 30
0.0
 11
8.692000384563599
 21
7.84717430164391
 31
0.0
  0
LINE
  5
8A
330
82
100
AcDbEntity
  8
중심선
100
AcDbLine
 10
0.1404042013395286
 20
13.71084872107135
 30
0.0
 11
3.58671253028996
 21
13.71088815037384
 31
0.0
  0
LINE
  5
8B
330
82
100
AcDbEntity
  8
중심선
100
AcDbLine
 10
2.750260043222114
 20
10.84717430164391
 30
0.0
 11
6.196535287059397
 21
10.84717430164391
 31
0.0
  0
LINE
  5
8C
330
82
100
AcDbEntity
  8
중심선
100
AcDbLine
 10
12.29416204261559
 20
16.24717430164393
 30
0.0
 11
5.245725140726316
 21
7.84717430164391
 31
0.0
  0
LINE
  5
8D
330
82
100
AcDbEntity
  8
중심선
100
AcDbLine
 10
10.72767329541681
 20
16.24717430164393
 30
0.0
 11
6.196535287059397
 21
10.84717430164391
 31
0.0
  0
LINE
  5
8E
330
82
100
AcDbEntity
  8
중심선
100
AcDbLine
 10
7.28139805157953
 20
16.24717430164393
 30
0.0
 11
2.750260043222114
 21
10.84717430164391
 31
0.0
  0
LINE
  5
8F
330
82
100
AcDbEntity
  8
중심선
100
AcDbLine
 10
5.714909304380834
 20
16.24717430164393
 30
0.0
 11
3.58671253028996
 21
13.71088815037384
 31
0.0
  0
LINE
  5
90
330
82
100
AcDbEntity
  8
중심선
100
AcDbLine
 10
2.268634060543552
 20
16.24717430164393
 30
0.0
 11
0.1404042013395286
 21
13.71084872107135
 31
0.0
  0
LINE
  5
91
330
82
100
AcDbEntity
  8
중심선
100
AcDbLine
 10
7.28139805157953
 20
16.24717430164393
 30
0.0
 11
10.72767329541681
 21
16.24717430164393
 31
0.0
  0
LINE
  5
92
330
82
100
AcDbEntity
  8
중심선
100
AcDbLine
 10
12.29416204261559
 20
16.24717430164393
 30
0.0
 11
15.74043728645272
 21
16.24717430164393
 31
0.0
  0
LINE
  5
93
330
82
100
AcDbEntity
  8
중심선
100
AcDbLine
 10
19.22036997980202
 20
11.08717430171403
 30
0.0
 11
23.66174974927406
 21
11.08717430171406
 31
0.0
  0
LINE
  5
94
330
82
100
AcDbEntity
  8
중심선
100
AcDbLine
 10
19.22039502424796
 20
13.00717430171391
 30
0.0
 11
19.22036997980202
 21
11.08717430171403
 31
0.0
  0
LINE
  5
95
330
82
100
AcDbEntity
  8
중심선
100
AcDbLine
 10
19.22039502424796
 20
13.00717430171391
 30
0.0
 11
26.96566020931264
 21
13.00717430171391
 31
0.0
  0
LINE
  5
96
330
82
100
AcDbEntity
  8
중심선
100
AcDbLine
 10
22.22332737316547
 20
13.45928029700563
 30
0.0
 11
24.52862924686651
 21
15.39360700705356
 31
0.0
  0
ATTDEF
  5
98
330
82
100
AcDbEntity
  8
FORMAT
 62
     2
100
AcDbText
 10
-16.11926103943555
 20
2.075366912832191
 30
0.0
 40
4.233333333333333
  1
SEME6105003E [ 2 FLUTE ]
 41
0.75
  7
SLDTEXTSTYLE0
 11
-16.11926103943555
 21
-0.0412997538344756
 31
0.0
100
AcDbAttributeDefinition
  3

  2
AUTOATTR0
 70
     0
 74
     1
  0
ENDBLK
  5
84
330
82
100
AcDbEntity
  8
0
100
AcDbBlockEnd
  0
BLOCK
  5
D6
330
D5
100
AcDbEntity
  8
0
100
AcDbBlockBegin
  2
_D
 70
     0
 10
0.0
 20
0.0
 30
0.0
  3
_D
  1
_D
  0
SOLID
  5
D8
330
D5
100
AcDbEntity
  8
치수문자_일반주서
100
AcDbTrace
 10
-46.00250885508846
 20
3.001074928723889
 30
0.0
 11
-45.49450885508845
 21
6.303074928723889
 31
0.0
 12
-46.51050885508846
 22
6.303074928723889
 32
0.0
 13
-46.51050885508846
 23
6.303074928723889
 33
0.0
  0
SOLID
  5
D9
330
D5
100
AcDbEntity
  8
치수문자_일반주서
100
AcDbTrace
 10
-46.00250885508846
 20
-2.998925071276107
 30
0.0
 11
-46.51050885508846
 21
-6.300925071276106
 31
0.0
 12
-45.49450885508845
 22
-6.300925071276106
 32
0.0
 13
-45.49450885508845
 23
-6.300925071276106
 33
0.0
  0
LINE
  5
DA
330
D5
100
AcDbEntity
  8
치수문자_일반주서
100
AcDbLine
 10
-34.50605083347638
 20
3.001074928723889
 30
0.0
 11
-47.00250885508846
 21
3.001074928723889
 31
0.0
  0
LINE
  5
DB
330
D5
100
AcDbEntity
  8
치수문자_일반주서
100
AcDbLine
 10
-34.50605083347638
 20
-2.998925071276107
 30
0.0
 11
-47.00250885508846
 21
-2.998925071276107
 31
0.0
  0
LINE
  5
DC
330
D5
100
AcDbEntity
  8
치수문자_일반주서
100
AcDbLine
 10
-46.00250885508846
 20
3.001074928723889
 30
0.0
 11
-46.00250885508846
 21
9.35107492872389
 31
0.0
  0
LINE
  5
DD
330
D5
100
AcDbEntity
  8
치수문자_일반주서
100
AcDbLine
 10
-46.00250885508846
 20
3.001074928723889
 30
0.0
 11
-46.00250885508846
 21
-2.998925071276107
 31
0.0
  0
LINE
  5
DE
330
D5
100
AcDbEntity
  8
치수문자_일반주서
100
AcDbLine
 10
-46.00250885508846
 20
-2.998925071276107
 30
0.0
 11
-46.00250885508846
 21
-9.348925071276108
 31
0.0
  0
MTEXT
  5
DF
330
D5
100
AcDbEntity
  8
치수문자_일반주서
100
AcDbMText
 10
-50.51424594429032
 20
-3.931199483639951
 30
0.0
 40
3.5
 41
0.0
 71
     1
 72
     1
  1
%%c
  7
SLDTEXTSTYLE0
 11
-7.044195017643634E-15
 21
1.0
 31
0.0
 73
     1
 44
1.0
  0
MTEXT
  5
E0
330
D5
100
AcDbEntity
  8
치수문자_일반주서
100
AcDbMText
 10
-50.56771812095021
 20
1.34723791473413
 30
0.0
 40
3.5
 41
0.0
 71
     1
 72
     1
  1
6
  7
SLDTEXTSTYLE0
 11
-7.044195017643634E-15
 21
1.0
 31
0.0
 73
     1
 44
1.0
  0
ENDBLK
  5
D7
330
D5
100
AcDbEntity
  8
0
100
AcDbBlockEnd
  0
BLOCK
  5
E4
330
E3
100
AcDbEntity
  8
0
100
AcDbBlockBegin
  2
_D_1
 70
     0
 10
0.0
 20
0.0
 30
0.0
  3
_D_1
  1
_D_1
  0
SOLID
  5
E6
330
E3
100
AcDbEntity
  8
치수문자_일반주서
100
AcDbTrace
 10
25.49394916652362
 20
20.70107492872356
 30
0.0
 11
22.19194916652362
 21
21.20907492872356
 31
0.0
 12
22.19194916652362
 22
20.19307492872356
 32
0.0
 13
22.19194916652362
 23
20.19307492872356
 33
0.0
  0
SOLID
  5
E7
330
E3
100
AcDbEntity
  8
치수문자_일반주서
100
AcDbTrace
 10
17.49394916652362
 20
20.70107492872356
 30
0.0
 11
20.79594916652362
 21
20.19307492872356
 31
0.0
 12
20.79594916652362
 22
21.20907492872356
 32
0.0
 13
20.79594916652362
 23
21.20907492872356
 33
0.0
  0
LINE
  5
E8
330
E3
100
AcDbEntity
  8
치수문자_일반주서
100
AcDbLine
 10
25.49394916652362
 20
3.201074928723894
 30
0.0
 11
25.49394916652362
 21
21.70107492872356
 31
0.0
  0
LINE
  5
E9
330
E3
100
AcDbEntity
  8
치수문자_일반주서
100
AcDbLine
 10
17.49394916652362
 20
2.960498470602607
 30
0.0
 11
17.49394916652362
 21
21.70107492872356
 31
0.0
  0
LINE
  5
EA
330
E3
100
AcDbEntity
  8
치수문자_일반주서
100
AcDbLine
 10
25.49394916652362
 20
20.70107492872356
 30
0.0
 11
35.53733935673029
 21
20.70107492872356
 31
0.0
  0
LINE
  5
EB
330
E3
100
AcDbEntity
  8
치수문자_일반주서
100
AcDbLine
 10
25.49394916652362
 20
20.70107492872356
 30
0.0
 11
17.49394916652362
 21
20.70107492872356
 31
0.0
  0
MTEXT
  5
EC
330
E3
100
AcDbEntity
  8
치수문자_일반주서
100
AcDbMText
 10
32.95122816320747
 20
25.21281184330245
 30
0.0
 40
3.5
 41
0.0
 71
     1
 72
     1
  1
8
  7
SLDTEXTSTYLE0
 73
     1
 44
1.0
  0
ENDBLK
  5
E5
330
E3
100
AcDbEntity
  8
0
100
AcDbBlockEnd
  0
BLOCK
  5
EF
330
EE
100
AcDbEntity
  8
0
100
AcDbBlockBegin
  2
_D_2
 70
     0
 10
0.0
 20
0.0
 30
0.0
  3
_D_2
  1
_D_2
  0
SOLID
  5
F1
330
EE
100
AcDbEntity
  8
치수문자_일반주서
100
AcDbTrace
 10
25.49394916652361
 20
42.75939943376818
 30
0.0
 11
22.19194916652361
 21
43.26739943376818
 31
0.0
 12
22.19194916652361
 22
42.25139943376818
 32
0.0
 13
22.19194916652361
 23
42.25139943376818
 33
0.0
  0
SOLID
  5
F2
330
EE
100
AcDbEntity
  8
치수문자_일반주서
100
AcDbTrace
 10
-34.50605083347638
 20
42.75939943376818
 30
0.0
 11
-31.20405083347638
 21
42.25139943376818
 31
0.0
 12
-31.20405083347638
 22
43.26739943376818
 32
0.0
 13
-31.20405083347638
 23
43.26739943376818
 33
0.0
  0
LINE
  5
F3
330
EE
100
AcDbEntity
  8
치수문자_일반주서
100
AcDbLine
 10
25.49394916652362
 20
3.201074928723894
 30
0.0
 11
25.49394916652361
 21
43.75939943376818
 31
0.0
  0
LINE
  5
F4
330
EE
100
AcDbEntity
  8
치수문자_일반주서
100
AcDbLine
 10
-34.50605083347638
 20
3.001074928723888
 30
0.0
 11
-34.50605083347638
 21
43.75939943376818
 31
0.0
  0
LINE
  5
F5
330
EE
100
AcDbEntity
  8
치수문자_일반주서
100
AcDbLine
 10
25.49394916652361
 20
42.75939943376818
 30
0.0
 11
-34.50605083347638
 21
42.75939943376818
 31
0.0
  0
MTEXT
  5
F6
330
EE
100
AcDbEntity
  8
치수문자_일반주서
100
AcDbMText
 10
-7.092162026999205
 20
47.27113634834708
 30
0.0
 40
3.5
 41
0.0
 71
     1
 72
     1
  1
60
  7
SLDTEXTSTYLE0
 73
     1
 44
1.0
  0
ENDBLK
  5
F0
330
EE
100
AcDbEntity
  8
0
100
AcDbBlockEnd
  0
BLOCK
  5
F9
330
F8
100
AcDbEntity
  8
0
100
AcDbBlockBegin
  2
_D_3
 70
     0
 10
0.0
 20
0.0
 30
0.0
  3
_D_3
  1
_D_3
  0
SOLID
  5
FB
330
F8
100
AcDbEntity
  8
치수문자_일반주서
100
AcDbTrace
 10
14.49394916652476
 20
30.32107492872395
 30
0.0
 11
17.79594916652475
 21
29.81307492872382
 31
0.0
 12
17.79594916652478
 22
30.82907492872382
 32
0.0
 13
17.79594916652478
 23
30.82907492872382
 33
0.0
  0
SOLID
  5
FC
330
F8
100
AcDbEntity
  8
치수문자_일반주서
100
AcDbTrace
 10
10.2140453559571
 20
30.32107492872411
 30
0.0
 11
6.912045355957115
 21
30.82907492872424
 31
0.0
 12
6.912045355957076
 22
29.81307492872424
 32
0.0
 13
6.912045355957076
 23
29.81307492872424
 33
0.0
  0
LINE
  5
FD
330
F8
100
AcDbEntity
  8
치수문자_일반주서
100
AcDbLine
 10
14.49394916652365
 20
1.401074928723893
 30
0.0
 11
14.4939491665248
 21
31.32107492872394
 31
0.0
  0
LINE
  5
FE
330
F8
100
AcDbEntity
  8
치수문자_일반주서
100
AcDbLine
 10
10.21404535595599
 20
1.551074928723894
 30
0.0
 11
10.21404535595713
 21
31.32107492872411
 31
0.0
  0
LINE
  5
FF
330
F8
100
AcDbEntity
  8
치수문자_일반주서
100
AcDbLine
 10
14.49394916652476
 20
30.32107492872395
 30
0.0
 11
55.42440269528608
 21
30.32107492872239
 31
0.0
  0
LINE
  5
100
330
F8
100
AcDbEntity
  8
치수문자_일반주서
100
AcDbLine
 10
14.49394916652476
 20
30.32107492872395
 30
0.0
 11
10.2140453559571
 21
30.32107492872411
 31
0.0
  0
LINE
  5
101
330
F8
100
AcDbEntity
  8
치수문자_일반주서
100
AcDbLine
 10
10.2140453559571
 20
30.32107492872411
 30
0.0
 11
3.864045355957095
 21
30.32107492872435
 31
0.0
  0
MTEXT
  5
102
330
F8
100
AcDbEntity
  8
치수문자_일반주서
100
AcDbMText
 10
46.3730136343715
 20
34.83281184330144
 30
0.0
 40
3.5
 41
0.0
 71
     1
 72
     1
  1
4.28
  7
SLDTEXTSTYLE0
 73
     1
 44
1.0
  0
ENDBLK
  5
FA
330
F8
100
AcDbEntity
  8
0
100
AcDbBlockEnd
  0
BLOCK
  5
105
330
104
100
AcDbEntity
  8
0
100
AcDbBlockBegin
  2
_D_4
 70
     0
 10
0.0
 20
0.0
 30
0.0
  3
_D_4
  1
_D_4
  0
SOLID
  5
107
330
104
100
AcDbEntity
  8
치수문자_일반주서
100
AcDbTrace
 10
68.05059833193548
 20
1.501074928723896
 30
0.0
 11
68.55859833193547
 21
4.803074928723896
 31
0.0
 12
67.54259833193548
 22
4.803074928723896
 32
0.0
 13
67.54259833193548
 23
4.803074928723896
 33
0.0
  0
SOLID
  5
108
330
104
100
AcDbEntity
  8
치수문자_일반주서
100
AcDbTrace
 10
68.05059833193548
 20
-1.480510821134722
 30
0.0
 11
67.54259833193548
 21
-4.782510821134721
 31
0.0
 12
68.55859833193547
 22
-4.782510821134721
 32
0.0
 13
68.55859833193547
 23
-4.782510821134721
 33
0.0
  0
LINE
  5
109
330
104
100
AcDbEntity
  8
치수문자_일반주서
100
AcDbLine
 10
51.19394916652362
 20
1.501074928723897
 30
0.0
 11
69.05059833193548
 21
1.501074928723896
 31
0.0
  0
LINE
  5
10A
330
104
100
AcDbEntity
  8
치수문자_일반주서
100
AcDbLine
 10
51.19394916652362
 20
-1.480510821134721
 30
0.0
 11
69.05059833193548
 21
-1.480510821134722
 31
0.0
  0
LINE
  5
10B
330
104
100
AcDbEntity
  8
치수문자_일반주서
100
AcDbLine
 10
68.05059833193548
 20
1.501074928723896
 30
0.0
 11
68.05059833193548
 21
7.851074928723896
 31
0.0
  0
LINE
  5
10C
330
104
100
AcDbEntity
  8
치수문자_일반주서
100
AcDbLine
 10
68.05059833193548
 20
1.501074928723896
 30
0.0
 11
68.05059833193548
 21
-1.480510821134722
 31
0.0
  0
LINE
  5
10D
330
104
100
AcDbEntity
  8
치수문자_일반주서
100
AcDbLine
 10
68.05059833193548
 20
-1.480510821134722
 30
0.0
 11
68.05059833193548
 21
-14.32156976103179
 31
0.0
  0
MTEXT
  5
10E
330
104
100
AcDbEntity
  8
치수문자_일반주서
100
AcDbMText
 10
63.53886124273361
 20
-14.32156976103178
 30
0.0
 40
3.5
 41
0.0
 71
     1
 72
     1
  1
%%c
  7
SLDTEXTSTYLE0
 11
-7.044195017643634E-15
 21
1.0
 31
0.0
 73
     1
 44
1.0
  0
MTEXT
  5
10F
330
104
100
AcDbEntity
  8
치수문자_일반주서
100
AcDbMText
 10
63.48538906607372
 20
-9.043132362657696
 30
0.0
 40
3.5
 41
0.0
 71
     1
 72
     1
  1
2.98
  7
SLDTEXTSTYLE0
 11
-7.044195017643634E-15
 21
1.0
 31
0.0
 73
     1
 44
1.0
  0
ENDBLK
  5
106
330
104
100
AcDbEntity
  8
0
100
AcDbBlockEnd
  0
BLOCK
  5
111
330
110
100
AcDbEntity
  8
0
100
AcDbBlockBegin
  2
SW_DOWELSYMBOL_0
 70
     0
 10
0.0
 20
0.0
 30
0.0
  3
SW_DOWELSYMBOL_0
  1
SW_DOWELSYMBOL_0
  0
CIRCLE
  5
113
330
110
100
AcDbEntity
  8
외형선
 62
     0
100
AcDbCircle
 10
0.0
 20
0.0
 30
0.0
 40
3.000000000000004
  0
HATCH
  5
114
330
110
100
AcDbEntity
  8
0
  6
Continuous
 62
     0
370
    35
100
AcDbHatch
 10
0.0
 20
0.0
 30
0.0
210
0.0
220
0.0
230
1.0
  2
SOLID
 70
     1
 71
     0
 91
        1
 92
        0
 93
        3
 72
     2
 10
0.0000000000000104
 20
0.0
 40
3.000000000000004
 50
0.0
 51
90.0
 73
     1
 72
     1
 10
0.0000000000000104
 20
3.000000000000004
 11
0.0000000000000104
 21
0.0
 72
     1
 10
0.0000000000000104
 20
0.0
 11
3.000000000000015
 21
0.0
 97
        0
 75
     0
 76
     1
 98
        1
 10
0.0
 20
0.0
  0
HATCH
  5
115
330
110
100
AcDbEntity
  8
0
  6
Continuous
 62
     0
370
    35
100
AcDbHatch
 10
0.0
 20
0.0
 30
0.0
210
0.0
220
0.0
230
1.0
  2
SOLID
 70
     1
 71
     0
 91
        1
 92
        0
 93
        3
 72
     2
 10
0.0000000000000104
 20
0.0
 40
3.000000000000004
 50
180.0
 51
270.0000000000008
 73
     1
 72
     1
 10
0.0000000000000104
 20
-3.000000000000004
 11
0.0000000000000104
 21
0.0
 72
     1
 10
0.0000000000000104
 20
0.0
 11
-2.999999999999994
 21
0.0
 97
        0
 75
     0
 76
     1
 98
        1
 10
0.0
 20
0.0
  0
ENDBLK
  5
112
330
110
100
AcDbEntity
  8
0
100
AcDbBlockEnd
  0
BLOCK
  5
1E6
330
1E5
100
AcDbEntity
  8
0
100
AcDbBlockBegin
  2
*D9
 70
     1
 10
0.0
 20
0.0
 30
0.0
  3
*D9
  1
*D9
  0
LINE
  5
1E7
330
1E5
100
AcDbEntity
  8
치수문자_일반주서
 62
     0
370
    -2
100
AcDbLine
 10
76.88644640576874
 20
16.27023238497602
 30
0.0
 11
82.5306858160085
 21
0.0000000000004463
 31
0.0
  0
MTEXT
  5
1E8
330
1E5
100
AcDbEntity
  8
치수문자_일반주서
 62
     0
100
AcDbMText
 10
83.64850715118168
 20
4.787015200010956
 30
0.0
 40
3.5
 41
0.0
 71
     5
 72
     1
  1
\A1;R0.1
  7
SLDTEXTSTYLE0
 11
0.3277449688879053
 21
-0.9447662331861073
 31
0.0
 73
     1
 44
1.0
  0
LINE
  5
1E9
330
1E5
100
AcDbEntity
  8
치수문자_일반주서
 62
     0
370
    -2
100
AcDbLine
 10
75.77145802161208
 20
19.48432711027515
 30
0.0
 11
75.80423251850087
 21
19.38985048695654
 31
0.0
  0
SOLID
  5
1EA
330
1E5
100
AcDbEntity
  8
치수문자_일반주서
 62
     0
100
AcDbTrace
 10
77.40638275609882
 20
16.45060136618732
 30
0.0
 11
76.36651005543865
 21
16.08986340376471
 31
0.0
 12
75.80423251850087
 22
19.38985048695654
 32
0.0
 13
75.80423251850087
 23
19.38985048695654
 33
0.0
  0
POINT
  5
1EB
330
1E5
100
AcDbEntity
  8
Defpoints
 62
     0
100
AcDbPoint
 10
75.80423251850087
 20
19.38985048695654
 30
0.0
  0
POINT
  5
1EC
330
1E5
100
AcDbEntity
  8
Defpoints
 62
     0
100
AcDbPoint
 10
75.77145802161208
 20
19.48432711027515
 30
0.0
  0
ENDBLK
  5
1ED
330
1E5
100
AcDbEntity
  8
0
100
AcDbBlockEnd
  0
BLOCK
  5
1F1
330
1F0
100
AcDbEntity
  8
0
100
AcDbBlockBegin
  2
*D10
 70
     1
 10
0.0
 20
0.0
 30
0.0
  3
*D10
  1
*D10
  0
LINE
  5
1F3
330
1F0
100
AcDbEntity
  8
치수문자_일반주서
 62
     0
370
    -2
100
AcDbLine
 10
16.80895802161209
 20
24.87915553691706
 30
0.0
 11
4.374999999999996
 21
24.87915553691701
 31
0.0
  0
LINE
  5
1F4
330
1F0
100
AcDbEntity
  8
치수문자_일반주서
 62
     0
370
    -2
100
AcDbLine
 10
16.80895802161209
 20
18.87915553691706
 30
0.0
 11
4.375000000000018
 21
18.87915553691701
 31
0.0
  0
LINE
  5
1F5
330
1F0
100
AcDbEntity
  8
치수문자_일반주서
 62
     0
370
    -2
100
AcDbLine
 10
4.375000000000008
 20
21.57715553691701
 30
0.0
 11
4.375000000000006
 21
22.18115553691701
 31
0.0
  0
SOLID
  5
1F6
330
1F0
100
AcDbEntity
  8
치수문자_일반주서
 62
     0
100
AcDbTrace
 10
4.925333333333342
 20
21.57715553691702
 30
0.0
 11
3.824666666666675
 21
21.57715553691701
 31
0.0
 12
4.374999999999996
 22
24.87915553691701
 32
0.0
 13
4.374999999999996
 23
24.87915553691701
 33
0.0
  0
SOLID
  5
1F7
330
1F0
100
AcDbEntity
  8
치수문자_일반주서
 62
     0
100
AcDbTrace
 10
3.824666666666673
 20
22.18115553691701
 30
0.0
 11
4.92533333333334
 21
22.18115553691702
 31
0.0
 12
4.375000000000018
 22
18.87915553691701
 32
0.0
 13
4.375000000000018
 23
18.87915553691701
 33
0.0
  0
MTEXT
  5
1F8
330
1F0
100
AcDbEntity
  8
치수문자_일반주서
 62
     0
100
AcDbMText
 10
0.0000000000000071
 20
21.87915553691704
 30
0.0
 40
3.5
 41
0.0
 71
     2
 72
     1
  1
\A1;%%c6
  7
SLDTEXTSTYLE0
 11
-3.552713678800503E-15
 21
1.0
 31
0.0
 73
     1
 44
1.0
  0
POINT
  5
1F9
330
1F0
100
AcDbEntity
  8
Defpoints
 62
     0
100
AcDbPoint
 10
16.87145802161209
 20
24.87915553691706
 30
0.0
  0
POINT
  5
1FA
330
1F0
100
AcDbEntity
  8
Defpoints
 62
     0
100
AcDbPoint
 10
16.87145802161209
 20
18.87915553691706
 30
0.0
  0
POINT
  5
1FB
330
1F0
100
AcDbEntity
  8
Defpoints
 62
     0
100
AcDbPoint
 10
4.375000000000021
 20
18.87915553691701
 30
0.0
  0
ENDBLK
  5
1F2
330
1F0
100
AcDbEntity
  8
0
100
AcDbBlockEnd
  0
BLOCK
  5
1FD
330
1FC
100
AcDbEntity
  8
0
100
AcDbBlockBegin
  2
*D11
 70
     1
 10
0.0
 20
0.0
 30
0.0
  3
*D11
  1
*D11
  0
LINE
  5
1FF
330
1FC
100
AcDbEntity
  8
치수문자_일반주서
 62
     0
370
    -2
100
AcDbLine
 10
75.87145802161209
 20
24.34165553691706
 30
0.0
 11
75.87145802161209
 21
42.77915553691672
 31
0.0
  0
LINE
  5
200
330
1FC
100
AcDbEntity
  8
치수문자_일반주서
 62
     0
370
    -2
100
AcDbLine
 10
67.87145802161209
 20
23.90107907879577
 30
0.0
 11
67.87145802161209
 21
42.77915553691672
 31
0.0
  0
SOLID
  5
201
330
1FC
100
AcDbEntity
  8
치수문자_일반주서
 62
     0
100
AcDbTrace
 10
72.56945802161209
 20
42.22882220358338
 30
0.0
 11
72.56945802161209
 21
43.32948887025005
 31
0.0
 12
75.87145802161209
 22
42.77915553691672
 32
0.0
 13
75.87145802161209
 23
42.77915553691672
 33
0.0
  0
SOLID
  5
202
330
1FC
100
AcDbEntity
  8
치수문자_일반주서
 62
     0
100
AcDbTrace
 10
71.17345802161208
 20
43.32948887025005
 30
0.0
 11
71.17345802161208
 21
42.22882220358338
 31
0.0
 12
67.87145802161209
 22
42.77915553691672
 32
0.0
 13
67.87145802161209
 23
42.77915553691672
 33
0.0
  0
MTEXT
  5
203
330
1FC
100
AcDbEntity
  8
치수문자_일반주서
 62
     0
100
AcDbMText
 10
71.87145802161209
 20
47.15415553691672
 30
0.0
 40
3.5
 41
0.0
 71
     2
 72
     1
  1
\A1;8
  7
SLDTEXTSTYLE0
 73
     1
 44
1.0
  0
POINT
  5
204
330
1FC
100
AcDbEntity
  8
Defpoints
 62
     0
100
AcDbPoint
 10
75.87145802161209
 20
24.27915553691706
 30
0.0
  0
POINT
  5
205
330
1FC
100
AcDbEntity
  8
Defpoints
 62
     0
100
AcDbPoint
 10
67.87145802161209
 20
23.83857907879577
 30
0.0
  0
POINT
  5
206
330
1FC
100
AcDbEntity
  8
Defpoints
 62
     0
100
AcDbPoint
 10
67.87145802161209
 20
42.77915553691672
 30
0.0
  0
ENDBLK
  5
1FE
330
1FC
100
AcDbEntity
  8
0
100
AcDbBlockEnd
  0
BLOCK
  5
208
330
207
100
AcDbEntity
  8
0
100
AcDbBlockBegin
  2
*D12
 70
     1
 10
0.0
 20
0.0
 30
0.0
  3
*D12
  1
*D12
  0
LINE
  5
20A
330
207
100
AcDbEntity
  8
치수문자_일반주서
 62
     0
370
    -2
100
AcDbLine
 10
75.87145802161209
 20
24.34165553691706
 30
0.0
 11
75.87145802161209
 21
64.83748004196136
 31
0.0
  0
LINE
  5
20B
330
207
100
AcDbEntity
  8
치수문자_일반주서
 62
     0
370
    -2
100
AcDbLine
 10
15.87145802161209
 20
23.94165553691706
 30
0.0
 11
15.87145802161209
 21
64.83748004196136
 31
0.0
  0
LINE
  5
20C
330
207
100
AcDbEntity
  8
치수문자_일반주서
 62
     0
370
    -2
100
AcDbLine
 10
72.56945802161209
 20
64.83748004196136
 30
0.0
 11
19.17345802161208
 21
64.83748004196136
 31
0.0
  0
SOLID
  5
20D
330
207
100
AcDbEntity
  8
치수문자_일반주서
 62
     0
100
AcDbTrace
 10
72.56945802161209
 20
64.28714670862803
 30
0.0
 11
72.56945802161209
 21
65.38781337529468
 31
0.0
 12
75.87145802161209
 22
64.83748004196136
 32
0.0
 13
75.87145802161209
 23
64.83748004196136
 33
0.0
  0
SOLID
  5
20E
330
207
100
AcDbEntity
  8
치수문자_일반주서
 62
     0
100
AcDbTrace
 10
19.17345802161208
 20
65.38781337529468
 30
0.0
 11
19.17345802161208
 21
64.28714670862803
 31
0.0
 12
15.87145802161209
 22
64.83748004196136
 32
0.0
 13
15.87145802161209
 23
64.83748004196136
 33
0.0
  0
MTEXT
  5
20F
330
207
100
AcDbEntity
  8
치수문자_일반주서
 62
     0
100
AcDbMText
 10
45.87145802161208
 20
69.21248004196136
 30
0.0
 40
3.5
 41
0.0
 71
     2
 72
     1
  1
\A1;60
  7
SLDTEXTSTYLE0
 73
     1
 44
1.0
  0
POINT
  5
210
330
207
100
AcDbEntity
  8
Defpoints
 62
     0
100
AcDbPoint
 10
75.87145802161209
 20
24.27915553691706
 30
0.0
  0
POINT
  5
211
330
207
100
AcDbEntity
  8
Defpoints
 62
     0
100
AcDbPoint
 10
15.87145802161209
 20
23.87915553691706
 30
0.0
  0
POINT
  5
212
330
207
100
AcDbEntity
  8
Defpoints
 62
     0
100
AcDbPoint
 10
15.87145802161209
 20
64.83748004196136
 30
0.0
  0
ENDBLK
  5
209
330
207
100
AcDbEntity
  8
0
100
AcDbBlockEnd
  0
BLOCK
  5
214
330
213
100
AcDbEntity
  8
0
100
AcDbBlockBegin
  2
*D13
 70
     1
 10
0.0
 20
0.0
 30
0.0
  3
*D13
  1
*D13
  0
LINE
  5
216
330
213
100
AcDbEntity
  8
치수문자_일반주서
 62
     0
370
    -2
100
AcDbLine
 10
75.87145802161209
 20
24.33849465871233
 30
0.0
 11
75.87145802161209
 21
52.19915553691572
 31
0.0
  0
LINE
  5
217
330
213
100
AcDbEntity
  8
치수문자_일반주서
 62
     0
370
    -2
100
AcDbLine
 10
60.87145802161208
 20
24.36665553691706
 30
0.0
 11
60.87145802161208
 21
52.19915553691572
 31
0.0
  0
LINE
  5
218
330
213
100
AcDbEntity
  8
치수문자_일반주서
 62
     0
370
    -2
100
AcDbLine
 10
72.56945802161209
 20
52.19915553691572
 30
0.0
 11
64.17345802161208
 21
52.19915553691572
 31
0.0
  0
SOLID
  5
219
330
213
100
AcDbEntity
  8
치수문자_일반주서
 62
     0
100
AcDbTrace
 10
72.56945802161209
 20
51.64882220358238
 30
0.0
 11
72.56945802161209
 21
52.74948887024905
 31
0.0
 12
75.87145802161209
 22
52.19915553691572
 32
0.0
 13
75.87145802161209
 23
52.19915553691572
 33
0.0
  0
SOLID
  5
21A
330
213
100
AcDbEntity
  8
치수문자_일반주서
 62
     0
100
AcDbTrace
 10
64.17345802161208
 20
52.74948887024905
 30
0.0
 11
64.17345802161208
 21
51.64882220358238
 31
0.0
 12
60.87145802161208
 22
52.19915553691572
 32
0.0
 13
60.87145802161208
 23
52.19915553691572
 33
0.0
  0
MTEXT
  5
21B
330
213
100
AcDbEntity
  8
치수문자_일반주서
 62
     0
100
AcDbMText
 10
68.37145802161209
 20
56.57415553691572
 30
0.0
 40
3.5
 41
0.0
 71
     2
 72
     1
  1
\A1;15
  7
SLDTEXTSTYLE0
 73
     1
 44
1.0
  0
POINT
  5
21C
330
213
100
AcDbEntity
  8
Defpoints
 62
     0
100
AcDbPoint
 10
75.87145802161209
 20
24.27599465871233
 30
0.0
  0
POINT
  5
21D
330
213
100
AcDbEntity
  8
Defpoints
 62
     0
100
AcDbPoint
 10
60.87145802161208
 20
24.30415553691706
 30
0.0
  0
POINT
  5
21E
330
213
100
AcDbEntity
  8
Defpoints
 62
     0
100
AcDbPoint
 10
60.87145802161208
 20
52.19915553691572
 30
0.0
  0
ENDBLK
  5
215
330
213
100
AcDbEntity
  8
0
100
AcDbBlockEnd
  0
BLOCK
  5
220
330
21F
100
AcDbEntity
  8
0
100
AcDbBlockBegin
  2
*D14
 70
     1
 10
0.0
 20
0.0
 30
0.0
  3
*D14
  1
*D14
  0
LINE
  5
222
330
21F
100
AcDbEntity
  8
치수문자_일반주서
 62
     0
370
    -2
100
AcDbLine
 10
75.93395802161209
 20
24.38494288842471
 30
0.0
 11
91.48049300814493
 21
24.38494288842477
 31
0.0
  0
LINE
  5
223
330
21F
100
AcDbEntity
  8
치수문자_일반주서
 62
     0
370
    -2
100
AcDbLine
 10
75.83395802161208
 20
19.38432711027515
 30
0.0
 11
91.48049300814495
 21
19.38432711027521
 31
0.0
  0
LINE
  5
224
330
21F
100
AcDbEntity
  8
치수문자_일반주서
 62
     0
370
    -2
100
AcDbLine
 10
91.48049300814493
 20
24.38494288842477
 30
0.0
 11
91.48049300814495
 21
19.38432711027521
 31
0.0
  0
LINE
  5
225
330
21F
100
AcDbEntity
  8
치수문자_일반주서
 62
     0
370
    -2
100
AcDbLine
 10
91.48049300814492
 20
27.68694288842477
 30
0.0
 11
91.4804930081449
 21
30.98894288842477
 31
0.0
  0
LINE
  5
226
330
21F
100
AcDbEntity
  8
치수문자_일반주서
 62
     0
370
    -2
100
AcDbLine
 10
91.48049300814496
 20
16.08232711027521
 30
0.0
 11
91.48049300814498
 21
12.78032711027521
 31
0.0
  0
SOLID
  5
227
330
21F
100
AcDbEntity
  8
치수문자_일반주서
 62
     0
100
AcDbTrace
 10
90.93015967481159
 20
27.68694288842477
 30
0.0
 11
92.03082634147825
 21
27.68694288842477
 31
0.0
 12
91.48049300814493
 22
24.38494288842477
 32
0.0
 13
91.48049300814493
 23
24.38494288842477
 33
0.0
  0
SOLID
  5
228
330
21F
100
AcDbEntity
  8
치수문자_일반주서
 62
     0
100
AcDbTrace
 10
92.03082634147829
 20
16.08232711027521
 30
0.0
 11
90.93015967481163
 21
16.08232711027521
 31
0.0
 12
91.48049300814495
 22
19.38432711027521
 32
0.0
 13
91.48049300814495
 23
19.38432711027521
 33
0.0
  0
MTEXT
  5
229
330
21F
100
AcDbEntity
  8
치수문자_일반주서
 62
     0
100
AcDbMText
 10
87.10549300814495
 20
21.87915553691711
 30
0.0
 40
3.5
 41
0.0
 71
     2
 72
     1
  1
\A1;%%c5
  7
SLDTEXTSTYLE0
 11
-2.841820956790373E-15
 21
1.0
 31
0.0
 73
     1
 44
1.0
  0
POINT
  5
22A
330
21F
100
AcDbEntity
  8
Defpoints
 62
     0
100
AcDbPoint
 10
75.87145802161209
 20
24.38494288842471
 30
0.0
  0
POINT
  5
22B
330
21F
100
AcDbEntity
  8
Defpoints
 62
     0
100
AcDbPoint
 10
75.77145802161208
 20
19.38432711027515
 30
0.0
  0
POINT
  5
22C
330
21F
100
AcDbEntity
  8
Defpoints
 62
     0
100
AcDbPoint
 10
91.48049300814495
 20
19.38432711027521
 30
0.0
  0
ENDBLK
  5
221
330
21F
100
AcDbEntity
  8
0
100
AcDbBlockEnd
  0
BLOCK
  5
26B
330
26A
100
AcDbEntity
  8
0
100
AcDbBlockBegin
  2
*D15
 70
     1
 10
0.0
 20
0.0
 30
0.0
  3
*D15
  1
*D15
  0
LINE
  5
26D
330
26A
100
AcDbEntity
  8
치수문자_일반주서
 62
     0
370
    -2
100
AcDbLine
 10
-39.91657078564788
 20
2.999999999999992
 30
0.0
 11
-52.35052880725997
 21
2.999999999999945
 31
0.0
  0
LINE
  5
26E
330
26A
100
AcDbEntity
  8
치수문자_일반주서
 62
     0
370
    -2
100
AcDbLine
 10
-39.91657078564788
 20
-3.0
 30
0.0
 11
-52.35052880725995
 21
-3.000000000000048
 31
0.0
  0
LINE
  5
26F
330
26A
100
AcDbEntity
  8
치수문자_일반주서
 62
     0
370
    -2
100
AcDbLine
 10
-52.35052880725996
 20
-0.3020000000000542
 30
0.0
 11
-52.35052880725996
 21
0.3019999999999521
 31
0.0
  0
SOLID
  5
270
330
26A
100
AcDbEntity
  8
치수문자_일반주서
 62
     0
100
AcDbTrace
 10
-51.80019547392662
 20
-0.3020000000000523
 30
0.0
 11
-52.90086214059329
 21
-0.3020000000000562
 31
0.0
 12
-52.35052880725997
 22
2.999999999999945
 32
0.0
 13
-52.35052880725997
 23
2.999999999999945
 33
0.0
  0
SOLID
  5
271
330
26A
100
AcDbEntity
  8
치수문자_일반주서
 62
     0
100
AcDbTrace
 10
-52.9008621405933
 20
0.3019999999999501
 30
0.0
 11
-51.80019547392663
 21
0.301999999999954
 31
0.0
 12
-52.35052880725995
 22
-3.000000000000048
 32
0.0
 13
-52.35052880725995
 23
-3.000000000000048
 33
0.0
  0
MTEXT
  5
272
330
26A
100
AcDbEntity
  8
치수문자_일반주서
 62
     0
100
AcDbMText
 10
-56.72552880725996
 20
-0.0000000000000225
 30
0.0
 40
3.5
 41
0.0
 71
     2
 72
     1
  1
\A1;%%c6
  7
SLDTEXTSTYLE0
 11
-3.552713678800506E-15
 21
1.0
 31
0.0
 73
     1
 44
1.0
  0
POINT
  5
273
330
26A
100
AcDbEntity
  8
Defpoints
 62
     0
100
AcDbPoint
 10
-39.85407078564788
 20
2.999999999999993
 30
0.0
  0
POINT
  5
274
330
26A
100
AcDbEntity
  8
Defpoints
 62
     0
100
AcDbPoint
 10
-39.85407078564788
 20
-3.0
 30
0.0
  0
POINT
  5
275
330
26A
100
AcDbEntity
  8
Defpoints
 62
     0
100
AcDbPoint
 10
-52.35052880725995
 20
-3.000000000000047
 30
0.0
  0
ENDBLK
  5
26C
330
26A
100
AcDbEntity
  8
0
100
AcDbBlockEnd
  0
BLOCK
  5
277
330
276
100
AcDbEntity
  8
0
100
AcDbBlockBegin
  2
*D16
 70
     1
 10
0.0
 20
0.0
 30
0.0
  3
*D16
  1
*D16
  0
LINE
  5
279
330
276
100
AcDbEntity
  8
치수문자_일반주서
 62
     0
370
    -2
100
AcDbLine
 10
19.14592921435212
 20
2.462499999999999
 30
0.0
 11
19.14592921435212
 21
20.89999999999966
 31
0.0
  0
LINE
  5
27A
330
276
100
AcDbEntity
  8
치수문자_일반주서
 62
     0
370
    -2
100
AcDbLine
 10
11.14592921435212
 20
2.021923541878714
 30
0.0
 11
11.14592921435212
 21
20.89999999999966
 31
0.0
  0
SOLID
  5
27B
330
276
100
AcDbEntity
  8
치수문자_일반주서
 62
     0
100
AcDbTrace
 10
15.84392921435212
 20
20.34966666666632
 30
0.0
 11
15.84392921435212
 21
21.45033333333299
 31
0.0
 12
19.14592921435212
 22
20.89999999999966
 32
0.0
 13
19.14592921435212
 23
20.89999999999966
 33
0.0
  0
SOLID
  5
27C
330
276
100
AcDbEntity
  8
치수문자_일반주서
 62
     0
100
AcDbTrace
 10
14.44792921435212
 20
21.45033333333299
 30
0.0
 11
14.44792921435212
 21
20.34966666666632
 31
0.0
 12
11.14592921435212
 22
20.89999999999966
 32
0.0
 13
11.14592921435212
 23
20.89999999999966
 33
0.0
  0
MTEXT
  5
27D
330
276
100
AcDbEntity
  8
치수문자_일반주서
 62
     0
100
AcDbMText
 10
15.14592921435212
 20
25.27499999999966
 30
0.0
 40
3.5
 41
0.0
 71
     2
 72
     1
  1
\A1;8
  7
SLDTEXTSTYLE0
 73
     1
 44
1.0
  0
POINT
  5
27E
330
276
100
AcDbEntity
  8
Defpoints
 62
     0
100
AcDbPoint
 10
19.14592921435212
 20
2.399999999999999
 30
0.0
  0
POINT
  5
27F
330
276
100
AcDbEntity
  8
Defpoints
 62
     0
100
AcDbPoint
 10
11.14592921435212
 20
1.959423541878714
 30
0.0
  0
POINT
  5
280
330
276
100
AcDbEntity
  8
Defpoints
 62
     0
100
AcDbPoint
 10
11.14592921435212
 20
20.89999999999966
 30
0.0
  0
ENDBLK
  5
278
330
276
100
AcDbEntity
  8
0
100
AcDbBlockEnd
  0
BLOCK
  5
282
330
281
100
AcDbEntity
  8
0
100
AcDbBlockBegin
  2
*D17
 70
     1
 10
0.0
 20
0.0
 30
0.0
  3
*D17
  1
*D17
  0
LINE
  5
284
330
281
100
AcDbEntity
  8
치수문자_일반주서
 62
     0
370
    -2
100
AcDbLine
 10
19.14592921435212
 20
2.462499999999999
 30
0.0
 11
19.14592921435212
 21
42.9583245050443
 31
0.0
  0
LINE
  5
285
330
281
100
AcDbEntity
  8
치수문자_일반주서
 62
     0
370
    -2
100
AcDbLine
 10
-40.85407078564788
 20
2.062499999999993
 30
0.0
 11
-40.85407078564788
 21
42.9583245050443
 31
0.0
  0
LINE
  5
286
330
281
100
AcDbEntity
  8
치수문자_일반주서
 62
     0
370
    -2
100
AcDbLine
 10
15.84392921435212
 20
42.9583245050443
 30
0.0
 11
-37.55207078564788
 21
42.9583245050443
 31
0.0
  0
SOLID
  5
287
330
281
100
AcDbEntity
  8
치수문자_일반주서
 62
     0
100
AcDbTrace
 10
15.84392921435212
 20
42.40799117171096
 30
0.0
 11
15.84392921435212
 21
43.50865783837763
 31
0.0
 12
19.14592921435212
 22
42.9583245050443
 32
0.0
 13
19.14592921435212
 23
42.9583245050443
 33
0.0
  0
SOLID
  5
288
330
281
100
AcDbEntity
  8
치수문자_일반주서
 62
     0
100
AcDbTrace
 10
-37.55207078564788
 20
43.50865783837763
 30
0.0
 11
-37.55207078564788
 21
42.40799117171096
 31
0.0
 12
-40.85407078564788
 22
42.9583245050443
 32
0.0
 13
-40.85407078564788
 23
42.9583245050443
 33
0.0
  0
MTEXT
  5
289
330
281
100
AcDbEntity
  8
치수문자_일반주서
 62
     0
100
AcDbMText
 10
-10.85407078564788
 20
47.3333245050443
 30
0.0
 40
3.5
 41
0.0
 71
     2
 72
     1
  1
\A1;60
  7
SLDTEXTSTYLE0
 73
     1
 44
1.0
  0
POINT
  5
28A
330
281
100
AcDbEntity
  8
Defpoints
 62
     0
100
AcDbPoint
 10
19.14592921435212
 20
2.399999999999999
 30
0.0
  0
POINT
  5
28B
330
281
100
AcDbEntity
  8
Defpoints
 62
     0
100
AcDbPoint
 10
-40.85407078564788
 20
1.999999999999993
 30
0.0
  0
POINT
  5
28C
330
281
100
AcDbEntity
  8
Defpoints
 62
     0
100
AcDbPoint
 10
-40.85407078564788
 20
42.9583245050443
 30
0.0
  0
ENDBLK
  5
283
330
281
100
AcDbEntity
  8
0
100
AcDbBlockEnd
  0
BLOCK
  5
28E
330
28D
100
AcDbEntity
  8
0
100
AcDbBlockBegin
  2
*D18
 70
     1
 10
0.0
 20
0.0
 30
0.0
  3
*D18
  1
*D18
  0
LINE
  5
290
330
28D
100
AcDbEntity
  8
치수문자_일반주서
 62
     0
370
    -2
100
AcDbLine
 10
19.14592921435212
 20
2.459339121795267
 30
0.0
 11
19.14592921435212
 21
30.31999999999866
 31
0.0
  0
LINE
  5
291
330
28D
100
AcDbEntity
  8
치수문자_일반주서
 62
     0
370
    -2
100
AcDbLine
 10
4.145929214352122
 20
2.487500000000004
 30
0.0
 11
4.145929214352122
 21
30.31999999999866
 31
0.0
  0
LINE
  5
292
330
28D
100
AcDbEntity
  8
치수문자_일반주서
 62
     0
370
    -2
100
AcDbLine
 10
15.84392921435212
 20
30.31999999999866
 30
0.0
 11
7.447929214352122
 21
30.31999999999866
 31
0.0
  0
SOLID
  5
293
330
28D
100
AcDbEntity
  8
치수문자_일반주서
 62
     0
100
AcDbTrace
 10
15.84392921435212
 20
29.76966666666532
 30
0.0
 11
15.84392921435212
 21
30.87033333333199
 31
0.0
 12
19.14592921435212
 22
30.31999999999866
 32
0.0
 13
19.14592921435212
 23
30.31999999999866
 33
0.0
  0
SOLID
  5
294
330
28D
100
AcDbEntity
  8
치수문자_일반주서
 62
     0
100
AcDbTrace
 10
7.447929214352122
 20
30.87033333333199
 30
0.0
 11
7.447929214352122
 21
29.76966666666532
 31
0.0
 12
4.145929214352122
 22
30.31999999999866
 32
0.0
 13
4.145929214352122
 23
30.31999999999866
 33
0.0
  0
MTEXT
  5
295
330
28D
100
AcDbEntity
  8
치수문자_일반주서
 62
     0
100
AcDbMText
 10
11.64592921435212
 20
34.69499999999866
 30
0.0
 40
3.5
 41
0.0
 71
     2
 72
     1
  1
\A1;15
  7
SLDTEXTSTYLE0
 73
     1
 44
1.0
  0
POINT
  5
296
330
28D
100
AcDbEntity
  8
Defpoints
 62
     0
100
AcDbPoint
 10
19.14592921435212
 20
2.396839121795267
 30
0.0
  0
POINT
  5
297
330
28D
100
AcDbEntity
  8
Defpoints
 62
     0
100
AcDbPoint
 10
4.145929214352122
 20
2.425000000000004
 30
0.0
  0
POINT
  5
298
330
28D
100
AcDbEntity
  8
Defpoints
 62
     0
100
AcDbPoint
 10
4.145929214352122
 20
30.31999999999866
 30
0.0
  0
ENDBLK
  5
28F
330
28D
100
AcDbEntity
  8
0
100
AcDbBlockEnd
  0
BLOCK
  5
29A
330
299
100
AcDbEntity
  8
0
100
AcDbBlockBegin
  2
*D19
 70
     1
 10
0.0
 20
0.0
 30
0.0
  3
*D19
  1
*D19
  0
LINE
  5
29C
330
299
100
AcDbEntity
  8
치수문자_일반주서
 62
     0
370
    -2
100
AcDbLine
 10
19.20842921435212
 20
2.50578735150765
 30
0.0
 11
34.75496420088498
 21
2.505787351507708
 31
0.0
  0
LINE
  5
29D
330
299
100
AcDbEntity
  8
치수문자_일반주서
 62
     0
370
    -2
100
AcDbLine
 10
19.1084292143521
 20
-2.494828426641909
 30
0.0
 11
34.75496420088499
 21
-2.49482842664185
 31
0.0
  0
LINE
  5
29E
330
299
100
AcDbEntity
  8
치수문자_일반주서
 62
     0
370
    -2
100
AcDbLine
 10
34.75496420088498
 20
2.505787351507708
 30
0.0
 11
34.75496420088499
 21
-2.49482842664185
 31
0.0
  0
LINE
  5
29F
330
299
100
AcDbEntity
  8
치수문자_일반주서
 62
     0
370
    -2
100
AcDbLine
 10
34.75496420088497
 20
5.807787351507708
 30
0.0
 11
34.75496420088496
 21
9.109787351507707
 31
0.0
  0
LINE
  5
2A0
330
299
100
AcDbEntity
  8
치수문자_일반주서
 62
     0
370
    -2
100
AcDbLine
 10
34.754964200885
 20
-5.79682842664185
 30
0.0
 11
34.75496420088501
 21
-9.09882842664185
 31
0.0
  0
SOLID
  5
2A1
330
299
100
AcDbEntity
  8
치수문자_일반주서
 62
     0
100
AcDbTrace
 10
34.20463086755164
 20
5.807787351507706
 30
0.0
 11
35.3052975342183
 21
5.807787351507709
 31
0.0
 12
34.75496420088498
 22
2.505787351507708
 32
0.0
 13
34.75496420088498
 23
2.505787351507708
 33
0.0
  0
SOLID
  5
2A2
330
299
100
AcDbEntity
  8
치수문자_일반주서
 62
     0
100
AcDbTrace
 10
35.30529753421833
 20
-5.796828426641849
 30
0.0
 11
34.20463086755166
 21
-5.796828426641852
 31
0.0
 12
34.75496420088499
 22
-2.49482842664185
 32
0.0
 13
34.75496420088499
 23
-2.49482842664185
 33
0.0
  0
MTEXT
  5
2A3
330
299
100
AcDbEntity
  8
치수문자_일반주서
 62
     0
100
AcDbMText
 10
30.37996420088498
 20
0.0000000000000444
 30
0.0
 40
3.5
 41
0.0
 71
     2
 72
     1
  1
\A1;%%c5
  7
SLDTEXTSTYLE0
 11
-2.841820956790371E-15
 21
1.0
 31
0.0
 73
     1
 44
1.0
  0
POINT
  5
2A4
330
299
100
AcDbEntity
  8
Defpoints
 62
     0
100
AcDbPoint
 10
19.14592921435212
 20
2.505787351507649
 30
0.0
  0
POINT
  5
2A5
330
299
100
AcDbEntity
  8
Defpoints
 62
     0
100
AcDbPoint
 10
19.0459292143521
 20
-2.494828426641909
 30
0.0
  0
POINT
  5
2A6
330
299
100
AcDbEntity
  8
Defpoints
 62
     0
100
AcDbPoint
 10
34.75496420088498
 20
-2.494828426641851
 30
0.0
  0
ENDBLK
  5
29B
330
299
100
AcDbEntity
  8
0
100
AcDbBlockEnd
  0
BLOCK
  5
2A8
330
2A7
100
AcDbEntity
  8
0
100
AcDbBlockBegin
  2
*D20
 70
     1
 10
0.0
 20
0.0
 30
0.0
  3
*D20
  1
*D20
  0
LINE
  5
2AA
330
2A7
100
AcDbEntity
  8
치수문자_일반주서
 62
     0
370
    -2
100
AcDbLine
 10
20.16091759850919
 20
-5.608923151940902
 30
0.0
 11
25.80515700875114
 21
-21.8791555369157
 31
0.0
  0
MTEXT
  5
2AB
330
2A7
100
AcDbEntity
  8
치수문자_일반주서
 62
     0
100
AcDbMText
 10
26.92297834392367
 20
-17.09214033690504
 30
0.0
 40
3.5
 41
0.0
 71
     5
 72
     1
  1
\A1;R0.1
  7
SLDTEXTSTYLE0
 11
0.3277449688880322
 21
-0.9447662331860632
 31
0.0
 73
     1
 44
1.0
  0
LINE
  5
2AC
330
2A7
100
AcDbEntity
  8
치수문자_일반주서
 62
     0
370
    -2
100
AcDbLine
 10
19.0459292143521
 20
-2.394828426641908
 30
0.0
 11
19.07870371124091
 21
-2.489305049960521
 31
0.0
  0
SOLID
  5
2AD
330
2A7
100
AcDbEntity
  8
치수문자_일반주서
 62
     0
100
AcDbTrace
 10
20.68085394883925
 20
-5.428554170729521
 30
0.0
 11
19.64098124817912
 21
-5.789292133152282
 31
0.0
 12
19.07870371124091
 22
-2.489305049960521
 32
0.0
 13
19.07870371124091
 23
-2.489305049960521
 33
0.0
  0
POINT
  5
2AE
330
2A7
100
AcDbEntity
  8
Defpoints
 62
     0
100
AcDbPoint
 10
19.07870371124091
 20
-2.489305049960521
 30
0.0
  0
POINT
  5
2AF
330
2A7
100
AcDbEntity
  8
Defpoints
 62
     0
100
AcDbPoint
 10
19.0459292143521
 20
-2.394828426641908
 30
0.0
  0
ENDBLK
  5
2A9
330
2A7
100
AcDbEntity
  8
0
100
AcDbBlockEnd
  0
BLOCK
  5
2B9
330
2B8
100
AcDbEntity
  8
0
100
AcDbBlockBegin
  2
*D21
 70
     1
 10
0.0
 20
0.0
 30
0.0
  3
*D21
  1
*D21
  0
LINE
  5
2BB
330
2B8
100
AcDbEntity
  8
치수문자_일반주서
 62
     0
370
    -2
100
AcDbLine
 10
20.12381469062838
 20
-5.562529825151302
 30
0.0
 11
27.2348334910806
 21
-24.30269739391747
 31
0.0
  0
MTEXT
  5
2BC
330
2B8
100
AcDbEntity
  8
치수문자_일반주서
 62
     0
100
AcDbMText
 10
28.05935591319141
 20
-19.0764820483795
 30
0.0
 40
3.5
 41
0.0
 71
     5
 72
     1
  1
\A1;R0.3
  7
SLDTEXTSTYLE0
 11
0.3547710928029585
 21
-0.9349531922569144
 31
0.0
 73
     1
 44
1.0
  0
LINE
  5
2BD
330
2B8
100
AcDbEntity
  8
치수문자_일반주서
 62
     0
370
    -2
100
AcDbLine
 10
18.84592921435212
 20
-2.194828426641895
 30
0.0
 11
18.95236054219301
 21
-2.47531438431897
 31
0.0
  0
SOLID
  5
2BE
330
2B8
100
AcDbEntity
  8
치수문자_일반주서
 62
     0
100
AcDbTrace
 10
20.63835059743377
 20
-5.367287467078738
 30
0.0
 11
19.60927878382299
 21
-5.757772183223861
 31
0.0
 12
18.95236054219301
 22
-2.47531438431897
 32
0.0
 13
18.95236054219301
 23
-2.47531438431897
 33
0.0
  0
POINT
  5
2BF
330
2B8
100
AcDbEntity
  8
Defpoints
 62
     0
100
AcDbPoint
 10
18.95236054219301
 20
-2.47531438431897
 30
0.0
  0
POINT
  5
2C0
330
2B8
100
AcDbEntity
  8
Defpoints
 62
     0
100
AcDbPoint
 10
18.84592921435212
 20
-2.194828426641895
 30
0.0
  0
ENDBLK
  5
2BA
330
2B8
100
AcDbEntity
  8
0
100
AcDbBlockEnd
  0
ENDSEC
  0
SECTION
  2
ENTITIES
  0
INSERT
  5
CC
330
1F
100
AcDbEntity
  8
0
  6
Continuous
 62
     7
100
AcDbBlockReference
 66
     1
  2
블럭10
 10
-22.93944368806589
 20
-52.04609937292004
 30
0.0
  0
ATTRIB
  5
CD
330
CC
100
AcDbEntity
  8
FORMAT
 62
     2
100
AcDbText
 10
-39.05870472750145
 20
-49.97073246008785
 30
0.0
 40
4.233333333333333
  1
SEME6105003E [ 2 FLUTE ]
 41
0.75
  7
SLDTEXTSTYLE0
 11
-39.05870472750145
 21
-52.08739912675452
 31
0.0
100
AcDbAttribute
  2
AUTOATTR0
 70
     0
 74
     1
  0
SEQEND
  5
CE
330
CC
100
AcDbEntity
  8
0
  6
Continuous
 62
     7
  0
HATCH
  5
CF
330
1F
100
AcDbEntity
  8
중심선
100
AcDbHatch
 10
0.0
 20
0.0
 30
0.0
210
0.0
220
0.0
230
1.0
  2
SOLID
 70
     1
 71
     0
 91
        1
 92
        0
 93
        4
 72
     1
 10
-17.22453438368504
 20
-35.7989250712761
 11
-20.67080962752232
 21
-35.7989250712761
 72
     1
 10
-20.67080962752232
 20
-35.7989250712761
 11
-22.79903948672635
 21
-38.3352506518487
 72
     1
 10
-22.79903948672635
 20
-38.3352506518487
 11
-19.35273115777591
 21
-38.33521122254621
 72
     1
 10
-19.35273115777591
 20
-38.33521122254621
 11
-17.22453438368504
 21
-35.7989250712761
 97
        0
 75
     0
 76
     1
 98
        1
 10
0.0
 20
0.0
  0
HATCH
  5
D0
330
1F
100
AcDbEntity
  8
중심선
100
AcDbHatch
 10
0.0
 20
0.0
 30
0.0
210
0.0
220
0.0
230
1.0
  2
SOLID
 70
     1
 71
     0
 91
        1
 92
        0
 93
        4
 72
     1
 10
-12.21177039264909
 20
-35.7989250712761
 11
-15.65804563648637
 21
-35.7989250712761
 72
     1
 10
-15.65804563648637
 20
-35.7989250712761
 11
-20.18918364484376
 21
-41.19892507127612
 72
     1
 10
-20.18918364484376
 20
-41.19892507127612
 11
-16.74290840100648
 21
-41.19892507127612
 72
     1
 10
-16.74290840100648
 20
-41.19892507127612
 11
-12.21177039264909
 21
-35.7989250712761
 97
        0
 75
     0
 76
     1
 98
        1
 10
0.0
 20
0.0
  0
HATCH
  5
D1
330
1F
100
AcDbEntity
  8
중심선
100
AcDbHatch
 10
0.0
 20
0.0
 30
0.0
210
0.0
220
0.0
230
1.0
  2
SOLID
 70
     1
 71
     0
 91
        1
 92
        0
 93
        4
 72
     1
 10
-7.199006401613195
 20
-35.79892507127613
 11
-10.64528164545031
 21
-35.7989250712761
 72
     1
 10
-10.64528164545031
 20
-35.7989250712761
 11
-17.69371854733956
 21
-44.19892507127612
 72
     1
 10
-17.69371854733956
 20
-44.19892507127612
 11
-14.24744330350228
 21
-44.19892507127612
 72
     1
 10
-14.24744330350228
 20
-44.19892507127612
 11
-7.199006401613195
 21
-35.79892507127613
 97
        0
 75
     0
 76
     1
 98
        1
 10
0.0
 20
0.0
  0
HATCH
  5
D2
330
1F
100
AcDbEntity
  8
중심선
100
AcDbHatch
 10
0.0
 20
0.0
 30
0.0
210
0.0
220
0.0
230
1.0
  2
SOLID
 70
     1
 71
     0
 91
        1
 92
        0
 93
        6
 72
     3
 10
-2.399115970600996
 20
-39.99892507132738
 11
3.960054785062284
 21
1.540850780301639E-10
 40
0.3939339440162633
 50
17.09539180608433
 51
320.0019657685079
 73
     0
 72
     1
 10
-0.7161163149004002
 20
-38.58681907591441
 11
1.589185558800638
 21
-36.65249236586649
 72
     3
 10
-2.399115970653842
 20
-39.99892507127625
 11
6.600054785286829
 21
-1.249000902703301E-13
 40
0.6363583540795982
 50
39.99873849337408
 51
368.4976242363725
 73
     1
 72
     1
 10
4.026216521246767
 20
-39.03892507120613
 11
-3.71904866381792
 21
-39.0389250712061
 72
     1
 10
-3.71904866381792
 20
-39.0389250712061
 11
-3.719073708263854
 21
-40.95892507120602
 72
     1
 10
-3.719073708263854
 20
-40.95892507120602
 11
0.7223060612081831
 21
-40.95892507120599
 97
        0
 75
     0
 76
     1
 98
        1
 10
0.0
 20
0.0
  0
LINE
  5
22E
330
1F
100
AcDbEntity
  8
0
  6
Continuous
 62
     4
370
    25
100
AcDbLine
 10
2.0
 20
3.0
 30
0.0
 11
-39.85407078564788
 21
2.999999999999993
 31
0.0
  0
LINE
  5
22F
330
1F
100
AcDbEntity
  8
0
  6
Continuous
 62
     4
370
    25
100
AcDbLine
 10
-39.85407078564788
 20
-3.0
 30
0.0
 11
2.0
 21
-3.0
 31
0.0
  0
LINE
  5
230
330
1F
100
AcDbEntity
  8
0
  6
Continuous
 62
     4
370
    25
100
AcDbLine
 10
2.0
 20
-3.0
 30
0.0
 11
4.145929214352122
 21
-2.425000000000004
 31
0.0
  0
LINE
  5
231
330
1F
100
AcDbEntity
  8
0
  6
Continuous
 62
     4
370
    25
100
AcDbLine
 10
4.145929214352122
 20
2.425000000000004
 30
0.0
 11
2.0
 21
3.0
 31
0.0
  0
LINE
  5
232
330
1F
100
AcDbEntity
  8
0
  6
Continuous
 62
     4
370
    25
100
AcDbLine
 10
-39.85407078564788
 20
2.999999999999993
 30
0.0
 11
-40.85407078564788
 21
1.999999999999993
 31
0.0
  0
LINE
  5
233
330
1F
100
AcDbEntity
  8
0
  6
Continuous
 62
     4
370
    25
100
AcDbLine
 10
-40.85407078564788
 20
-2.0
 30
0.0
 11
-39.85407078564788
 21
-3.0
 31
0.0
  0
LINE
  5
234
330
1F
100
AcDbEntity
  8
0
  6
Continuous
 62
     4
370
    25
100
AcDbLine
 10
8.095866397757419
 20
2.425000000000004
 30
0.0
 11
4.145929214352122
 21
2.425000000000004
 31
0.0
  0
LINE
  5
235
330
1F
100
AcDbEntity
  8
0
  6
Continuous
 62
     4
370
    25
100
AcDbLine
 10
4.145929214352122
 20
-2.424999999999997
 30
0.0
 11
8.095866397757419
 21
-2.424999999999997
 31
0.0
  0
SPLINE
  5
236
330
1F
100
AcDbEntity
  8
0
  6
Continuous
 62
     4
370
    25
100
AcDbSpline
210
0.0
220
0.0
230
1.0
 70
     8
 71
     3
 72
    13
 73
     9
 74
     0
 42
0.000000001
 43
0.00000001
 40
0.0
 40
0.0
 40
0.0
 40
0.0
 40
0.3222394219314455
 40
0.5737650469880675
 40
0.760801454408004
 40
0.9074706334181288
 40
0.9867489211160059
 40
1.0
 40
1.0
 40
1.0
 40
1.0
 10
11.14592921435212
 20
1.958834232386472
 30
0.0
 10
10.98530370465659
 20
1.956043115155019
 30
0.0
 10
10.69930113375585
 20
1.951073377126512
 30
0.0
 10
10.32138419746033
 20
1.952995855048044
 30
0.0
 10
10.03249159044617
 20
1.958048580678742
 30
0.0
 10
9.829667629312041
 20
1.963837091306488
 30
0.0
 10
9.71237684003873
 20
1.967809076294735
 30
0.0
 10
9.667396529346576
 20
1.969599744581139
 30
0.0
 10
9.660954924186768
 20
1.969856185185833
 30
0.0
  0
SPLINE
  5
237
330
1F
100
AcDbEntity
  8
0
  6
Continuous
 62
     4
370
    25
100
AcDbSpline
210
0.0
220
0.0
230
1.0
 70
     8
 71
     3
 72
    11
 73
     7
 74
     0
 42
0.000000001
 43
0.00000001
 40
0.0
 40
0.0
 40
0.0
 40
0.0
 40
0.3736988060210065
 40
0.5345676218378896
 40
0.6943262554833707
 40
1.0
 40
1.0
 40
1.0
 40
1.0
 10
8.095842417484505
 20
-2.063999059835723
 30
0.0
 10
8.476838429976226
 20
-2.036843467292002
 30
0.0
 10
9.021844539297206
 20
-1.997998011294264
 30
0.0
 10
9.733146438588221
 20
-1.965639925120641
 30
0.0
 10
10.35850960870408
 20
-1.949054923989628
 30
0.0
 10
10.83378865122432
 20
-1.954957622243548
 30
0.0
 10
11.14592921435212
 20
-1.958834232386472
 30
0.0
  0
LINE
  5
238
330
1F
100
AcDbEntity
  8
0
  6
Continuous
 62
     1
370
    25
100
AcDbLine
 10
12.6699293619009
 20
0.6405554792125656
 30
0.0
 11
11.97468092498696
 21
0.9875295027094424
 31
0.0
  0
LINE
  5
239
330
1F
100
AcDbEntity
  8
0
  6
Continuous
 62
     1
370
    25
100
AcDbLine
 10
11.81484188139621
 20
1.985101784696894
 30
0.0
 11
11.14592921435212
 21
1.958834232386472
 31
0.0
  0
SPLINE
  5
23A
330
1F
100
AcDbEntity
  8
0
  6
Continuous
 62
     1
370
    25
100
AcDbSpline
210
0.0
220
0.0
230
1.0
 70
     8
 71
     3
 72
    21
 73
    17
 74
     0
 42
0.000000001
 43
0.00000001
 40
0.0
 40
0.0
 40
0.0
 40
0.0
 40
0.1092242992607956
 40
0.1914006543570518
 40
0.2458116712645714
 40
0.2875639172956818
 40
0.3304078545624929
 40
0.4186135312215516
 40
0.5148199894446137
 40
0.5781620900695258
 40
0.6410827430997896
 40
0.7041572574366954
 40
0.7659030244112387
 40
0.8249095981750886
 40
0.900000996033476
 40
1.0
 40
1.0
 40
1.0
 40
1.0
 10
18.21619450648825
 20
1.709883840356419
 30
0.0
 10
18.05696373079326
 20
1.697331537349164
 30
0.0
 10
17.77793356197492
 20
1.675335342129465
 30
0.0
 10
17.42050640349063
 20
1.658459307736145
 30
0.0
 10
17.1611718274462
 20
1.650273960023512
 30
0.0
 10
16.95887146610983
 20
1.646425394752839
 30
0.0
 10
16.70758014099437
 20
1.64433640943421
 30
0.0
 10
16.37724139845204
 20
1.647223358657378
 30
0.0
 10
16.01654022459971
 20
1.658844140709228
 30
0.0
 10
15.69272053404265
 20
1.675772415052158
 30
0.0
 10
15.41738200263944
 20
1.694656299982633
 30
0.0
 10
15.14429735241612
 20
1.717627021558961
 30
0.0
 10
14.87673270610415
 20
1.743964023295113
 30
0.0
 10
14.59202796953423
 20
1.776032603420212
 30
0.0
 10
14.25169802543101
 20
1.819303227711934
 30
0.0
 10
13.99645995467529
 20
1.858120406761792
 30
0.0
 10
13.85068638522841
 20
1.88028997860193
 30
0.0
  0
SPLINE
  5
23B
330
1F
100
AcDbEntity
  8
0
  6
Continuous
 62
     1
370
    25
100
AcDbSpline
210
0.0
220
0.0
230
1.0
 70
     8
 71
     3
 72
    14
 73
    10
 74
     0
 42
0.000000001
 43
0.00000001
 40
0.0
 40
0.0
 40
0.0
 40
0.0
 40
0.2348655802121492
 40
0.4112311841421188
 40
0.5498186963539108
 40
0.694839694672801
 40
0.8429814942780889
 40
0.9907619230334317
 40
0.9999999999999999
 40
0.9999999999999999
 40
0.9999999999999999
 40
0.9999999999999999
 10
13.85068638522841
 20
-1.88028997860193
 30
0.0
 10
13.99645999389901
 20
-1.858121359793692
 30
0.0
 10
14.25169813333241
 20
-1.819305849427856
 30
0.0
 10
14.59202768693626
 20
-1.776025737044037
 30
0.0
 10
14.87673353797942
 20
-1.743984235645591
 30
0.0
 10
15.1442940262659
 20
-1.717546204980252
 30
0.0
 10
15.41739468946486
 20
-1.694964556002319
 30
0.0
 10
15.60629843582876
 20
-1.681005445203823
 30
0.0
 10
15.70359877877536
 20
-1.67595404897795
 30
0.0
 10
15.70932337826051
 20
-1.675656853517403
 30
0.0
  0
LINE
  5
23C
330
1F
100
AcDbEntity
  8
0
  6
Continuous
 62
     1
370
    25
100
AcDbLine
 10
11.14592921435212
 20
-1.958834232386472
 30
0.0
 11
11.81484188139623
 21
-1.985101784696901
 31
0.0
  0
LINE
  5
23D
330
1F
100
AcDbEntity
  8
0
  6
Continuous
 62
     4
370
    25
100
AcDbLine
 10
2.0
 20
3.0
 30
0.0
 11
2.0
 21
-3.0
 31
0.0
  0
LINE
  5
23E
330
1F
100
AcDbEntity
  8
0
  6
Continuous
 62
     4
370
    25
100
AcDbLine
 10
-39.85407078564788
 20
2.999999999999993
 30
0.0
 11
-39.85407078564788
 21
-3.0
 31
0.0
  0
LINE
  5
23F
330
1F
100
AcDbEntity
  8
0
  6
Continuous
 62
     4
370
    25
100
AcDbLine
 10
4.145929214352122
 20
2.425000000000004
 30
0.0
 11
4.145929214352122
 21
-2.425000000000004
 31
0.0
  0
LINE
  5
240
330
1F
100
AcDbEntity
  8
0
  6
Continuous
 62
     4
370
    25
100
AcDbLine
 10
-40.85407078564788
 20
1.999999999999993
 30
0.0
 11
-40.85407078564788
 21
-2.0
 31
0.0
  0
SPLINE
  5
241
330
1F
100
AcDbEntity
  8
0
  6
Continuous
 62
     4
370
    25
100
AcDbSpline
210
0.0
220
0.0
230
1.0
 70
     8
 71
     3
 72
    14
 73
    10
 74
     0
 42
0.000000001
 43
0.00000001
 40
0.0
 40
0.0
 40
0.0
 40
0.0
 40
0.25
 40
0.25
 40
0.5
 40
0.5
 40
0.75
 40
0.75
 40
1.0
 40
1.0
 40
1.0
 40
1.0
 10
11.14592921435212
 20
1.390056916047911
 30
0.0
 10
10.89053892515918
 20
1.506859504531313
 30
0.0
 10
10.63696273825417
 20
1.616163394067449
 30
0.0
 10
10.13150786261355
 20
1.816844260404373
 30
0.0
 10
9.874800479602897
 20
1.908804066347543
 30
0.0
 10
9.365266636453839
 20
2.071563890189942
 30
0.0
 10
9.114670689851152
 20
2.142251452329397
 30
0.0
 10
8.604893649679525
 20
2.261610471292038
 30
0.0
 10
8.348261618872385
 20
2.309937158518245
 30
0.0
 10
8.095800788532188
 20
2.345907456217695
 30
0.0
  0
SPLINE
  5
242
330
1F
100
AcDbEntity
  8
0
  6
Continuous
 62
     4
370
    25
100
AcDbSpline
210
0.0
220
0.0
230
1.0
 70
     8
 71
     3
 72
    14
 73
    10
 74
     0
 42
0.000000001
 43
0.00000001
 40
0.0
 40
0.0
 40
0.0
 40
0.0
 40
0.25
 40
0.25
 40
0.5
 40
0.5
 40
0.75
 40
0.75
 40
1.0
 40
1.0
 40
1.0
 40
1.0
 10
8.09586639775739
 20
2.079099097341206
 30
0.0
 10
8.348322479243734
 20
2.006011011836243
 30
0.0
 10
8.604949077305463
 20
1.921746992647812
 30
0.0
 10
9.114714622234999
 20
1.734564280853895
 30
0.0
 10
9.36530508949187
 20
1.632080963727276
 30
0.0
 10
9.874828235021994
 20
1.410238916383882
 30
0.0
 10
10.13152992689473
 20
1.291110732738964
 30
0.0
 10
10.63697351317052
 20
1.042050621178547
 30
0.0
 10
10.89054445602875
 20
0.9113653722349753
 30
0.0
 10
11.14592921435212
 20
0.776324016298183
 30
0.0
  0
SPLINE
  5
243
330
1F
100
AcDbEntity
  8
0
  6
Continuous
 62
     4
370
    25
100
AcDbSpline
210
0.0
220
0.0
230
1.0
 70
     8
 71
     3
 72
    10
 73
     6
 74
     0
 42
0.000000001
 43
0.00000001
 40
0.0
 40
0.0
 40
0.0
 40
0.0
 40
0.1419746068495004
 40
0.5701552143275467
 40
1.0
 40
1.0
 40
1.0
 40
1.0
 10
9.659084840770163
 20
-1.970499902272458
 30
0.0
 10
9.585050939435462
 20
-1.996605181772502
 30
0.0
 10
9.287738512800246
 20
-2.101441261679433
 30
0.0
 10
8.767294875915354
 20
-2.23222970318556
 30
0.0
 10
8.319921384550128
 20
-2.307965907301266
 30
0.0
 10
8.095800788532188
 20
-2.345907456217695
 30
0.0
  0
LINE
  5
244
330
1F
100
AcDbEntity
  8
0
  6
Continuous
 62
     4
370
    25
100
AcDbLine
 10
8.095866397757419
 20
2.345936098185547
 30
0.0
 11
8.095866397757447
 21
2.425000000000004
 31
0.0
  0
LINE
  5
245
330
1F
100
AcDbEntity
  8
0
  6
Continuous
 62
     4
370
    25
100
AcDbLine
 10
8.095866397757447
 20
-2.424999999999997
 30
0.0
 11
8.09586639775739
 21
2.079369511154852
 31
0.0
  0
SPLINE
  5
246
330
1F
100
AcDbEntity
  8
0
  6
Continuous
 62
     4
370
    25
100
AcDbSpline
210
0.0
220
0.0
230
1.0
 70
    24
 71
     3
 72
    10
 73
     6
 74
     0
 42
0.000000001
 43
0.00000001
 40
0.0
 40
0.0
 40
0.0
 40
0.0
 40
0.5
 40
0.5
 40
1.0
 40
1.0
 40
1.0
 40
1.0
 10
11.14592921435212
 20
0.776324016298183
 30
0.0
 10
11.14592921435212
 20
0.7641649386010769
 30
0.0
 10
11.14592921435212
 20
0.7306484959520034
 30
0.0
 10
11.14592921435212
 20
0.6270646379713938
 30
0.0
 10
11.14592921435212
 20
0.5573076509546198
 30
0.0
 10
11.14592921435212
 20
0.4781614982864468
 30
0.0
  0
SPLINE
  5
247
330
1F
100
AcDbEntity
  8
0
  6
Continuous
 62
     4
370
    25
100
AcDbSpline
210
0.0
220
0.0
230
1.0
 70
     8
 71
     3
 72
    14
 73
    10
 74
     0
 42
0.000000001
 43
0.00000001
 40
0.0
 40
0.0
 40
0.0
 40
0.0
 40
0.25
 40
0.25
 40
0.5
 40
0.5
 40
0.75
 40
0.75
 40
1.0
 40
1.0
 40
1.0
 40
1.0
 10
11.14592921435212
 20
0.4781614982864468
 30
0.0
 10
10.89054312204155
 20
0.5771138005511389
 30
0.0
 10
10.63697091437552
 20
0.6733449540983045
 30
0.0
 10
10.13152460522471
 20
0.8577053419823315
 30
0.0
 10
9.874821540709206
 20
0.9463952288590249
 30
0.0
 10
9.36529581502117
 20
1.112625822923782
 30
0.0
 10
9.114704026216486
 20
1.18998664488047
 30
0.0
 10
8.60493570874877
 20
1.332514090998593
 30
0.0
 10
8.34830780035955
 20
1.397357659857917
 30
0.0
 10
8.095850573489201
 20
1.454351371364233
 30
0.0
  0
SPLINE
  5
248
330
1F
100
AcDbEntity
  8
0
  6
Continuous
 62
     4
370
    25
100
AcDbSpline
210
0.0
220
0.0
230
1.0
 70
     8
 71
     3
 72
    14
 73
    10
 74
     0
 42
0.000000001
 43
0.00000001
 40
0.0
 40
0.0
 40
0.0
 40
0.0
 40
0.25
 40
0.25
 40
0.5
 40
0.5
 40
0.75
 40
0.75
 40
1.0
 40
1.0
 40
1.0
 40
1.0
 10
11.14592921435212
 20
-1.923894547258683
 30
0.0
 10
10.89054243448925
 20
-1.891772419416533
 30
0.0
 10
10.63696957492658
 20
-1.849739577934479
 30
0.0
 10
10.13152186237477
 20
-1.747244270837314
 30
0.0
 10
9.874818090383599
 20
-1.686401110981414
 30
0.0
 10
9.365291034853954
 20
-1.548191756956975
 30
0.0
 10
9.114698564905325
 20
-1.471135339972271
 30
0.0
 10
8.60492881844155
 20
-1.301788584146387
 30
0.0
 10
8.34830023469624
 20
-1.209695274926219
 30
0.0
 10
8.095842417484505
 20
-1.112368597208899
 30
0.0
  0
SPLINE
  5
249
330
1F
100
AcDbEntity
  8
0
  6
Continuous
 62
     4
370
    25
100
AcDbSpline
210
0.0
220
0.0
230
1.0
 70
    24
 71
     3
 72
    14
 73
    10
 74
     0
 42
0.000000001
 43
0.00000001
 40
0.0
 40
0.0
 40
0.0
 40
0.0
 40
0.25
 40
0.25
 40
0.5
 40
0.5
 40
0.75
 40
0.75
 40
1.0
 40
1.0
 40
1.0
 40
1.0
 10
11.14592921435212
 20
0.4781614982864468
 30
0.0
 10
11.14592921435212
 20
0.2571286280684646
 30
0.0
 10
11.14592921435212
 20
0.0273101063802343
 30
0.0
 10
11.14592921435212
 20
-0.4292999190816218
 30
0.0
 10
11.14592921435212
 20
-0.6558635608426968
 30
0.0
 10
11.14592921435212
 20
-1.082778174078349
 30
0.0
 10
11.14592921435212
 20
-1.282901667598459
 30
0.0
 10
11.14592921435212
 20
-1.638766185279486
 30
0.0
 10
11.14592921435212
 20
-1.794420849929509
 30
0.0
 10
11.14592921435212
 20
-1.923894547258691
 30
0.0
  0
SPLINE
  5
24A
330
1F
100
AcDbEntity
  8
0
  6
Continuous
 62
     4
370
    25
100
AcDbSpline
210
0.0
220
0.0
230
1.0
 70
    24
 71
     3
 72
    12
 73
     8
 74
     0
 42
0.000000001
 43
0.00000001
 40
0.0
 40
0.0
 40
0.0
 40
0.0
 40
0.0755546688373552
 40
0.3434840328329357
 40
0.6191833665352121
 40
0.8601596290653701
 40
0.9999999999999999
 40
0.9999999999999999
 40
0.9999999999999999
 40
0.9999999999999999
 10
11.14592921435212
 20
1.954445536919486
 30
0.0
 10
11.14592921435212
 20
1.954564580809681
 30
0.0
 10
11.14592921435212
 20
1.955105774042572
 30
0.0
 10
11.14592921435212
 20
1.894444338971063
 30
0.0
 10
11.14592921435212
 20
1.754448249234059
 30
0.0
 10
11.14592921435212
 20
1.587189876454822
 30
0.0
 10
11.14592921435212
 20
1.45527571348358
 30
0.0
 10
11.14592921435212
 20
1.406835272966063
 30
0.0
  0
SPLINE
  5
24B
330
1F
100
AcDbEntity
  8
0
  6
Continuous
 62
     1
370
    25
100
AcDbSpline
210
0.0
220
0.0
230
1.0
 70
     8
 71
     3
 72
    15
 73
    11
 74
     0
 42
0.000000001
 43
0.00000001
 40
0.0
 40
0.0
 40
0.0
 40
0.0
 40
0.1416774813772609
 40
0.2830311400626628
 40
0.4243992497377903
 40
0.5661149732742996
 40
0.7077518616678435
 40
0.8490935257534535
 40
0.975808206074506
 40
1.0
 40
1.0
 40
1.0
 40
1.0
 10
19.14592921435212
 20
-1.972430660920537
 30
0.0
 10
18.83858175652648
 20
-1.907776543144685
 30
0.0
 10
18.22458932429151
 20
-1.778616083162198
 30
0.0
 10
17.30439027575099
 20
-1.480578907068598
 30
0.0
 10
16.38410623341878
 20
-1.122000068877746
 30
0.0
 10
15.4626620502886
 20
-0.7120635368471468
 30
0.0
 10
14.54144651407387
 20
-0.2695511049057515
 30
0.0
 10
13.6530756031766
 20
0.1672362760561512
 30
0.0
 10
13.01955014072183
 20
0.4802125639399648
 30
0.0
 10
12.69215619449608
 20
0.6286694967525577
 30
0.0
 10
12.63967172079083
 20
0.6524686050634756
 30
0.0
  0
SPLINE
  5
24C
330
1F
100
AcDbEntity
  8
0
  6
Continuous
 62
     1
370
    25
100
AcDbSpline
210
0.0
220
0.0
230
1.0
 70
    24
 71
     3
 72
     8
 73
     4
 74
     0
 42
0.000000001
 43
0.00000001
 40
0.237672890800841
 40
0.237672890800841
 40
0.237672890800841
 40
0.237672890800841
 40
1.0
 40
1.0
 40
1.0
 40
1.0
 10
19.14592921435212
 20
-2.194828424894775
 30
0.0
 10
19.14592921435212
 20
-2.120518910219502
 30
0.0
 10
19.14592921435212
 20
-2.04623965244904
 30
0.0
 10
19.14592921435212
 20
-1.972430660920537
 30
0.0
  0
SPLINE
  5
24D
330
1F
100
AcDbEntity
  8
0
  6
Continuous
 62
     1
370
    25
100
AcDbSpline
210
0.0
220
0.0
230
1.0
 70
     8
 71
     3
 72
    14
 73
    10
 74
     0
 42
0.000000001
 43
0.00000001
 40
0.0000928854713156
 40
0.0000928854713156
 40
0.0000928854713156
 40
0.0000928854713156
 40
0.0001183277107333
 40
0.0001183277107333
 40
0.0001183277107333
 40
0.0001484601181864
 40
0.0001484601181864
 40
0.0001484601181864
 40
0.0001636242569599
 40
0.0001636242569599
 40
0.0001636242569599
 40
0.0001636242569599
 10
19.10706335486879
 20
-2.342506998738937
 30
0.0
 10
19.10045408777226
 20
-2.346788335512421
 30
0.0
 10
19.0932514864338
 20
-2.34999951061543
 30
0.0
 10
19.08592263980447
 20
-2.352070755981011
 30
0.0
 10
19.07723898267031
 20
-2.354524891741384
 30
0.0
 10
19.06818504554636
 20
-2.355452957621104
 30
0.0
 10
19.05932250690162
 20
-2.355035240761659
 30
0.0
 10
19.05482787806571
 20
-2.354823396016378
 30
0.0
 10
19.05034636117026
 20
-2.3542695804991
 30
0.0
 10
19.0459292143521
 20
-2.353405889351997
 30
0.0
  0
SPLINE
  5
24E
330
1F
100
AcDbEntity
  8
0
  6
Continuous
 62
     1
370
    25
100
AcDbSpline
210
0.0
220
0.0
230
1.0
 70
     8
 71
     3
 72
    30
 73
    26
 74
     0
 42
0.000000001
 43
0.00000001
 40
0.0
 40
0.0
 40
0.0
 40
0.0
 40
0.1250000000000004
 40
0.1250000000000004
 40
0.1875000000000007
 40
0.1875000000000007
 40
0.2500000000000009
 40
0.2500000000000009
 40
0.3750000000000008
 40
0.3750000000000008
 40
0.4375000000000007
 40
0.4375000000000007
 40
0.5000000000000007
 40
0.5000000000000007
 40
0.5625000000000006
 40
0.5625000000000006
 40
0.6250000000000004
 40
0.6250000000000004
 40
0.7500000000000003
 40
0.7500000000000003
 40
0.8125000000000002
 40
0.8125000000000002
 40
0.8750000000000001
 40
0.8750000000000001
 40
1.0
 40
1.0
 40
1.0
 40
1.0
 10
19.04592921435213
 20
-2.353405889351947
 30
0.0
 10
18.71863920506973
 20
-2.289410397422806
 30
0.0
 10
18.38460938484482
 20
-2.204399110005802
 30
0.0
 10
17.89274688597692
 20
-2.050214452871224
 30
0.0
 10
17.73004268947528
 20
-1.994423523148868
 30
0.0
 10
17.4002057945585
 20
-1.873938307113825
 30
0.0
 10
17.23439383095769
 20
-1.809377004422835
 30
0.0
 10
16.73912390097425
 20
-1.604611728455332
 30
0.0
 10
16.41382328591209
 20
-1.453692290792425
 30
0.0
 10
15.91760131544976
 20
-1.209158839204981
 30
0.0
 10
15.75210312168161
 20
-1.124818821332589
 30
0.0
 10
15.4241357928455
 20
-0.9521650140027376
 30
0.0
 10
15.26147103224415
 20
-0.8638318043215136
 30
0.0
 10
14.93166912654712
 20
-0.6830031366556142
 30
0.0
 10
14.76585900237242
 20
-0.5907398453417585
 30
0.0
 10
14.43565129894114
 20
-0.4043098484817804
 30
0.0
 10
14.27232446348484
 20
-0.3103520985589654
 30
0.0
 10
13.78158673670691
 20
-0.0269417235489513
 30
0.0
 10
13.44756444914822
 20
0.1651844295442473
 30
0.0
 10
12.95552585252759
 20
0.447053811068109
 30
0.0
 10
12.79289855785686
 20
0.5399867402362091
 30
0.0
 10
12.46313224661577
 20
0.7239613245670213
 30
0.0
 10
12.29732427007573
 20
0.8147444266784944
 30
0.0
 10
11.80197200135876
 20
1.080820552251936
 30
0.0
 10
11.4767353399867
 20
1.249484731647271
 30
0.0
 10
11.14592921435212
 20
1.40683527296607
 30
0.0
  0
SPLINE
  5
24F
330
1F
100
AcDbEntity
  8
0
  6
Continuous
 62
     1
370
    25
100
AcDbSpline
210
0.0
220
0.0
230
1.0
 70
     8
 71
     3
 72
    30
 73
    26
 74
     0
 42
0.000000001
 43
0.00000001
 40
0.0
 40
0.0
 40
0.0
 40
0.0
 40
0.1249999999999999
 40
0.1249999999999999
 40
0.1875000000000002
 40
0.1875000000000002
 40
0.2500000000000007
 40
0.2500000000000007
 40
0.3750000000000008
 40
0.3750000000000008
 40
0.4375000000000007
 40
0.4375000000000007
 40
0.5000000000000004
 40
0.5000000000000004
 40
0.5625000000000003
 40
0.5625000000000003
 40
0.6250000000000002
 40
0.6250000000000002
 40
0.75
 40
0.75
 40
0.8124999999999999
 40
0.8124999999999999
 40
0.8749999999999998
 40
0.8749999999999998
 40
1.0
 40
1.0
 40
1.0
 40
1.0
 10
11.14592921435036
 20
0.781363625757983
 30
0.0
 10
11.47673533998505
 20
0.6005496208189456
 30
0.0
 10
11.80197200135723
 20
0.4139779925257088
 30
0.0
 10
12.29732427007434
 20
0.1297703781159001
 30
0.0
 10
12.46313224661441
 20
0.0344141596667029
 30
0.0
 10
12.79289855785561
 20
-0.1556803354122991
 30
0.0
 10
12.95552585252639
 20
-0.2501624415143837
 30
0.0
 10
13.44756444914714
 20
-0.5321750621032564
 30
0.0
 10
13.78158673670592
 20
-0.7182896096342759
 30
0.0
 10
14.27232446348404
 20
-0.9838925476769589
 30
0.0
 10
14.43565129894034
 20
-1.070453577225202
 30
0.0
 10
14.76585900237171
 20
-1.239176668260981
 30
0.0
 10
14.93166912654647
 20
-1.321142093399153
 30
0.0
 10
15.26147103224361
 20
-1.478690290159761
 30
0.0
 10
15.42413579284505
 20
-1.55408177707293
 30
0.0
 10
15.75210312168122
 20
-1.698245093592298
 30
0.0
 10
15.91760131544942
 20
-1.767021684875694
 30
0.0
 10
16.41382328591189
 20
-1.961332734452043
 30
0.0
 10
16.73912390097416
 20
-2.074264207497144
 30
0.0
 10
17.23439383095774
 20
-2.216180423919191
 30
0.0
 10
17.40020579455859
 20
-2.258829896771751
 30
0.0
 10
17.73004268947548
 20
-2.333995933885866
 30
0.0
 10
17.89274688597715
 20
-2.366445744005951
 30
0.0
 10
18.38460938484522
 20
-2.448537198400793
 30
0.0
 10
18.71863920507025
 20
-2.482634616011936
 30
0.0
 10
18.92079872793489
 20
-2.485335837796722
 30
0.0
  0
SPLINE
  5
250
330
1F
100
AcDbEntity
  8
0
  6
Continuous
 62
     1
370
    25
100
AcDbSpline
210
0.0
220
0.0
230
1.0
 70
     8
 71
     3
 72
     9
 73
     5
 74
     0
 42
0.000000001
 43
0.00000001
 40
0.0
 40
0.0
 40
0.0
 40
0.0
 40
0.3049140050376098
 40
1.0
 40
1.0
 40
1.0
 40
1.0
 10
12.92664452509905
 20
-0.2320765635048403
 30
0.0
 10
12.74565617939675
 20
-0.1600493849032887
 30
0.0
 10
12.15208440928407
 20
0.0761719017924989
 30
0.0
 10
11.55851263893015
 20
0.3133218739405876
 30
0.0
 10
11.14592921435212
 20
0.4781614982864468
 30
0.0
  0
SPLINE
  5
251
330
1F
100
AcDbEntity
  8
0
  6
Continuous
 62
     4
370
    25
100
AcDbSpline
210
0.0
220
0.0
230
1.0
 70
    24
 71
     3
 72
    10
 73
     6
 74
     0
 42
0.000000001
 43
0.00000001
 40
0.0
 40
0.0
 40
0.0
 40
0.0
 40
0.4999999999999996
 40
0.4999999999999996
 40
1.0
 40
1.0
 40
1.0
 40
1.0
 10
11.14592921435212
 20
0.7813636257571517
 30
0.0
 10
11.14592921435212
 20
0.7779707746838298
 30
0.0
 10
11.14592921435212
 20
0.7484769579925299
 30
0.0
 10
11.14592921435212
 20
0.6422921891799049
 30
0.0
 10
11.14592921435212
 20
0.5660615794065293
 30
0.0
 10
11.14592921435212
 20
0.4781614982864468
 30
0.0
  0
LINE
  5
252
330
1F
100
AcDbEntity
  8
0
  6
Continuous
 62
     4
370
    25
100
AcDbLine
 10
11.14592921435212
 20
0.7813636257608678
 30
0.0
 11
11.14592921435212
 21
1.406835272966063
 31
0.0
  0
SPLINE
  5
253
330
1F
100
AcDbEntity
  8
0
  6
Continuous
 62
     1
370
    25
100
AcDbSpline
210
0.0
220
0.0
230
1.0
 70
     8
 71
     3
 72
    16
 73
    12
 74
     0
 42
0.000000001
 43
0.00000001
 40
0.0
 40
0.0
 40
0.0
 40
0.0
 40
0.1257289456536618
 40
0.2511665025469967
 40
0.3766170702071315
 40
0.5023804430468396
 40
0.6280728439228325
 40
0.7534996027340256
 40
0.8659475463291875
 40
0.9787753309025851
 40
1.0
 40
1.0
 40
1.0
 40
1.0
 10
19.14592921435212
 20
0.0000000000000071
 30
0.0
 10
18.83858538399244
 20
0.1417724395126143
 30
0.0
 10
18.22461002175973
 20
0.4249887474583502
 30
0.0
 10
17.30439681677728
 20
0.831435200208972
 30
0.0
 10
16.38409754484991
 20
1.200343118810842
 30
0.0
 10
15.46268118905553
 20
1.514725377270082
 30
0.0
 10
14.54147736593302
 20
1.760623323969448
 30
0.0
 10
13.65309991869964
 20
1.923565463525684
 30
0.0
 10
12.79636662868558
 20
1.997274027632848
 30
0.0
 10
12.19347665624014
 20
2.013545527018088
 30
0.0
 10
11.86596577977838
 20
1.984230831908064
 30
0.0
 10
11.81411063063075
 20
1.979589404717707
 30
0.0
  0
SPLINE
  5
254
330
1F
100
AcDbEntity
  8
0
  6
Continuous
 62
     1
370
    25
100
AcDbSpline
210
0.0
220
0.0
230
1.0
 70
    24
 71
     3
 72
    10
 73
     6
 74
     0
 42
0.000000001
 43
0.00000001
 40
0.0
 40
0.0
 40
0.0
 40
0.0
 40
0.5
 40
0.5
 40
1.0
 40
1.0
 40
1.0
 40
1.0
 10
19.14592921435212
 20
-1.972430660920537
 30
0.0
 10
19.14592921435212
 20
-1.758981417922463
 30
0.0
 10
19.14592921435212
 20
-1.464315203977847
 30
0.0
 10
19.14592921435212
 20
-0.7748529490402305
 30
0.0
 10
19.14592921435212
 20
-0.3830246231221892
 30
0.0
 10
19.14592921435212
 20
0.0000000000000071
 30
0.0
  0
SPLINE
  5
255
330
1F
100
AcDbEntity
  8
0
  6
Continuous
 62
     4
370
    25
100
AcDbSpline
210
0.0
220
0.0
230
1.0
 70
    24
 71
     3
 72
    12
 73
     8
 74
     0
 42
0.000000001
 43
0.00000001
 40
0.0
 40
0.0
 40
0.0
 40
0.0
 40
0.0776936871797585
 40
0.3450031055660787
 40
0.6200645151944285
 40
0.8604831972725469
 40
1.0
 40
1.0
 40
1.0
 40
1.0
 10
11.14592921435212
 20
1.954485357276234
 30
0.0
 10
11.14592921435212
 20
1.954621122337656
 30
0.0
 10
11.14592921435212
 20
1.955223994585332
 30
0.0
 10
11.14592921435212
 20
1.894487594413981
 30
0.0
 10
11.14592921435212
 20
1.754438004368666
 30
0.0
 10
11.14592921435212
 20
1.587191150611289
 30
0.0
 10
11.14592921435212
 20
1.455276055702178
 30
0.0
 10
11.14592921435212
 20
1.406835272966063
 30
0.0
  0
SPLINE
  5
256
330
1F
100
AcDbEntity
  8
0
  6
Continuous
 62
     1
370
    25
100
AcDbSpline
210
0.0
220
0.0
230
1.0
 70
     8
 71
     3
 72
     9
 73
     5
 74
     0
 42
0.000000001
 43
0.00000001
 40
0.0
 40
0.0
 40
0.0
 40
0.0
 40
0.9915456013902245
 40
1.0
 40
1.0
 40
1.0
 40
1.0
 10
19.14592921435212
 20
1.75
 30
0.0
 10
18.83857187101847
 20
1.74961856729626
 30
0.0
 10
18.52859384993428
 20
1.749233882312318
 30
0.0
 10
18.21873008188928
 20
1.709886913716218
 30
0.0
 10
18.21611037007949
 20
1.709554258759617
 30
0.0
  0
SPLINE
  5
257
330
1F
100
AcDbEntity
  8
0
  6
Continuous
 62
     1
370
    25
100
AcDbSpline
210
0.0
220
0.0
230
1.0
 70
    24
 71
     3
 72
    14
 73
    10
 74
     0
 42
0.000000001
 43
0.00000001
 40
0.0
 40
0.0
 40
0.0
 40
0.0
 40
0.25
 40
0.25
 40
0.5
 40
0.5
 40
0.75
 40
0.75
 40
1.0
 40
1.0
 40
1.0
 40
1.0
 10
19.14592921435212
 20
0.0000000000000071
 30
0.0
 10
19.14592921435212
 20
0.2082108792534925
 30
0.0
 10
19.14592921435212
 20
0.4138589409386384
 30
0.0
 10
19.14592921435212
 20
0.7984313748943848
 30
0.0
 10
19.14592921435212
 20
0.9771168259369176
 30
0.0
 10
19.14592921435212
 20
1.288142280379567
 30
0.0
 10
19.14592921435212
 20
1.420316556414143
 30
0.0
 10
19.14592921435212
 20
1.627666385528393
 30
0.0
 10
19.14592921435212
 20
1.702851936090973
 30
0.0
 10
19.14592921435212
 20
1.75
 30
0.0
  0
SPLINE
  5
258
330
1F
100
AcDbEntity
  8
0
  6
Continuous
 62
     1
370
    25
100
AcDbSpline
210
0.0
220
0.0
230
1.0
 70
     8
 71
     3
 72
    11
 73
     7
 74
     0
 42
0.000000001
 43
0.00000001
 40
0.0
 40
0.0
 40
0.0
 40
0.0
 40
0.0859214783951619
 40
0.3903299715775023
 40
0.695766734518603
 40
1.0
 40
1.0
 40
1.0
 40
1.0
 10
13.8540926456518
 20
-1.871712366021193
 30
0.0
 10
13.77653533248341
 20
-1.886367480936862
 30
0.0
 10
13.42420266304993
 20
-1.95294373981114
 30
0.0
 10
12.79634769889276
 20
-1.996727648757862
 30
0.0
 10
11.97062752972909
 20
-2.008767320891387
 30
0.0
 10
11.42046664429438
 20
-1.952148216158861
 30
0.0
 10
11.14592921435212
 20
-1.923894547258691
 30
0.0
  0
SPLINE
  5
259
330
1F
100
AcDbEntity
  8
0
  6
Continuous
 62
     4
370
    25
100
AcDbSpline
210
0.0
220
0.0
230
1.0
 70
    24
 71
     3
 72
    14
 73
    10
 74
     0
 42
0.000000001
 43
0.00000001
 40
0.0
 40
0.0
 40
0.0
 40
0.0
 40
0.25
 40
0.25
 40
0.5
 40
0.5
 40
0.75
 40
0.75
 40
1.0
 40
1.0
 40
1.0
 40
1.0
 10
11.14592921435212
 20
0.4781614982864468
 30
0.0
 10
11.14592921435212
 20
0.2571286280684646
 30
0.0
 10
11.14592921435212
 20
0.0273101063802343
 30
0.0
 10
11.14592921435212
 20
-0.4292999190816218
 30
0.0
 10
11.14592921435212
 20
-0.6558635608426968
 30
0.0
 10
11.14592921435212
 20
-1.082778174078349
 30
0.0
 10
11.14592921435212
 20
-1.282901667598459
 30
0.0
 10
11.14592921435212
 20
-1.638766185279486
 30
0.0
 10
11.14592921435212
 20
-1.794420849929509
 30
0.0
 10
11.14592921435212
 20
-1.923894547258691
 30
0.0
  0
LINE
  5
25A
330
1F
100
AcDbEntity
  8
0
  6
Continuous
 62
     1
370
    25
100
AcDbLine
 10
19.14592921435212
 20
-2.394828426641908
 30
0.0
 11
19.14592921435212
 21
-2.396839121795431
 31
0.0
  0
SPLINE
  5
25B
330
1F
100
AcDbEntity
  8
0
  6
Continuous
 62
     1
370
    25
100
AcDbSpline
210
0.0
220
0.0
230
1.0
 70
     8
 71
     3
 72
    11
 73
     7
 74
     0
 42
0.000000001
 43
0.00000001
 40
0.0
 40
0.0
 40
0.0
 40
0.0
 40
0.1841270874031865
 40
0.4005974422577629
 40
0.6983222576115024
 40
0.9625093047682329
 40
0.9625093047682329
 40
0.9625093047682329
 40
0.9625093047682329
 10
15.70932337826051
 20
1.675656853517403
 30
0.0
 10
15.91422361863903
 20
1.761060549904649
 30
0.0
 10
16.36001632285905
 20
1.946869725591945
 30
0.0
 10
17.13567717289635
 20
2.200077607300479
 30
0.0
 10
18.00172220048205
 20
2.409139384777867
 30
0.0
 10
18.62687810707346
 20
2.462785774586957
 30
0.0
 10
18.92079872793487
 20
2.485335837796735
 30
0.0
  0
SPLINE
  5
25C
330
1F
100
AcDbEntity
  8
0
  6
Continuous
 62
     1
370
    25
100
AcDbSpline
210
0.0
220
0.0
230
1.0
 70
    24
 71
     3
 72
    10
 73
     6
 74
     0
 42
0.000000001
 43
0.00000001
 40
0.0
 40
0.0
 40
0.0
 40
0.0
 40
0.5000000000000004
 40
0.5000000000000004
 40
0.7032202513050103
 40
0.7032202513050103
 40
0.7032202513050103
 40
0.7032202513050103
 10
19.14592921435212
 20
1.75
 30
0.0
 10
19.14592921435212
 20
1.842051188353643
 30
0.0
 10
19.14592921435212
 20
1.946929538848359
 30
0.0
 10
19.14592921435212
 20
2.102696835136075
 30
0.0
 10
19.14592921435213
 20
2.148632022441247
 30
0.0
 10
19.14592921435213
 20
2.194828424894681
 30
0.0
  0
LINE
  5
25D
330
1F
100
AcDbEntity
  8
중심선
100
AcDbLine
 10
-43.85407078564788
 20
-0.0000000000000071
 30
0.0
 11
22.14592921435212
 21
0.0000000000000071
 31
0.0
  0
CIRCLE
  5
25E
330
1F
100
AcDbEntity
  8
외형선
100
AcDbCircle
 10
0.0
 20
0.0
 30
0.0
 40
3.000000000000005
  0
DIMENSION
  5
25F
330
1F
100
AcDbEntity
  8
치수문자_일반주서
100
AcDbDimension
  2
*D15
 10
-52.35052880725995
 20
-3.000000000000048
 30
0.0
 11
-52.35052880725996
 21
-0.0000000000000071
 31
0.0
 70
   160
  1
%%c<>
 71
     2
 42
5.999999999999993
 52
-270.0
  3
SLDDIMSTYLE0
100
AcDbAlignedDimension
 13
-39.85407078564788
 23
2.999999999999993
 33
0.0
 14
-39.85407078564788
 24
-3.0
 34
0.0
 50
90.0000000000002
100
AcDbRotatedDimension
  0
DIMENSION
  5
260
330
1F
100
AcDbEntity
  8
치수문자_일반주서
100
AcDbDimension
  2
*D16
 10
11.14592921435212
 20
20.89999999999966
 30
0.0
 11
15.14592921435212
 21
20.89999999999966
 31
0.0
 70
   160
  1
<>
 71
     2
 42
8.0
  3
SLDDIMSTYLE1
100
AcDbAlignedDimension
 13
19.14592921435212
 23
2.399999999999999
 33
0.0
 14
11.14592921435212
 24
1.959423541878714
 34
0.0
100
AcDbRotatedDimension
1001
ACAD_DSTYLE_DIMFLIPARROW_SYMBOL
1070
   385
1070
     0
1001
ACAD_DSTYLE_DIMFLIPARROW_WHICH_SYMBOL
1070
   386
1070
     3
  0
DIMENSION
  5
261
330
1F
100
AcDbEntity
  8
치수문자_일반주서
100
AcDbDimension
  2
*D17
 10
-40.85407078564788
 20
42.9583245050443
 30
0.0
 11
-10.85407078564788
 21
42.9583245050443
 31
0.0
 70
   160
  1
<>
 71
     2
 42
60.0
  3
SLDDIMSTYLE1
100
AcDbAlignedDimension
 13
19.14592921435212
 23
2.399999999999999
 33
0.0
 14
-40.85407078564788
 24
1.999999999999993
 34
0.0
100
AcDbRotatedDimension
  0
DIMENSION
  5
262
330
1F
100
AcDbEntity
  8
치수문자_일반주서
100
AcDbDimension
  2
*D18
 10
4.145929214352122
 20
30.31999999999866
 30
0.0
 11
11.64592921435212
 21
30.31999999999866
 31
0.0
 70
   160
  1
<>
 71
     2
 42
15.0
  3
SLDDIMSTYLE0
100
AcDbAlignedDimension
 13
19.14592921435212
 23
2.396839121795267
 33
0.0
 14
4.145929214352122
 24
2.425000000000004
 34
0.0
 50
-0.0000000000022354
100
AcDbRotatedDimension
  0
DIMENSION
  5
263
330
1F
100
AcDbEntity
  8
치수문자_일반주서
100
AcDbDimension
  2
*D19
 10
34.75496420088499
 20
-2.49482842664185
 30
0.0
 11
34.75496420088498
 21
0.0000000000000568
 31
0.0
 70
   160
  1
%%c<>
 71
     2
 42
5.000615778149559
 52
-270.0
  3
SLDDIMSTYLE0
100
AcDbAlignedDimension
 13
19.14592921435212
 23
2.505787351507649
 33
0.0
 14
19.0459292143521
 24
-2.494828426641909
 34
0.0
 50
90.0000000000002
100
AcDbRotatedDimension
1001
ACAD_DSTYLE_DIMFLIPARROW_SYMBOL
1070
   385
1070
     0
1001
ACAD_DSTYLE_DIMFLIPARROW_WHICH_SYMBOL
1070
   386
1070
     3
  0
INSERT
  5
264
330
1F
100
AcDbEntity
  8
외형선
100
AcDbBlockReference
  2
SW_DOWELSYMBOL_0
 10
0.0
 20
0.0
 30
0.0
  0
ARC
  5
2B2
330
1F
100
AcDbEntity
  8
0
  6
Continuous
 62
     1
370
    25
100
AcDbCircle
 10
18.84592921435212
 20
2.19482842664191
 30
0.0
 40
0.2999999999999999
100
AcDbArc
 50
359.9999996663038
 51
75.54822469282922
  0
SPLINE
  5
2B3
330
1F
100
AcDbEntity
  8
0
  6
Continuous
 62
     1
370
    25
100
AcDbSpline
210
0.0
220
0.0
230
1.0
 70
    24
 71
     3
 72
     8
 73
     4
 74
     0
 42
0.000000001
 43
0.00000001
 40
0.9970106327814858
 40
0.9970106327814858
 40
0.9970106327814858
 40
0.9970106327814858
 40
1.0
 40
1.0
 40
1.0
 40
1.0
 10
19.14592921435212
 20
2.394828426641915
 30
0.0
 10
19.14592921435212
 20
2.395498808850447
 30
0.0
 10
19.14592921435212
 20
2.396169041267991
 30
0.0
 10
19.14592921435212
 20
2.396839121795267
 30
0.0
  0
ARC
  5
2B4
102
{ACAD_REACTORS
102
}
330
1F
100
AcDbEntity
  8
0
  6
Continuous
 62
     1
370
    25
100
AcDbCircle
 10
18.84592921435212
 20
-2.194828426641895
 30
0.0
 40
0.2999999999999999
100
AcDbArc
 50
284.4517753071707
 51
0.0000003336961638
  0
DIMENSION
  5
2B5
102
{ACAD_REACTORS
102
}
102
{ACAD_XDICTIONARY
360
2B6
102
}
330
1F
100
AcDbEntity
  8
치수문자_일반주서
100
AcDbDimension
  2
*D21
 10
18.84592921435212
 20
-2.194828426641895
 30
0.0
 11
25.60510378351701
 21
-20.00775616698727
 31
0.0
 70
   164
  1
<>
 71
     5
 42
0.2999999999999999
  3
SLDDIMSTYLE0
100
AcDbRadialDimension
 15
18.95236054219301
 25
-2.47531438431897
 35
0.0
 40
0.0
1001
ACAD_DSTYLE_DIMRADIAL_EXTENSION
1070
   387
1070
     1
1070
   388
1040
4.964620042253235
1070
   390
1040
0.0000000058240968
1001
ACAD
1000
DSTYLE
1002
{
1070
    78
1070
     8
1002
}
  0
ENDSEC
  0
SECTION
  2
OBJECTS
  0
DICTIONARY
  5
C
330
0
100
AcDbDictionary
281
     1
  3
ACAD_GROUP
350
D
  3
ACAD_IMAGE_VARS
350
13A
  3
ACAD_LAYOUT
350
1A
  3
ACAD_MLINESTYLE
350
17
  3
ACAD_PLOTSETTINGS
350
19
  3
ACAD_PLOTSTYLENAME
350
E
  3
ACAD_SCALELIST
350
47
  3
APPDATA
350
138
  3
DWGPROPS
350
2C2
  0
DICTIONARY
  5
2B6
330
2B5
100
AcDbDictionary
280
     1
281
     1
  0
DICTIONARY
  5
D
102
{ACAD_REACTORS
330
C
102
}
330
C
100
AcDbDictionary
281
     1
  0
RASTERVARIABLES
  5
13A
102
{ACAD_REACTORS
330
C
102
}
330
C
100
AcDbRasterVariables
 90
        0
 70
     1
 71
     1
 72
     1
  0
DICTIONARY
  5
1A
102
{ACAD_REACTORS
330
C
102
}
330
C
100
AcDbDictionary
281
     1
  3
Layout1
350
1E
  3
Layout2
350
26
  3
Model
350
22
  0
DICTIONARY
  5
17
102
{ACAD_REACTORS
330
C
102
}
330
C
100
AcDbDictionary
281
     1
  3
Standard
350
18
  0
DICTIONARY
  5
19
102
{ACAD_REACTORS
330
C
102
}
330
C
100
AcDbDictionary
281
     1
  0
ACDBDICTIONARYWDFLT
  5
E
102
{ACAD_REACTORS
330
C
102
}
330
C
100
AcDbDictionary
281
     1
  3
Normal
350
F
100
AcDbDictionaryWithDefault
340
F
  0
DICTIONARY
  5
47
102
{ACAD_REACTORS
330
C
102
}
330
C
100
AcDbDictionary
281
     1
  3
A0
350
48
  3
A1
350
49
  3
A2
350
4A
  3
A3
350
4B
  3
A4
350
4C
  3
A5
350
4D
  3
A6
350
4E
  3
A7
350
4F
  3
A8
350
50
  3
A9
350
51
  3
B0
350
52
  3
B1
350
53
  3
B2
350
54
  3
B3
350
55
  3
B4
350
56
  3
B5
350
57
  3
B6
350
58
  3
B7
350
59
  3
B8
350
5A
  3
B9
350
5B
  3
C0
350
5C
  3
C1
350
5D
  3
C2
350
5E
  3
C3
350
5F
  3
C4
350
60
  3
C5
350
61
  3
C6
350
62
  3
C7
350
63
  3
C8
350
64
  3
C9
350
65
  3
D0
350
66
  3
D1
350
67
  3
D2
350
68
  0
DICTIONARY
  5
138
102
{ACAD_REACTORS
330
C
102
}
330
C
100
AcDbDictionary
281
     1
  0
XRECORD
  5
2C2
102
{ACAD_REACTORS
330
C
102
}
330
C
100
AcDbXrecord
280
     1
  1
DWGPROPS COOKIE
  2

  3

  4

  6

  7

  8
12016016
  9

300
=
301
=
302
=
303
=
304
=
305
=
306
=
307
=
308
=
309
=
 40
0.0
 41
2458263.427657801
 42
2458264.409722407
  1

 90
        0
  0
LAYOUT
  5
1E
102
{ACAD_REACTORS
330
1A
102
}
330
1A
100
AcDbPlotSettings
  1

  2
none_device
  4

  6

 40
0.0
 41
0.0
 42
0.0
 43
0.0
 44
0.0
 45
0.0
 46
0.0
 47
0.0
 48
0.0
 49
0.0
140
0.0
141
0.0
142
1.0
143
1.0
 70
   688
 72
     1
 73
     0
 74
     5
  7

 75
    16
147
1.0
148
0.0
149
0.0
100
AcDbLayout
  1
Layout1
 70
     1
 71
     1
 10
0.0
 20
0.0
 11
420.0
 21
297.0
 12
0.0
 22
0.0
 32
0.0
 14
1.000000000000000E+20
 24
1.000000000000000E+20
 34
1.000000000000000E+20
 15
-1.000000000000000E+20
 25
-1.000000000000000E+20
 35
-1.000000000000000E+20
146
0.0
 13
0.0
 23
0.0
 33
0.0
 16
1.0
 26
0.0
 36
0.0
 17
0.0
 27
1.0
 37
0.0
 76
     0
330
1B
  0
LAYOUT
  5
26
102
{ACAD_REACTORS
330
1A
102
}
330
1A
100
AcDbPlotSettings
  1

  2
none_device
  4

  6

 40
0.0
 41
0.0
 42
0.0
 43
0.0
 44
0.0
 45
0.0
 46
0.0
 47
0.0
 48
0.0
 49
0.0
140
0.0
141
0.0
142
1.0
143
1.0
 70
   688
 72
     1
 73
     0
 74
     5
  7

 75
    16
147
1.0
148
0.0
149
0.0
100
AcDbLayout
  1
Layout2
 70
     1
 71
     2
 10
0.0
 20
0.0
 11
0.0
 21
0.0
 12
0.0
 22
0.0
 32
0.0
 14
0.0
 24
0.0
 34
0.0
 15
0.0
 25
0.0
 35
0.0
146
0.0
 13
0.0
 23
0.0
 33
0.0
 16
1.0
 26
0.0
 36
0.0
 17
0.0
 27
1.0
 37
0.0
 76
     0
330
23
  0
LAYOUT
  5
22
102
{ACAD_REACTORS
330
1A
102
}
330
1A
100
AcDbPlotSettings
  1

  2
none_device
  4
ANSI_A_(11.00_x_8.50_Inches)
  6

 40
6.35
 41
19.05
 42
6.35000508
 43
19.05000254
 44
279.4
 45
215.9
 46
113.1912198291929
 47
92.65579851833917
 48
0.0
 49
0.0
140
0.0
141
0.0
142
0.0858797604670397
143
1.0
 70
  1696
 72
     0
 73
     0
 74
     0
  7

 75
     0
147
0.0235690232323232
148
0.0
149
0.0
100
AcDbLayout
  1
Model
 70
     1
 71
     0
 10
0.0
 20
0.0
 11
420.0
 21
297.0
 12
0.0
 22
0.0
 32
0.0
 14
1.000000000000000E+20
 24
1.000000000000000E+20
 34
1.000000000000000E+20
 15
-1.000000000000000E+20
 25
-1.000000000000000E+20
 35
-1.000000000000000E+20
146
0.0
 13
0.0
 23
0.0
 33
0.0
 16
1.0
 26
0.0
 36
0.0
 17
0.0
 27
1.0
 37
0.0
 76
     0
330
1F
331
29
  0
MLINESTYLE
  5
18
102
{ACAD_REACTORS
330
17
102
}
330
17
100
AcDbMlineStyle
  2
Standard
 70
     0
  3

 62
   256
 51
90.0
 52
90.0
 71
     2
 49
0.5
 62
   256
  6
BYLAYER
 49
-0.5
 62
   256
  6
BYLAYER
  0
ACDBPLACEHOLDER
  5
F
102
{ACAD_REACTORS
330
E
102
}
330
E
  0
SCALE
  5
48
102
{ACAD_REACTORS
330
47
102
}
330
47
100
AcDbScale
 70
     0
300
1:1
140
1.0
141
1.0
290
     1
  0
SCALE
  5
49
102
{ACAD_REACTORS
330
47
102
}
330
47
100
AcDbScale
 70
     0
300
1:2
140
1.0
141
2.0
290
     0
  0
SCALE
  5
4A
102
{ACAD_REACTORS
330
47
102
}
330
47
100
AcDbScale
 70
     0
300
1:4
140
1.0
141
4.0
290
     0
  0
SCALE
  5
4B
102
{ACAD_REACTORS
330
47
102
}
330
47
100
AcDbScale
 70
     0
300
1:5
140
1.0
141
5.0
290
     0
  0
SCALE
  5
4C
102
{ACAD_REACTORS
330
47
102
}
330
47
100
AcDbScale
 70
     0
300
1:8
140
1.0
141
8.0
290
     0
  0
SCALE
  5
4D
102
{ACAD_REACTORS
330
47
102
}
330
47
100
AcDbScale
 70
     0
300
1:10
140
1.0
141
10.0
290
     0
  0
SCALE
  5
4E
102
{ACAD_REACTORS
330
47
102
}
330
47
100
AcDbScale
 70
     0
300
1:16
140
1.0
141
16.0
290
     0
  0
SCALE
  5
4F
102
{ACAD_REACTORS
330
47
102
}
330
47
100
AcDbScale
 70
     0
300
1:20
140
1.0
141
20.0
290
     0
  0
SCALE
  5
50
102
{ACAD_REACTORS
330
47
102
}
330
47
100
AcDbScale
 70
     0
300
1:30
140
1.0
141
30.0
290
     0
  0
SCALE
  5
51
102
{ACAD_REACTORS
330
47
102
}
330
47
100
AcDbScale
 70
     0
300
1:40
140
1.0
141
40.0
290
     0
  0
SCALE
  5
52
102
{ACAD_REACTORS
330
47
102
}
330
47
100
AcDbScale
 70
     0
300
1:50
140
1.0
141
50.0
290
     0
  0
SCALE
  5
53
102
{ACAD_REACTORS
330
47
102
}
330
47
100
AcDbScale
 70
     0
300
1:100
140
1.0
141
100.0
290
     0
  0
SCALE
  5
54
102
{ACAD_REACTORS
330
47
102
}
330
47
100
AcDbScale
 70
     0
300
2:1
140
2.0
141
1.0
290
     0
  0
SCALE
  5
55
102
{ACAD_REACTORS
330
47
102
}
330
47
100
AcDbScale
 70
     0
300
4:1
140
4.0
141
1.0
290
     0
  0
SCALE
  5
56
102
{ACAD_REACTORS
330
47
102
}
330
47
100
AcDbScale
 70
     0
300
8:1
140
8.0
141
1.0
290
     0
  0
SCALE
  5
57
102
{ACAD_REACTORS
330
47
102
}
330
47
100
AcDbScale
 70
     0
300
10:1
140
10.0
141
1.0
290
     0
  0
SCALE
  5
58
102
{ACAD_REACTORS
330
47
102
}
330
47
100
AcDbScale
 70
     0
300
100:1
140
100.0
141
1.0
290
     0
  0
SCALE
  5
59
102
{ACAD_REACTORS
330
47
102
}
330
47
100
AcDbScale
 70
     0
300
1/128" = 1'-0"
140
0.0078125
141
12.0
290
     0
  0
SCALE
  5
5A
102
{ACAD_REACTORS
330
47
102
}
330
47
100
AcDbScale
 70
     0
300
1/64" = 1'-0"
140
0.015625
141
12.0
290
     0
  0
SCALE
  5
5B
102
{ACAD_REACTORS
330
47
102
}
330
47
100
AcDbScale
 70
     0
300
1/32" = 1'-0"
140
0.03125
141
12.0
290
     0
  0
SCALE
  5
5C
102
{ACAD_REACTORS
330
47
102
}
330
47
100
AcDbScale
 70
     0
300
1/16" = 1'-0"
140
0.0625
141
12.0
290
     0
  0
SCALE
  5
5D
102
{ACAD_REACTORS
330
47
102
}
330
47
100
AcDbScale
 70
     0
300
3/32" = 1'-0"
140
0.09375
141
12.0
290
     0
  0
SCALE
  5
5E
102
{ACAD_REACTORS
330
47
102
}
330
47
100
AcDbScale
 70
     0
300
1/8" = 1'-0"
140
0.125
141
12.0
290
     0
  0
SCALE
  5
5F
102
{ACAD_REACTORS
330
47
102
}
330
47
100
AcDbScale
 70
     0
300
3/16" = 1'-0"
140
0.1875
141
12.0
290
     0
  0
SCALE
  5
60
102
{ACAD_REACTORS
330
47
102
}
330
47
100
AcDbScale
 70
     0
300
1/4" = 1'-0"
140
0.25
141
12.0
290
     0
  0
SCALE
  5
61
102
{ACAD_REACTORS
330
47
102
}
330
47
100
AcDbScale
 70
     0
300
3/8" = 1'-0"
140
0.375
141
12.0
290
     0
  0
SCALE
  5
62
102
{ACAD_REACTORS
330
47
102
}
330
47
100
AcDbScale
 70
     0
300
1/2" = 1'-0"
140
0.5
141
12.0
290
     0
  0
SCALE
  5
63
102
{ACAD_REACTORS
330
47
102
}
330
47
100
AcDbScale
 70
     0
300
3/4" = 1'-0"
140
0.75
141
12.0
290
     0
  0
SCALE
  5
64
102
{ACAD_REACTORS
330
47
102
}
330
47
100
AcDbScale
 70
     0
300
1" = 1'-0"
140
1.0
141
12.0
290
     0
  0
SCALE
  5
65
102
{ACAD_REACTORS
330
47
102
}
330
47
100
AcDbScale
 70
     0
300
1-1/2" = 1'-0"
140
1.5
141
12.0
290
     0
  0
SCALE
  5
66
102
{ACAD_REACTORS
330
47
102
}
330
47
100
AcDbScale
 70
     0
300
3" = 1'-0"
140
3.0
141
12.0
290
     0
  0
SCALE
  5
67
102
{ACAD_REACTORS
330
47
102
}
330
47
100
AcDbScale
 70
     0
300
6" = 1'-0"
140
6.0
141
12.0
290
     0
  0
SCALE
  5
68
102
{ACAD_REACTORS
330
47
102
}
330
47
100
AcDbScale
 70
     0
300
1'-0" = 1'-0"
140
12.0
141
12.0
290
     0
  0
ENDSEC
  0
EOF
