  0
SECTION
  2
HEADER
  9
$ACADVER
  1
AC1015
  9
$ACADMAINTVER
 70
     6
  9
$DWGCODEPAGE
  3
ANSI_949
  9
$INSBASE
 10
0.0
 20
0.0
 30
0.0
  9
$EXTMIN
 10
1.000000000000000E+20
 20
1.000000000000000E+20
 30
1.000000000000000E+20
  9
$EXTMAX
 10
-1.000000000000000E+20
 20
-1.000000000000000E+20
 30
-1.000000000000000E+20
  9
$LIMMIN
 10
0.0
 20
0.0
  9
$LIMMAX
 10
420.0
 20
297.0
  9
$ORTHOMODE
 70
     1
  9
$REGENMODE
 70
     1
  9
$FILLMODE
 70
     1
  9
$QTEXTMODE
 70
     0
  9
$MIRRTEXT
 70
     1
  9
$LTSCALE
 40
1.0
  9
$ATTMODE
 70
     1
  9
$TEXTSIZE
 40
3.5
  9
$TRACEWID
 40
1.0
  9
$TEXTSTYLE
  7
Standard
  9
$CLAYER
  8
0
  9
$CELTYPE
  6
ByLayer
  9
$CECOLOR
 62
   256
  9
$CELTSCALE
 40
1.0
  9
$DISPSILH
 70
     0
  9
$DIMSCALE
 40
1.0
  9
$DIMASZ
 40
3.302
  9
$DIMEXO
 40
1.0
  9
$DIMDLI
 40
3.75
  9
$DIMRND
 40
0.0
  9
$DIMDLE
 40
0.0
  9
$DIMEXE
 40
1.0
  9
$DIMTP
 40
0.0
  9
$DIMTM
 40
0.0
  9
$DIMTXT
 40
3.5
  9
$DIMCEN
 40
2.5
  9
$DIMTSZ
 40
0.0
  9
$DIMTOL
 70
     0
  9
$DIMLIM
 70
     0
  9
$DIMTIH
 70
     1
  9
$DIMTOH
 70
     1
  9
$DIMSE1
 70
     0
  9
$DIMSE2
 70
     0
  9
$DIMTAD
 70
     1
  9
$DIMZIN
 70
     0
  9
$DIMBLK
  1

  9
$DIMASO
 70
     1
  9
$DIMSHO
 70
     1
  9
$DIMPOST
  1

  9
$DIMAPOST
  1

  9
$DIMALT
 70
     0
  9
$DIMALTD
 70
     3
  9
$DIMALTF
 40
0.0393700787401575
  9
$DIMLFAC
 40
1.0
  9
$DIMTOFL
 70
     1
  9
$DIMTVP
 40
0.0
  9
$DIMTIX
 70
     0
  9
$DIMSOXD
 70
     0
  9
$DIMSAH
 70
     0
  9
$DIMBLK1
  1

  9
$DIMBLK2
  1

  9
$DIMSTYLE
  2
ISO-25
  9
$DIMCLRD
 70
     0
  9
$DIMCLRE
 70
     0
  9
$DIMCLRT
 70
     0
  9
$DIMTFAC
 40
1.0
  9
$DIMGAP
 40
1.524
  9
$DIMJUST
 70
     0
  9
$DIMSD1
 70
     0
  9
$DIMSD2
 70
     0
  9
$DIMTOLJ
 70
     0
  9
$DIMTZIN
 70
     0
  9
$DIMALTZ
 70
     0
  9
$DIMALTTZ
 70
     0
  9
$DIMUPT
 70
     0
  9
$DIMDEC
 70
     2
  9
$DIMTDEC
 70
     2
  9
$DIMALTU
 70
     2
  9
$DIMALTTD
 70
     3
  9
$DIMTXSTY
  7
Standard
  9
$DIMAUNIT
 70
     0
  9
$DIMADEC
 70
     2
  9
$DIMALTRND
 40
0.0
  9
$DIMAZIN
 70
     0
  9
$DIMDSEP
 70
    44
  9
$DIMATFIT
 70
     3
  9
$DIMFRAC
 70
     0
  9
$DIMLDRBLK
  1

  9
$DIMLUNIT
 70
     2
  9
$DIMLWD
 70
    -2
  9
$DIMLWE
 70
    -2
  9
$DIMTMOVE
 70
     0
  9
$LUNITS
 70
     2
  9
$LUPREC
 70
     2
  9
$SKETCHINC
 40
1.0
  9
$FILLETRAD
 40
10.0
  9
$AUNITS
 70
     0
  9
$AUPREC
 70
     2
  9
$MENU
  1
.
  9
$ELEVATION
 40
0.0
  9
$PELEVATION
 40
0.0
  9
$THICKNESS
 40
0.0
  9
$LIMCHECK
 70
     0
  9
$CHAMFERA
 40
0.0
  9
$CHAMFERB
 40
0.0
  9
$CHAMFERC
 40
0.0
  9
$CHAMFERD
 40
0.0
  9
$SKPOLY
 70
     0
  9
$TDCREATE
 40
2458263.801901632
  9
$TDUCREATE
 40
2458263.426901632
  9
$TDUPDATE
 40
2458264.829877338
  9
$TDUUPDATE
 40
2458264.454877338
  9
$TDINDWG
 40
0.0007344792
  9
$TDUSRTIMER
 40
2458264.45414309
  9
$USRTIMER
 70
     1
  9
$ANGBASE
 50
0.0
  9
$ANGDIR
 70
     0
  9
$PDMODE
 70
     0
  9
$PDSIZE
 40
-1.0
  9
$PLINEWID
 40
0.0
  9
$SPLFRAME
 70
     0
  9
$SPLINETYPE
 70
     6
  9
$SPLINESEGS
 70
     8
  9
$HANDSEED
  5
285
  9
$SURFTAB1
 70
     6
  9
$SURFTAB2
 70
     6
  9
$SURFTYPE
 70
     6
  9
$SURFU
 70
     6
  9
$SURFV
 70
     6
  9
$UCSBASE
  2

  9
$UCSNAME
  2

  9
$UCSORG
 10
0.0
 20
0.0
 30
0.0
  9
$UCSXDIR
 10
1.0
 20
0.0
 30
0.0
  9
$UCSYDIR
 10
0.0
 20
1.0
 30
0.0
  9
$UCSORTHOREF
  2

  9
$UCSORTHOVIEW
 70
     0
  9
$UCSORGTOP
 10
0.0
 20
0.0
 30
0.0
  9
$UCSORGBOTTOM
 10
0.0
 20
0.0
 30
0.0
  9
$UCSORGLEFT
 10
0.0
 20
0.0
 30
0.0
  9
$UCSORGRIGHT
 10
0.0
 20
0.0
 30
0.0
  9
$UCSORGFRONT
 10
0.0
 20
0.0
 30
0.0
  9
$UCSORGBACK
 10
0.0
 20
0.0
 30
0.0
  9
$PUCSBASE
  2

  9
$PUCSNAME
  2

  9
$PUCSORG
 10
0.0
 20
0.0
 30
0.0
  9
$PUCSXDIR
 10
1.0
 20
0.0
 30
0.0
  9
$PUCSYDIR
 10
0.0
 20
1.0
 30
0.0
  9
$PUCSORTHOREF
  2

  9
$PUCSORTHOVIEW
 70
     0
  9
$PUCSORGTOP
 10
0.0
 20
0.0
 30
0.0
  9
$PUCSORGBOTTOM
 10
0.0
 20
0.0
 30
0.0
  9
$PUCSORGLEFT
 10
0.0
 20
0.0
 30
0.0
  9
$PUCSORGRIGHT
 10
0.0
 20
0.0
 30
0.0
  9
$PUCSORGFRONT
 10
0.0
 20
0.0
 30
0.0
  9
$PUCSORGBACK
 10
0.0
 20
0.0
 30
0.0
  9
$USERI1
 70
     0
  9
$USERI2
 70
     0
  9
$USERI3
 70
     0
  9
$USERI4
 70
     0
  9
$USERI5
 70
     0
  9
$USERR1
 40
0.0
  9
$USERR2
 40
0.0
  9
$USERR3
 40
0.0
  9
$USERR4
 40
0.0
  9
$USERR5
 40
0.0
  9
$WORLDVIEW
 70
     1
  9
$SHADEDGE
 70
     3
  9
$SHADEDIF
 70
    70
  9
$TILEMODE
 70
     1
  9
$MAXACTVP
 70
    64
  9
$PINSBASE
 10
0.0
 20
0.0
 30
0.0
  9
$PLIMCHECK
 70
     0
  9
$PEXTMIN
 10
1.000000000000000E+20
 20
1.000000000000000E+20
 30
1.000000000000000E+20
  9
$PEXTMAX
 10
-1.000000000000000E+20
 20
-1.000000000000000E+20
 30
-1.000000000000000E+20
  9
$PLIMMIN
 10
0.0
 20
0.0
  9
$PLIMMAX
 10
0.0
 20
0.0
  9
$UNITMODE
 70
     0
  9
$VISRETAIN
 70
     1
  9
$PLINEGEN
 70
     0
  9
$PSLTSCALE
 70
     1
  9
$TREEDEPTH
 70
  3020
  9
$CMLSTYLE
  2
Standard
  9
$CMLJUST
 70
     0
  9
$CMLSCALE
 40
20.0
  9
$PROXYGRAPHICS
 70
     1
  9
$MEASUREMENT
 70
     1
  9
$CELWEIGHT
370
    -1
  9
$ENDCAPS
280
     0
  9
$JOINSTYLE
280
     0
  9
$LWDISPLAY
290
     1
  9
$INSUNITS
 70
     4
  9
$HYPERLINKBASE
  1

  9
$STYLESHEET
  1

  9
$XEDIT
290
     1
  9
$CEPSNTYPE
380
     0
  9
$PSTYLEMODE
290
     1
  9
$FINGERPRINTGUID
  2
{1D3DA7D8-F2B2-4AD8-AA48-1D1292846F00}
  9
$VERSIONGUID
  2
{FAEB1C32-E019-11D5-929B-00C0DF256EC4}
  9
$EXTNAMES
290
     1
  9
$PSVPSCALE
 40
0.0
  9
$OLESTARTUP
290
     0
  0
ENDSEC
  0
SECTION
  2
CLASSES
  0
CLASS
  1
ACDBDICTIONARYWDFLT
  2
AcDbDictionaryWithDefault
  3
ObjectDBX Classes
 90
        0
280
     0
281
     0
  0
CLASS
  1
VISUALSTYLE
  2
AcDbVisualStyle
  3
ObjectDBX Classes
 90
     4095
280
     0
281
     0
  0
CLASS
  1
MATERIAL
  2
AcDbMaterial
  3
ObjectDBX Classes
 90
     1153
280
     0
281
     0
  0
CLASS
  1
SCALE
  2
AcDbScale
  3
ObjectDBX Classes
 90
     1153
280
     0
281
     0
  0
CLASS
  1
TABLESTYLE
  2
AcDbTableStyle
  3
ObjectDBX Classes
 90
     4095
280
     0
281
     0
  0
CLASS
  1
MLEADERSTYLE
  2
AcDbMLeaderStyle
  3
ACDB_MLEADERSTYLE_CLASS
 90
     4095
280
     0
281
     0
  0
CLASS
  1
SUN
  2
AcDbSun
  3
SCENEOE
 90
     1153
280
     0
281
     0
  0
CLASS
  1
ACDBPLACEHOLDER
  2
AcDbPlaceHolder
  3
ObjectDBX Classes
 90
        0
280
     0
281
     0
  0
CLASS
  1
LAYOUT
  2
AcDbLayout
  3
ObjectDBX Classes
 90
        0
280
     0
281
     0
  0
CLASS
  1
RASTERVARIABLES
  2
AcDbRasterVariables
  3
ISM
 90
        0
280
     0
281
     0
  0
CLASS
  1
DIMASSOC
  2
AcDbDimAssoc
  3
"AcDbDimAssoc|Product Desc:     AcDim ARX App For Dimension|Company:          Autodesk, Inc.|WEB Address:      www.autodesk.com"
 90
        0
280
     0
281
     0
  0
ENDSEC
  0
SECTION
  2
TABLES
  0
TABLE
  2
VPORT
  5
8
330
0
100
AcDbSymbolTable
 70
     1
  0
VPORT
  5
29
330
8
100
AcDbSymbolTableRecord
100
AcDbViewportTableRecord
  2
*Active
 70
     0
 10
0.0
 20
0.0
 11
1.0
 21
1.0
 12
59.91620070764519
 22
-2.259274098036398
 13
0.0
 23
0.0
 14
10.0
 24
10.0
 15
10.0
 25
10.0
 16
0.0
 26
0.0
 36
1.0
 17
0.0
 27
0.0
 37
0.0
 40
32.80757645756039
 41
1.730844793713163
 42
50.0
 43
0.0
 44
0.0
 50
0.0
 51
0.0
 71
    16
 72
  2000
 73
     1
 74
     3
 75
     0
 76
     0
 77
     0
 78
     0
281
     0
 65
     1
110
0.0
120
0.0
130
0.0
111
1.0
121
0.0
131
0.0
112
0.0
122
1.0
132
0.0
 79
     0
146
0.0
  0
ENDTAB
  0
TABLE
  2
LTYPE
  5
5
330
0
100
AcDbSymbolTable
 70
     6
  0
LTYPE
  5
14
330
5
100
AcDbSymbolTableRecord
100
AcDbLinetypeTableRecord
  2
ByBlock
 70
     0
  3

 72
    65
 73
     0
 40
0.0
  0
LTYPE
  5
15
330
5
100
AcDbSymbolTableRecord
100
AcDbLinetypeTableRecord
  2
ByLayer
 70
     0
  3

 72
    65
 73
     0
 40
0.0
  0
LTYPE
  5
16
330
5
100
AcDbSymbolTableRecord
100
AcDbLinetypeTableRecord
  2
Continuous
 70
     0
  3
Solid line
 72
    65
 73
     0
 40
0.0
  0
LTYPE
  5
6E
330
5
100
AcDbSymbolTableRecord
100
AcDbLinetypeTableRecord
  2
HIDDEN
 70
     0
  3
Hidden __ __ __ __ __ __ __ __ __ __ __ __ __ __
 72
    65
 73
     2
 40
1.905
 49
1.27
 74
     0
 49
-0.635
 74
     0
  0
LTYPE
  5
6F
330
5
100
AcDbSymbolTableRecord
100
AcDbLinetypeTableRecord
  2
PHANTOM
 70
     0
  3
Phantom ______  __  __  ______  __  __  ______
 72
    65
 73
     6
 40
12.7
 49
6.35
 74
     0
 49
-1.27
 74
     0
 49
1.27
 74
     0
 49
-1.27
 74
     0
 49
1.27
 74
     0
 49
-1.27
 74
     0
  0
LTYPE
  5
70
330
5
100
AcDbSymbolTableRecord
100
AcDbLinetypeTableRecord
  2
CENTER
 70
     0
  3
Center ____ _ ____ _ ____ _ ____ _ ____ _ ____
 72
    65
 73
     4
 40
10.16
 49
6.35
 74
     0
 49
-1.27
 74
     0
 49
1.27
 74
     0
 49
-1.27
 74
     0
  0
LTYPE
  5
71
330
5
100
AcDbSymbolTableRecord
100
AcDbLinetypeTableRecord
  2
CENTERX2
 70
     0
  3
Center (2x) ________  __  ________  __  _____
 72
    65
 73
     4
 40
20.32
 49
12.7
 74
     0
 49
-2.54
 74
     0
 49
2.54
 74
     0
 49
-2.54
 74
     0
  0
LTYPE
  5
72
330
5
100
AcDbSymbolTableRecord
100
AcDbLinetypeTableRecord
  2
DOT2
 70
     0
  3
Dot (.5x) ........................................
 72
    65
 73
     2
 40
0.635
 49
0.0
 74
     0
 49
-0.635
 74
     0
  0
ENDTAB
  0
TABLE
  2
LAYER
  5
2
330
0
100
AcDbSymbolTable
 70
    17
  0
LAYER
  5
10
330
2
100
AcDbSymbolTableRecord
100
AcDbLayerTableRecord
  2
0
 70
     0
 62
     7
  6
Continuous
370
    -3
390
F
  0
LAYER
  5
73
330
2
100
AcDbSymbolTableRecord
100
AcDbLayerTableRecord
  2
FORMAT
 70
     0
 62
     2
  6
Continuous
370
    -3
390
F
  0
LAYER
  5
74
330
2
100
AcDbSymbolTableRecord
100
AcDbLayerTableRecord
  2
외형선
 70
     0
 62
   100
  6
Continuous
370
    35
390
F
  0
LAYER
  5
75
330
2
100
AcDbSymbolTableRecord
100
AcDbLayerTableRecord
  2
숨은선
 70
     0
 62
     2
  6
HIDDEN
370
    25
390
F
  0
LAYER
  5
76
330
2
100
AcDbSymbolTableRecord
100
AcDbLayerTableRecord
  2
중심선
 70
     0
 62
     1
  6
CENTERX2
370
    -3
390
F
  0
LAYER
  5
77
330
2
100
AcDbSymbolTableRecord
100
AcDbLayerTableRecord
  2
파단선
 70
     0
 62
     4
  6
Continuous
370
    -3
390
F
  0
LAYER
  5
78
330
2
100
AcDbSymbolTableRecord
100
AcDbLayerTableRecord
  2
해칭선
 70
     0
 62
     4
  6
Continuous
370
    -3
390
F
  0
LAYER
  5
79
330
2
100
AcDbSymbolTableRecord
100
AcDbLayerTableRecord
  2
가는실선
 70
     0
 62
     4
  6
Continuous
370
    -3
390
F
  0
LAYER
  5
7A
330
2
100
AcDbSymbolTableRecord
100
AcDbLayerTableRecord
  2
치수_보조선
 70
     0
 62
     4
  6
Continuous
370
    -3
390
F
  0
LAYER
  5
7B
330
2
100
AcDbSymbolTableRecord
100
AcDbLayerTableRecord
  2
치수문자_일반주서
 70
     0
 62
     7
  6
Continuous
370
    25
390
F
  0
LAYER
  5
7C
330
2
100
AcDbSymbolTableRecord
100
AcDbLayerTableRecord
  2
개별주서
 70
     0
 62
   100
  6
Continuous
370
    35
390
F
  0
LAYER
  5
7D
330
2
100
AcDbSymbolTableRecord
100
AcDbLayerTableRecord
  2
중간선
 70
     0
 62
     2
  6
Continuous
370
    25
390
F
  0
LAYER
  5
7E
330
2
100
AcDbSymbolTableRecord
100
AcDbLayerTableRecord
  2
윤곽선
 70
     0
 62
     3
  6
Continuous
370
    50
390
F
  0
LAYER
  5
7F
330
2
100
AcDbSymbolTableRecord
100
AcDbLayerTableRecord
  2
중심마크
 70
     0
 62
   100
  6
Continuous
370
    35
390
F
  0
LAYER
  5
80
330
2
100
AcDbSymbolTableRecord
100
AcDbLayerTableRecord
  2
가상선
 70
     0
 62
     4
  6
PHANTOM
370
    -3
390
F
  0
LAYER
  5
81
330
2
100
AcDbSymbolTableRecord
100
AcDbLayerTableRecord
  2
특수지정선
 70
     0
 62
     5
  6
CENTERX2
370
    70
390
F
  0
LAYER
  5
13E
330
2
100
AcDbSymbolTableRecord
100
AcDbLayerTableRecord
  2
Defpoints
 70
     0
 62
     7
  6
Continuous
290
     0
370
    -3
390
F
  0
ENDTAB
  0
TABLE
  2
STYLE
  5
3
330
0
100
AcDbSymbolTable
 70
     2
  0
STYLE
  5
11
330
3
100
AcDbSymbolTableRecord
100
AcDbTextStyleTableRecord
  2
Standard
 70
     0
 40
0.0
 41
1.0
 50
0.0
 71
     0
 42
3.5
  3
txt
  4

  0
STYLE
  5
97
330
3
100
AcDbSymbolTableRecord
100
AcDbTextStyleTableRecord
  2
SLDTEXTSTYLE0
 70
     0
 40
0.0
 41
0.75
 50
0.0
 71
     0
 42
3.5
  3
TXT
  4

  0
ENDTAB
  0
TABLE
  2
VIEW
  5
6
330
0
100
AcDbSymbolTable
 70
     0
  0
ENDTAB
  0
TABLE
  2
UCS
  5
7
330
0
100
AcDbSymbolTable
 70
     0
  0
ENDTAB
  0
TABLE
  2
APPID
  5
9
330
0
100
AcDbSymbolTable
 70
     2
  0
APPID
  5
12
330
9
100
AcDbSymbolTableRecord
100
AcDbRegAppTableRecord
  2
ACAD
 70
     0
  0
APPID
  5
149
330
9
100
AcDbSymbolTableRecord
100
AcDbRegAppTableRecord
  2
ACAD_DSTYLE_DIMRADIAL_EXTENSION
 70
     0
  0
ENDTAB
  0
TABLE
  2
DIMSTYLE
  5
A
330
0
100
AcDbSymbolTable
 70
     3
100
AcDbDimStyleTable
  0
DIMSTYLE
105
27
330
A
100
AcDbSymbolTableRecord
100
AcDbDimStyleTableRecord
  2
ISO-25
 70
     0
 41
2.5
 42
0.625
 43
3.75
 44
1.25
 73
     0
 74
     0
 77
     1
 78
     8
140
2.5
141
2.5
143
0.03937007874016
147
0.625
171
     3
172
     1
178
     0
271
     2
272
     2
274
     3
278
    44
283
     0
284
     8
340
11
  0
DIMSTYLE
105
D5
102
{ACAD_REACTORS
330
199
330
1A6
330
1C0
330
1CD
330
1E5
330
223
330
224
330
226
330
227
330
277
102
}
330
A
100
AcDbSymbolTableRecord
100
AcDbDimStyleTableRecord
  2
SLDDIMSTYLE0
 70
     0
 41
3.302
 44
0.0
 45
0.000000001
 73
     0
 74
     0
 77
     1
 78
    12
 79
     3
140
3.5
147
0.875
172
     1
173
     1
178
     0
271
     2
272
     2
276
     2
284
    12
289
     0
340
97
  0
DIMSTYLE
105
EF
102
{ACAD_REACTORS
330
1B3
330
225
102
}
330
A
100
AcDbSymbolTableRecord
100
AcDbDimStyleTableRecord
  2
SLDDIMSTYLE1
 70
     0
 41
3.302
 44
0.0
 45
0.000000001
 73
     0
 74
     0
 77
     1
 78
    12
 79
     3
140
3.5
147
0.875
173
     1
178
     0
271
     2
272
     2
276
     2
284
    12
340
97
  0
ENDTAB
  0
TABLE
  2
BLOCK_RECORD
  5
1
330
0
100
AcDbSymbolTable
 70
    22
  0
BLOCK_RECORD
  5
1F
330
1
100
AcDbSymbolTableRecord
100
AcDbBlockTableRecord
  2
*Model_Space
340
22
  0
BLOCK_RECORD
  5
1B
330
1
100
AcDbSymbolTableRecord
100
AcDbBlockTableRecord
  2
*Paper_Space
340
1E
  0
BLOCK_RECORD
  5
23
330
1
100
AcDbSymbolTableRecord
100
AcDbBlockTableRecord
  2
*Paper_Space0
340
26
  0
BLOCK_RECORD
  5
82
330
1
100
AcDbSymbolTableRecord
100
AcDbBlockTableRecord
  2
블럭10
340
0
102
{BLKREFS
331
CD
102
}
  0
BLOCK_RECORD
  5
D6
330
1
100
AcDbSymbolTableRecord
100
AcDbBlockTableRecord
  2
_D
340
0
  0
BLOCK_RECORD
  5
E3
330
1
100
AcDbSymbolTableRecord
100
AcDbBlockTableRecord
  2
_D_1
340
0
  0
BLOCK_RECORD
  5
F0
330
1
100
AcDbSymbolTableRecord
100
AcDbBlockTableRecord
  2
_D_2
340
0
  0
BLOCK_RECORD
  5
FA
330
1
100
AcDbSymbolTableRecord
100
AcDbBlockTableRecord
  2
_D_3
340
0
  0
BLOCK_RECORD
  5
106
330
1
100
AcDbSymbolTableRecord
100
AcDbBlockTableRecord
  2
_D_4
340
0
  0
BLOCK_RECORD
  5
112
330
1
100
AcDbSymbolTableRecord
100
AcDbBlockTableRecord
  2
SW_DOWELSYMBOL_0
340
0
102
{BLKREFS
331
0
331
1DA
331
228
102
}
  0
BLOCK_RECORD
  5
19A
330
1
100
AcDbSymbolTableRecord
100
AcDbBlockTableRecord
  2
*D9
340
0
  0
BLOCK_RECORD
  5
1A7
330
1
100
AcDbSymbolTableRecord
100
AcDbBlockTableRecord
  2
*D10
340
0
  0
BLOCK_RECORD
  5
1B4
330
1
100
AcDbSymbolTableRecord
100
AcDbBlockTableRecord
  2
*D11
340
0
  0
BLOCK_RECORD
  5
1C1
330
1
100
AcDbSymbolTableRecord
100
AcDbBlockTableRecord
  2
*D12
340
0
  0
BLOCK_RECORD
  5
1CE
330
1
100
AcDbSymbolTableRecord
100
AcDbBlockTableRecord
  2
*D13
340
0
  0
BLOCK_RECORD
  5
1E6
330
1
100
AcDbSymbolTableRecord
100
AcDbBlockTableRecord
  2
*D14
340
0
  0
BLOCK_RECORD
  5
22E
330
1
100
AcDbSymbolTableRecord
100
AcDbBlockTableRecord
  2
*D15
340
0
  0
BLOCK_RECORD
  5
23A
330
1
100
AcDbSymbolTableRecord
100
AcDbBlockTableRecord
  2
*D16
340
0
  0
BLOCK_RECORD
  5
246
330
1
100
AcDbSymbolTableRecord
100
AcDbBlockTableRecord
  2
*D17
340
0
  0
BLOCK_RECORD
  5
252
330
1
100
AcDbSymbolTableRecord
100
AcDbBlockTableRecord
  2
*D18
340
0
  0
BLOCK_RECORD
  5
25E
330
1
100
AcDbSymbolTableRecord
100
AcDbBlockTableRecord
  2
*D19
340
0
  0
BLOCK_RECORD
  5
26A
330
1
100
AcDbSymbolTableRecord
100
AcDbBlockTableRecord
  2
*D20
340
0
  0
BLOCK_RECORD
  5
27A
330
1
100
AcDbSymbolTableRecord
100
AcDbBlockTableRecord
  2
*D21
340
0
  0
ENDTAB
  0
ENDSEC
  0
SECTION
  2
BLOCKS
  0
BLOCK
  5
20
330
1F
100
AcDbEntity
  8
0
100
AcDbBlockBegin
  2
*Model_Space
 70
     0
 10
0.0
 20
0.0
 30
0.0
  3
*Model_Space
  1
*Model_Space
  0
ENDBLK
  5
21
330
1F
100
AcDbEntity
  8
0
100
AcDbBlockEnd
  0
BLOCK
  5
1C
330
1B
100
AcDbEntity
 67
     1
  8
0
100
AcDbBlockBegin
  2
*Paper_Space
 70
     0
 10
0.0
 20
0.0
 30
0.0
  3
*Paper_Space
  1
*Paper_Space
  0
ENDBLK
  5
1D
330
1B
100
AcDbEntity
 67
     1
  8
0
100
AcDbBlockEnd
  0
BLOCK
  5
24
330
23
100
AcDbEntity
  8
0
100
AcDbBlockBegin
  2
*Paper_Space0
 70
     0
 10
0.0
 20
0.0
 30
0.0
  3
*Paper_Space0
  1
*Paper_Space0
  0
ENDBLK
  5
25
330
23
100
AcDbEntity
  8
0
100
AcDbBlockEnd
  0
BLOCK
  5
83
330
82
100
AcDbEntity
  8
0
100
AcDbBlockBegin
  2
블럭10
 70
     2
 10
0.0
 20
0.0
 30
0.0
  3
블럭10
  1
블럭10
  0
ELLIPSE
  5
85
330
82
100
AcDbEntity
  8
중심선
100
AcDbEllipse
 10
20.54032771741204
 20
12.0471743016438
 30
0.0
 11
6.600054785286829
 21
-1.261213355974178E-13
 31
0.0
210
0.0
220
0.0
230
1.0
 40
0.636358354079598
 41
0.9219305317359503
 42
6.513795318482858
  0
ELLIPSE
  5
86
330
82
100
AcDbEntity
  8
중심선
100
AcDbEllipse
 10
20.54032771746488
 20
12.04717430159265
 30
0.0
 11
3.960054785062283
 21
1.540847449632565E-10
 31
0.0
210
0.0
220
0.0
230
1.0
 40
0.3939339440162632
 41
1.131841032648279
 42
5.62031148352944
  0
LINE
  5
87
330
82
100
AcDbEntity
  8
중심선
100
AcDbLine
 10
2.268634060543552
 20
16.24717430164393
 30
0.0
 11
5.714909304380834
 21
16.24717430164393
 31
0.0
  0
LINE
  5
88
330
82
100
AcDbEntity
  8
중심선
100
AcDbLine
 10
5.245725140726316
 20
7.84717430164391
 30
0.0
 11
8.692000384563599
 21
7.84717430164391
 31
0.0
  0
LINE
  5
89
330
82
100
AcDbEntity
  8
중심선
100
AcDbLine
 10
15.74043728645272
 20
16.24717430164393
 30
0.0
 11
8.692000384563599
 21
7.84717430164391
 31
0.0
  0
LINE
  5
8A
330
82
100
AcDbEntity
  8
중심선
100
AcDbLine
 10
0.1404042013395286
 20
13.71084872107135
 30
0.0
 11
3.58671253028996
 21
13.71088815037384
 31
0.0
  0
LINE
  5
8B
330
82
100
AcDbEntity
  8
중심선
100
AcDbLine
 10
2.750260043222114
 20
10.84717430164391
 30
0.0
 11
6.196535287059397
 21
10.84717430164391
 31
0.0
  0
LINE
  5
8C
330
82
100
AcDbEntity
  8
중심선
100
AcDbLine
 10
12.29416204261559
 20
16.24717430164393
 30
0.0
 11
5.245725140726316
 21
7.84717430164391
 31
0.0
  0
LINE
  5
8D
330
82
100
AcDbEntity
  8
중심선
100
AcDbLine
 10
10.72767329541681
 20
16.24717430164393
 30
0.0
 11
6.196535287059397
 21
10.84717430164391
 31
0.0
  0
LINE
  5
8E
330
82
100
AcDbEntity
  8
중심선
100
AcDbLine
 10
7.28139805157953
 20
16.24717430164393
 30
0.0
 11
2.750260043222114
 21
10.84717430164391
 31
0.0
  0
LINE
  5
8F
330
82
100
AcDbEntity
  8
중심선
100
AcDbLine
 10
5.714909304380834
 20
16.24717430164393
 30
0.0
 11
3.58671253028996
 21
13.71088815037384
 31
0.0
  0
LINE
  5
90
330
82
100
AcDbEntity
  8
중심선
100
AcDbLine
 10
2.268634060543552
 20
16.24717430164393
 30
0.0
 11
0.1404042013395286
 21
13.71084872107135
 31
0.0
  0
LINE
  5
91
330
82
100
AcDbEntity
  8
중심선
100
AcDbLine
 10
7.28139805157953
 20
16.24717430164393
 30
0.0
 11
10.72767329541681
 21
16.24717430164393
 31
0.0
  0
LINE
  5
92
330
82
100
AcDbEntity
  8
중심선
100
AcDbLine
 10
12.29416204261559
 20
16.24717430164393
 30
0.0
 11
15.74043728645272
 21
16.24717430164393
 31
0.0
  0
LINE
  5
93
330
82
100
AcDbEntity
  8
중심선
100
AcDbLine
 10
19.22036997980202
 20
11.08717430171403
 30
0.0
 11
23.66174974927406
 21
11.08717430171406
 31
0.0
  0
LINE
  5
94
330
82
100
AcDbEntity
  8
중심선
100
AcDbLine
 10
19.22039502424796
 20
13.00717430171391
 30
0.0
 11
19.22036997980202
 21
11.08717430171403
 31
0.0
  0
LINE
  5
95
330
82
100
AcDbEntity
  8
중심선
100
AcDbLine
 10
19.22039502424796
 20
13.00717430171391
 30
0.0
 11
26.96566020931264
 21
13.00717430171391
 31
0.0
  0
LINE
  5
96
330
82
100
AcDbEntity
  8
중심선
100
AcDbLine
 10
22.22332737316547
 20
13.45928029700563
 30
0.0
 11
24.52862924686651
 21
15.39360700705356
 31
0.0
  0
ATTDEF
  5
98
330
82
100
AcDbEntity
  8
FORMAT
 62
     2
100
AcDbText
 10
-19.27858288401334
 20
2.075366912832191
 30
0.0
 40
4.233333333333333
  1
SEME610401045E [ 2 FLUTE ]
 41
0.75
  7
SLDTEXTSTYLE0
 11
-19.27858288401334
 21
-0.0412997538344756
 31
0.0
100
AcDbAttributeDefinition
  3

  2
AUTOATTR0
 70
     0
 74
     1
  0
ENDBLK
  5
84
330
82
100
AcDbEntity
  8
0
100
AcDbBlockEnd
  0
BLOCK
  5
D7
330
D6
100
AcDbEntity
  8
0
100
AcDbBlockBegin
  2
_D
 70
     0
 10
0.0
 20
0.0
 30
0.0
  3
_D
  1
_D
  0
SOLID
  5
D9
330
D6
100
AcDbEntity
  8
치수문자_일반주서
100
AcDbTrace
 10
-46.00250885508846
 20
3.001074928723889
 30
0.0
 11
-45.49450885508845
 21
6.303074928723889
 31
0.0
 12
-46.51050885508846
 22
6.303074928723889
 32
0.0
 13
-46.51050885508846
 23
6.303074928723889
 33
0.0
  0
SOLID
  5
DA
330
D6
100
AcDbEntity
  8
치수문자_일반주서
100
AcDbTrace
 10
-46.00250885508846
 20
-2.998925071276107
 30
0.0
 11
-46.51050885508846
 21
-6.300925071276106
 31
0.0
 12
-45.49450885508845
 22
-6.300925071276106
 32
0.0
 13
-45.49450885508845
 23
-6.300925071276106
 33
0.0
  0
LINE
  5
DB
330
D6
100
AcDbEntity
  8
치수문자_일반주서
100
AcDbLine
 10
-34.50605083347638
 20
3.001074928723889
 30
0.0
 11
-47.00250885508846
 21
3.001074928723889
 31
0.0
  0
LINE
  5
DC
330
D6
100
AcDbEntity
  8
치수문자_일반주서
100
AcDbLine
 10
-34.50605083347638
 20
-2.998925071276107
 30
0.0
 11
-47.00250885508846
 21
-2.998925071276107
 31
0.0
  0
LINE
  5
DD
330
D6
100
AcDbEntity
  8
치수문자_일반주서
100
AcDbLine
 10
-46.00250885508846
 20
3.001074928723889
 30
0.0
 11
-46.00250885508846
 21
9.35107492872389
 31
0.0
  0
LINE
  5
DE
330
D6
100
AcDbEntity
  8
치수문자_일반주서
100
AcDbLine
 10
-46.00250885508846
 20
3.001074928723889
 30
0.0
 11
-46.00250885508846
 21
-2.998925071276107
 31
0.0
  0
LINE
  5
DF
330
D6
100
AcDbEntity
  8
치수문자_일반주서
100
AcDbLine
 10
-46.00250885508846
 20
-2.998925071276107
 30
0.0
 11
-46.00250885508846
 21
-9.348925071276108
 31
0.0
  0
MTEXT
  5
E0
330
D6
100
AcDbEntity
  8
치수문자_일반주서
100
AcDbMText
 10
-50.51424594429032
 20
-3.931199483639951
 30
0.0
 40
3.5
 41
0.0
 71
     1
 72
     1
  1
%%c
  7
SLDTEXTSTYLE0
 11
-7.044195017643634E-15
 21
1.0
 31
0.0
 73
     1
 44
1.0
  0
MTEXT
  5
E1
330
D6
100
AcDbEntity
  8
치수문자_일반주서
100
AcDbMText
 10
-50.56771812095021
 20
1.34723791473413
 30
0.0
 40
3.5
 41
0.0
 71
     1
 72
     1
  1
6
  7
SLDTEXTSTYLE0
 11
-7.044195017643634E-15
 21
1.0
 31
0.0
 73
     1
 44
1.0
  0
ENDBLK
  5
D8
330
D6
100
AcDbEntity
  8
0
100
AcDbBlockEnd
  0
BLOCK
  5
E4
330
E3
100
AcDbEntity
  8
0
100
AcDbBlockBegin
  2
_D_1
 70
     0
 10
0.0
 20
0.0
 30
0.0
  3
_D_1
  1
_D_1
  0
SOLID
  5
E6
330
E3
100
AcDbEntity
  8
치수문자_일반주서
100
AcDbTrace
 10
55.49394916652361
 20
19.50107492872355
 30
0.0
 11
58.79594916652361
 21
18.99307492872355
 31
0.0
 12
58.79594916652361
 22
20.00907492872355
 32
0.0
 13
58.79594916652361
 23
20.00907492872355
 33
0.0
  0
SOLID
  5
E7
330
E3
100
AcDbEntity
  8
치수문자_일반주서
100
AcDbTrace
 10
49.49394916652362
 20
19.50107492872355
 30
0.0
 11
46.19194916652362
 21
20.00907492872355
 31
0.0
 12
46.19194916652362
 22
18.99307492872355
 32
0.0
 13
46.19194916652362
 23
18.99307492872355
 33
0.0
  0
LINE
  5
E8
330
E3
100
AcDbEntity
  8
치수문자_일반주서
100
AcDbLine
 10
55.49394916652361
 20
2.001074928723895
 30
0.0
 11
55.49394916652361
 21
20.50107492872355
 31
0.0
  0
LINE
  5
E9
330
E3
100
AcDbEntity
  8
치수문자_일반주서
100
AcDbLine
 10
49.49394916652362
 20
2.58258908268011
 30
0.0
 11
49.49394916652362
 21
20.50107492872355
 31
0.0
  0
LINE
  5
EA
330
E3
100
AcDbEntity
  8
치수문자_일반주서
100
AcDbLine
 10
55.49394916652361
 20
19.50107492872355
 30
0.0
 11
63.34975570836898
 21
19.50107492872355
 31
0.0
  0
LINE
  5
EB
330
E3
100
AcDbEntity
  8
치수문자_일반주서
100
AcDbLine
 10
55.49394916652361
 20
19.50107492872355
 30
0.0
 11
49.49394916652362
 21
19.50107492872355
 31
0.0
  0
LINE
  5
EC
330
E3
100
AcDbEntity
  8
치수문자_일반주서
100
AcDbLine
 10
49.49394916652362
 20
19.50107492872355
 30
0.0
 11
43.14394916652362
 21
19.50107492872355
 31
0.0
  0
MTEXT
  5
ED
330
E3
100
AcDbEntity
  8
치수문자_일반주서
100
AcDbMText
 10
60.76364451484616
 20
24.01281184330244
 30
0.0
 40
3.5
 41
0.0
 71
     1
 72
     1
  1
6
  7
SLDTEXTSTYLE0
 73
     1
 44
1.0
  0
ENDBLK
  5
E5
330
E3
100
AcDbEntity
  8
0
100
AcDbBlockEnd
  0
BLOCK
  5
F1
330
F0
100
AcDbEntity
  8
0
100
AcDbBlockBegin
  2
_D_2
 70
     0
 10
0.0
 20
0.0
 30
0.0
  3
_D_2
  1
_D_2
  0
SOLID
  5
F3
330
F0
100
AcDbEntity
  8
치수문자_일반주서
100
AcDbTrace
 10
55.49394916652361
 20
41.55939943376818
 30
0.0
 11
52.19194916652361
 21
42.06739943376819
 31
0.0
 12
52.19194916652361
 22
41.05139943376818
 32
0.0
 13
52.19194916652361
 23
41.05139943376818
 33
0.0
  0
SOLID
  5
F4
330
F0
100
AcDbEntity
  8
치수문자_일반주서
100
AcDbTrace
 10
-34.50605083347638
 20
41.55939943376818
 30
0.0
 11
-31.20405083347638
 21
41.05139943376818
 31
0.0
 12
-31.20405083347638
 22
42.06739943376819
 32
0.0
 13
-31.20405083347638
 23
42.06739943376819
 33
0.0
  0
LINE
  5
F5
330
F0
100
AcDbEntity
  8
치수문자_일반주서
100
AcDbLine
 10
55.49394916652361
 20
2.001074928723895
 30
0.0
 11
55.49394916652361
 21
42.55939943376818
 31
0.0
  0
LINE
  5
F6
330
F0
100
AcDbEntity
  8
치수문자_일반주서
100
AcDbLine
 10
-34.50605083347638
 20
3.001074928723888
 30
0.0
 11
-34.50605083347638
 21
42.55939943376818
 31
0.0
  0
LINE
  5
F7
330
F0
100
AcDbEntity
  8
치수문자_일반주서
100
AcDbLine
 10
55.49394916652361
 20
41.55939943376818
 30
0.0
 11
-34.50605083347638
 21
41.55939943376818
 31
0.0
  0
MTEXT
  5
F8
330
F0
100
AcDbEntity
  8
치수문자_일반주서
100
AcDbMText
 10
7.90783797300079
 20
46.07113634834707
 30
0.0
 40
3.5
 41
0.0
 71
     1
 72
     1
  1
90
  7
SLDTEXTSTYLE0
 73
     1
 44
1.0
  0
ENDBLK
  5
F2
330
F0
100
AcDbEntity
  8
0
100
AcDbBlockEnd
  0
BLOCK
  5
FB
330
FA
100
AcDbEntity
  8
0
100
AcDbBlockBegin
  2
_D_3
 70
     0
 10
0.0
 20
0.0
 30
0.0
  3
_D_3
  1
_D_3
  0
SOLID
  5
FD
330
FA
100
AcDbEntity
  8
치수문자_일반주서
100
AcDbTrace
 10
14.49394916652476
 20
30.32107492872395
 30
0.0
 11
17.79594916652475
 21
29.81307492872382
 31
0.0
 12
17.79594916652478
 22
30.82907492872382
 32
0.0
 13
17.79594916652478
 23
30.82907492872382
 33
0.0
  0
SOLID
  5
FE
330
FA
100
AcDbEntity
  8
치수문자_일반주서
100
AcDbTrace
 10
10.2140453559571
 20
30.32107492872411
 30
0.0
 11
6.912045355957115
 21
30.82907492872424
 31
0.0
 12
6.912045355957076
 22
29.81307492872424
 32
0.0
 13
6.912045355957076
 23
29.81307492872424
 33
0.0
  0
LINE
  5
FF
330
FA
100
AcDbEntity
  8
치수문자_일반주서
100
AcDbLine
 10
14.49394916652365
 20
1.401074928723893
 30
0.0
 11
14.4939491665248
 21
31.32107492872394
 31
0.0
  0
LINE
  5
100
330
FA
100
AcDbEntity
  8
치수문자_일반주서
100
AcDbLine
 10
10.21404535595599
 20
1.551074928723894
 30
0.0
 11
10.21404535595713
 21
31.32107492872411
 31
0.0
  0
LINE
  5
101
330
FA
100
AcDbEntity
  8
치수문자_일반주서
100
AcDbLine
 10
14.49394916652476
 20
30.32107492872395
 30
0.0
 11
55.42440269528608
 21
30.32107492872239
 31
0.0
  0
LINE
  5
102
330
FA
100
AcDbEntity
  8
치수문자_일반주서
100
AcDbLine
 10
14.49394916652476
 20
30.32107492872395
 30
0.0
 11
10.2140453559571
 21
30.32107492872411
 31
0.0
  0
LINE
  5
103
330
FA
100
AcDbEntity
  8
치수문자_일반주서
100
AcDbLine
 10
10.2140453559571
 20
30.32107492872411
 30
0.0
 11
3.864045355957095
 21
30.32107492872435
 31
0.0
  0
MTEXT
  5
104
330
FA
100
AcDbEntity
  8
치수문자_일반주서
100
AcDbMText
 10
46.3730136343715
 20
34.83281184330144
 30
0.0
 40
3.5
 41
0.0
 71
     1
 72
     1
  1
4.28
  7
SLDTEXTSTYLE0
 73
     1
 44
1.0
  0
ENDBLK
  5
FC
330
FA
100
AcDbEntity
  8
0
100
AcDbBlockEnd
  0
BLOCK
  5
107
330
106
100
AcDbEntity
  8
0
100
AcDbBlockBegin
  2
_D_4
 70
     0
 10
0.0
 20
0.0
 30
0.0
  3
_D_4
  1
_D_4
  0
SOLID
  5
109
330
106
100
AcDbEntity
  8
치수문자_일반주서
100
AcDbTrace
 10
68.05059833193548
 20
1.501074928723896
 30
0.0
 11
68.55859833193547
 21
4.803074928723896
 31
0.0
 12
67.54259833193548
 22
4.803074928723896
 32
0.0
 13
67.54259833193548
 23
4.803074928723896
 33
0.0
  0
SOLID
  5
10A
330
106
100
AcDbEntity
  8
치수문자_일반주서
100
AcDbTrace
 10
68.05059833193548
 20
-1.480510821134722
 30
0.0
 11
67.54259833193548
 21
-4.782510821134721
 31
0.0
 12
68.55859833193547
 22
-4.782510821134721
 32
0.0
 13
68.55859833193547
 23
-4.782510821134721
 33
0.0
  0
LINE
  5
10B
330
106
100
AcDbEntity
  8
치수문자_일반주서
100
AcDbLine
 10
51.19394916652362
 20
1.501074928723897
 30
0.0
 11
69.05059833193548
 21
1.501074928723896
 31
0.0
  0
LINE
  5
10C
330
106
100
AcDbEntity
  8
치수문자_일반주서
100
AcDbLine
 10
51.19394916652362
 20
-1.480510821134721
 30
0.0
 11
69.05059833193548
 21
-1.480510821134722
 31
0.0
  0
LINE
  5
10D
330
106
100
AcDbEntity
  8
치수문자_일반주서
100
AcDbLine
 10
68.05059833193548
 20
1.501074928723896
 30
0.0
 11
68.05059833193548
 21
7.851074928723896
 31
0.0
  0
LINE
  5
10E
330
106
100
AcDbEntity
  8
치수문자_일반주서
100
AcDbLine
 10
68.05059833193548
 20
1.501074928723896
 30
0.0
 11
68.05059833193548
 21
-1.480510821134722
 31
0.0
  0
LINE
  5
10F
330
106
100
AcDbEntity
  8
치수문자_일반주서
100
AcDbLine
 10
68.05059833193548
 20
-1.480510821134722
 30
0.0
 11
68.05059833193548
 21
-14.32156976103179
 31
0.0
  0
MTEXT
  5
110
330
106
100
AcDbEntity
  8
치수문자_일반주서
100
AcDbMText
 10
63.53886124273361
 20
-14.32156976103178
 30
0.0
 40
3.5
 41
0.0
 71
     1
 72
     1
  1
%%c
  7
SLDTEXTSTYLE0
 11
-7.044195017643634E-15
 21
1.0
 31
0.0
 73
     1
 44
1.0
  0
MTEXT
  5
111
330
106
100
AcDbEntity
  8
치수문자_일반주서
100
AcDbMText
 10
63.48538906607372
 20
-9.043132362657696
 30
0.0
 40
3.5
 41
0.0
 71
     1
 72
     1
  1
2.98
  7
SLDTEXTSTYLE0
 11
-7.044195017643634E-15
 21
1.0
 31
0.0
 73
     1
 44
1.0
  0
ENDBLK
  5
108
330
106
100
AcDbEntity
  8
0
100
AcDbBlockEnd
  0
BLOCK
  5
113
330
112
100
AcDbEntity
  8
0
100
AcDbBlockBegin
  2
SW_DOWELSYMBOL_0
 70
     0
 10
0.0
 20
0.0
 30
0.0
  3
SW_DOWELSYMBOL_0
  1
SW_DOWELSYMBOL_0
  0
CIRCLE
  5
115
330
112
100
AcDbEntity
  8
외형선
 62
     0
100
AcDbCircle
 10
0.0
 20
0.0
 30
0.0
 40
3.000000000000004
  0
HATCH
  5
116
330
112
100
AcDbEntity
  8
0
  6
Continuous
 62
     0
370
    35
100
AcDbHatch
 10
0.0
 20
0.0
 30
0.0
210
0.0
220
0.0
230
1.0
  2
SOLID
 70
     1
 71
     0
 91
        1
 92
        0
 93
        3
 72
     2
 10
0.0000000000000104
 20
0.0
 40
3.000000000000004
 50
0.0
 51
90.0
 73
     1
 72
     1
 10
0.0000000000000104
 20
3.000000000000004
 11
0.0000000000000104
 21
0.0
 72
     1
 10
0.0000000000000104
 20
0.0
 11
3.000000000000015
 21
0.0
 97
        0
 75
     0
 76
     1
 98
        1
 10
0.0
 20
0.0
  0
HATCH
  5
117
330
112
100
AcDbEntity
  8
0
  6
Continuous
 62
     0
370
    35
100
AcDbHatch
 10
0.0
 20
0.0
 30
0.0
210
0.0
220
0.0
230
1.0
  2
SOLID
 70
     1
 71
     0
 91
        1
 92
        0
 93
        3
 72
     2
 10
0.0000000000000104
 20
0.0
 40
3.000000000000004
 50
180.0
 51
270.0000000000008
 73
     1
 72
     1
 10
0.0000000000000104
 20
-3.000000000000004
 11
0.0000000000000104
 21
0.0
 72
     1
 10
0.0000000000000104
 20
0.0
 11
-2.999999999999994
 21
0.0
 97
        0
 75
     0
 76
     1
 98
        1
 10
0.0
 20
0.0
  0
ENDBLK
  5
114
330
112
100
AcDbEntity
  8
0
100
AcDbBlockEnd
  0
BLOCK
  5
19B
330
19A
100
AcDbEntity
  8
0
100
AcDbBlockBegin
  2
*D9
 70
     1
 10
0.0
 20
0.0
 30
0.0
  3
*D9
  1
*D15
  0
LINE
  5
19C
330
19A
100
AcDbEntity
  8
치수문자_일반주서
 62
     0
370
    -2
100
AcDbLine
 10
16.80895802161208
 20
23.01897882703037
 30
0.0
 11
4.374999999999996
 21
23.01897882703032
 31
0.0
  0
LINE
  5
19D
330
19A
100
AcDbEntity
  8
치수문자_일반주서
 62
     0
370
    -2
100
AcDbLine
 10
16.80895802161208
 20
17.01897882703037
 30
0.0
 11
4.375000000000018
 21
17.01897882703032
 31
0.0
  0
LINE
  5
19E
330
19A
100
AcDbEntity
  8
치수문자_일반주서
 62
     0
370
    -2
100
AcDbLine
 10
4.375000000000008
 20
19.71697882703032
 30
0.0
 11
4.375000000000006
 21
20.32097882703032
 31
0.0
  0
SOLID
  5
19F
330
19A
100
AcDbEntity
  8
치수문자_일반주서
 62
     0
100
AcDbTrace
 10
4.925333333333342
 20
19.71697882703032
 30
0.0
 11
3.824666666666675
 21
19.71697882703032
 31
0.0
 12
4.374999999999996
 22
23.01897882703032
 32
0.0
 13
4.374999999999996
 23
23.01897882703032
 33
0.0
  0
SOLID
  5
1A0
330
19A
100
AcDbEntity
  8
치수문자_일반주서
 62
     0
100
AcDbTrace
 10
3.824666666666673
 20
20.32097882703032
 30
0.0
 11
4.92533333333334
 21
20.32097882703032
 31
0.0
 12
4.375000000000018
 22
17.01897882703032
 32
0.0
 13
4.375000000000018
 23
17.01897882703032
 33
0.0
  0
MTEXT
  5
1A1
330
19A
100
AcDbEntity
  8
치수문자_일반주서
 62
     0
100
AcDbMText
 10
0.0000000000000071
 20
20.01897882703035
 30
0.0
 40
3.5
 41
0.0
 71
     2
 72
     1
  1
\A1;%%c6
  7
SLDTEXTSTYLE0
 11
-3.552713678800501E-15
 21
1.0
 31
0.0
 73
     1
 44
1.0
  0
POINT
  5
1A2
330
19A
100
AcDbEntity
  8
Defpoints
 62
     0
100
AcDbPoint
 10
16.87145802161208
 20
23.01897882703037
 30
0.0
  0
POINT
  5
1A3
330
19A
100
AcDbEntity
  8
Defpoints
 62
     0
100
AcDbPoint
 10
16.87145802161208
 20
17.01897882703037
 30
0.0
  0
POINT
  5
1A4
330
19A
100
AcDbEntity
  8
Defpoints
 62
     0
100
AcDbPoint
 10
4.375000000000021
 20
17.01897882703032
 30
0.0
  0
ENDBLK
  5
1A5
330
19A
100
AcDbEntity
  8
0
100
AcDbBlockEnd
  0
BLOCK
  5
1A8
330
1A7
100
AcDbEntity
  8
0
100
AcDbBlockBegin
  2
*D10
 70
     1
 10
0.0
 20
0.0
 30
0.0
  3
*D10
  1
*D16
  0
LINE
  5
1A9
330
1A7
100
AcDbEntity
  8
치수문자_일반주서
 62
     0
370
    -2
100
AcDbLine
 10
105.8714580216121
 20
21.98147882703037
 30
0.0
 11
105.8714580216121
 21
40.41897882703003
 31
0.0
  0
LINE
  5
1AA
330
1A7
100
AcDbEntity
  8
치수문자_일반주서
 62
     0
370
    -2
100
AcDbLine
 10
99.87145802161206
 20
21.66299298098659
 30
0.0
 11
99.87145802161206
 21
40.41897882703003
 31
0.0
  0
LINE
  5
1AB
330
1A7
100
AcDbEntity
  8
치수문자_일반주서
 62
     0
370
    -2
100
AcDbLine
 10
102.5694580216121
 20
40.41897882703003
 30
0.0
 11
103.173458021612
 21
40.41897882703003
 31
0.0
  0
SOLID
  5
1AC
330
1A7
100
AcDbEntity
  8
치수문자_일반주서
 62
     0
100
AcDbTrace
 10
102.5694580216121
 20
39.8686454936967
 30
0.0
 11
102.5694580216121
 21
40.96931216036337
 31
0.0
 12
105.8714580216121
 22
40.41897882703003
 32
0.0
 13
105.8714580216121
 23
40.41897882703003
 33
0.0
  0
SOLID
  5
1AD
330
1A7
100
AcDbEntity
  8
치수문자_일반주서
 62
     0
100
AcDbTrace
 10
103.173458021612
 20
40.96931216036337
 30
0.0
 11
103.173458021612
 21
39.8686454936967
 31
0.0
 12
99.87145802161206
 22
40.41897882703003
 32
0.0
 13
99.87145802161206
 23
40.41897882703003
 33
0.0
  0
MTEXT
  5
1AE
330
1A7
100
AcDbEntity
  8
치수문자_일반주서
 62
     0
100
AcDbMText
 10
102.8714580216121
 20
44.79397882703003
 30
0.0
 40
3.5
 41
0.0
 71
     2
 72
     1
  1
\A1;6
  7
SLDTEXTSTYLE0
 73
     1
 44
1.0
  0
POINT
  5
1AF
330
1A7
100
AcDbEntity
  8
Defpoints
 62
     0
100
AcDbPoint
 10
105.8714580216121
 20
21.91897882703037
 30
0.0
  0
POINT
  5
1B0
330
1A7
100
AcDbEntity
  8
Defpoints
 62
     0
100
AcDbPoint
 10
99.87145802161206
 20
21.60049298098659
 30
0.0
  0
POINT
  5
1B1
330
1A7
100
AcDbEntity
  8
Defpoints
 62
     0
100
AcDbPoint
 10
99.87145802161206
 20
40.41897882703003
 30
0.0
  0
ENDBLK
  5
1B2
330
1A7
100
AcDbEntity
  8
0
100
AcDbBlockEnd
  0
BLOCK
  5
1B5
330
1B4
100
AcDbEntity
  8
0
100
AcDbBlockBegin
  2
*D11
 70
     1
 10
0.0
 20
0.0
 30
0.0
  3
*D11
  1
*D17
  0
LINE
  5
1B6
330
1B4
100
AcDbEntity
  8
치수문자_일반주서
 62
     0
370
    -2
100
AcDbLine
 10
105.8714580216121
 20
21.98147882703037
 30
0.0
 11
105.8714580216121
 21
62.47730333207465
 31
0.0
  0
LINE
  5
1B7
330
1B4
100
AcDbEntity
  8
치수문자_일반주서
 62
     0
370
    -2
100
AcDbLine
 10
15.87145802161208
 20
22.08147882703037
 30
0.0
 11
15.87145802161208
 21
62.47730333207465
 31
0.0
  0
LINE
  5
1B8
330
1B4
100
AcDbEntity
  8
치수문자_일반주서
 62
     0
370
    -2
100
AcDbLine
 10
102.5694580216121
 20
62.47730333207465
 30
0.0
 11
19.17345802161208
 21
62.47730333207465
 31
0.0
  0
SOLID
  5
1B9
330
1B4
100
AcDbEntity
  8
치수문자_일반주서
 62
     0
100
AcDbTrace
 10
102.5694580216121
 20
61.92696999874132
 30
0.0
 11
102.5694580216121
 21
63.02763666540799
 31
0.0
 12
105.8714580216121
 22
62.47730333207465
 32
0.0
 13
105.8714580216121
 23
62.47730333207465
 33
0.0
  0
SOLID
  5
1BA
330
1B4
100
AcDbEntity
  8
치수문자_일반주서
 62
     0
100
AcDbTrace
 10
19.17345802161208
 20
63.02763666540799
 30
0.0
 11
19.17345802161208
 21
61.92696999874132
 31
0.0
 12
15.87145802161208
 22
62.47730333207465
 32
0.0
 13
15.87145802161208
 23
62.47730333207465
 33
0.0
  0
MTEXT
  5
1BB
330
1B4
100
AcDbEntity
  8
치수문자_일반주서
 62
     0
100
AcDbMText
 10
60.87145802161206
 20
66.85230333207465
 30
0.0
 40
3.5
 41
0.0
 71
     2
 72
     1
  1
\A1;90
  7
SLDTEXTSTYLE0
 73
     1
 44
1.0
  0
POINT
  5
1BC
330
1B4
100
AcDbEntity
  8
Defpoints
 62
     0
100
AcDbPoint
 10
105.8714580216121
 20
21.91897882703037
 30
0.0
  0
POINT
  5
1BD
330
1B4
100
AcDbEntity
  8
Defpoints
 62
     0
100
AcDbPoint
 10
15.87145802161208
 20
22.01897882703037
 30
0.0
  0
POINT
  5
1BE
330
1B4
100
AcDbEntity
  8
Defpoints
 62
     0
100
AcDbPoint
 10
15.87145802161208
 20
62.47730333207465
 30
0.0
  0
ENDBLK
  5
1BF
330
1B4
100
AcDbEntity
  8
0
100
AcDbBlockEnd
  0
BLOCK
  5
1C2
330
1C1
100
AcDbEntity
  8
0
100
AcDbBlockBegin
  2
*D12
 70
     1
 10
0.0
 20
0.0
 30
0.0
  3
*D12
  1
*D18
  0
LINE
  5
1C3
330
1C1
100
AcDbEntity
  8
치수문자_일반주서
 62
     0
370
    -2
100
AcDbLine
 10
105.8714580216121
 20
21.97877963767111
 30
0.0
 11
105.8714580216121
 21
50.33897882702902
 31
0.0
  0
LINE
  5
1C4
330
1C1
100
AcDbEntity
  8
치수문자_일반주서
 62
     0
370
    -2
100
AcDbLine
 10
60.87145802161206
 20
22.00647882703037
 30
0.0
 11
60.87145802161206
 21
50.33897882702902
 31
0.0
  0
LINE
  5
1C5
330
1C1
100
AcDbEntity
  8
치수문자_일반주서
 62
     0
370
    -2
100
AcDbLine
 10
102.5694580216121
 20
50.33897882702902
 30
0.0
 11
64.17345802161206
 21
50.33897882702902
 31
0.0
  0
SOLID
  5
1C6
330
1C1
100
AcDbEntity
  8
치수문자_일반주서
 62
     0
100
AcDbTrace
 10
102.5694580216121
 20
49.78864549369569
 30
0.0
 11
102.5694580216121
 21
50.88931216036236
 31
0.0
 12
105.8714580216121
 22
50.33897882702902
 32
0.0
 13
105.8714580216121
 23
50.33897882702902
 33
0.0
  0
SOLID
  5
1C7
330
1C1
100
AcDbEntity
  8
치수문자_일반주서
 62
     0
100
AcDbTrace
 10
64.17345802161206
 20
50.88931216036236
 30
0.0
 11
64.17345802161206
 21
49.78864549369569
 31
0.0
 12
60.87145802161206
 22
50.33897882702902
 32
0.0
 13
60.87145802161206
 23
50.33897882702902
 33
0.0
  0
MTEXT
  5
1C8
330
1C1
100
AcDbEntity
  8
치수문자_일반주서
 62
     0
100
AcDbMText
 10
83.37145802161206
 20
54.71397882702902
 30
0.0
 40
3.5
 41
0.0
 71
     2
 72
     1
  1
\A1;45
  7
SLDTEXTSTYLE0
 73
     1
 44
1.0
  0
POINT
  5
1C9
330
1C1
100
AcDbEntity
  8
Defpoints
 62
     0
100
AcDbPoint
 10
105.8714580216121
 20
21.91627963767111
 30
0.0
  0
POINT
  5
1CA
330
1C1
100
AcDbEntity
  8
Defpoints
 62
     0
100
AcDbPoint
 10
60.87145802161206
 20
21.94397882703037
 30
0.0
  0
POINT
  5
1CB
330
1C1
100
AcDbEntity
  8
Defpoints
 62
     0
100
AcDbPoint
 10
60.87145802161206
 20
50.33897882702902
 30
0.0
  0
ENDBLK
  5
1CC
330
1C1
100
AcDbEntity
  8
0
100
AcDbBlockEnd
  0
BLOCK
  5
1CF
330
1CE
100
AcDbEntity
  8
0
100
AcDbBlockBegin
  2
*D13
 70
     1
 10
0.0
 20
0.0
 30
0.0
  3
*D13
  1
*D19
  0
LINE
  5
1D0
330
1CE
100
AcDbEntity
  8
치수문자_일반주서
 62
     0
370
    -2
100
AcDbLine
 10
105.9339580216121
 20
22.02473337830339
 30
0.0
 11
118.4281071870239
 21
22.02473337830343
 31
0.0
  0
LINE
  5
1D1
330
1CE
100
AcDbEntity
  8
치수문자_일반주서
 62
     0
370
    -2
100
AcDbLine
 10
105.8339580216121
 20
18.02389945654824
 30
0.0
 11
118.4281071870239
 21
18.02389945654829
 31
0.0
  0
LINE
  5
1D2
330
1CE
100
AcDbEntity
  8
치수문자_일반주서
 62
     0
370
    -2
100
AcDbLine
 10
118.4281071870239
 20
18.72273337830343
 30
0.0
 11
118.4281071870239
 21
21.32589945654829
 31
0.0
  0
SOLID
  5
1D3
330
1CE
100
AcDbEntity
  8
치수문자_일반주서
 62
     0
100
AcDbTrace
 10
118.9784405203572
 20
18.72273337830344
 30
0.0
 11
117.8777738536906
 21
18.72273337830343
 31
0.0
 12
118.4281071870239
 22
22.02473337830343
 32
0.0
 13
118.4281071870239
 23
22.02473337830343
 33
0.0
  0
SOLID
  5
1D4
330
1CE
100
AcDbEntity
  8
치수문자_일반주서
 62
     0
100
AcDbTrace
 10
117.8777738536906
 20
21.32589945654829
 30
0.0
 11
118.9784405203572
 21
21.32589945654829
 31
0.0
 12
118.4281071870239
 22
18.02389945654829
 32
0.0
 13
118.4281071870239
 23
18.02389945654829
 33
0.0
  0
MTEXT
  5
1D5
330
1CE
100
AcDbEntity
  8
치수문자_일반주서
 62
     0
100
AcDbMText
 10
114.0531071870239
 20
20.0189788270304
 30
0.0
 40
3.5
 41
0.0
 71
     2
 72
     1
  1
\A1;%%c4
  7
SLDTEXTSTYLE0
 11
-3.551973161877155E-15
 21
1.0
 31
0.0
 73
     1
 44
1.0
  0
POINT
  5
1D6
330
1CE
100
AcDbEntity
  8
Defpoints
 62
     0
100
AcDbPoint
 10
105.8714580216121
 20
22.02473337830339
 30
0.0
  0
POINT
  5
1D7
330
1CE
100
AcDbEntity
  8
Defpoints
 62
     0
100
AcDbPoint
 10
105.7714580216121
 20
18.02389945654824
 30
0.0
  0
POINT
  5
1D8
330
1CE
100
AcDbEntity
  8
Defpoints
 62
     0
100
AcDbPoint
 10
118.4281071870239
 20
18.02389945654829
 30
0.0
  0
ENDBLK
  5
1D9
330
1CE
100
AcDbEntity
  8
0
100
AcDbBlockEnd
  0
BLOCK
  5
1E7
330
1E6
100
AcDbEntity
  8
0
100
AcDbBlockBegin
  2
*D14
 70
     1
 10
0.0
 20
0.0
 30
0.0
  3
*D14
  1
*D21
  0
LINE
  5
1E8
330
1E6
100
AcDbEntity
  8
치수문자_일반주서
 62
     0
370
    -2
100
AcDbLine
 10
107.0784684372624
 20
15.01837721141778
 30
0.0
 11
113.6662948326415
 21
-0.0000000000005169
 31
0.0
  0
MTEXT
  5
1E9
330
1E6
100
AcDbEntity
  8
치수문자_일반주서
 62
     0
100
AcDbMText
 10
114.2248658118513
 20
5.261289055324677
 30
0.0
 40
3.5
 41
0.0
 71
     5
 72
     1
  1
\A1;R0.2
  7
SLDTEXTSTYLE0
 11
0.4017033697718994
 21
-0.9157698415616781
 31
0.0
 73
     1
 44
1.0
  0
LINE
  5
1EA
330
1E6
100
AcDbEntity
  8
치수문자_일반주서
 62
     0
370
    -2
100
AcDbLine
 10
105.6718678399501
 20
18.22502794694099
 30
0.0
 11
105.7520439102755
 21
18.04224922825444
 31
0.0
  0
SOLID
  5
1EB
330
1E6
100
AcDbEntity
  8
치수문자_일반주서
 62
     0
100
AcDbTrace
 10
107.5824471067351
 20
15.23944796591559
 30
0.0
 11
106.5744897677896
 21
14.79730645691998
 31
0.0
 12
105.7520439102755
 22
18.04224922825444
 32
0.0
 13
105.7520439102755
 23
18.04224922825444
 33
0.0
  0
POINT
  5
1EC
330
1E6
100
AcDbEntity
  8
Defpoints
 62
     0
100
AcDbPoint
 10
105.7520439102755
 20
18.04224922825444
 30
0.0
  0
POINT
  5
1ED
330
1E6
100
AcDbEntity
  8
Defpoints
 62
     0
100
AcDbPoint
 10
105.6718678399501
 20
18.22502794694099
 30
0.0
  0
ENDBLK
  5
1EE
330
1E6
100
AcDbEntity
  8
0
100
AcDbBlockEnd
  0
BLOCK
  5
22F
330
22E
100
AcDbEntity
  8
0
100
AcDbBlockBegin
  2
*D15
 70
     1
 10
0.0
 20
0.0
 30
0.0
  3
*D15
  1
*D15
  0
LINE
  5
231
330
22E
100
AcDbEntity
  8
치수문자_일반주서
 62
     0
370
    -2
100
AcDbLine
 10
-38.05054538186349
 20
2.999999999999996
 30
0.0
 11
-50.48450340347555
 21
2.999999999999949
 31
0.0
  0
LINE
  5
232
330
22E
100
AcDbEntity
  8
치수문자_일반주서
 62
     0
370
    -2
100
AcDbLine
 10
-38.05054538186349
 20
-3.000000000000004
 30
0.0
 11
-50.48450340347553
 21
-3.000000000000051
 31
0.0
  0
LINE
  5
233
330
22E
100
AcDbEntity
  8
치수문자_일반주서
 62
     0
370
    -2
100
AcDbLine
 10
-50.48450340347554
 20
-0.3020000000000507
 30
0.0
 11
-50.48450340347554
 21
0.3019999999999485
 31
0.0
  0
SOLID
  5
234
330
22E
100
AcDbEntity
  8
치수문자_일반주서
 62
     0
100
AcDbTrace
 10
-49.9341700701422
 20
-0.3020000000000487
 30
0.0
 11
-51.03483673680887
 21
-0.3020000000000526
 31
0.0
 12
-50.48450340347555
 22
2.999999999999949
 32
0.0
 13
-50.48450340347555
 23
2.999999999999949
 33
0.0
  0
SOLID
  5
235
330
22E
100
AcDbEntity
  8
치수문자_일반주서
 62
     0
100
AcDbTrace
 10
-51.03483673680888
 20
0.3019999999999466
 30
0.0
 11
-49.93417007014221
 21
0.3019999999999505
 31
0.0
 12
-50.48450340347553
 22
-3.000000000000051
 32
0.0
 13
-50.48450340347553
 23
-3.000000000000051
 33
0.0
  0
MTEXT
  5
236
330
22E
100
AcDbEntity
  8
치수문자_일반주서
 62
     0
100
AcDbMText
 10
-54.85950340347554
 20
-0.000000000000019
 30
0.0
 40
3.5
 41
0.0
 71
     2
 72
     1
  1
\A1;%%c6
  7
SLDTEXTSTYLE0
 11
-3.552713678800502E-15
 21
1.0
 31
0.0
 73
     1
 44
1.0
  0
POINT
  5
237
330
22E
100
AcDbEntity
  8
Defpoints
 62
     0
100
AcDbPoint
 10
-37.98804538186349
 20
2.999999999999996
 30
0.0
  0
POINT
  5
238
330
22E
100
AcDbEntity
  8
Defpoints
 62
     0
100
AcDbPoint
 10
-37.98804538186349
 20
-3.000000000000004
 30
0.0
  0
POINT
  5
239
330
22E
100
AcDbEntity
  8
Defpoints
 62
     0
100
AcDbPoint
 10
-50.48450340347553
 20
-3.00000000000005
 30
0.0
  0
ENDBLK
  5
230
330
22E
100
AcDbEntity
  8
0
100
AcDbBlockEnd
  0
BLOCK
  5
23B
330
23A
100
AcDbEntity
  8
0
100
AcDbBlockBegin
  2
*D16
 70
     1
 10
0.0
 20
0.0
 30
0.0
  3
*D16
  1
*D16
  0
LINE
  5
23D
330
23A
100
AcDbEntity
  8
치수문자_일반주서
 62
     0
370
    -2
100
AcDbLine
 10
51.01195461813651
 20
1.962500000000002
 30
0.0
 11
51.01195461813651
 21
20.39999999999966
 31
0.0
  0
LINE
  5
23E
330
23A
100
AcDbEntity
  8
치수문자_일반주서
 62
     0
370
    -2
100
AcDbLine
 10
45.01195461813651
 20
1.644014153956217
 30
0.0
 11
45.01195461813651
 21
20.39999999999966
 31
0.0
  0
LINE
  5
23F
330
23A
100
AcDbEntity
  8
치수문자_일반주서
 62
     0
370
    -2
100
AcDbLine
 10
47.70995461813651
 20
20.39999999999966
 30
0.0
 11
48.31395461813651
 21
20.39999999999966
 31
0.0
  0
SOLID
  5
240
330
23A
100
AcDbEntity
  8
치수문자_일반주서
 62
     0
100
AcDbTrace
 10
47.70995461813651
 20
19.84966666666633
 30
0.0
 11
47.70995461813651
 21
20.950333333333
 31
0.0
 12
51.01195461813651
 22
20.39999999999966
 32
0.0
 13
51.01195461813651
 23
20.39999999999966
 33
0.0
  0
SOLID
  5
241
330
23A
100
AcDbEntity
  8
치수문자_일반주서
 62
     0
100
AcDbTrace
 10
48.31395461813651
 20
20.950333333333
 30
0.0
 11
48.31395461813651
 21
19.84966666666633
 31
0.0
 12
45.01195461813651
 22
20.39999999999966
 32
0.0
 13
45.01195461813651
 23
20.39999999999966
 33
0.0
  0
MTEXT
  5
242
330
23A
100
AcDbEntity
  8
치수문자_일반주서
 62
     0
100
AcDbMText
 10
48.01195461813651
 20
24.77499999999966
 30
0.0
 40
3.5
 41
0.0
 71
     2
 72
     1
  1
\A1;6
  7
SLDTEXTSTYLE0
 73
     1
 44
1.0
  0
POINT
  5
243
330
23A
100
AcDbEntity
  8
Defpoints
 62
     0
100
AcDbPoint
 10
51.01195461813651
 20
1.900000000000002
 30
0.0
  0
POINT
  5
244
330
23A
100
AcDbEntity
  8
Defpoints
 62
     0
100
AcDbPoint
 10
45.01195461813651
 20
1.581514153956217
 30
0.0
  0
POINT
  5
245
330
23A
100
AcDbEntity
  8
Defpoints
 62
     0
100
AcDbPoint
 10
45.01195461813651
 20
20.39999999999966
 30
0.0
  0
ENDBLK
  5
23C
330
23A
100
AcDbEntity
  8
0
100
AcDbBlockEnd
  0
BLOCK
  5
247
330
246
100
AcDbEntity
  8
0
100
AcDbBlockBegin
  2
*D17
 70
     1
 10
0.0
 20
0.0
 30
0.0
  3
*D17
  1
*D17
  0
LINE
  5
249
330
246
100
AcDbEntity
  8
치수문자_일반주서
 62
     0
370
    -2
100
AcDbLine
 10
51.01195461813651
 20
1.962500000000002
 30
0.0
 11
51.01195461813651
 21
42.45832450504429
 31
0.0
  0
LINE
  5
24A
330
246
100
AcDbEntity
  8
치수문자_일반주서
 62
     0
370
    -2
100
AcDbLine
 10
-38.98804538186349
 20
2.062499999999996
 30
0.0
 11
-38.98804538186349
 21
42.45832450504429
 31
0.0
  0
LINE
  5
24B
330
246
100
AcDbEntity
  8
치수문자_일반주서
 62
     0
370
    -2
100
AcDbLine
 10
47.70995461813651
 20
42.45832450504429
 30
0.0
 11
-35.68604538186349
 21
42.45832450504429
 31
0.0
  0
SOLID
  5
24C
330
246
100
AcDbEntity
  8
치수문자_일반주서
 62
     0
100
AcDbTrace
 10
47.70995461813651
 20
41.90799117171095
 30
0.0
 11
47.70995461813651
 21
43.00865783837762
 31
0.0
 12
51.01195461813651
 22
42.45832450504429
 32
0.0
 13
51.01195461813651
 23
42.45832450504429
 33
0.0
  0
SOLID
  5
24D
330
246
100
AcDbEntity
  8
치수문자_일반주서
 62
     0
100
AcDbTrace
 10
-35.68604538186349
 20
43.00865783837762
 30
0.0
 11
-35.68604538186349
 21
41.90799117171095
 31
0.0
 12
-38.98804538186349
 22
42.45832450504429
 32
0.0
 13
-38.98804538186349
 23
42.45832450504429
 33
0.0
  0
MTEXT
  5
24E
330
246
100
AcDbEntity
  8
치수문자_일반주서
 62
     0
100
AcDbMText
 10
6.011954618136514
 20
46.83332450504429
 30
0.0
 40
3.5
 41
0.0
 71
     2
 72
     1
  1
\A1;90
  7
SLDTEXTSTYLE0
 73
     1
 44
1.0
  0
POINT
  5
24F
330
246
100
AcDbEntity
  8
Defpoints
 62
     0
100
AcDbPoint
 10
51.01195461813651
 20
1.900000000000002
 30
0.0
  0
POINT
  5
250
330
246
100
AcDbEntity
  8
Defpoints
 62
     0
100
AcDbPoint
 10
-38.98804538186349
 20
1.999999999999996
 30
0.0
  0
POINT
  5
251
330
246
100
AcDbEntity
  8
Defpoints
 62
     0
100
AcDbPoint
 10
-38.98804538186349
 20
42.45832450504429
 30
0.0
  0
ENDBLK
  5
248
330
246
100
AcDbEntity
  8
0
100
AcDbBlockEnd
  0
BLOCK
  5
253
330
252
100
AcDbEntity
  8
0
100
AcDbBlockBegin
  2
*D18
 70
     1
 10
0.0
 20
0.0
 30
0.0
  3
*D18
  1
*D18
  0
LINE
  5
255
330
252
100
AcDbEntity
  8
치수문자_일반주서
 62
     0
370
    -2
100
AcDbLine
 10
51.01195461813651
 20
1.95980081064074
 30
0.0
 11
51.01195461813651
 21
30.31999999999865
 31
0.0
  0
LINE
  5
256
330
252
100
AcDbEntity
  8
치수문자_일반주서
 62
     0
370
    -2
100
AcDbLine
 10
6.011954618136514
 20
1.987500000000001
 30
0.0
 11
6.011954618136514
 21
30.31999999999865
 31
0.0
  0
LINE
  5
257
330
252
100
AcDbEntity
  8
치수문자_일반주서
 62
     0
370
    -2
100
AcDbLine
 10
47.70995461813651
 20
30.31999999999865
 30
0.0
 11
9.313954618136513
 21
30.31999999999865
 31
0.0
  0
SOLID
  5
258
330
252
100
AcDbEntity
  8
치수문자_일반주서
 62
     0
100
AcDbTrace
 10
47.70995461813651
 20
29.76966666666532
 30
0.0
 11
47.70995461813651
 21
30.87033333333199
 31
0.0
 12
51.01195461813651
 22
30.31999999999865
 32
0.0
 13
51.01195461813651
 23
30.31999999999865
 33
0.0
  0
SOLID
  5
259
330
252
100
AcDbEntity
  8
치수문자_일반주서
 62
     0
100
AcDbTrace
 10
9.313954618136513
 20
30.87033333333199
 30
0.0
 11
9.313954618136513
 21
29.76966666666532
 31
0.0
 12
6.011954618136514
 22
30.31999999999865
 32
0.0
 13
6.011954618136514
 23
30.31999999999865
 33
0.0
  0
MTEXT
  5
25A
330
252
100
AcDbEntity
  8
치수문자_일반주서
 62
     0
100
AcDbMText
 10
28.51195461813651
 20
34.69499999999866
 30
0.0
 40
3.5
 41
0.0
 71
     2
 72
     1
  1
\A1;45
  7
SLDTEXTSTYLE0
 73
     1
 44
1.0
  0
POINT
  5
25B
330
252
100
AcDbEntity
  8
Defpoints
 62
     0
100
AcDbPoint
 10
51.01195461813651
 20
1.89730081064074
 30
0.0
  0
POINT
  5
25C
330
252
100
AcDbEntity
  8
Defpoints
 62
     0
100
AcDbPoint
 10
6.011954618136514
 20
1.925000000000001
 30
0.0
  0
POINT
  5
25D
330
252
100
AcDbEntity
  8
Defpoints
 62
     0
100
AcDbPoint
 10
6.011954618136514
 20
30.31999999999865
 30
0.0
  0
ENDBLK
  5
254
330
252
100
AcDbEntity
  8
0
100
AcDbBlockEnd
  0
BLOCK
  5
25F
330
25E
100
AcDbEntity
  8
0
100
AcDbBlockBegin
  2
*D19
 70
     1
 10
0.0
 20
0.0
 30
0.0
  3
*D19
  1
*D19
  0
LINE
  5
261
330
25E
100
AcDbEntity
  8
치수문자_일반주서
 62
     0
370
    -2
100
AcDbLine
 10
51.07445461813651
 20
2.005754551273018
 30
0.0
 11
63.56860378354835
 21
2.005754551273065
 31
0.0
  0
LINE
  5
262
330
25E
100
AcDbEntity
  8
치수문자_일반주서
 62
     0
370
    -2
100
AcDbLine
 10
50.97445461813649
 20
-1.995079370482127
 30
0.0
 11
63.56860378354836
 21
-1.99507937048208
 31
0.0
  0
LINE
  5
263
330
25E
100
AcDbEntity
  8
치수문자_일반주서
 62
     0
370
    -2
100
AcDbLine
 10
63.56860378354836
 20
-1.296245448726935
 30
0.0
 11
63.56860378354835
 21
1.30692062951792
 31
0.0
  0
SOLID
  5
264
330
25E
100
AcDbEntity
  8
치수문자_일반주서
 62
     0
100
AcDbTrace
 10
64.1189371168817
 20
-1.296245448726933
 30
0.0
 11
63.01827045021503
 21
-1.296245448726937
 31
0.0
 12
63.56860378354835
 22
2.005754551273065
 32
0.0
 13
63.56860378354835
 23
2.005754551273065
 33
0.0
  0
SOLID
  5
265
330
25E
100
AcDbEntity
  8
치수문자_일반주서
 62
     0
100
AcDbTrace
 10
63.01827045021501
 20
1.306920629517918
 30
0.0
 11
64.11893711688168
 21
1.306920629517922
 31
0.0
 12
63.56860378354836
 22
-1.99507937048208
 32
0.0
 13
63.56860378354836
 23
-1.99507937048208
 33
0.0
  0
MTEXT
  5
266
330
25E
100
AcDbEntity
  8
치수문자_일반주서
 62
     0
100
AcDbMText
 10
59.19360378354835
 20
0.0000000000000308
 30
0.0
 40
3.5
 41
0.0
 71
     2
 72
     1
  1
\A1;%%c4
  7
SLDTEXTSTYLE0
 11
-3.551973161877155E-15
 21
1.0
 31
0.0
 73
     1
 44
1.0
  0
POINT
  5
267
330
25E
100
AcDbEntity
  8
Defpoints
 62
     0
100
AcDbPoint
 10
51.01195461813651
 20
2.005754551273018
 30
0.0
  0
POINT
  5
268
330
25E
100
AcDbEntity
  8
Defpoints
 62
     0
100
AcDbPoint
 10
50.91195461813649
 20
-1.995079370482127
 30
0.0
  0
POINT
  5
269
330
25E
100
AcDbEntity
  8
Defpoints
 62
     0
100
AcDbPoint
 10
63.56860378354835
 20
-1.99507937048208
 30
0.0
  0
ENDBLK
  5
260
330
25E
100
AcDbEntity
  8
0
100
AcDbBlockEnd
  0
BLOCK
  5
26B
330
26A
100
AcDbEntity
  8
0
100
AcDbBlockBegin
  2
*D20
 70
     1
 10
0.0
 20
0.0
 30
0.0
  3
*D20
  1
*D20
  0
LINE
  5
26D
330
26A
100
AcDbEntity
  8
치수문자_일반주서
 62
     0
370
    -2
100
AcDbLine
 10
52.21896503378639
 20
-5.000601615612759
 30
0.0
 11
58.80679142916362
 21
-20.01897882703192
 31
0.0
  0
MTEXT
  5
26E
330
26A
100
AcDbEntity
  8
치수문자_일반주서
 62
     0
100
AcDbMText
 10
59.36536240837405
 20
-14.7576897717068
 30
0.0
 40
3.5
 41
0.0
 71
     5
 72
     1
  1
\A1;R0.2
  7
SLDTEXTSTYLE0
 11
0.4017033697717799
 21
-0.9157698415617304
 31
0.0
 73
     1
 44
1.0
  0
LINE
  5
26F
330
26A
100
AcDbEntity
  8
치수문자_일반주서
 62
     0
370
    -2
100
AcDbLine
 10
50.81236443647455
 20
-1.79395088008938
 30
0.0
 11
50.89254050679997
 21
-1.976729598775925
 31
0.0
  0
SOLID
  5
270
330
26A
100
AcDbEntity
  8
치수문자_일반주서
 62
     0
100
AcDbTrace
 10
52.7229437032592
 20
-4.779530861115022
 30
0.0
 11
51.71498636431358
 21
-5.221672370110495
 31
0.0
 12
50.89254050679997
 22
-1.976729598775925
 32
0.0
 13
50.89254050679997
 23
-1.976729598775925
 33
0.0
  0
POINT
  5
271
330
26A
100
AcDbEntity
  8
Defpoints
 62
     0
100
AcDbPoint
 10
50.89254050679997
 20
-1.976729598775925
 30
0.0
  0
POINT
  5
272
330
26A
100
AcDbEntity
  8
Defpoints
 62
     0
100
AcDbPoint
 10
50.81236443647455
 20
-1.79395088008938
 30
0.0
  0
ENDBLK
  5
26C
330
26A
100
AcDbEntity
  8
0
100
AcDbBlockEnd
  0
BLOCK
  5
27B
330
27A
100
AcDbEntity
  8
0
100
AcDbBlockBegin
  2
*D21
 70
     1
 10
0.0
 20
0.0
 30
0.0
  3
*D21
  1
*D21
  0
LINE
  5
27D
330
27A
100
AcDbEntity
  8
치수문자_일반주서
 62
     0
370
    -2
100
AcDbLine
 10
52.51501867306347
 20
-4.48895871433117
 30
0.0
 11
61.10027424119728
 21
-16.48962123598968
 31
0.0
  0
MTEXT
  5
27E
330
27A
100
AcDbEntity
  8
치수문자_일반주서
 62
     0
100
AcDbMText
 10
61.7078775017028
 20
-12.82737216228879
 30
0.0
 40
3.5
 41
0.0
 71
     5
 72
     1
  1
\A1;R1
  7
SLDTEXTSTYLE0
 11
0.5818372977514994
 21
-0.813305206515508
 31
0.0
 73
     1
 44
1.0
  0
LINE
  5
27F
330
27A
100
AcDbEntity
  8
치수문자_일반주서
 62
     0
370
    -2
100
AcDbLine
 10
50.01195461813651
 20
-0.990119715901457
 30
0.0
 11
50.59379191588801
 21
-1.803424922416963
 31
0.0
  0
SOLID
  5
280
330
27A
100
AcDbEntity
  8
치수문자_일반주서
 62
     0
100
AcDbTrace
 10
52.9626076383825
 20
-4.168754254801929
 30
0.0
 11
52.06742970774443
 21
-4.809163173860412
 31
0.0
 12
50.59379191588801
 22
-1.803424922416963
 32
0.0
 13
50.59379191588801
 23
-1.803424922416963
 33
0.0
  0
POINT
  5
281
330
27A
100
AcDbEntity
  8
Defpoints
 62
     0
100
AcDbPoint
 10
50.59379191588801
 20
-1.803424922416963
 30
0.0
  0
POINT
  5
282
330
27A
100
AcDbEntity
  8
Defpoints
 62
     0
100
AcDbPoint
 10
50.01195461813651
 20
-0.990119715901457
 30
0.0
  0
ENDBLK
  5
27C
330
27A
100
AcDbEntity
  8
0
100
AcDbBlockEnd
  0
ENDSEC
  0
SECTION
  2
ENTITIES
  0
INSERT
  5
CD
330
1F
100
AcDbEntity
  8
0
  6
Continuous
 62
     7
100
AcDbBlockReference
 66
     1
  2
블럭10
 10
-22.93944368806589
 20
-52.04609937292004
 30
0.0
  0
ATTRIB
  5
CE
330
CD
100
AcDbEntity
  8
FORMAT
 62
     2
100
AcDbText
 10
-42.21802657207924
 20
-49.97073246008785
 30
0.0
 40
4.233333333333333
  1
SEME610401045E [ 2 FLUTE ]
 41
0.75
  7
SLDTEXTSTYLE0
 11
-42.21802657207924
 21
-52.08739912675452
 31
0.0
100
AcDbAttribute
  2
AUTOATTR0
 70
     0
 74
     1
  0
SEQEND
  5
CF
330
CD
100
AcDbEntity
  8
0
  6
Continuous
 62
     7
  0
HATCH
  5
D0
330
1F
100
AcDbEntity
  8
중심선
100
AcDbHatch
 10
0.0
 20
0.0
 30
0.0
210
0.0
220
0.0
230
1.0
  2
SOLID
 70
     1
 71
     0
 91
        1
 92
        0
 93
        4
 72
     1
 10
-17.22453438368504
 20
-35.7989250712761
 11
-20.67080962752232
 21
-35.7989250712761
 72
     1
 10
-20.67080962752232
 20
-35.7989250712761
 11
-22.79903948672635
 21
-38.3352506518487
 72
     1
 10
-22.79903948672635
 20
-38.3352506518487
 11
-19.35273115777591
 21
-38.33521122254621
 72
     1
 10
-19.35273115777591
 20
-38.33521122254621
 11
-17.22453438368504
 21
-35.7989250712761
 97
        0
 75
     0
 76
     1
 98
        1
 10
0.0
 20
0.0
  0
HATCH
  5
D1
330
1F
100
AcDbEntity
  8
중심선
100
AcDbHatch
 10
0.0
 20
0.0
 30
0.0
210
0.0
220
0.0
230
1.0
  2
SOLID
 70
     1
 71
     0
 91
        1
 92
        0
 93
        4
 72
     1
 10
-12.21177039264909
 20
-35.7989250712761
 11
-15.65804563648637
 21
-35.7989250712761
 72
     1
 10
-15.65804563648637
 20
-35.7989250712761
 11
-20.18918364484376
 21
-41.19892507127612
 72
     1
 10
-20.18918364484376
 20
-41.19892507127612
 11
-16.74290840100648
 21
-41.19892507127612
 72
     1
 10
-16.74290840100648
 20
-41.19892507127612
 11
-12.21177039264909
 21
-35.7989250712761
 97
        0
 75
     0
 76
     1
 98
        1
 10
0.0
 20
0.0
  0
HATCH
  5
D2
330
1F
100
AcDbEntity
  8
중심선
100
AcDbHatch
 10
0.0
 20
0.0
 30
0.0
210
0.0
220
0.0
230
1.0
  2
SOLID
 70
     1
 71
     0
 91
        1
 92
        0
 93
        4
 72
     1
 10
-7.199006401613195
 20
-35.79892507127613
 11
-10.64528164545031
 21
-35.7989250712761
 72
     1
 10
-10.64528164545031
 20
-35.7989250712761
 11
-17.69371854733956
 21
-44.19892507127612
 72
     1
 10
-17.69371854733956
 20
-44.19892507127612
 11
-14.24744330350228
 21
-44.19892507127612
 72
     1
 10
-14.24744330350228
 20
-44.19892507127612
 11
-7.199006401613195
 21
-35.79892507127613
 97
        0
 75
     0
 76
     1
 98
        1
 10
0.0
 20
0.0
  0
HATCH
  5
D3
330
1F
100
AcDbEntity
  8
중심선
100
AcDbHatch
 10
0.0
 20
0.0
 30
0.0
210
0.0
220
0.0
230
1.0
  2
SOLID
 70
     1
 71
     0
 91
        1
 92
        0
 93
        6
 72
     3
 10
-2.399115970600996
 20
-39.99892507132738
 11
3.960054785062284
 21
1.540850780301639E-10
 40
0.3939339440162633
 50
17.09539180608433
 51
320.0019657685079
 73
     0
 72
     1
 10
-0.7161163149004002
 20
-38.58681907591441
 11
1.589185558800638
 21
-36.65249236586649
 72
     3
 10
-2.399115970653842
 20
-39.99892507127625
 11
6.600054785286829
 21
-1.249000902703301E-13
 40
0.6363583540795982
 50
39.99873849337408
 51
368.4976242363725
 73
     1
 72
     1
 10
4.026216521246767
 20
-39.03892507120613
 11
-3.71904866381792
 21
-39.0389250712061
 72
     1
 10
-3.71904866381792
 20
-39.0389250712061
 11
-3.719073708263854
 21
-40.95892507120602
 72
     1
 10
-3.719073708263854
 20
-40.95892507120602
 11
0.7223060612081831
 21
-40.95892507120599
 97
        0
 75
     0
 76
     1
 98
        1
 10
0.0
 20
0.0
  0
LINE
  5
1F2
330
1F
100
AcDbEntity
  8
0
  6
Continuous
 62
     4
370
    25
100
AcDbLine
 10
2.0
 20
3.0
 30
0.0
 11
-37.98804538186349
 21
2.999999999999996
 31
0.0
  0
LINE
  5
1F3
330
1F
100
AcDbEntity
  8
0
  6
Continuous
 62
     4
370
    25
100
AcDbLine
 10
-37.98804538186349
 20
-3.000000000000004
 30
0.0
 11
2.0
 21
-3.000000000000004
 31
0.0
  0
LINE
  5
1F4
330
1F
100
AcDbEntity
  8
0
  6
Continuous
 62
     4
370
    25
100
AcDbLine
 10
2.0
 20
-3.000000000000004
 30
0.0
 11
6.011954618136514
 21
-1.925000000000001
 31
0.0
  0
LINE
  5
1F5
330
1F
100
AcDbEntity
  8
0
  6
Continuous
 62
     4
370
    25
100
AcDbLine
 10
6.011954618136514
 20
1.925000000000001
 30
0.0
 11
2.0
 21
3.0
 31
0.0
  0
LINE
  5
1F6
330
1F
100
AcDbEntity
  8
0
  6
Continuous
 62
     4
370
    25
100
AcDbLine
 10
-37.98804538186349
 20
2.999999999999996
 30
0.0
 11
-38.98804538186349
 21
1.999999999999996
 31
0.0
  0
LINE
  5
1F7
330
1F
100
AcDbEntity
  8
0
  6
Continuous
 62
     4
370
    25
100
AcDbLine
 10
-38.98804538186349
 20
-2.000000000000004
 30
0.0
 11
-37.98804538186349
 21
-3.000000000000004
 31
0.0
  0
LINE
  5
1F8
330
1F
100
AcDbEntity
  8
0
  6
Continuous
 62
     4
370
    25
100
AcDbLine
 10
41.9620544728273
 20
1.925000000000001
 30
0.0
 11
6.011954618136514
 21
1.925000000000001
 31
0.0
  0
LINE
  5
1F9
330
1F
100
AcDbEntity
  8
0
  6
Continuous
 62
     4
370
    25
100
AcDbLine
 10
6.011954618136514
 20
-1.925000000000001
 30
0.0
 11
41.9620544728273
 21
-1.925000000000001
 31
0.0
  0
SPLINE
  5
1FA
330
1F
100
AcDbEntity
  8
0
  6
Continuous
 62
     4
370
    25
100
AcDbSpline
210
0.0
220
0.0
230
1.0
 70
     8
 71
     3
 72
     9
 73
     5
 74
     0
 42
0.000000001
 43
0.00000001
 40
0.0
 40
0.0
 40
0.0
 40
0.0
 40
0.7028871127761711
 40
1.0
 40
1.0
 40
1.0
 40
1.0
 10
45.01195461813651
 20
1.580702654398451
 30
0.0
 10
44.63113550579644
 20
1.569389638238196
 30
0.0
 10
44.08934279766729
 20
1.553294569834435
 30
0.0
 10
43.55567641780223
 20
1.571841808458547
 30
0.0
 10
43.39711725886625
 20
1.577352432076186
 30
0.0
  0
SPLINE
  5
1FB
330
1F
100
AcDbEntity
  8
0
  6
Continuous
 62
     4
370
    25
100
AcDbSpline
210
0.0
220
0.0
230
1.0
 70
     8
 71
     3
 72
    11
 73
     7
 74
     0
 42
0.000000001
 43
0.00000001
 40
0.0
 40
0.0
 40
0.0
 40
0.0
 40
0.2903526764283269
 40
0.4270385116186034
 40
0.582450212735794
 40
1.0
 40
1.0
 40
1.0
 40
1.0
 10
42.42500319918358
 20
-1.632989557143137
 30
0.0
 10
42.65676000478598
 20
-1.617412797163727
 30
0.0
 10
42.99761817265053
 20
-1.594503153349603
 30
0.0
 10
43.51605248815204
 20
-1.571253829321737
 30
0.0
 10
44.13345120437046
 20
-1.555786148306513
 30
0.0
 10
44.64162171779694
 20
-1.570199107317396
 30
0.0
 10
45.01195461813651
 20
-1.580702654398447
 30
0.0
  0
LINE
  5
1FC
330
1F
100
AcDbEntity
  8
0
  6
Continuous
 62
     1
370
    25
100
AcDbLine
 10
45.82923279655861
 20
0.5126449810258364
 30
0.0
 11
45.27637720944321
 21
0.7900437741462731
 31
0.0
  0
LINE
  5
1FD
330
1F
100
AcDbEntity
  8
0
  6
Continuous
 62
     1
370
    25
100
AcDbLine
 10
45.16973613558721
 20
1.589272224656547
 30
0.0
 11
45.0117738277078
 21
1.582600518897245
 31
0.0
  0
SPLINE
  5
1FE
330
1F
100
AcDbEntity
  8
0
  6
Continuous
 62
     1
370
    25
100
AcDbSpline
210
0.0
220
0.0
230
1.0
 70
     8
 71
     3
 72
    18
 73
    14
 74
     0
 42
0.000000001
 43
0.00000001
 40
0.0
 40
0.0
 40
0.0
 40
0.0
 40
0.13553859775855
 40
0.2281446029152991
 40
0.2856534023598549
 40
0.3399630644746879
 40
0.3940334836659314
 40
0.447852650408819
 40
0.6081564392138151
 40
0.6517596426188283
 40
0.729128026715325
 40
0.8452262443315038
 40
1.0
 40
1.0
 40
1.0
 40
1.0
 10
50.30254079360409
 20
1.370795833429948
 30
0.0
 10
50.14230044414759
 20
1.358128059005978
 30
0.0
 10
49.87257675287199
 20
1.336805097033729
 30
0.0
 10
49.53595253811082
 20
1.323036895332049
 30
0.0
 10
49.29490528930435
 20
1.317398468587584
 30
0.0
 10
49.09968116010569
 20
1.315711071420676
 30
0.0
 10
48.90919815112463
 20
1.316716661443483
 30
0.0
 10
48.59470732743139
 20
1.322867942266445
 30
0.0
 10
48.29175780072021
 20
1.337080663451843
 30
0.0
 10
47.96150242835958
 20
1.360940318430945
 30
0.0
 10
47.68399335010716
 20
1.385475304027722
 30
0.0
 10
47.27537245330629
 20
1.430070247283087
 30
0.0
 10
46.95621370697214
 20
1.477329872533236
 30
0.0
 10
46.77384933303719
 20
1.504333587988743
 30
0.0
  0
SPLINE
  5
1FF
330
1F
100
AcDbEntity
  8
0
  6
Continuous
 62
     1
370
    25
100
AcDbSpline
210
0.0
220
0.0
230
1.0
 70
     8
 71
     3
 72
    12
 73
     8
 74
     0
 42
0.000000001
 43
0.00000001
 40
0.0
 40
0.0
 40
0.0
 40
0.0
 40
0.3467652466094726
 40
0.5757289246063646
 40
0.7330616368603028
 40
0.8982054791444277
 40
1.0
 40
1.0
 40
1.0
 40
1.0
 10
46.77384933303719
 20
-1.504333587988743
 30
0.0
 10
46.94648420695759
 20
-1.478666811412229
 30
0.0
 10
47.23310719263324
 20
-1.436052663019371
 30
0.0
 10
47.59699366002295
 20
-1.394833527948446
 30
0.0
 10
47.87065626886707
 20
-1.368536565533017
 30
0.0
 10
48.08144018030842
 20
-1.35150023252432
 30
0.0
 10
48.21411933519343
 20
-1.343810720575373
 30
0.0
 10
48.26471532611876
 20
-1.340878395018084
 30
0.0
  0
LINE
  5
200
330
1F
100
AcDbEntity
  8
0
  6
Continuous
 62
     4
370
    25
100
AcDbLine
 10
45.01166037872088
 20
-1.58293409117741
 30
0.0
 11
45.16973613558721
 21
-1.589272224656543
 31
0.0
  0
LINE
  5
201
330
1F
100
AcDbEntity
  8
0
  6
Continuous
 62
     4
370
    25
100
AcDbLine
 10
2.0
 20
3.0
 30
0.0
 11
2.0
 21
-3.000000000000004
 31
0.0
  0
LINE
  5
202
330
1F
100
AcDbEntity
  8
0
  6
Continuous
 62
     4
370
    25
100
AcDbLine
 10
-37.98804538186349
 20
2.999999999999996
 30
0.0
 11
-37.98804538186349
 21
-3.000000000000004
 31
0.0
  0
LINE
  5
203
330
1F
100
AcDbEntity
  8
0
  6
Continuous
 62
     4
370
    25
100
AcDbLine
 10
6.011954618136514
 20
1.925000000000001
 30
0.0
 11
6.011954618136514
 21
-1.925000000000001
 31
0.0
  0
LINE
  5
204
330
1F
100
AcDbEntity
  8
0
  6
Continuous
 62
     4
370
    25
100
AcDbLine
 10
-38.98804538186349
 20
1.999999999999996
 30
0.0
 11
-38.98804538186349
 21
-2.000000000000004
 31
0.0
  0
SPLINE
  5
205
330
1F
100
AcDbEntity
  8
0
  6
Continuous
 62
     4
370
    25
100
AcDbSpline
210
0.0
220
0.0
230
1.0
 70
     8
 71
     3
 72
    18
 73
    14
 74
     0
 42
0.000000001
 43
0.00000001
 40
0.0
 40
0.0
 40
0.0
 40
0.0
 40
0.1249999999999981
 40
0.1249999999999981
 40
0.2499999999999961
 40
0.2499999999999961
 40
0.4999999999999922
 40
0.4999999999999922
 40
0.6249999999999928
 40
0.6249999999999928
 40
0.7499999999999934
 40
0.7499999999999934
 40
1.0
 40
1.0
 40
1.0
 40
1.0
 10
45.01195461813651
 20
0.9195926915382557
 30
0.0
 10
44.88404583344604
 20
0.9817807690904665
 30
0.0
 10
44.7561836239403
 20
1.042089630901163
 30
0.0
 10
44.5028634427741
 20
1.157894964644179
 30
0.0
 10
44.37773555729362
 20
1.213359940182254
 30
0.0
 10
43.99632815140924
 20
1.372958926377702
 30
0.0
 10
43.73827019444448
 20
1.469514920042698
 30
0.0
 10
43.35941489041861
 20
1.594490292036383
 30
0.0
 10
43.23381774124172
 20
1.632961287165493
 30
0.0
 10
42.97904123167345
 20
1.70350803429109
 30
0.0
 10
42.8508732319992
 20
1.735468311811058
 30
0.0
 10
42.46752419445485
 20
1.820506044515234
 30
0.0
 10
42.21734188285134
 20
1.86256985817128
 30
0.0
 10
41.96215917595262
 20
1.889580777868328
 30
0.0
  0
SPLINE
  5
206
330
1F
100
AcDbEntity
  8
0
  6
Continuous
 62
     4
370
    25
100
AcDbSpline
210
0.0
220
0.0
230
1.0
 70
     8
 71
     3
 72
    18
 73
    14
 74
     0
 42
0.000000001
 43
0.00000001
 40
0.0
 40
0.0
 40
0.0
 40
0.0
 40
0.1250000000000001
 40
0.1250000000000001
 40
0.2500000000000001
 40
0.2500000000000001
 40
0.5000000000000053
 40
0.5000000000000053
 40
0.6250000000000053
 40
0.6250000000000053
 40
0.7500000000000052
 40
0.7500000000000052
 40
1.0
 40
1.0
 40
1.0
 40
1.0
 10
45.01195461813651
 20
0.4051148844736296
 30
0.0
 10
44.88404145996785
 20
0.4743194847988583
 30
0.0
 10
44.75617488042431
 20
0.5426905569861233
 30
0.0
 10
44.50284620160269
 20
0.6765454905647523
 30
0.0
 10
44.37771395144952
 20
0.7419820193369233
 30
0.0
 10
43.99629311618926
 20
0.9344443364319517
 30
0.0
 10
43.73822626920642
 20
1.056780298068482
 30
0.0
 10
43.35935912985539
 20
1.224807558588907
 30
0.0
 10
43.23375702769502
 20
1.278373176307106
 30
0.0
 10
42.97897127467931
 20
1.380623495454618
 30
0.0
 10
42.85079879784055
 20
1.429154893582488
 30
0.0
 10
42.46743712731868
 20
1.565617886553397
 30
0.0
 10
42.2172465712658
 20
1.644056332873912
 30
0.0
 10
41.96205447282719
 20
1.709143488600695
 30
0.0
  0
SPLINE
  5
207
330
1F
100
AcDbEntity
  8
0
  6
Continuous
 62
     4
370
    25
100
AcDbSpline
210
0.0
220
0.0
230
1.0
 70
     8
 71
     3
 72
    10
 73
     6
 74
     0
 42
0.000000001
 43
0.00000001
 40
0.0
 40
0.0
 40
0.0
 40
0.0
 40
0.0641090621221066
 40
0.5332837977681547
 40
0.9999999999999999
 40
0.9999999999999999
 40
0.9999999999999999
 40
0.9999999999999999
 10
43.39633287975542
 20
-1.577633437711928
 30
0.0
 10
43.36567713362089
 20
-1.588774566049256
 30
0.0
 10
43.1106708649144
 20
-1.681450749953495
 30
0.0
 10
42.63214449120684
 20
-1.793607541839624
 30
0.0
 10
42.18509615733868
 20
-1.85764577414967
 30
0.0
 10
41.96215917595262
 20
-1.889580777868321
 30
0.0
  0
LINE
  5
208
330
1F
100
AcDbEntity
  8
0
  6
Continuous
 62
     4
370
    25
100
AcDbLine
 10
41.9620544728273
 20
1.889597655461532
 30
0.0
 11
41.9620544728273
 21
1.925000000000001
 31
0.0
  0
LINE
  5
209
330
1F
100
AcDbEntity
  8
0
  6
Continuous
 62
     4
370
    25
100
AcDbLine
 10
41.9620544728273
 20
-1.925000000000001
 30
0.0
 11
41.96205447282719
 21
1.709389812802748
 31
0.0
  0
SPLINE
  5
20A
330
1F
100
AcDbEntity
  8
0
  6
Continuous
 62
     4
370
    25
100
AcDbSpline
210
0.0
220
0.0
230
1.0
 70
    24
 71
     3
 72
    10
 73
     6
 74
     0
 42
0.000000001
 43
0.00000001
 40
0.0
 40
0.0
 40
0.0
 40
0.0
 40
0.5
 40
0.5
 40
1.0
 40
1.0
 40
1.0
 40
1.0
 10
45.01195461813651
 20
0.4051148844735586
 30
0.0
 10
45.01195461813651
 20
0.4044302769278723
 30
0.0
 10
45.01195461813651
 20
0.3875955315121047
 30
0.0
 10
45.01195461813651
 20
0.3248054059878278
 30
0.0
 10
45.01195461813651
 20
0.2790477599600152
 30
0.0
 10
45.01195461813651
 20
0.2247554758747619
 30
0.0
  0
SPLINE
  5
20B
330
1F
100
AcDbEntity
  8
0
  6
Continuous
 62
     4
370
    25
100
AcDbSpline
210
0.0
220
0.0
230
1.0
 70
     8
 71
     3
 72
    16
 73
    12
 74
     0
 42
0.000000001
 43
0.00000001
 40
0.0
 40
0.0
 40
0.0
 40
0.0
 40
0.1250000000000022
 40
0.1250000000000022
 40
0.2500000000000044
 40
0.2500000000000044
 40
0.500000000000003
 40
0.500000000000003
 40
0.7500000000000016
 40
0.7500000000000016
 40
1.0
 40
1.0
 40
1.0
 40
1.0
 10
45.01195461813651
 20
0.2247554758747583
 30
0.0
 10
44.88404251324366
 20
0.275570889329888
 30
0.0
 10
44.75617698614727
 20
0.3259222079096276
 30
0.0
 10
44.50285035383595
 20
0.4247951851247294
 30
0.0
 10
44.37771915484203
 20
0.4732806308416322
 30
0.0
 10
43.99630155381172
 20
0.616349097608925
 30
0.0
 10
43.73823684783051
 20
0.7079288628491405
 30
0.0
 10
43.2330844624461
 20
0.8769751243566617
 30
0.0
 10
42.97860293338096
 20
0.9553040942485858
 30
0.0
 10
42.46745809588774
 20
1.09546830398661
 30
0.0
 10
42.21726952544768
 20
1.156785121106008
 30
0.0
 10
41.96207968876982
 20
1.208698483992237
 30
0.0
  0
SPLINE
  5
20C
330
1F
100
AcDbEntity
  8
0
  6
Continuous
 62
     4
370
    25
100
AcDbSpline
210
0.0
220
0.0
230
1.0
 70
     8
 71
     3
 72
    18
 73
    14
 74
     0
 42
0.000000001
 43
0.00000001
 40
0.0
 40
0.0
 40
0.0
 40
0.0
 40
0.125
 40
0.125
 40
0.25
 40
0.25
 40
0.5
 40
0.5
 40
0.625
 40
0.625
 40
0.75
 40
0.75
 40
1.0
 40
1.0
 40
1.0
 40
1.0
 10
45.01195461813651
 20
-1.579247033629276
 30
0.0
 10
44.88404305645165
 20
-1.569801255834516
 30
0.0
 10
44.75617807213607
 20
-1.557143686893038
 30
0.0
 10
44.50285249527596
 20
-1.525696305028948
 30
0.0
 10
44.37772183839749
 20
-1.506945544902766
 30
0.0
 10
43.99630590536324
 20
-1.441393886174911
 30
0.0
 10
43.73824230356618
 20
-1.385335025780304
 30
0.0
 10
43.35937948453002
 20
-1.285846401561482
 30
0.0
 10
43.23377919044165
 20
-1.250099012891813
 30
0.0
 10
42.97899681162008
 20
-1.17335753066644
 30
0.0
 10
42.85082596910578
 20
-1.132450027219519
 30
0.0
 10
42.46746891005742
 20
-1.00321134621845
 30
0.0
 10
42.21728136364132
 20
-0.9088689549274918
 30
0.0
 10
41.96209269343265
 20
-0.8073574896525528
 30
0.0
  0
SPLINE
  5
20D
330
1F
100
AcDbEntity
  8
0
  6
Continuous
 62
     4
370
    25
100
AcDbSpline
210
0.0
220
0.0
230
1.0
 70
    24
 71
     3
 72
    14
 73
    10
 74
     0
 42
0.000000001
 43
0.00000001
 40
0.0
 40
0.0
 40
0.0
 40
0.0
 40
0.25
 40
0.25
 40
0.5
 40
0.5
 40
0.75
 40
0.75
 40
1.0
 40
1.0
 40
1.0
 40
1.0
 10
45.01195461813651
 20
0.2247554758747654
 30
0.0
 10
45.01195461813651
 20
0.0478379764646775
 30
0.0
 10
45.01195461813651
 20
-0.1336037481305574
 30
0.0
 10
45.01195461813651
 20
-0.4885406909531618
 30
0.0
 10
45.01195461813651
 20
-0.6618479081743835
 30
0.0
 10
45.01195461813651
 20
-0.9824711655081977
 30
0.0
 10
45.01195461813651
 20
-1.129616364144592
 30
0.0
 10
45.01195461813651
 20
-1.384867563041755
 30
0.0
 10
45.01195461813651
 20
-1.492925576302515
 30
0.0
 10
45.01195461813651
 20
-1.579247033629269
 30
0.0
  0
SPLINE
  5
20E
330
1F
100
AcDbEntity
  8
0
  6
Continuous
 62
     4
370
    25
100
AcDbSpline
210
0.0
220
0.0
230
1.0
 70
    24
 71
     3
 72
    12
 73
     8
 74
     0
 42
0.000000001
 43
0.00000001
 40
0.0
 40
0.0
 40
0.0
 40
0.0
 40
0.196467806284003
 40
0.4054119114423151
 40
0.6204154098050974
 40
0.8080360207115324
 40
1.0
 40
1.0
 40
1.0
 40
1.0
 10
45.01195461813651
 20
1.56826111901492
 30
0.0
 10
45.01195461813651
 20
1.56514481945355
 30
0.0
 10
45.01195461813651
 20
1.558714325899931
 30
0.0
 10
45.01195461813651
 20
1.455240298807009
 30
0.0
 10
45.01195461813651
 20
1.305681982387327
 30
0.0
 10
45.01195461813651
 20
1.112027214579285
 30
0.0
 10
45.01195461813651
 20
0.9563667030974408
 30
0.0
 10
45.01195461813651
 20
0.8776458804560612
 30
0.0
  0
LINE
  5
20F
330
1F
100
AcDbEntity
  8
0
  6
Continuous
 62
     4
370
    25
100
AcDbLine
 10
42.42971776579085
 20
-1.611595382724889
 30
0.0
 11
41.96215917595268
 21
-1.681492594781655
 31
0.0
  0
SPLINE
  5
210
330
1F
100
AcDbEntity
  8
0
  6
Continuous
 62
     1
370
    25
100
AcDbSpline
210
0.0
220
0.0
230
1.0
 70
     8
 71
     3
 72
    32
 73
    28
 74
     0
 42
0.000000001
 43
0.00000001
 40
0.0123416694544105
 40
0.0123416694544105
 40
0.0123416694544105
 40
0.0123416694544105
 40
0.124999999999999
 40
0.124999999999999
 40
0.1874999999999985
 40
0.1874999999999985
 40
0.249999999999998
 40
0.249999999999998
 40
0.3124999999999975
 40
0.3124999999999975
 40
0.374999999999997
 40
0.374999999999997
 40
0.499999999999996
 40
0.499999999999996
 40
0.5624999999999968
 40
0.5624999999999968
 40
0.6249999999999977
 40
0.6249999999999977
 40
0.6874999999999984
 40
0.6874999999999984
 40
0.7499999999999993
 40
0.7499999999999993
 40
0.875000000000001
 40
0.875000000000001
 40
0.9375000000000004
 40
0.9375000000000004
 40
1.0
 40
1.0
 40
1.0
 40
1.0
 10
50.32552150396894
 20
-1.939685831613974
 30
0.0
 10
50.18423430177776
 20
-1.92065875028228
 30
0.0
 10
50.17219328229038
 20
-1.920283536426165
 30
0.0
 10
50.04938604844213
 20
-1.900478609523997
 30
0.0
 10
49.92825518436106
 20
-1.877133501145114
 30
0.0
 10
49.68373308995925
 20
-1.82334740386889
 30
0.0
 10
49.56026631212799
 20
-1.792875136319726
 30
0.0
 10
49.31300258553816
 20
-1.725212551881672
 30
0.0
 10
49.18920960801117
 20
-1.688023256469439
 30
0.0
 10
48.9434010290698
 20
-1.607598229403028
 30
0.0
 10
48.82239150627433
 20
-1.564496753032873
 30
0.0
 10
48.45526763115654
 20
-1.426147207439417
 30
0.0
 10
48.20588233235245
 20
-1.321776374110168
 30
0.0
 10
47.83743318906451
 20
-1.152225017349163
 30
0.0
 10
47.71650699913042
 20
-1.093728757369153
 30
0.0
 10
47.47154007068886
 20
-0.9723522608503536
 30
0.0
 10
47.34794959617338
 20
-0.9095300489239371
 30
0.0
 10
47.10064285490105
 20
-0.7806492652830244
 30
0.0
 10
46.97693056419641
 20
-0.7145927539830623
 30
0.0
 10
46.73148321171087
 20
-0.5803899017401442
 30
0.0
 10
46.61060233535662
 20
-0.5124093517556396
 30
0.0
 10
46.24283968378725
 20
-0.3050148147744309
 30
0.0
 10
45.99343033916026
 20
-0.162589316696014
 30
0.0
 10
45.62555177796108
 20
0.0501057355718828
 30
0.0
 10
45.50467819000076
 20
0.1207059852339967
 30
0.0
 10
45.25930444933962
 20
0.2618834553029288
 30
0.0
 10
45.13560986983398
 20
0.3323033183432074
 30
0.0
 10
45.01195461813651
 20
0.4019523873045294
 30
0.0
  0
SPLINE
  5
211
330
1F
100
AcDbEntity
  8
0
  6
Continuous
 62
     1
370
    25
100
AcDbSpline
210
0.0
220
0.0
230
1.0
 70
     8
 71
     3
 72
     9
 73
     5
 74
     0
 42
0.000000001
 43
0.00000001
 40
0.0
 40
0.0
 40
0.0
 40
0.0
 40
0.2822150382160337
 40
1.0
 40
1.0
 40
1.0
 40
1.0
 10
46.03756053314501
 20
-0.1871075207362303
 30
0.0
 10
45.94104216568977
 20
-0.1488220564649154
 30
0.0
 10
45.59903924456492
 20
-0.0131614463382199
 30
0.0
 10
45.25727083961934
 20
0.1253407105125959
 30
0.0
 10
45.01195461813651
 20
0.2247554758747548
 30
0.0
  0
SPLINE
  5
212
330
1F
100
AcDbEntity
  8
0
  6
Continuous
 62
     4
370
    25
100
AcDbSpline
210
0.0
220
0.0
230
1.0
 70
    24
 71
     3
 72
    11
 73
     7
 74
     0
 42
0.000000001
 43
0.00000001
 40
0.0
 40
0.0
 40
0.0
 40
0.0
 40
0.2375120440663634
 40
0.4820663710395256
 40
0.73371279006221
 40
1.0
 40
1.0
 40
1.0
 40
1.0
 10
45.01195461813651
 20
0.4045083618990972
 30
0.0
 10
45.01195461813651
 20
0.4025587949956062
 30
0.0
 10
45.01195461813651
 20
0.3986018561129576
 30
0.0
 10
45.01195461813657
 20
0.3639234496158892
 30
0.0
 10
45.01195461813649
 20
0.3090473108695733
 30
0.0
 10
45.01195461813651
 20
0.2533773084618218
 30
0.0
 10
45.01195461813651
 20
0.2247554758765489
 30
0.0
  0
SPLINE
  5
213
330
1F
100
AcDbEntity
  8
0
  6
Continuous
 62
     1
370
    25
100
AcDbSpline
210
0.0
220
0.0
230
1.0
 70
     8
 71
     3
 72
    12
 73
     8
 74
     0
 42
0.000000001
 43
0.00000001
 40
0.0316116878500017
 40
0.0316116878500017
 40
0.0316116878500017
 40
0.0316116878500017
 40
0.216510924121403
 40
0.4330410920745401
 40
0.6495888985677707
 40
0.8661527251932469
 40
1.0
 40
1.0
 40
1.0
 40
1.0
 10
50.84683969249534
 20
-1.540544018247253
 30
0.0
 10
50.52491627504707
 20
-1.467250893766933
 30
0.0
 10
49.8259967949658
 20
-1.301009530854216
 30
0.0
 10
48.75003205290628
 20
-0.882178827535185
 30
0.0
 10
47.6189321767325
 20
-0.361761338900628
 30
0.0
 10
46.63175264989584
 20
0.1322525766782192
 30
0.0
 10
46.02167160013559
 20
0.4208991786225837
 30
0.0
 10
45.78863764205633
 20
0.5311541359985696
 30
0.0
  0
SPLINE
  5
216
330
1F
100
AcDbEntity
  8
0
  6
Continuous
 62
     1
370
    25
100
AcDbSpline
210
0.0
220
0.0
230
1.0
 70
     8
 71
     3
 72
    32
 73
    28
 74
     0
 42
0.000000001
 43
0.00000001
 40
0.0546998276707077
 40
0.0546998276707077
 40
0.0546998276707077
 40
0.0546998276707077
 40
0.1249999999999993
 40
0.1249999999999993
 40
0.187499999999999
 40
0.187499999999999
 40
0.2499999999999987
 40
0.2499999999999987
 40
0.3124999999999984
 40
0.3124999999999984
 40
0.374999999999998
 40
0.374999999999998
 40
0.4999999999999974
 40
0.4999999999999974
 40
0.5624999999999984
 40
0.5624999999999984
 40
0.6249999999999994
 40
0.6249999999999994
 40
0.6875000000000004
 40
0.6875000000000004
 40
0.7500000000000013
 40
0.7500000000000013
 40
0.8750000000000007
 40
0.8750000000000007
 40
0.9375000000000003
 40
0.9375000000000003
 40
1.0
 40
1.0
 40
1.0
 40
1.0
 10
50.58906724812781
 20
-1.806784281255274
 30
0.0
 10
50.45010491371675
 20
-1.772498029874487
 30
0.0
 10
50.31070999346229
 20
-1.733868886787917
 30
0.0
 10
50.04938604844213
 20
-1.653375885174992
 30
0.0
 10
49.92825518436106
 20
-1.612503818923674
 30
0.0
 10
49.68373308995925
 20
-1.524614537033106
 30
0.0
 10
49.56026631212799
 20
-1.477566206471185
 30
0.0
 10
49.31300258553821
 20
-1.377996213212118
 30
0.0
 10
49.18920960801117
 20
-1.325476097117718
 30
0.0
 10
48.9434010290698
 20
-1.215887676669933
 30
0.0
 10
48.82239150627439
 20
-1.158987959163767
 30
0.0
 10
48.45526763115654
 20
-0.9814509038959862
 30
0.0
 10
48.20588233235239
 20
-0.8539803129927854
 30
0.0
 10
47.83743318906451
 20
-0.6555011653375971
 30
0.0
 10
47.71650699913042
 20
-0.5883260685726128
 30
0.0
 10
47.47154007068886
 20
-0.4514494475053432
 30
0.0
 10
47.34794959617338
 20
-0.3818232480486721
 30
0.0
 10
47.10064285490105
 20
-0.2413607634919828
 30
0.0
 10
46.97693056419641
 20
-0.1705267324798285
 30
0.0
 10
46.73148321171081
 20
-0.0288611937289041
 30
0.0
 10
46.61060233535662
 20
0.0418044686204162
 30
0.0
 10
46.2428396837872
 20
0.2541514567572811
 30
0.0
 10
45.9934303391602
 20
0.3956590214485125
 30
0.0
 10
45.62555177796102
 20
0.6006921858369054
 30
0.0
 10
45.50467819000076
 20
0.6677135968214607
 30
0.0
 10
45.25930444933962
 20
0.7996535535534903
 30
0.0
 10
45.13560986983398
 20
0.8644162975288836
 30
0.0
 10
45.01195461813651
 20
0.9274099677879946
 30
0.0
  0
LINE
  5
217
330
1F
100
AcDbEntity
  8
0
  6
Continuous
 62
     4
370
    25
100
AcDbLine
 10
45.01195461813651
 20
0.401952387304533
 30
0.0
 11
45.01195461813651
 21
0.927409967787991
 31
0.0
  0
SPLINE
  5
218
330
1F
100
AcDbEntity
  8
0
  6
Continuous
 62
     1
370
    25
100
AcDbSpline
210
0.0
220
0.0
230
1.0
 70
     8
 71
     3
 72
    13
 73
     9
 74
     0
 42
0.000000001
 43
0.00000001
 40
0.0
 40
0.0
 40
0.0
 40
0.0
 40
0.1935156565290322
 40
0.3870487592666256
 40
0.5805978527025739
 40
0.7741614693960036
 40
0.9007355857790983
 40
1.0
 40
1.0
 40
1.0
 40
1.0
 10
51.01195461813651
 20
0.0000000000000071
 30
0.0
 10
50.63498974136823
 20
0.1741672803342986
 30
0.0
 10
49.88102600294391
 20
0.5225175428781306
 30
0.0
 10
48.75001960142001
 20
0.9895277006750796
 30
0.0
 10
47.61888949719608
 20
1.353045029786752
 30
0.0
 10
46.61825191519003
 20
1.544496341719412
 30
0.0
 10
45.80111187198676
 20
1.610800496645883
 30
0.0
 10
45.36149587345548
 20
1.591630243746369
 30
0.0
 10
45.16826832960086
 20
1.583204206260884
 30
0.0
  0
SPLINE
  5
219
330
1F
100
AcDbEntity
  8
0
  6
Continuous
 62
     1
370
    25
100
AcDbSpline
210
0.0
220
0.0
230
1.0
 70
    24
 71
     3
 72
    10
 73
     6
 74
     0
 42
0.000000001
 43
0.00000001
 40
0.4419154814401856
 40
0.4419154814401856
 40
0.4419154814401856
 40
0.4419154814401856
 40
0.5
 40
0.5
 40
1.0
 40
1.0
 40
1.0
 40
1.0
 10
51.01195461813651
 20
-0.9901196584683003
 30
0.0
 10
51.01195461813651
 20
-0.9592020836098178
 30
0.0
 10
51.01195461813651
 20
-0.927704927721797
 30
0.0
 10
51.01195461813651
 20
-0.6198823592321752
 30
0.0
 10
51.01195461813651
 20
-0.306419698497745
 30
0.0
 10
51.01195461813651
 20
0.0000000000000071
 30
0.0
  0
SPLINE
  5
21A
330
1F
100
AcDbEntity
  8
0
  6
Continuous
 62
     4
370
    25
100
AcDbSpline
210
0.0
220
0.0
230
1.0
 70
    24
 71
     3
 72
    13
 73
     9
 74
     0
 42
0.000000001
 43
0.00000001
 40
0.0
 40
0.0
 40
0.0
 40
0.0
 40
0.0833222461546013
 40
0.2233839884426096
 40
0.4253290241928878
 40
0.6331304796606523
 40
0.8144663012588799
 40
0.9999999999999999
 40
0.9999999999999999
 40
0.9999999999999999
 40
0.9999999999999999
 10
45.01195461813651
 20
1.578107643597946
 30
0.0
 10
45.01195461813651
 20
1.578448104022488
 30
0.0
 10
45.01195461813651
 20
1.579360866352491
 30
0.0
 10
45.01195461813651
 20
1.54346026279158
 30
0.0
 10
45.01195461813651
 20
1.457363382861981
 30
0.0
 10
45.01195461813651
 20
1.305190216156383
 30
0.0
 10
45.01195461813651
 20
1.112146259228378
 30
0.0
 10
45.01195461813651
 20
0.9564066861990916
 30
0.0
 10
45.01195461813651
 20
0.8776458804560612
 30
0.0
  0
LINE
  5
21B
330
1F
100
AcDbEntity
  8
0
  6
Continuous
 62
     1
370
    25
100
AcDbLine
 10
50.92658317679305
 20
1.394414904705222
 30
0.0
 11
50.29822212766553
 21
1.35330682120938
 31
0.0
  0
SPLINE
  5
21C
330
1F
100
AcDbEntity
  8
0
  6
Continuous
 62
     1
370
    25
100
AcDbSpline
210
0.0
220
0.0
230
1.0
 70
    24
 71
     3
 72
    12
 73
     8
 74
     0
 42
0.000000001
 43
0.00000001
 40
0.0
 40
0.0
 40
0.0
 40
0.0
 40
0.2499999999999999
 40
0.2499999999999999
 40
0.4999999999999998
 40
0.4999999999999998
 40
0.5583556308223953
 40
0.5583556308223953
 40
0.5583556308223953
 40
0.5583556308223953
 10
51.01195461813651
 20
0.0000000000000071
 30
0.0
 10
51.01195461813651
 20
0.1665687034027989
 30
0.0
 10
51.01195461813651
 20
0.3310871527509143
 30
0.0
 10
51.01195461813651
 20
0.6387450999155178
 30
0.0
 10
51.01195461813651
 20
0.7816934607495405
 30
0.0
 10
51.01195461813651
 20
0.9351437810799177
 30
0.0
 10
51.01195461813651
 20
0.9631666231634352
 30
0.0
 10
51.01195461813651
 20
0.9901196584679758
 30
0.0
  0
SPLINE
  5
21D
330
1F
100
AcDbEntity
  8
0
  6
Continuous
 62
     1
370
    25
100
AcDbSpline
210
0.0
220
0.0
230
1.0
 70
     8
 71
     3
 72
    10
 73
     6
 74
     0
 42
0.000000001
 43
0.00000001
 40
0.0
 40
0.0
 40
0.0
 40
0.0
 40
0.166359417739172
 40
0.5840809758709226
 40
0.9999999999999999
 40
0.9999999999999999
 40
0.9999999999999999
 40
0.9999999999999999
 10
46.78230938398596
 20
-1.488139940422261
 30
0.0
 10
46.6841123509947
 20
-1.508318791060777
 30
0.0
 10
46.33934666452731
 20
-1.57916589387629
 30
0.0
 10
45.74897803354466
 20
-1.609089445318549
 30
0.0
 10
45.25727469580968
 20
-1.589180154613647
 30
0.0
 10
45.01195461813651
 20
-1.579247033629276
 30
0.0
  0
SPLINE
  5
21E
330
1F
100
AcDbEntity
  8
0
  6
Continuous
 62
     4
370
    25
100
AcDbSpline
210
0.0
220
0.0
230
1.0
 70
    24
 71
     3
 72
    14
 73
    10
 74
     0
 42
0.000000001
 43
0.00000001
 40
0.0
 40
0.0
 40
0.0
 40
0.0
 40
0.2500000000000001
 40
0.2500000000000001
 40
0.5
 40
0.5
 40
0.75
 40
0.75
 40
1.0
 40
1.0
 40
1.0
 40
1.0
 10
45.01195461813651
 20
0.2247554758747619
 30
0.0
 10
45.01195461813651
 20
0.0478379764646775
 30
0.0
 10
45.01195461813651
 20
-0.133603748130561
 30
0.0
 10
45.01195461813651
 20
-0.4885406909531618
 30
0.0
 10
45.01195461813651
 20
-0.6618479081743835
 30
0.0
 10
45.01195461813651
 20
-0.9824711655081977
 30
0.0
 10
45.01195461813651
 20
-1.129616364144596
 30
0.0
 10
45.01195461813651
 20
-1.384867563041755
 30
0.0
 10
45.01195461813651
 20
-1.492925576302515
 30
0.0
 10
45.01195461813651
 20
-1.579247033629269
 30
0.0
  0
LINE
  5
221
330
1F
100
AcDbEntity
  8
중심선
100
AcDbLine
 10
-41.98804538186346
 20
-0.0000000000000036
 30
0.0
 11
54.01195461813651
 21
0.0000000000000071
 31
0.0
  0
CIRCLE
  5
222
330
1F
100
AcDbEntity
  8
외형선
100
AcDbCircle
 10
0.0
 20
0.0
 30
0.0
 40
3.000000000000005
  0
DIMENSION
  5
223
330
1F
100
AcDbEntity
  8
치수문자_일반주서
100
AcDbDimension
  2
*D15
 10
-50.48450340347553
 20
-3.000000000000051
 30
0.0
 11
-50.48450340347554
 21
-0.0000000000000036
 31
0.0
 70
   160
  1
%%c<>
 71
     2
 42
6.0
 52
-270.0
  3
SLDDIMSTYLE0
100
AcDbAlignedDimension
 13
-37.98804538186349
 23
2.999999999999996
 33
0.0
 14
-37.98804538186349
 24
-3.000000000000004
 34
0.0
 50
90.0000000000002
100
AcDbRotatedDimension
  0
DIMENSION
  5
224
330
1F
100
AcDbEntity
  8
치수문자_일반주서
100
AcDbDimension
  2
*D16
 10
45.01195461813651
 20
20.39999999999966
 30
0.0
 11
48.01195461813651
 21
20.39999999999966
 31
0.0
 70
   160
  1
<>
 71
     2
 42
6.0
  3
SLDDIMSTYLE0
100
AcDbAlignedDimension
 13
51.01195461813651
 23
1.900000000000002
 33
0.0
 14
45.01195461813651
 24
1.581514153956217
 34
0.0
100
AcDbRotatedDimension
  0
DIMENSION
  5
225
330
1F
100
AcDbEntity
  8
치수문자_일반주서
100
AcDbDimension
  2
*D17
 10
-38.98804538186349
 20
42.45832450504429
 30
0.0
 11
6.011954618136514
 21
42.45832450504429
 31
0.0
 70
   160
  1
<>
 71
     2
 42
90.0
  3
SLDDIMSTYLE1
100
AcDbAlignedDimension
 13
51.01195461813651
 23
1.900000000000002
 33
0.0
 14
-38.98804538186349
 24
1.999999999999996
 34
0.0
100
AcDbRotatedDimension
  0
DIMENSION
  5
226
330
1F
100
AcDbEntity
  8
치수문자_일반주서
100
AcDbDimension
  2
*D18
 10
6.011954618136514
 20
30.31999999999865
 30
0.0
 11
28.51195461813651
 21
30.31999999999865
 31
0.0
 70
   160
  1
<>
 71
     2
 42
45.0
  3
SLDDIMSTYLE0
100
AcDbAlignedDimension
 13
51.01195461813651
 23
1.89730081064074
 33
0.0
 14
6.011954618136514
 24
1.925000000000001
 34
0.0
 50
-0.0000000000022354
100
AcDbRotatedDimension
  0
DIMENSION
  5
227
330
1F
100
AcDbEntity
  8
치수문자_일반주서
100
AcDbDimension
  2
*D19
 10
63.56860378354836
 20
-1.99507937048208
 30
0.0
 11
63.56860378354835
 21
0.0000000000000462
 31
0.0
 70
   160
  1
%%c<>
 71
     2
 42
4.000833921755145
 52
-270.0
  3
SLDDIMSTYLE0
100
AcDbAlignedDimension
 13
51.01195461813651
 23
2.005754551273018
 33
0.0
 14
50.91195461813649
 24
-1.995079370482127
 34
0.0
 50
90.0000000000002
100
AcDbRotatedDimension
  0
INSERT
  5
228
330
1F
100
AcDbEntity
  8
외형선
100
AcDbBlockReference
  2
SW_DOWELSYMBOL_0
 10
0.0
 20
0.0
 30
0.0
  0
SPLINE
  5
229
330
1F
100
AcDbEntity
  8
0
  6
Continuous
 62
     1
370
    25
100
AcDbSpline
210
0.0
220
0.0
230
1.0
 70
     8
 71
     3
 72
    11
 73
     7
 74
     0
 42
0.000000001
 43
0.00000001
 40
0.0
 40
0.0
 40
0.0
 40
0.0
 40
0.018348574430195
 40
0.3451015365544842
 40
0.6722466042230844
 40
0.7783534008556815
 40
0.7783534008556815
 40
0.7783534008556815
 40
0.7783534008556815
 10
48.2670812408945
 20
1.342006821086063
 30
0.0
 10
48.28326391178135
 20
1.349766874933835
 30
0.0
 10
48.58762895168482
 20
1.495718622673081
 30
0.0
 10
49.17982314805207
 20
1.693473099368145
 30
0.0
 10
49.84988241451762
 20
1.873229528307395
 30
0.0
 10
50.23194725368704
 20
1.928161040413654
 30
0.0
 10
50.32552150396894
 20
1.939685831613986
 30
0.0
  0
SPLINE
  5
22B
330
1F
100
AcDbEntity
  8
0
  6
Continuous
 62
     1
370
    25
100
AcDbSpline
210
0.0
220
0.0
230
1.0
 70
    24
 71
     3
 72
     8
 73
     4
 74
     0
 42
0.000000001
 43
0.00000001
 40
0.99573347162453
 40
0.99573347162453
 40
0.99573347162453
 40
0.99573347162453
 40
1.0
 40
1.0
 40
1.0
 40
1.0
 10
51.01195461813651
 20
1.895079370482133
 30
0.0
 10
51.01195461813651
 20
1.895820037031683
 30
0.0
 10
51.01195461813651
 20
1.896560518533025
 30
0.0
 10
51.01195461813651
 20
1.897300810640001
 30
0.0
  0
ARC
  5
275
330
1F
100
AcDbEntity
  8
0
  6
Continuous
 62
     1
370
    25
100
AcDbCircle
 10
50.01195461813651
 20
0.9901197159014712
 30
0.0
 40
1.0
100
AcDbArc
 50
359.9999967093031
 51
71.72568033718366
  0
ARC
  5
276
102
{ACAD_REACTORS
102
}
330
1F
100
AcDbEntity
  8
0
  6
Continuous
 62
     1
370
    25
100
AcDbCircle
 10
50.01195461813651
 20
-0.990119715901457
 30
0.0
 40
1.0
100
AcDbArc
 50
288.2743196628164
 51
0.0000032906968957
  0
DIMENSION
  5
277
102
{ACAD_REACTORS
102
}
102
{ACAD_XDICTIONARY
360
278
102
}
330
1F
100
AcDbEntity
  8
치수문자_일반주서
100
AcDbDimension
  2
*D21
 10
50.01195461813651
 20
-0.990119715901457
 30
0.0
 11
59.57295133459959
 21
-14.35469506888647
 31
0.0
 70
   164
  1
<>
 71
     5
 42
0.9999999999999981
  3
SLDDIMSTYLE0
100
AcDbRadialDimension
 15
50.59379191588801
 25
-1.803424922416963
 35
0.0
 40
0.0
1001
ACAD_DSTYLE_DIMRADIAL_EXTENSION
1070
   387
1070
     1
1070
   388
1040
5.031336027062775
1070
   390
1040
0.0000000574334955
  0
ENDSEC
  0
SECTION
  2
OBJECTS
  0
DICTIONARY
  5
C
330
0
100
AcDbDictionary
281
     1
  3
ACAD_GROUP
350
D
  3
ACAD_IMAGE_VARS
350
13C
  3
ACAD_LAYOUT
350
1A
  3
ACAD_MLINESTYLE
350
17
  3
ACAD_PLOTSETTINGS
350
19
  3
ACAD_PLOTSTYLENAME
350
E
  3
ACAD_SCALELIST
350
47
  3
APPDATA
350
13A
  3
DWGPROPS
350
284
  0
DICTIONARY
  5
278
330
277
100
AcDbDictionary
280
     1
281
     1
  0
DICTIONARY
  5
D
102
{ACAD_REACTORS
330
C
102
}
330
C
100
AcDbDictionary
281
     1
  0
RASTERVARIABLES
  5
13C
102
{ACAD_REACTORS
330
C
102
}
330
C
100
AcDbRasterVariables
 90
        0
 70
     1
 71
     1
 72
     1
  0
DICTIONARY
  5
1A
102
{ACAD_REACTORS
330
C
102
}
330
C
100
AcDbDictionary
281
     1
  3
Layout1
350
1E
  3
Layout2
350
26
  3
Model
350
22
  0
DICTIONARY
  5
17
102
{ACAD_REACTORS
330
C
102
}
330
C
100
AcDbDictionary
281
     1
  3
Standard
350
18
  0
DICTIONARY
  5
19
102
{ACAD_REACTORS
330
C
102
}
330
C
100
AcDbDictionary
281
     1
  0
ACDBDICTIONARYWDFLT
  5
E
102
{ACAD_REACTORS
330
C
102
}
330
C
100
AcDbDictionary
281
     1
  3
Normal
350
F
100
AcDbDictionaryWithDefault
340
F
  0
DICTIONARY
  5
47
102
{ACAD_REACTORS
330
C
102
}
330
C
100
AcDbDictionary
281
     1
  3
A0
350
48
  3
A1
350
49
  3
A2
350
4A
  3
A3
350
4B
  3
A4
350
4C
  3
A5
350
4D
  3
A6
350
4E
  3
A7
350
4F
  3
A8
350
50
  3
A9
350
51
  3
B0
350
52
  3
B1
350
53
  3
B2
350
54
  3
B3
350
55
  3
B4
350
56
  3
B5
350
57
  3
B6
350
58
  3
B7
350
59
  3
B8
350
5A
  3
B9
350
5B
  3
C0
350
5C
  3
C1
350
5D
  3
C2
350
5E
  3
C3
350
5F
  3
C4
350
60
  3
C5
350
61
  3
C6
350
62
  3
C7
350
63
  3
C8
350
64
  3
C9
350
65
  3
D0
350
66
  3
D1
350
67
  3
D2
350
68
  0
DICTIONARY
  5
13A
102
{ACAD_REACTORS
330
C
102
}
330
C
100
AcDbDictionary
281
     1
  0
XRECORD
  5
284
102
{ACAD_REACTORS
330
C
102
}
330
C
100
AcDbXrecord
280
     1
  1
DWGPROPS COOKIE
  2

  3

  4

  6

  7

  8
12016016
  9

300
=
301
=
302
=
303
=
304
=
305
=
306
=
307
=
308
=
309
=
 40
0.0
 41
2458263.426901632
 42
2458264.454877338
  1

 90
        0
  0
LAYOUT
  5
1E
102
{ACAD_REACTORS
330
1A
102
}
330
1A
100
AcDbPlotSettings
  1

  2
none_device
  4

  6

 40
0.0
 41
0.0
 42
0.0
 43
0.0
 44
0.0
 45
0.0
 46
0.0
 47
0.0
 48
0.0
 49
0.0
140
0.0
141
0.0
142
1.0
143
1.0
 70
   688
 72
     1
 73
     0
 74
     5
  7

 75
    16
147
1.0
148
0.0
149
0.0
100
AcDbLayout
  1
Layout1
 70
     1
 71
     1
 10
0.0
 20
0.0
 11
420.0
 21
297.0
 12
0.0
 22
0.0
 32
0.0
 14
1.000000000000000E+20
 24
1.000000000000000E+20
 34
1.000000000000000E+20
 15
-1.000000000000000E+20
 25
-1.000000000000000E+20
 35
-1.000000000000000E+20
146
0.0
 13
0.0
 23
0.0
 33
0.0
 16
1.0
 26
0.0
 36
0.0
 17
0.0
 27
1.0
 37
0.0
 76
     0
330
1B
  0
LAYOUT
  5
26
102
{ACAD_REACTORS
330
1A
102
}
330
1A
100
AcDbPlotSettings
  1

  2
none_device
  4

  6

 40
0.0
 41
0.0
 42
0.0
 43
0.0
 44
0.0
 45
0.0
 46
0.0
 47
0.0
 48
0.0
 49
0.0
140
0.0
141
0.0
142
1.0
143
1.0
 70
   688
 72
     1
 73
     0
 74
     5
  7

 75
    16
147
1.0
148
0.0
149
0.0
100
AcDbLayout
  1
Layout2
 70
     1
 71
     2
 10
0.0
 20
0.0
 11
0.0
 21
0.0
 12
0.0
 22
0.0
 32
0.0
 14
0.0
 24
0.0
 34
0.0
 15
0.0
 25
0.0
 35
0.0
146
0.0
 13
0.0
 23
0.0
 33
0.0
 16
1.0
 26
0.0
 36
0.0
 17
0.0
 27
1.0
 37
0.0
 76
     0
330
23
  0
LAYOUT
  5
22
102
{ACAD_REACTORS
330
1A
102
}
330
1A
100
AcDbPlotSettings
  1

  2
none_device
  4
ANSI_A_(11.00_x_8.50_Inches)
  6

 40
6.35
 41
19.05
 42
6.35000508
 43
19.05000254
 44
279.4
 45
215.9
 46
112.9412810517844
 47
94.02739964538725
 48
0.0
 49
0.0
140
0.0
141
0.0
142
0.0869445414139988
143
1.0
 70
  1696
 72
     0
 73
     0
 74
     0
  7

 75
     0
147
0.0235690232323232
148
0.0
149
0.0
100
AcDbLayout
  1
Model
 70
     1
 71
     0
 10
0.0
 20
0.0
 11
420.0
 21
297.0
 12
0.0
 22
0.0
 32
0.0
 14
1.000000000000000E+20
 24
1.000000000000000E+20
 34
1.000000000000000E+20
 15
-1.000000000000000E+20
 25
-1.000000000000000E+20
 35
-1.000000000000000E+20
146
0.0
 13
0.0
 23
0.0
 33
0.0
 16
1.0
 26
0.0
 36
0.0
 17
0.0
 27
1.0
 37
0.0
 76
     0
330
1F
331
29
  0
MLINESTYLE
  5
18
102
{ACAD_REACTORS
330
17
102
}
330
17
100
AcDbMlineStyle
  2
Standard
 70
     0
  3

 62
   256
 51
90.0
 52
90.0
 71
     2
 49
0.5
 62
   256
  6
BYLAYER
 49
-0.5
 62
   256
  6
BYLAYER
  0
ACDBPLACEHOLDER
  5
F
102
{ACAD_REACTORS
330
E
102
}
330
E
  0
SCALE
  5
48
102
{ACAD_REACTORS
330
47
102
}
330
47
100
AcDbScale
 70
     0
300
1:1
140
1.0
141
1.0
290
     1
  0
SCALE
  5
49
102
{ACAD_REACTORS
330
47
102
}
330
47
100
AcDbScale
 70
     0
300
1:2
140
1.0
141
2.0
290
     0
  0
SCALE
  5
4A
102
{ACAD_REACTORS
330
47
102
}
330
47
100
AcDbScale
 70
     0
300
1:4
140
1.0
141
4.0
290
     0
  0
SCALE
  5
4B
102
{ACAD_REACTORS
330
47
102
}
330
47
100
AcDbScale
 70
     0
300
1:5
140
1.0
141
5.0
290
     0
  0
SCALE
  5
4C
102
{ACAD_REACTORS
330
47
102
}
330
47
100
AcDbScale
 70
     0
300
1:8
140
1.0
141
8.0
290
     0
  0
SCALE
  5
4D
102
{ACAD_REACTORS
330
47
102
}
330
47
100
AcDbScale
 70
     0
300
1:10
140
1.0
141
10.0
290
     0
  0
SCALE
  5
4E
102
{ACAD_REACTORS
330
47
102
}
330
47
100
AcDbScale
 70
     0
300
1:16
140
1.0
141
16.0
290
     0
  0
SCALE
  5
4F
102
{ACAD_REACTORS
330
47
102
}
330
47
100
AcDbScale
 70
     0
300
1:20
140
1.0
141
20.0
290
     0
  0
SCALE
  5
50
102
{ACAD_REACTORS
330
47
102
}
330
47
100
AcDbScale
 70
     0
300
1:30
140
1.0
141
30.0
290
     0
  0
SCALE
  5
51
102
{ACAD_REACTORS
330
47
102
}
330
47
100
AcDbScale
 70
     0
300
1:40
140
1.0
141
40.0
290
     0
  0
SCALE
  5
52
102
{ACAD_REACTORS
330
47
102
}
330
47
100
AcDbScale
 70
     0
300
1:50
140
1.0
141
50.0
290
     0
  0
SCALE
  5
53
102
{ACAD_REACTORS
330
47
102
}
330
47
100
AcDbScale
 70
     0
300
1:100
140
1.0
141
100.0
290
     0
  0
SCALE
  5
54
102
{ACAD_REACTORS
330
47
102
}
330
47
100
AcDbScale
 70
     0
300
2:1
140
2.0
141
1.0
290
     0
  0
SCALE
  5
55
102
{ACAD_REACTORS
330
47
102
}
330
47
100
AcDbScale
 70
     0
300
4:1
140
4.0
141
1.0
290
     0
  0
SCALE
  5
56
102
{ACAD_REACTORS
330
47
102
}
330
47
100
AcDbScale
 70
     0
300
8:1
140
8.0
141
1.0
290
     0
  0
SCALE
  5
57
102
{ACAD_REACTORS
330
47
102
}
330
47
100
AcDbScale
 70
     0
300
10:1
140
10.0
141
1.0
290
     0
  0
SCALE
  5
58
102
{ACAD_REACTORS
330
47
102
}
330
47
100
AcDbScale
 70
     0
300
100:1
140
100.0
141
1.0
290
     0
  0
SCALE
  5
59
102
{ACAD_REACTORS
330
47
102
}
330
47
100
AcDbScale
 70
     0
300
1/128" = 1'-0"
140
0.0078125
141
12.0
290
     0
  0
SCALE
  5
5A
102
{ACAD_REACTORS
330
47
102
}
330
47
100
AcDbScale
 70
     0
300
1/64" = 1'-0"
140
0.015625
141
12.0
290
     0
  0
SCALE
  5
5B
102
{ACAD_REACTORS
330
47
102
}
330
47
100
AcDbScale
 70
     0
300
1/32" = 1'-0"
140
0.03125
141
12.0
290
     0
  0
SCALE
  5
5C
102
{ACAD_REACTORS
330
47
102
}
330
47
100
AcDbScale
 70
     0
300
1/16" = 1'-0"
140
0.0625
141
12.0
290
     0
  0
SCALE
  5
5D
102
{ACAD_REACTORS
330
47
102
}
330
47
100
AcDbScale
 70
     0
300
3/32" = 1'-0"
140
0.09375
141
12.0
290
     0
  0
SCALE
  5
5E
102
{ACAD_REACTORS
330
47
102
}
330
47
100
AcDbScale
 70
     0
300
1/8" = 1'-0"
140
0.125
141
12.0
290
     0
  0
SCALE
  5
5F
102
{ACAD_REACTORS
330
47
102
}
330
47
100
AcDbScale
 70
     0
300
3/16" = 1'-0"
140
0.1875
141
12.0
290
     0
  0
SCALE
  5
60
102
{ACAD_REACTORS
330
47
102
}
330
47
100
AcDbScale
 70
     0
300
1/4" = 1'-0"
140
0.25
141
12.0
290
     0
  0
SCALE
  5
61
102
{ACAD_REACTORS
330
47
102
}
330
47
100
AcDbScale
 70
     0
300
3/8" = 1'-0"
140
0.375
141
12.0
290
     0
  0
SCALE
  5
62
102
{ACAD_REACTORS
330
47
102
}
330
47
100
AcDbScale
 70
     0
300
1/2" = 1'-0"
140
0.5
141
12.0
290
     0
  0
SCALE
  5
63
102
{ACAD_REACTORS
330
47
102
}
330
47
100
AcDbScale
 70
     0
300
3/4" = 1'-0"
140
0.75
141
12.0
290
     0
  0
SCALE
  5
64
102
{ACAD_REACTORS
330
47
102
}
330
47
100
AcDbScale
 70
     0
300
1" = 1'-0"
140
1.0
141
12.0
290
     0
  0
SCALE
  5
65
102
{ACAD_REACTORS
330
47
102
}
330
47
100
AcDbScale
 70
     0
300
1-1/2" = 1'-0"
140
1.5
141
12.0
290
     0
  0
SCALE
  5
66
102
{ACAD_REACTORS
330
47
102
}
330
47
100
AcDbScale
 70
     0
300
3" = 1'-0"
140
3.0
141
12.0
290
     0
  0
SCALE
  5
67
102
{ACAD_REACTORS
330
47
102
}
330
47
100
AcDbScale
 70
     0
300
6" = 1'-0"
140
6.0
141
12.0
290
     0
  0
SCALE
  5
68
102
{ACAD_REACTORS
330
47
102
}
330
47
100
AcDbScale
 70
     0
300
1'-0" = 1'-0"
140
12.0
141
12.0
290
     0
  0
ENDSEC
  0
EOF
