  0
SECTION
  2
HEADER
  9
$ACADVER
  1
AC1015
  9
$ACADMAINTVER
 70
     6
  9
$DWGCODEPAGE
  3
ANSI_949
  9
$INSBASE
 10
0.0
 20
0.0
 30
0.0
  9
$EXTMIN
 10
1.000000000000000E+20
 20
1.000000000000000E+20
 30
1.000000000000000E+20
  9
$EXTMAX
 10
-1.000000000000000E+20
 20
-1.000000000000000E+20
 30
-1.000000000000000E+20
  9
$LIMMIN
 10
0.0
 20
0.0
  9
$LIMMAX
 10
420.0
 20
297.0
  9
$ORTHOMODE
 70
     0
  9
$REGENMODE
 70
     1
  9
$FILLMODE
 70
     1
  9
$QTEXTMODE
 70
     0
  9
$MIRRTEXT
 70
     1
  9
$LTSCALE
 40
1.0
  9
$ATTMODE
 70
     1
  9
$TEXTSIZE
 40
3.5
  9
$TRACEWID
 40
1.0
  9
$TEXTSTYLE
  7
Standard
  9
$CLAYER
  8
0
  9
$CELTYPE
  6
ByLayer
  9
$CECOLOR
 62
   256
  9
$CELTSCALE
 40
1.0
  9
$DISPSILH
 70
     0
  9
$DIMSCALE
 40
1.0
  9
$DIMASZ
 40
3.302
  9
$DIMEXO
 40
1.0
  9
$DIMDLI
 40
3.75
  9
$DIMRND
 40
0.0
  9
$DIMDLE
 40
0.0
  9
$DIMEXE
 40
1.0
  9
$DIMTP
 40
0.0
  9
$DIMTM
 40
0.0
  9
$DIMTXT
 40
3.5
  9
$DIMCEN
 40
2.5
  9
$DIMTSZ
 40
0.0
  9
$DIMTOL
 70
     0
  9
$DIMLIM
 70
     0
  9
$DIMTIH
 70
     1
  9
$DIMTOH
 70
     1
  9
$DIMSE1
 70
     0
  9
$DIMSE2
 70
     0
  9
$DIMTAD
 70
     1
  9
$DIMZIN
 70
     0
  9
$DIMBLK
  1

  9
$DIMASO
 70
     1
  9
$DIMSHO
 70
     1
  9
$DIMPOST
  1

  9
$DIMAPOST
  1

  9
$DIMALT
 70
     0
  9
$DIMALTD
 70
     3
  9
$DIMALTF
 40
0.0393700787401575
  9
$DIMLFAC
 40
1.0
  9
$DIMTOFL
 70
     1
  9
$DIMTVP
 40
0.0
  9
$DIMTIX
 70
     0
  9
$DIMSOXD
 70
     0
  9
$DIMSAH
 70
     0
  9
$DIMBLK1
  1

  9
$DIMBLK2
  1

  9
$DIMSTYLE
  2
ISO-25
  9
$DIMCLRD
 70
     0
  9
$DIMCLRE
 70
     0
  9
$DIMCLRT
 70
     0
  9
$DIMTFAC
 40
1.0
  9
$DIMGAP
 40
1.524
  9
$DIMJUST
 70
     0
  9
$DIMSD1
 70
     0
  9
$DIMSD2
 70
     0
  9
$DIMTOLJ
 70
     0
  9
$DIMTZIN
 70
     0
  9
$DIMALTZ
 70
     0
  9
$DIMALTTZ
 70
     0
  9
$DIMUPT
 70
     0
  9
$DIMDEC
 70
     2
  9
$DIMTDEC
 70
     2
  9
$DIMALTU
 70
     2
  9
$DIMALTTD
 70
     3
  9
$DIMTXSTY
  7
Standard
  9
$DIMAUNIT
 70
     0
  9
$DIMADEC
 70
     2
  9
$DIMALTRND
 40
0.0
  9
$DIMAZIN
 70
     0
  9
$DIMDSEP
 70
    44
  9
$DIMATFIT
 70
     3
  9
$DIMFRAC
 70
     0
  9
$DIMLDRBLK
  1

  9
$DIMLUNIT
 70
     2
  9
$DIMLWD
 70
    -2
  9
$DIMLWE
 70
    -2
  9
$DIMTMOVE
 70
     0
  9
$LUNITS
 70
     2
  9
$LUPREC
 70
     2
  9
$SKETCHINC
 40
1.0
  9
$FILLETRAD
 40
10.0
  9
$AUNITS
 70
     0
  9
$AUPREC
 70
     2
  9
$MENU
  1
.
  9
$ELEVATION
 40
0.0
  9
$PELEVATION
 40
0.0
  9
$THICKNESS
 40
0.0
  9
$LIMCHECK
 70
     0
  9
$CHAMFERA
 40
0.0
  9
$CHAMFERB
 40
0.0
  9
$CHAMFERC
 40
0.0
  9
$CHAMFERD
 40
0.0
  9
$SKPOLY
 70
     0
  9
$TDCREATE
 40
2458263.800578333
  9
$TDUCREATE
 40
2458263.425578333
  9
$TDUPDATE
 40
2458268.849732014
  9
$TDUUPDATE
 40
2458268.474732014
  9
$TDINDWG
 40
0.0000873611
  9
$TDUSRTIMER
 40
2458268.474644861
  9
$USRTIMER
 70
     1
  9
$ANGBASE
 50
0.0
  9
$ANGDIR
 70
     0
  9
$PDMODE
 70
     0
  9
$PDSIZE
 40
-1.0
  9
$PLINEWID
 40
0.0
  9
$SPLFRAME
 70
     0
  9
$SPLINETYPE
 70
     6
  9
$SPLINESEGS
 70
     8
  9
$HANDSEED
  5
372
  9
$SURFTAB1
 70
     6
  9
$SURFTAB2
 70
     6
  9
$SURFTYPE
 70
     6
  9
$SURFU
 70
     6
  9
$SURFV
 70
     6
  9
$UCSBASE
  2

  9
$UCSNAME
  2

  9
$UCSORG
 10
0.0
 20
0.0
 30
0.0
  9
$UCSXDIR
 10
1.0
 20
0.0
 30
0.0
  9
$UCSYDIR
 10
0.0
 20
1.0
 30
0.0
  9
$UCSORTHOREF
  2

  9
$UCSORTHOVIEW
 70
     0
  9
$UCSORGTOP
 10
0.0
 20
0.0
 30
0.0
  9
$UCSORGBOTTOM
 10
0.0
 20
0.0
 30
0.0
  9
$UCSORGLEFT
 10
0.0
 20
0.0
 30
0.0
  9
$UCSORGRIGHT
 10
0.0
 20
0.0
 30
0.0
  9
$UCSORGFRONT
 10
0.0
 20
0.0
 30
0.0
  9
$UCSORGBACK
 10
0.0
 20
0.0
 30
0.0
  9
$PUCSBASE
  2

  9
$PUCSNAME
  2

  9
$PUCSORG
 10
0.0
 20
0.0
 30
0.0
  9
$PUCSXDIR
 10
1.0
 20
0.0
 30
0.0
  9
$PUCSYDIR
 10
0.0
 20
1.0
 30
0.0
  9
$PUCSORTHOREF
  2

  9
$PUCSORTHOVIEW
 70
     0
  9
$PUCSORGTOP
 10
0.0
 20
0.0
 30
0.0
  9
$PUCSORGBOTTOM
 10
0.0
 20
0.0
 30
0.0
  9
$PUCSORGLEFT
 10
0.0
 20
0.0
 30
0.0
  9
$PUCSORGRIGHT
 10
0.0
 20
0.0
 30
0.0
  9
$PUCSORGFRONT
 10
0.0
 20
0.0
 30
0.0
  9
$PUCSORGBACK
 10
0.0
 20
0.0
 30
0.0
  9
$USERI1
 70
     0
  9
$USERI2
 70
     0
  9
$USERI3
 70
     0
  9
$USERI4
 70
     0
  9
$USERI5
 70
     0
  9
$USERR1
 40
0.0
  9
$USERR2
 40
0.0
  9
$USERR3
 40
0.0
  9
$USERR4
 40
0.0
  9
$USERR5
 40
0.0
  9
$WORLDVIEW
 70
     1
  9
$SHADEDGE
 70
     3
  9
$SHADEDIF
 70
    70
  9
$TILEMODE
 70
     1
  9
$MAXACTVP
 70
    64
  9
$PINSBASE
 10
0.0
 20
0.0
 30
0.0
  9
$PLIMCHECK
 70
     0
  9
$PEXTMIN
 10
1.000000000000000E+20
 20
1.000000000000000E+20
 30
1.000000000000000E+20
  9
$PEXTMAX
 10
-1.000000000000000E+20
 20
-1.000000000000000E+20
 30
-1.000000000000000E+20
  9
$PLIMMIN
 10
0.0
 20
0.0
  9
$PLIMMAX
 10
0.0
 20
0.0
  9
$UNITMODE
 70
     0
  9
$VISRETAIN
 70
     1
  9
$PLINEGEN
 70
     0
  9
$PSLTSCALE
 70
     1
  9
$TREEDEPTH
 70
  3020
  9
$CMLSTYLE
  2
Standard
  9
$CMLJUST
 70
     0
  9
$CMLSCALE
 40
20.0
  9
$PROXYGRAPHICS
 70
     1
  9
$MEASUREMENT
 70
     1
  9
$CELWEIGHT
370
    -1
  9
$ENDCAPS
280
     0
  9
$JOINSTYLE
280
     0
  9
$LWDISPLAY
290
     1
  9
$INSUNITS
 70
     4
  9
$HYPERLINKBASE
  1

  9
$STYLESHEET
  1

  9
$XEDIT
290
     1
  9
$CEPSNTYPE
380
     0
  9
$PSTYLEMODE
290
     1
  9
$FINGERPRINTGUID
  2
{3AC519A7-D63C-451E-8108-C0317ED3C4BC}
  9
$VERSIONGUID
  2
{FAEB1C32-E019-11D5-929B-00C0DF256EC4}
  9
$EXTNAMES
290
     1
  9
$PSVPSCALE
 40
0.0
  9
$OLESTARTUP
290
     0
  0
ENDSEC
  0
SECTION
  2
CLASSES
  0
CLASS
  1
ACDBDICTIONARYWDFLT
  2
AcDbDictionaryWithDefault
  3
ObjectDBX Classes
 90
        0
280
     0
281
     0
  0
CLASS
  1
VISUALSTYLE
  2
AcDbVisualStyle
  3
ObjectDBX Classes
 90
     4095
280
     0
281
     0
  0
CLASS
  1
MATERIAL
  2
AcDbMaterial
  3
ObjectDBX Classes
 90
     1153
280
     0
281
     0
  0
CLASS
  1
SCALE
  2
AcDbScale
  3
ObjectDBX Classes
 90
     1153
280
     0
281
     0
  0
CLASS
  1
TABLESTYLE
  2
AcDbTableStyle
  3
ObjectDBX Classes
 90
     4095
280
     0
281
     0
  0
CLASS
  1
MLEADERSTYLE
  2
AcDbMLeaderStyle
  3
ACDB_MLEADERSTYLE_CLASS
 90
     4095
280
     0
281
     0
  0
CLASS
  1
SUN
  2
AcDbSun
  3
SCENEOE
 90
     1153
280
     0
281
     0
  0
CLASS
  1
ACDBPLACEHOLDER
  2
AcDbPlaceHolder
  3
ObjectDBX Classes
 90
        0
280
     0
281
     0
  0
CLASS
  1
LAYOUT
  2
AcDbLayout
  3
ObjectDBX Classes
 90
        0
280
     0
281
     0
  0
CLASS
  1
RASTERVARIABLES
  2
AcDbRasterVariables
  3
ISM
 90
        0
280
     0
281
     0
  0
ENDSEC
  0
SECTION
  2
TABLES
  0
TABLE
  2
VPORT
  5
8
330
0
100
AcDbSymbolTable
 70
     1
  0
VPORT
  5
29
330
8
100
AcDbSymbolTableRecord
100
AcDbViewportTableRecord
  2
*Active
 70
     0
 10
0.0
 20
0.0
 11
1.0
 21
1.0
 12
14.6863890206156
 22
-14.9748673392498
 13
0.0
 23
0.0
 14
10.0
 24
10.0
 15
10.0
 25
10.0
 16
0.0
 26
0.0
 36
1.0
 17
0.0
 27
0.0
 37
0.0
 40
64.07729776867262
 41
1.742632612966601
 42
50.0
 43
0.0
 44
0.0
 50
0.0
 51
0.0
 71
    16
 72
  2000
 73
     1
 74
     3
 75
     0
 76
     0
 77
     0
 78
     0
281
     0
 65
     1
110
0.0
120
0.0
130
0.0
111
1.0
121
0.0
131
0.0
112
0.0
122
1.0
132
0.0
 79
     0
146
0.0
  0
ENDTAB
  0
TABLE
  2
LTYPE
  5
5
330
0
100
AcDbSymbolTable
 70
     6
  0
LTYPE
  5
14
330
5
100
AcDbSymbolTableRecord
100
AcDbLinetypeTableRecord
  2
ByBlock
 70
     0
  3

 72
    65
 73
     0
 40
0.0
  0
LTYPE
  5
15
330
5
100
AcDbSymbolTableRecord
100
AcDbLinetypeTableRecord
  2
ByLayer
 70
     0
  3

 72
    65
 73
     0
 40
0.0
  0
LTYPE
  5
16
330
5
100
AcDbSymbolTableRecord
100
AcDbLinetypeTableRecord
  2
Continuous
 70
     0
  3
Solid line
 72
    65
 73
     0
 40
0.0
  0
LTYPE
  5
6E
330
5
100
AcDbSymbolTableRecord
100
AcDbLinetypeTableRecord
  2
HIDDEN
 70
     0
  3
Hidden __ __ __ __ __ __ __ __ __ __ __ __ __ __
 72
    65
 73
     2
 40
1.905
 49
1.27
 74
     0
 49
-0.635
 74
     0
  0
LTYPE
  5
6F
330
5
100
AcDbSymbolTableRecord
100
AcDbLinetypeTableRecord
  2
PHANTOM
 70
     0
  3
Phantom ______  __  __  ______  __  __  ______
 72
    65
 73
     6
 40
12.7
 49
6.35
 74
     0
 49
-1.27
 74
     0
 49
1.27
 74
     0
 49
-1.27
 74
     0
 49
1.27
 74
     0
 49
-1.27
 74
     0
  0
LTYPE
  5
70
330
5
100
AcDbSymbolTableRecord
100
AcDbLinetypeTableRecord
  2
CENTER
 70
     0
  3
Center ____ _ ____ _ ____ _ ____ _ ____ _ ____
 72
    65
 73
     4
 40
10.16
 49
6.35
 74
     0
 49
-1.27
 74
     0
 49
1.27
 74
     0
 49
-1.27
 74
     0
  0
LTYPE
  5
71
330
5
100
AcDbSymbolTableRecord
100
AcDbLinetypeTableRecord
  2
CENTERX2
 70
     0
  3
Center (2x) ________  __  ________  __  _____
 72
    65
 73
     4
 40
20.32
 49
12.7
 74
     0
 49
-2.54
 74
     0
 49
2.54
 74
     0
 49
-2.54
 74
     0
  0
LTYPE
  5
72
330
5
100
AcDbSymbolTableRecord
100
AcDbLinetypeTableRecord
  2
DOT2
 70
     0
  3
Dot (.5x) ........................................
 72
    65
 73
     2
 40
0.635
 49
0.0
 74
     0
 49
-0.635
 74
     0
  0
ENDTAB
  0
TABLE
  2
LAYER
  5
2
330
0
100
AcDbSymbolTable
 70
    17
  0
LAYER
  5
10
330
2
100
AcDbSymbolTableRecord
100
AcDbLayerTableRecord
  2
0
 70
     0
 62
     7
  6
Continuous
370
    -3
390
F
  0
LAYER
  5
73
330
2
100
AcDbSymbolTableRecord
100
AcDbLayerTableRecord
  2
FORMAT
 70
     0
 62
     2
  6
Continuous
370
    -3
390
F
  0
LAYER
  5
74
330
2
100
AcDbSymbolTableRecord
100
AcDbLayerTableRecord
  2
외형선
 70
     0
 62
   100
  6
Continuous
370
    35
390
F
  0
LAYER
  5
75
330
2
100
AcDbSymbolTableRecord
100
AcDbLayerTableRecord
  2
숨은선
 70
     0
 62
     2
  6
HIDDEN
370
    25
390
F
  0
LAYER
  5
76
330
2
100
AcDbSymbolTableRecord
100
AcDbLayerTableRecord
  2
중심선
 70
     0
 62
     1
  6
CENTERX2
370
    -3
390
F
  0
LAYER
  5
77
330
2
100
AcDbSymbolTableRecord
100
AcDbLayerTableRecord
  2
파단선
 70
     0
 62
     4
  6
Continuous
370
    -3
390
F
  0
LAYER
  5
78
330
2
100
AcDbSymbolTableRecord
100
AcDbLayerTableRecord
  2
해칭선
 70
     0
 62
     4
  6
Continuous
370
    -3
390
F
  0
LAYER
  5
79
330
2
100
AcDbSymbolTableRecord
100
AcDbLayerTableRecord
  2
가는실선
 70
     0
 62
     4
  6
Continuous
370
    -3
390
F
  0
LAYER
  5
7A
330
2
100
AcDbSymbolTableRecord
100
AcDbLayerTableRecord
  2
치수_보조선
 70
     0
 62
     4
  6
Continuous
370
    -3
390
F
  0
LAYER
  5
7B
330
2
100
AcDbSymbolTableRecord
100
AcDbLayerTableRecord
  2
치수문자_일반주서
 70
     0
 62
     7
  6
Continuous
370
    25
390
F
  0
LAYER
  5
7C
330
2
100
AcDbSymbolTableRecord
100
AcDbLayerTableRecord
  2
개별주서
 70
     0
 62
   100
  6
Continuous
370
    35
390
F
  0
LAYER
  5
7D
330
2
100
AcDbSymbolTableRecord
100
AcDbLayerTableRecord
  2
중간선
 70
     0
 62
     2
  6
Continuous
370
    25
390
F
  0
LAYER
  5
7E
330
2
100
AcDbSymbolTableRecord
100
AcDbLayerTableRecord
  2
윤곽선
 70
     0
 62
     3
  6
Continuous
370
    50
390
F
  0
LAYER
  5
7F
330
2
100
AcDbSymbolTableRecord
100
AcDbLayerTableRecord
  2
중심마크
 70
     0
 62
   100
  6
Continuous
370
    35
390
F
  0
LAYER
  5
80
330
2
100
AcDbSymbolTableRecord
100
AcDbLayerTableRecord
  2
가상선
 70
     0
 62
     4
  6
PHANTOM
370
    -3
390
F
  0
LAYER
  5
81
330
2
100
AcDbSymbolTableRecord
100
AcDbLayerTableRecord
  2
특수지정선
 70
     0
 62
     5
  6
CENTERX2
370
    70
390
F
  0
LAYER
  5
13E
330
2
100
AcDbSymbolTableRecord
100
AcDbLayerTableRecord
  2
Defpoints
 70
     0
 62
     7
  6
Continuous
290
     0
370
    -3
390
F
  0
ENDTAB
  0
TABLE
  2
STYLE
  5
3
330
0
100
AcDbSymbolTable
 70
     2
  0
STYLE
  5
11
330
3
100
AcDbSymbolTableRecord
100
AcDbTextStyleTableRecord
  2
Standard
 70
     0
 40
0.0
 41
1.0
 50
0.0
 71
     0
 42
3.5
  3
txt
  4

  0
STYLE
  5
97
330
3
100
AcDbSymbolTableRecord
100
AcDbTextStyleTableRecord
  2
SLDTEXTSTYLE0
 70
     0
 40
0.0
 41
0.75
 50
0.0
 71
     0
 42
3.5
  3
TXT
  4

  0
ENDTAB
  0
TABLE
  2
VIEW
  5
6
330
0
100
AcDbSymbolTable
 70
     0
  0
ENDTAB
  0
TABLE
  2
UCS
  5
7
330
0
100
AcDbSymbolTable
 70
     0
  0
ENDTAB
  0
TABLE
  2
APPID
  5
9
330
0
100
AcDbSymbolTable
 70
     2
  0
APPID
  5
12
330
9
100
AcDbSymbolTableRecord
100
AcDbRegAppTableRecord
  2
ACAD
 70
     0
  0
APPID
  5
145
330
9
100
AcDbSymbolTableRecord
100
AcDbRegAppTableRecord
  2
ACAD_DSTYLE_DIMRADIAL_EXTENSION
 70
     0
  0
ENDTAB
  0
TABLE
  2
DIMSTYLE
  5
A
330
0
100
AcDbSymbolTable
 70
     3
100
AcDbDimStyleTable
  0
DIMSTYLE
105
27
330
A
100
AcDbSymbolTableRecord
100
AcDbDimStyleTableRecord
  2
ISO-25
 70
     0
 41
2.5
 42
0.625
 43
3.75
 44
1.25
 73
     0
 74
     0
 77
     1
 78
     8
140
2.5
141
2.5
143
0.03937007874016
147
0.625
171
     3
172
     1
178
     0
271
     2
272
     2
274
     3
278
    44
283
     0
284
     8
340
11
  0
DIMSTYLE
105
D5
102
{ACAD_REACTORS
330
17E
330
1CC
330
1D9
330
1F3
330
200
330
233
330
297
330
298
330
29A
330
29B
330
341
330
367
102
}
330
A
100
AcDbSymbolTableRecord
100
AcDbDimStyleTableRecord
  2
SLDDIMSTYLE0
 70
     0
 41
3.302
 44
0.0
 45
0.000000001
 73
     0
 74
     0
 77
     1
 78
    12
 79
     3
140
3.5
147
0.875
172
     1
173
     1
178
     0
271
     2
272
     2
276
     2
284
    12
289
     0
340
97
  0
DIMSTYLE
105
EF
102
{ACAD_REACTORS
330
1E6
330
299
102
}
330
A
100
AcDbSymbolTableRecord
100
AcDbDimStyleTableRecord
  2
SLDDIMSTYLE1
 70
     0
 41
3.302
 44
0.0
 45
0.000000001
 73
     0
 74
     0
 77
     1
 78
    12
 79
     3
140
3.5
147
0.875
173
     1
178
     0
271
     2
272
     2
276
     2
284
    12
340
97
  0
ENDTAB
  0
TABLE
  2
BLOCK_RECORD
  5
1
330
0
100
AcDbSymbolTable
 70
    26
  0
BLOCK_RECORD
  5
1F
330
1
100
AcDbSymbolTableRecord
100
AcDbBlockTableRecord
  2
*Model_Space
340
22
  0
BLOCK_RECORD
  5
1B
330
1
100
AcDbSymbolTableRecord
100
AcDbBlockTableRecord
  2
*Paper_Space
340
1E
  0
BLOCK_RECORD
  5
23
330
1
100
AcDbSymbolTableRecord
100
AcDbBlockTableRecord
  2
*Paper_Space0
340
26
  0
BLOCK_RECORD
  5
82
330
1
100
AcDbSymbolTableRecord
100
AcDbBlockTableRecord
  2
블럭10
340
0
102
{BLKREFS
331
CD
102
}
  0
BLOCK_RECORD
  5
D6
330
1
100
AcDbSymbolTableRecord
100
AcDbBlockTableRecord
  2
_D
340
0
  0
BLOCK_RECORD
  5
E3
330
1
100
AcDbSymbolTableRecord
100
AcDbBlockTableRecord
  2
_D_1
340
0
  0
BLOCK_RECORD
  5
F0
330
1
100
AcDbSymbolTableRecord
100
AcDbBlockTableRecord
  2
_D_2
340
0
  0
BLOCK_RECORD
  5
FA
330
1
100
AcDbSymbolTableRecord
100
AcDbBlockTableRecord
  2
_D_3
340
0
  0
BLOCK_RECORD
  5
106
330
1
100
AcDbSymbolTableRecord
100
AcDbBlockTableRecord
  2
_D_4
340
0
  0
BLOCK_RECORD
  5
112
330
1
100
AcDbSymbolTableRecord
100
AcDbBlockTableRecord
  2
SW_DOWELSYMBOL_0
340
0
102
{BLKREFS
331
0
331
210
331
29C
102
}
  0
BLOCK_RECORD
  5
17F
330
1
100
AcDbSymbolTableRecord
100
AcDbBlockTableRecord
  2
*D9
340
0
  0
BLOCK_RECORD
  5
234
330
1
100
AcDbSymbolTableRecord
100
AcDbBlockTableRecord
  2
*D11
340
0
  0
BLOCK_RECORD
  5
23F
330
1
100
AcDbSymbolTableRecord
100
AcDbBlockTableRecord
  2
*D12
340
0
  0
BLOCK_RECORD
  5
24B
330
1
100
AcDbSymbolTableRecord
100
AcDbBlockTableRecord
  2
*D13
340
0
  0
BLOCK_RECORD
  5
257
330
1
100
AcDbSymbolTableRecord
100
AcDbBlockTableRecord
  2
*D14
340
0
  0
BLOCK_RECORD
  5
263
330
1
100
AcDbSymbolTableRecord
100
AcDbBlockTableRecord
  2
*D15
340
0
  0
BLOCK_RECORD
  5
26F
330
1
100
AcDbSymbolTableRecord
100
AcDbBlockTableRecord
  2
*D16
340
0
  0
BLOCK_RECORD
  5
2BA
330
1
100
AcDbSymbolTableRecord
100
AcDbBlockTableRecord
  2
*D17
340
0
  0
BLOCK_RECORD
  5
2C6
330
1
100
AcDbSymbolTableRecord
100
AcDbBlockTableRecord
  2
*D18
340
0
  0
BLOCK_RECORD
  5
2D2
330
1
100
AcDbSymbolTableRecord
100
AcDbBlockTableRecord
  2
*D19
340
0
  0
BLOCK_RECORD
  5
2DE
330
1
100
AcDbSymbolTableRecord
100
AcDbBlockTableRecord
  2
*D20
340
0
  0
BLOCK_RECORD
  5
2EA
330
1
100
AcDbSymbolTableRecord
100
AcDbBlockTableRecord
  2
*D21
340
0
  0
BLOCK_RECORD
  5
2F9
330
1
100
AcDbSymbolTableRecord
100
AcDbBlockTableRecord
  2
*D22
340
0
  0
BLOCK_RECORD
  5
342
330
1
100
AcDbSymbolTableRecord
100
AcDbBlockTableRecord
  2
*D24
340
0
  0
BLOCK_RECORD
  5
368
330
1
100
AcDbSymbolTableRecord
100
AcDbBlockTableRecord
  2
*D25
340
0
  0
ENDTAB
  0
ENDSEC
  0
SECTION
  2
BLOCKS
  0
BLOCK
  5
20
330
1F
100
AcDbEntity
  8
0
100
AcDbBlockBegin
  2
*Model_Space
 70
     0
 10
0.0
 20
0.0
 30
0.0
  3
*Model_Space
  1
*Model_Space
  0
ENDBLK
  5
21
330
1F
100
AcDbEntity
  8
0
100
AcDbBlockEnd
  0
BLOCK
  5
1C
330
1B
100
AcDbEntity
 67
     1
  8
0
100
AcDbBlockBegin
  2
*Paper_Space
 70
     0
 10
0.0
 20
0.0
 30
0.0
  3
*Paper_Space
  1
*Paper_Space
  0
ENDBLK
  5
1D
330
1B
100
AcDbEntity
 67
     1
  8
0
100
AcDbBlockEnd
  0
BLOCK
  5
24
330
23
100
AcDbEntity
  8
0
100
AcDbBlockBegin
  2
*Paper_Space0
 70
     0
 10
0.0
 20
0.0
 30
0.0
  3
*Paper_Space0
  1
*Paper_Space0
  0
ENDBLK
  5
25
330
23
100
AcDbEntity
  8
0
100
AcDbBlockEnd
  0
BLOCK
  5
83
330
82
100
AcDbEntity
  8
0
100
AcDbBlockBegin
  2
블럭10
 70
     2
 10
0.0
 20
0.0
 30
0.0
  3
블럭10
  1
블럭10
  0
ELLIPSE
  5
85
330
82
100
AcDbEntity
  8
중심선
100
AcDbEllipse
 10
20.54032771741204
 20
12.0471743016438
 30
0.0
 11
6.600054785286829
 21
-1.261213355974178E-13
 31
0.0
210
0.0
220
0.0
230
1.0
 40
0.636358354079598
 41
0.9219305317359503
 42
6.513795318482858
  0
ELLIPSE
  5
86
330
82
100
AcDbEntity
  8
중심선
100
AcDbEllipse
 10
20.54032771746488
 20
12.04717430159265
 30
0.0
 11
3.960054785062283
 21
1.540847449632565E-10
 31
0.0
210
0.0
220
0.0
230
1.0
 40
0.3939339440162632
 41
1.131841032648279
 42
5.62031148352944
  0
LINE
  5
87
330
82
100
AcDbEntity
  8
중심선
100
AcDbLine
 10
2.268634060543552
 20
16.24717430164393
 30
0.0
 11
5.714909304380834
 21
16.24717430164393
 31
0.0
  0
LINE
  5
88
330
82
100
AcDbEntity
  8
중심선
100
AcDbLine
 10
5.245725140726316
 20
7.84717430164391
 30
0.0
 11
8.692000384563599
 21
7.84717430164391
 31
0.0
  0
LINE
  5
89
330
82
100
AcDbEntity
  8
중심선
100
AcDbLine
 10
15.74043728645272
 20
16.24717430164393
 30
0.0
 11
8.692000384563599
 21
7.84717430164391
 31
0.0
  0
LINE
  5
8A
330
82
100
AcDbEntity
  8
중심선
100
AcDbLine
 10
0.1404042013395286
 20
13.71084872107135
 30
0.0
 11
3.58671253028996
 21
13.71088815037384
 31
0.0
  0
LINE
  5
8B
330
82
100
AcDbEntity
  8
중심선
100
AcDbLine
 10
2.750260043222114
 20
10.84717430164391
 30
0.0
 11
6.196535287059397
 21
10.84717430164391
 31
0.0
  0
LINE
  5
8C
330
82
100
AcDbEntity
  8
중심선
100
AcDbLine
 10
12.29416204261559
 20
16.24717430164393
 30
0.0
 11
5.245725140726316
 21
7.84717430164391
 31
0.0
  0
LINE
  5
8D
330
82
100
AcDbEntity
  8
중심선
100
AcDbLine
 10
10.72767329541681
 20
16.24717430164393
 30
0.0
 11
6.196535287059397
 21
10.84717430164391
 31
0.0
  0
LINE
  5
8E
330
82
100
AcDbEntity
  8
중심선
100
AcDbLine
 10
7.28139805157953
 20
16.24717430164393
 30
0.0
 11
2.750260043222114
 21
10.84717430164391
 31
0.0
  0
LINE
  5
8F
330
82
100
AcDbEntity
  8
중심선
100
AcDbLine
 10
5.714909304380834
 20
16.24717430164393
 30
0.0
 11
3.58671253028996
 21
13.71088815037384
 31
0.0
  0
LINE
  5
90
330
82
100
AcDbEntity
  8
중심선
100
AcDbLine
 10
2.268634060543552
 20
16.24717430164393
 30
0.0
 11
0.1404042013395286
 21
13.71084872107135
 31
0.0
  0
LINE
  5
91
330
82
100
AcDbEntity
  8
중심선
100
AcDbLine
 10
7.28139805157953
 20
16.24717430164393
 30
0.0
 11
10.72767329541681
 21
16.24717430164393
 31
0.0
  0
LINE
  5
92
330
82
100
AcDbEntity
  8
중심선
100
AcDbLine
 10
12.29416204261559
 20
16.24717430164393
 30
0.0
 11
15.74043728645272
 21
16.24717430164393
 31
0.0
  0
LINE
  5
93
330
82
100
AcDbEntity
  8
중심선
100
AcDbLine
 10
19.22036997980202
 20
11.08717430171403
 30
0.0
 11
23.66174974927406
 21
11.08717430171406
 31
0.0
  0
LINE
  5
94
330
82
100
AcDbEntity
  8
중심선
100
AcDbLine
 10
19.22039502424796
 20
13.00717430171391
 30
0.0
 11
19.22036997980202
 21
11.08717430171403
 31
0.0
  0
LINE
  5
95
330
82
100
AcDbEntity
  8
중심선
100
AcDbLine
 10
19.22039502424796
 20
13.00717430171391
 30
0.0
 11
26.96566020931264
 21
13.00717430171391
 31
0.0
  0
LINE
  5
96
330
82
100
AcDbEntity
  8
중심선
100
AcDbLine
 10
22.22332737316547
 20
13.45928029700563
 30
0.0
 11
24.52862924686651
 21
15.39360700705356
 31
0.0
  0
ATTDEF
  5
98
330
82
100
AcDbEntity
  8
FORMAT
 62
     2
100
AcDbText
 10
-19.27858288401334
 20
2.075366912832191
 30
0.0
 40
4.233333333333333
  1
SEME610401014E [ 2 FLUTE ]
 41
0.75
  7
SLDTEXTSTYLE0
 11
-19.27858288401334
 21
-0.0412997538344756
 31
0.0
100
AcDbAttributeDefinition
  3

  2
AUTOATTR0
 70
     0
 74
     1
  0
ENDBLK
  5
84
330
82
100
AcDbEntity
  8
0
100
AcDbBlockEnd
  0
BLOCK
  5
D7
330
D6
100
AcDbEntity
  8
0
100
AcDbBlockBegin
  2
_D
 70
     0
 10
0.0
 20
0.0
 30
0.0
  3
_D
  1
_D
  0
SOLID
  5
D9
330
D6
100
AcDbEntity
  8
치수문자_일반주서
100
AcDbTrace
 10
-47.00250885508847
 20
3.001074928723888
 30
0.0
 11
-46.49450885508847
 21
6.303074928723888
 31
0.0
 12
-47.51050885508847
 22
6.303074928723888
 32
0.0
 13
-47.51050885508847
 23
6.303074928723888
 33
0.0
  0
SOLID
  5
DA
330
D6
100
AcDbEntity
  8
치수문자_일반주서
100
AcDbTrace
 10
-47.00250885508847
 20
-2.998925071276107
 30
0.0
 11
-47.51050885508847
 21
-6.300925071276106
 31
0.0
 12
-46.49450885508847
 22
-6.300925071276106
 32
0.0
 13
-46.49450885508847
 23
-6.300925071276106
 33
0.0
  0
LINE
  5
DB
330
D6
100
AcDbEntity
  8
치수문자_일반주서
100
AcDbLine
 10
-35.50605083347638
 20
3.001074928723888
 30
0.0
 11
-48.00250885508847
 21
3.001074928723888
 31
0.0
  0
LINE
  5
DC
330
D6
100
AcDbEntity
  8
치수문자_일반주서
100
AcDbLine
 10
-35.50605083347638
 20
-2.998925071276107
 30
0.0
 11
-48.00250885508847
 21
-2.998925071276107
 31
0.0
  0
LINE
  5
DD
330
D6
100
AcDbEntity
  8
치수문자_일반주서
100
AcDbLine
 10
-47.00250885508847
 20
3.001074928723888
 30
0.0
 11
-47.00250885508847
 21
9.35107492872389
 31
0.0
  0
LINE
  5
DE
330
D6
100
AcDbEntity
  8
치수문자_일반주서
100
AcDbLine
 10
-47.00250885508847
 20
3.001074928723888
 30
0.0
 11
-47.00250885508847
 21
-2.998925071276107
 31
0.0
  0
LINE
  5
DF
330
D6
100
AcDbEntity
  8
치수문자_일반주서
100
AcDbLine
 10
-47.00250885508847
 20
-2.998925071276107
 30
0.0
 11
-47.00250885508847
 21
-9.348925071276106
 31
0.0
  0
MTEXT
  5
E0
330
D6
100
AcDbEntity
  8
치수문자_일반주서
100
AcDbMText
 10
-51.51424594429032
 20
-3.931199483639909
 30
0.0
 40
3.5
 41
0.0
 71
     1
 72
     1
  1
%%c
  7
SLDTEXTSTYLE0
 11
-7.044195017643634E-15
 21
1.0
 31
0.0
 73
     1
 44
1.0
  0
MTEXT
  5
E1
330
D6
100
AcDbEntity
  8
치수문자_일반주서
100
AcDbMText
 10
-51.5677181209502
 20
1.347237914734172
 30
0.0
 40
3.5
 41
0.0
 71
     1
 72
     1
  1
6
  7
SLDTEXTSTYLE0
 11
-7.044195017643634E-15
 21
1.0
 31
0.0
 73
     1
 44
1.0
  0
ENDBLK
  5
D8
330
D6
100
AcDbEntity
  8
0
100
AcDbBlockEnd
  0
BLOCK
  5
E4
330
E3
100
AcDbEntity
  8
0
100
AcDbBlockBegin
  2
_D_1
 70
     0
 10
0.0
 20
0.0
 30
0.0
  3
_D_1
  1
_D_1
  0
SOLID
  5
E6
330
E3
100
AcDbEntity
  8
치수문자_일반주서
100
AcDbTrace
 10
24.4939491665236
 20
19.50107492872356
 30
0.0
 11
27.7959491665236
 21
18.99307492872356
 31
0.0
 12
27.7959491665236
 22
20.00907492872356
 32
0.0
 13
27.7959491665236
 23
20.00907492872356
 33
0.0
  0
SOLID
  5
E7
330
E3
100
AcDbEntity
  8
치수문자_일반주서
100
AcDbTrace
 10
18.4939491665236
 20
19.50107492872355
 30
0.0
 11
15.1919491665236
 21
20.00907492872355
 31
0.0
 12
15.1919491665236
 22
18.99307492872355
 32
0.0
 13
15.1919491665236
 23
18.99307492872355
 33
0.0
  0
LINE
  5
E8
330
E3
100
AcDbEntity
  8
치수문자_일반주서
100
AcDbLine
 10
24.49394916652362
 20
2.001074928723893
 30
0.0
 11
24.4939491665236
 21
20.50107492872356
 31
0.0
  0
LINE
  5
E9
330
E3
100
AcDbEntity
  8
치수문자_일반주서
100
AcDbLine
 10
18.49394916652362
 20
2.582589082680106
 30
0.0
 11
18.4939491665236
 21
20.50107492872355
 31
0.0
  0
LINE
  5
EA
330
E3
100
AcDbEntity
  8
치수문자_일반주서
100
AcDbLine
 10
24.4939491665236
 20
19.50107492872356
 30
0.0
 11
32.34975570836893
 21
19.50107492872357
 31
0.0
  0
LINE
  5
EB
330
E3
100
AcDbEntity
  8
치수문자_일반주서
100
AcDbLine
 10
24.4939491665236
 20
19.50107492872356
 30
0.0
 11
18.4939491665236
 21
19.50107492872355
 31
0.0
  0
LINE
  5
EC
330
E3
100
AcDbEntity
  8
치수문자_일반주서
100
AcDbLine
 10
18.4939491665236
 20
19.50107492872355
 30
0.0
 11
12.1439491665236
 21
19.50107492872354
 31
0.0
  0
MTEXT
  5
ED
330
E3
100
AcDbEntity
  8
치수문자_일반주서
100
AcDbMText
 10
29.76364451484614
 20
24.01281184330246
 30
0.0
 40
3.5
 41
0.0
 71
     1
 72
     1
  1
6
  7
SLDTEXTSTYLE0
 73
     1
 44
1.0
  0
ENDBLK
  5
E5
330
E3
100
AcDbEntity
  8
0
100
AcDbBlockEnd
  0
BLOCK
  5
F1
330
F0
100
AcDbEntity
  8
0
100
AcDbBlockBegin
  2
_D_2
 70
     0
 10
0.0
 20
0.0
 30
0.0
  3
_D_2
  1
_D_2
  0
SOLID
  5
F3
330
F0
100
AcDbEntity
  8
치수문자_일반주서
100
AcDbTrace
 10
24.49394916652361
 20
41.55939943376818
 30
0.0
 11
21.19194916652361
 21
42.06739943376819
 31
0.0
 12
21.19194916652361
 22
41.05139943376818
 32
0.0
 13
21.19194916652361
 23
41.05139943376818
 33
0.0
  0
SOLID
  5
F4
330
F0
100
AcDbEntity
  8
치수문자_일반주서
100
AcDbTrace
 10
-35.50605083347638
 20
41.55939943376818
 30
0.0
 11
-32.20405083347638
 21
41.05139943376818
 31
0.0
 12
-32.20405083347638
 22
42.06739943376819
 32
0.0
 13
-32.20405083347638
 23
42.06739943376819
 33
0.0
  0
LINE
  5
F5
330
F0
100
AcDbEntity
  8
치수문자_일반주서
100
AcDbLine
 10
24.49394916652362
 20
2.001074928723894
 30
0.0
 11
24.49394916652361
 21
42.55939943376818
 31
0.0
  0
LINE
  5
F6
330
F0
100
AcDbEntity
  8
치수문자_일반주서
100
AcDbLine
 10
-35.50605083347638
 20
3.001074928723888
 30
0.0
 11
-35.50605083347638
 21
42.55939943376818
 31
0.0
  0
LINE
  5
F7
330
F0
100
AcDbEntity
  8
치수문자_일반주서
100
AcDbLine
 10
24.49394916652361
 20
41.55939943376818
 30
0.0
 11
-35.50605083347638
 21
41.55939943376818
 31
0.0
  0
MTEXT
  5
F8
330
F0
100
AcDbEntity
  8
치수문자_일반주서
100
AcDbMText
 10
-8.092162026999207
 20
46.07113634834707
 30
0.0
 40
3.5
 41
0.0
 71
     1
 72
     1
  1
60
  7
SLDTEXTSTYLE0
 73
     1
 44
1.0
  0
ENDBLK
  5
F2
330
F0
100
AcDbEntity
  8
0
100
AcDbBlockEnd
  0
BLOCK
  5
FB
330
FA
100
AcDbEntity
  8
0
100
AcDbBlockBegin
  2
_D_3
 70
     0
 10
0.0
 20
0.0
 30
0.0
  3
_D_3
  1
_D_3
  0
SOLID
  5
FD
330
FA
100
AcDbEntity
  8
치수문자_일반주서
100
AcDbTrace
 10
14.49394916652476
 20
30.32107492872395
 30
0.0
 11
17.79594916652475
 21
29.81307492872382
 31
0.0
 12
17.79594916652478
 22
30.82907492872382
 32
0.0
 13
17.79594916652478
 23
30.82907492872382
 33
0.0
  0
SOLID
  5
FE
330
FA
100
AcDbEntity
  8
치수문자_일반주서
100
AcDbTrace
 10
10.2140453559571
 20
30.32107492872411
 30
0.0
 11
6.912045355957115
 21
30.82907492872424
 31
0.0
 12
6.912045355957076
 22
29.81307492872424
 32
0.0
 13
6.912045355957076
 23
29.81307492872424
 33
0.0
  0
LINE
  5
FF
330
FA
100
AcDbEntity
  8
치수문자_일반주서
100
AcDbLine
 10
14.49394916652365
 20
1.401074928723893
 30
0.0
 11
14.4939491665248
 21
31.32107492872394
 31
0.0
  0
LINE
  5
100
330
FA
100
AcDbEntity
  8
치수문자_일반주서
100
AcDbLine
 10
10.21404535595599
 20
1.551074928723894
 30
0.0
 11
10.21404535595713
 21
31.32107492872411
 31
0.0
  0
LINE
  5
101
330
FA
100
AcDbEntity
  8
치수문자_일반주서
100
AcDbLine
 10
14.49394916652476
 20
30.32107492872395
 30
0.0
 11
55.42440269528608
 21
30.32107492872239
 31
0.0
  0
LINE
  5
102
330
FA
100
AcDbEntity
  8
치수문자_일반주서
100
AcDbLine
 10
14.49394916652476
 20
30.32107492872395
 30
0.0
 11
10.2140453559571
 21
30.32107492872411
 31
0.0
  0
LINE
  5
103
330
FA
100
AcDbEntity
  8
치수문자_일반주서
100
AcDbLine
 10
10.2140453559571
 20
30.32107492872411
 30
0.0
 11
3.864045355957095
 21
30.32107492872435
 31
0.0
  0
MTEXT
  5
104
330
FA
100
AcDbEntity
  8
치수문자_일반주서
100
AcDbMText
 10
46.3730136343715
 20
34.83281184330144
 30
0.0
 40
3.5
 41
0.0
 71
     1
 72
     1
  1
4.28
  7
SLDTEXTSTYLE0
 73
     1
 44
1.0
  0
ENDBLK
  5
FC
330
FA
100
AcDbEntity
  8
0
100
AcDbBlockEnd
  0
BLOCK
  5
107
330
106
100
AcDbEntity
  8
0
100
AcDbBlockBegin
  2
_D_4
 70
     0
 10
0.0
 20
0.0
 30
0.0
  3
_D_4
  1
_D_4
  0
SOLID
  5
109
330
106
100
AcDbEntity
  8
치수문자_일반주서
100
AcDbTrace
 10
68.05059833193548
 20
1.501074928723896
 30
0.0
 11
68.55859833193547
 21
4.803074928723896
 31
0.0
 12
67.54259833193548
 22
4.803074928723896
 32
0.0
 13
67.54259833193548
 23
4.803074928723896
 33
0.0
  0
SOLID
  5
10A
330
106
100
AcDbEntity
  8
치수문자_일반주서
100
AcDbTrace
 10
68.05059833193548
 20
-1.480510821134722
 30
0.0
 11
67.54259833193548
 21
-4.782510821134721
 31
0.0
 12
68.55859833193547
 22
-4.782510821134721
 32
0.0
 13
68.55859833193547
 23
-4.782510821134721
 33
0.0
  0
LINE
  5
10B
330
106
100
AcDbEntity
  8
치수문자_일반주서
100
AcDbLine
 10
51.19394916652362
 20
1.501074928723897
 30
0.0
 11
69.05059833193548
 21
1.501074928723896
 31
0.0
  0
LINE
  5
10C
330
106
100
AcDbEntity
  8
치수문자_일반주서
100
AcDbLine
 10
51.19394916652362
 20
-1.480510821134721
 30
0.0
 11
69.05059833193548
 21
-1.480510821134722
 31
0.0
  0
LINE
  5
10D
330
106
100
AcDbEntity
  8
치수문자_일반주서
100
AcDbLine
 10
68.05059833193548
 20
1.501074928723896
 30
0.0
 11
68.05059833193548
 21
7.851074928723896
 31
0.0
  0
LINE
  5
10E
330
106
100
AcDbEntity
  8
치수문자_일반주서
100
AcDbLine
 10
68.05059833193548
 20
1.501074928723896
 30
0.0
 11
68.05059833193548
 21
-1.480510821134722
 31
0.0
  0
LINE
  5
10F
330
106
100
AcDbEntity
  8
치수문자_일반주서
100
AcDbLine
 10
68.05059833193548
 20
-1.480510821134722
 30
0.0
 11
68.05059833193548
 21
-14.32156976103179
 31
0.0
  0
MTEXT
  5
110
330
106
100
AcDbEntity
  8
치수문자_일반주서
100
AcDbMText
 10
63.53886124273361
 20
-14.32156976103178
 30
0.0
 40
3.5
 41
0.0
 71
     1
 72
     1
  1
%%c
  7
SLDTEXTSTYLE0
 11
-7.044195017643634E-15
 21
1.0
 31
0.0
 73
     1
 44
1.0
  0
MTEXT
  5
111
330
106
100
AcDbEntity
  8
치수문자_일반주서
100
AcDbMText
 10
63.48538906607372
 20
-9.043132362657696
 30
0.0
 40
3.5
 41
0.0
 71
     1
 72
     1
  1
2.98
  7
SLDTEXTSTYLE0
 11
-7.044195017643634E-15
 21
1.0
 31
0.0
 73
     1
 44
1.0
  0
ENDBLK
  5
108
330
106
100
AcDbEntity
  8
0
100
AcDbBlockEnd
  0
BLOCK
  5
113
330
112
100
AcDbEntity
  8
0
100
AcDbBlockBegin
  2
SW_DOWELSYMBOL_0
 70
     0
 10
0.0
 20
0.0
 30
0.0
  3
SW_DOWELSYMBOL_0
  1
SW_DOWELSYMBOL_0
  0
CIRCLE
  5
115
330
112
100
AcDbEntity
  8
외형선
 62
     0
100
AcDbCircle
 10
0.0
 20
0.0
 30
0.0
 40
3.000000000000004
  0
HATCH
  5
116
330
112
100
AcDbEntity
  8
0
  6
Continuous
 62
     0
370
    35
100
AcDbHatch
 10
0.0
 20
0.0
 30
0.0
210
0.0
220
0.0
230
1.0
  2
SOLID
 70
     1
 71
     0
 91
        1
 92
        0
 93
        3
 72
     2
 10
0.0000000000000104
 20
0.0
 40
3.000000000000004
 50
0.0
 51
90.0
 73
     1
 72
     1
 10
0.0000000000000104
 20
3.000000000000004
 11
0.0000000000000104
 21
0.0
 72
     1
 10
0.0000000000000104
 20
0.0
 11
3.000000000000015
 21
0.0
 97
        0
 75
     0
 76
     1
 98
        1
 10
0.0
 20
0.0
  0
HATCH
  5
117
330
112
100
AcDbEntity
  8
0
  6
Continuous
 62
     0
370
    35
100
AcDbHatch
 10
0.0
 20
0.0
 30
0.0
210
0.0
220
0.0
230
1.0
  2
SOLID
 70
     1
 71
     0
 91
        1
 92
        0
 93
        3
 72
     2
 10
0.0000000000000104
 20
0.0
 40
3.000000000000004
 50
180.0
 51
270.0000000000008
 73
     1
 72
     1
 10
0.0000000000000104
 20
-3.000000000000004
 11
0.0000000000000104
 21
0.0
 72
     1
 10
0.0000000000000104
 20
0.0
 11
-2.999999999999994
 21
0.0
 97
        0
 75
     0
 76
     1
 98
        1
 10
0.0
 20
0.0
  0
ENDBLK
  5
114
330
112
100
AcDbEntity
  8
0
100
AcDbBlockEnd
  0
BLOCK
  5
180
330
17F
100
AcDbEntity
  8
0
100
AcDbBlockBegin
  2
*D9
 70
     1
 10
0.0
 20
0.0
 30
0.0
  3
*D9
  1
*D43
  0
LINE
  5
181
330
17F
100
AcDbEntity
  8
치수문자_일반주서
 62
     0
370
    -2
100
AcDbLine
 10
6.827620699881019
 20
17.6924363821056
 30
0.0
 11
13.41891026594127
 21
0.0000000000000044
 31
0.0
  0
MTEXT
  5
182
330
17F
100
AcDbEntity
  8
치수문자_일반주서
 62
     0
100
AcDbMText
 10
14.2750339016054
 20
5.2211317147681
 30
0.0
 40
3.5
 41
0.0
 71
     5
 72
     1
  1
\A1;R0.5
  7
SLDTEXTSTYLE0
 11
0.3491085458619433
 21
-0.9370822926542574
 31
0.0
 73
     1
 44
1.0
  0
LINE
  5
183
330
17F
100
AcDbEntity
  8
치수문자_일반주서
 62
     0
370
    -2
100
AcDbLine
 10
5.500310008513907
 20
21.2552232587771
 30
0.0
 11
5.674864281444883
 21
20.78668211244996
 31
0.0
  0
SOLID
  5
184
330
17F
100
AcDbEntity
  8
치수문자_일반주서
 62
     0
100
AcDbTrace
 10
7.343328321605079
 20
17.88456245184496
 30
0.0
 11
6.31191307815696
 21
17.50031031236625
 31
0.0
 12
5.674864281444883
 22
20.78668211244996
 32
0.0
 13
5.674864281444883
 23
20.78668211244996
 33
0.0
  0
POINT
  5
185
330
17F
100
AcDbEntity
  8
Defpoints
 62
     0
100
AcDbPoint
 10
5.674864281444883
 20
20.78668211244996
 30
0.0
  0
POINT
  5
186
330
17F
100
AcDbEntity
  8
Defpoints
 62
     0
100
AcDbPoint
 10
5.500310008513907
 20
21.2552232587771
 30
0.0
  0
ENDBLK
  5
187
330
17F
100
AcDbEntity
  8
0
100
AcDbBlockEnd
  0
BLOCK
  5
235
330
234
100
AcDbEntity
  8
0
100
AcDbBlockBegin
  2
*D11
 70
     1
 10
0.0
 20
0.0
 30
0.0
  3
*D11
  1
*D10
  0
LINE
  5
236
330
234
100
AcDbEntity
  8
치수문자_일반주서
 62
     0
370
    -2
100
AcDbLine
 10
76.73921329095056
 20
21.4277484193996
 30
0.0
 11
83.09616053825157
 21
0.0000000000005635
 31
0.0
  0
MTEXT
  5
237
330
234
100
AcDbEntity
  8
치수문자_일반주서
 62
     0
100
AcDbMText
 10
84.43064297913796
 20
4.7311938955692
 30
0.0
 40
3.5
 41
0.0
 71
     5
 72
     1
  1
\A1;R0.1
  7
SLDTEXTSTYLE0
 11
0.284416727535909
 21
-0.9587007484600002
 31
0.0
 73
     1
 44
1.0
  0
LINE
  5
238
330
234
100
AcDbEntity
  8
치수문자_일반주서
 62
     0
370
    -2
100
AcDbLine
 10
75.7716275838734
 20
24.6892483656605
 30
0.0
 11
75.80006925662698
 21
24.59337829081452
 31
0.0
  0
SOLID
  5
239
330
234
100
AcDbEntity
  8
치수문자_일반주서
 62
     0
100
AcDbTrace
 10
77.26681826951972
 20
21.58427242512019
 30
0.0
 11
76.2116083123814
 21
21.271224413679
 31
0.0
 12
75.80006925662698
 22
24.59337829081452
 32
0.0
 13
75.80006925662698
 23
24.59337829081452
 33
0.0
  0
POINT
  5
23A
330
234
100
AcDbEntity
  8
Defpoints
 62
     0
100
AcDbPoint
 10
75.80006925662698
 20
24.59337829081452
 30
0.0
  0
POINT
  5
23B
330
234
100
AcDbEntity
  8
Defpoints
 62
     0
100
AcDbPoint
 10
75.7716275838734
 20
24.6892483656605
 30
0.0
  0
ENDBLK
  5
23C
330
234
100
AcDbEntity
  8
0
100
AcDbBlockEnd
  0
BLOCK
  5
240
330
23F
100
AcDbEntity
  8
0
100
AcDbBlockBegin
  2
*D12
 70
     1
 10
0.0
 20
0.0
 30
0.0
  3
*D12
  1
*D12
  0
LINE
  5
242
330
23F
100
AcDbEntity
  8
치수문자_일반주서
 62
     0
370
    -2
100
AcDbLine
 10
16.80895802161209
 20
29.58598562105435
 30
0.0
 11
4.374999999999996
 21
29.58598562105431
 31
0.0
  0
LINE
  5
243
330
23F
100
AcDbEntity
  8
치수문자_일반주서
 62
     0
370
    -2
100
AcDbLine
 10
16.80895802161209
 20
23.58598562105436
 30
0.0
 11
4.375000000000018
 21
23.58598562105431
 31
0.0
  0
LINE
  5
244
330
23F
100
AcDbEntity
  8
치수문자_일반주서
 62
     0
370
    -2
100
AcDbLine
 10
4.375000000000008
 20
26.28398562105431
 30
0.0
 11
4.375000000000006
 21
26.88798562105431
 31
0.0
  0
SOLID
  5
245
330
23F
100
AcDbEntity
  8
치수문자_일반주서
 62
     0
100
AcDbTrace
 10
4.925333333333342
 20
26.28398562105431
 30
0.0
 11
3.824666666666675
 21
26.2839856210543
 31
0.0
 12
4.374999999999996
 22
29.58598562105431
 32
0.0
 13
4.374999999999996
 23
29.58598562105431
 33
0.0
  0
SOLID
  5
246
330
23F
100
AcDbEntity
  8
치수문자_일반주서
 62
     0
100
AcDbTrace
 10
3.824666666666673
 20
26.88798562105431
 30
0.0
 11
4.92533333333334
 21
26.88798562105431
 31
0.0
 12
4.375000000000018
 22
23.58598562105431
 32
0.0
 13
4.375000000000018
 23
23.58598562105431
 33
0.0
  0
MTEXT
  5
247
330
23F
100
AcDbEntity
  8
치수문자_일반주서
 62
     0
100
AcDbMText
 10
0.0000000000000071
 20
26.58598562105433
 30
0.0
 40
3.5
 41
0.0
 71
     2
 72
     1
  1
\A1;%%c6
  7
SLDTEXTSTYLE0
 11
-3.552713678800503E-15
 21
1.0
 31
0.0
 73
     1
 44
1.0
  0
POINT
  5
248
330
23F
100
AcDbEntity
  8
Defpoints
 62
     0
100
AcDbPoint
 10
16.87145802161209
 20
29.58598562105435
 30
0.0
  0
POINT
  5
249
330
23F
100
AcDbEntity
  8
Defpoints
 62
     0
100
AcDbPoint
 10
16.87145802161209
 20
23.58598562105436
 30
0.0
  0
POINT
  5
24A
330
23F
100
AcDbEntity
  8
Defpoints
 62
     0
100
AcDbPoint
 10
4.375000000000021
 20
23.58598562105431
 30
0.0
  0
ENDBLK
  5
241
330
23F
100
AcDbEntity
  8
0
100
AcDbBlockEnd
  0
BLOCK
  5
24C
330
24B
100
AcDbEntity
  8
0
100
AcDbBlockBegin
  2
*D13
 70
     1
 10
0.0
 20
0.0
 30
0.0
  3
*D13
  1
*D13
  0
LINE
  5
24E
330
24B
100
AcDbEntity
  8
치수문자_일반주서
 62
     0
370
    -2
100
AcDbLine
 10
75.87145802161209
 20
28.54848562105436
 30
0.0
 11
75.87145802161209
 21
46.98598562105401
 31
0.0
  0
LINE
  5
24F
330
24B
100
AcDbEntity
  8
치수문자_일반주서
 62
     0
370
    -2
100
AcDbLine
 10
69.87145802161209
 20
28.22999977501057
 30
0.0
 11
69.87145802161209
 21
46.98598562105401
 31
0.0
  0
LINE
  5
250
330
24B
100
AcDbEntity
  8
치수문자_일반주서
 62
     0
370
    -2
100
AcDbLine
 10
72.56945802161209
 20
46.98598562105401
 30
0.0
 11
73.17345802161208
 21
46.98598562105401
 31
0.0
  0
SOLID
  5
251
330
24B
100
AcDbEntity
  8
치수문자_일반주서
 62
     0
100
AcDbTrace
 10
72.56945802161209
 20
46.43565228772068
 30
0.0
 11
72.56945802161209
 21
47.53631895438735
 31
0.0
 12
75.87145802161209
 22
46.98598562105401
 32
0.0
 13
75.87145802161209
 23
46.98598562105401
 33
0.0
  0
SOLID
  5
252
330
24B
100
AcDbEntity
  8
치수문자_일반주서
 62
     0
100
AcDbTrace
 10
73.17345802161208
 20
47.53631895438735
 30
0.0
 11
73.17345802161208
 21
46.43565228772068
 31
0.0
 12
69.87145802161209
 22
46.98598562105401
 32
0.0
 13
69.87145802161209
 23
46.98598562105401
 33
0.0
  0
MTEXT
  5
253
330
24B
100
AcDbEntity
  8
치수문자_일반주서
 62
     0
100
AcDbMText
 10
72.87145802161209
 20
51.36098562105401
 30
0.0
 40
3.5
 41
0.0
 71
     2
 72
     1
  1
\A1;6
  7
SLDTEXTSTYLE0
 73
     1
 44
1.0
  0
POINT
  5
254
330
24B
100
AcDbEntity
  8
Defpoints
 62
     0
100
AcDbPoint
 10
75.87145802161209
 20
28.48598562105436
 30
0.0
  0
POINT
  5
255
330
24B
100
AcDbEntity
  8
Defpoints
 62
     0
100
AcDbPoint
 10
69.87145802161209
 20
28.16749977501057
 30
0.0
  0
POINT
  5
256
330
24B
100
AcDbEntity
  8
Defpoints
 62
     0
100
AcDbPoint
 10
69.87145802161209
 20
46.98598562105401
 30
0.0
  0
ENDBLK
  5
24D
330
24B
100
AcDbEntity
  8
0
100
AcDbBlockEnd
  0
BLOCK
  5
258
330
257
100
AcDbEntity
  8
0
100
AcDbBlockBegin
  2
*D14
 70
     1
 10
0.0
 20
0.0
 30
0.0
  3
*D14
  1
*D14
  0
LINE
  5
25A
330
257
100
AcDbEntity
  8
치수문자_일반주서
 62
     0
370
    -2
100
AcDbLine
 10
75.87145802161209
 20
28.54848562105436
 30
0.0
 11
75.87145802161209
 21
69.04431012609865
 31
0.0
  0
LINE
  5
25B
330
257
100
AcDbEntity
  8
치수문자_일반주서
 62
     0
370
    -2
100
AcDbLine
 10
15.87145802161209
 20
28.64848562105435
 30
0.0
 11
15.87145802161209
 21
69.04431012609865
 31
0.0
  0
LINE
  5
25C
330
257
100
AcDbEntity
  8
치수문자_일반주서
 62
     0
370
    -2
100
AcDbLine
 10
72.56945802161209
 20
69.04431012609865
 30
0.0
 11
19.17345802161209
 21
69.04431012609865
 31
0.0
  0
SOLID
  5
25D
330
257
100
AcDbEntity
  8
치수문자_일반주서
 62
     0
100
AcDbTrace
 10
72.56945802161209
 20
68.49397679276532
 30
0.0
 11
72.56945802161209
 21
69.59464345943198
 31
0.0
 12
75.87145802161209
 22
69.04431012609865
 32
0.0
 13
75.87145802161209
 23
69.04431012609865
 33
0.0
  0
SOLID
  5
25E
330
257
100
AcDbEntity
  8
치수문자_일반주서
 62
     0
100
AcDbTrace
 10
19.17345802161209
 20
69.59464345943198
 30
0.0
 11
19.17345802161209
 21
68.49397679276532
 31
0.0
 12
15.87145802161209
 22
69.04431012609865
 32
0.0
 13
15.87145802161209
 23
69.04431012609865
 33
0.0
  0
MTEXT
  5
25F
330
257
100
AcDbEntity
  8
치수문자_일반주서
 62
     0
100
AcDbMText
 10
45.87145802161208
 20
73.41931012609865
 30
0.0
 40
3.5
 41
0.0
 71
     2
 72
     1
  1
\A1;60
  7
SLDTEXTSTYLE0
 73
     1
 44
1.0
  0
POINT
  5
260
330
257
100
AcDbEntity
  8
Defpoints
 62
     0
100
AcDbPoint
 10
75.87145802161209
 20
28.48598562105436
 30
0.0
  0
POINT
  5
261
330
257
100
AcDbEntity
  8
Defpoints
 62
     0
100
AcDbPoint
 10
15.87145802161209
 20
28.58598562105435
 30
0.0
  0
POINT
  5
262
330
257
100
AcDbEntity
  8
Defpoints
 62
     0
100
AcDbPoint
 10
15.87145802161209
 20
69.04431012609865
 30
0.0
  0
ENDBLK
  5
259
330
257
100
AcDbEntity
  8
0
100
AcDbBlockEnd
  0
BLOCK
  5
264
330
263
100
AcDbEntity
  8
0
100
AcDbBlockBegin
  2
*D15
 70
     1
 10
0.0
 20
0.0
 30
0.0
  3
*D15
  1
*D15
  0
LINE
  5
266
330
263
100
AcDbEntity
  8
치수문자_일반주서
 62
     0
370
    -2
100
AcDbLine
 10
75.87145802161209
 20
28.54578643169435
 30
0.0
 11
75.87145802161209
 21
56.90598562105302
 31
0.0
  0
LINE
  5
267
330
263
100
AcDbEntity
  8
치수문자_일반주서
 62
     0
370
    -2
100
AcDbLine
 10
61.87145802161209
 20
28.57348562105436
 30
0.0
 11
61.87145802161209
 21
56.90598562105302
 31
0.0
  0
LINE
  5
268
330
263
100
AcDbEntity
  8
치수문자_일반주서
 62
     0
370
    -2
100
AcDbLine
 10
72.56945802161209
 20
56.90598562105302
 30
0.0
 11
65.17345802161208
 21
56.90598562105302
 31
0.0
  0
SOLID
  5
269
330
263
100
AcDbEntity
  8
치수문자_일반주서
 62
     0
100
AcDbTrace
 10
72.56945802161209
 20
56.35565228771969
 30
0.0
 11
72.56945802161209
 21
57.45631895438635
 31
0.0
 12
75.87145802161209
 22
56.90598562105302
 32
0.0
 13
75.87145802161209
 23
56.90598562105302
 33
0.0
  0
SOLID
  5
26A
330
263
100
AcDbEntity
  8
치수문자_일반주서
 62
     0
100
AcDbTrace
 10
65.17345802161208
 20
57.45631895438635
 30
0.0
 11
65.17345802161208
 21
56.35565228771969
 31
0.0
 12
61.87145802161209
 22
56.90598562105302
 32
0.0
 13
61.87145802161209
 23
56.90598562105302
 33
0.0
  0
MTEXT
  5
26B
330
263
100
AcDbEntity
  8
치수문자_일반주서
 62
     0
100
AcDbMText
 10
68.87145802161209
 20
61.28098562105302
 30
0.0
 40
3.5
 41
0.0
 71
     2
 72
     1
  1
\A1;14
  7
SLDTEXTSTYLE0
 73
     1
 44
1.0
  0
POINT
  5
26C
330
263
100
AcDbEntity
  8
Defpoints
 62
     0
100
AcDbPoint
 10
75.87145802161209
 20
28.48328643169435
 30
0.0
  0
POINT
  5
26D
330
263
100
AcDbEntity
  8
Defpoints
 62
     0
100
AcDbPoint
 10
61.87145802161209
 20
28.51098562105436
 30
0.0
  0
POINT
  5
26E
330
263
100
AcDbEntity
  8
Defpoints
 62
     0
100
AcDbPoint
 10
61.87145802161209
 20
56.90598562105302
 30
0.0
  0
ENDBLK
  5
265
330
263
100
AcDbEntity
  8
0
100
AcDbBlockEnd
  0
BLOCK
  5
270
330
26F
100
AcDbEntity
  8
0
100
AcDbBlockBegin
  2
*D16
 70
     1
 10
0.0
 20
0.0
 30
0.0
  3
*D16
  1
*D16
  0
LINE
  5
272
330
26F
100
AcDbEntity
  8
치수문자_일반주서
 62
     0
370
    -2
100
AcDbLine
 10
75.93395802161209
 20
28.59133311884066
 30
0.0
 11
92.35311008261853
 21
28.59133311884072
 31
0.0
  0
LINE
  5
273
330
26F
100
AcDbEntity
  8
치수문자_일반주서
 62
     0
370
    -2
100
AcDbLine
 10
75.8341275838734
 20
24.5892483656605
 30
0.0
 11
92.35311008261854
 21
24.58924836566056
 31
0.0
  0
LINE
  5
274
330
26F
100
AcDbEntity
  8
치수문자_일반주서
 62
     0
370
    -2
100
AcDbLine
 10
92.35311008261853
 20
28.59133311884072
 30
0.0
 11
92.35311008261847
 21
44.37090710662481
 31
0.0
  0
LINE
  5
275
330
26F
100
AcDbEntity
  8
치수문자_일반주서
 62
     0
370
    -2
100
AcDbLine
 10
92.35311008261853
 20
28.59133311884072
 30
0.0
 11
92.35311008261854
 21
24.58924836566056
 31
0.0
  0
LINE
  5
276
330
26F
100
AcDbEntity
  8
치수문자_일반주서
 62
     0
370
    -2
100
AcDbLine
 10
92.35311008261851
 20
31.89333311884072
 30
0.0
 11
92.3531100826185
 21
35.19533311884071
 31
0.0
  0
LINE
  5
277
330
26F
100
AcDbEntity
  8
치수문자_일반주서
 62
     0
370
    -2
100
AcDbLine
 10
92.35311008261856
 20
21.28724836566056
 30
0.0
 11
92.35311008261857
 21
17.98524836566056
 31
0.0
  0
SOLID
  5
278
330
26F
100
AcDbEntity
  8
치수문자_일반주서
 62
     0
100
AcDbTrace
 10
91.80277674928519
 20
31.89333311884071
 30
0.0
 11
92.90344341595184
 21
31.89333311884072
 31
0.0
 12
92.35311008261853
 22
28.59133311884072
 32
0.0
 13
92.35311008261853
 23
28.59133311884072
 33
0.0
  0
SOLID
  5
279
330
26F
100
AcDbEntity
  8
치수문자_일반주서
 62
     0
100
AcDbTrace
 10
92.90344341595188
 20
21.28724836566056
 30
0.0
 11
91.80277674928523
 21
21.28724836566056
 31
0.0
 12
92.35311008261854
 22
24.58924836566056
 32
0.0
 13
92.35311008261854
 23
24.58924836566056
 33
0.0
  0
MTEXT
  5
27A
330
26F
100
AcDbEntity
  8
치수문자_일반주서
 62
     0
100
AcDbMText
 10
87.97811008261849
 20
41.30840710662479
 30
0.0
 40
3.5
 41
0.0
 71
     2
 72
     1
  1
\A1;%%c4
  7
SLDTEXTSTYLE0
 11
-3.550863010562108E-15
 21
1.0
 31
0.0
 73
     1
 44
1.0
  0
POINT
  5
27B
330
26F
100
AcDbEntity
  8
Defpoints
 62
     0
100
AcDbPoint
 10
75.87145802161209
 20
28.59133311884066
 30
0.0
  0
POINT
  5
27C
330
26F
100
AcDbEntity
  8
Defpoints
 62
     0
100
AcDbPoint
 10
75.7716275838734
 20
24.5892483656605
 30
0.0
  0
POINT
  5
27D
330
26F
100
AcDbEntity
  8
Defpoints
 62
     0
100
AcDbPoint
 10
92.35311008261854
 20
24.58924836566056
 30
0.0
  0
ENDBLK
  5
271
330
26F
100
AcDbEntity
  8
0
100
AcDbBlockEnd
  0
BLOCK
  5
2BB
330
2BA
100
AcDbEntity
  8
0
100
AcDbBlockBegin
  2
*D17
 70
     1
 10
0.0
 20
0.0
 30
0.0
  3
*D17
  1
*D17
  0
LINE
  5
2BD
330
2BA
100
AcDbEntity
  8
치수문자_일반주서
 62
     0
370
    -2
100
AcDbLine
 10
-41.05054538186346
 20
2.999999999999996
 30
0.0
 11
-53.48450340347555
 21
2.999999999999949
 31
0.0
  0
LINE
  5
2BE
330
2BA
100
AcDbEntity
  8
치수문자_일반주서
 62
     0
370
    -2
100
AcDbLine
 10
-41.05054538186346
 20
-3.0
 30
0.0
 11
-53.48450340347553
 21
-3.000000000000048
 31
0.0
  0
LINE
  5
2BF
330
2BA
100
AcDbEntity
  8
치수문자_일반주서
 62
     0
370
    -2
100
AcDbLine
 10
-53.48450340347554
 20
-0.3020000000000507
 30
0.0
 11
-53.48450340347554
 21
0.3019999999999521
 31
0.0
  0
SOLID
  5
2C0
330
2BA
100
AcDbEntity
  8
치수문자_일반주서
 62
     0
100
AcDbTrace
 10
-52.9341700701422
 20
-0.3020000000000487
 30
0.0
 11
-54.03483673680887
 21
-0.3020000000000526
 31
0.0
 12
-53.48450340347555
 22
2.999999999999949
 32
0.0
 13
-53.48450340347555
 23
2.999999999999949
 33
0.0
  0
SOLID
  5
2C1
330
2BA
100
AcDbEntity
  8
치수문자_일반주서
 62
     0
100
AcDbTrace
 10
-54.03483673680888
 20
0.3019999999999501
 30
0.0
 11
-52.93417007014221
 21
0.301999999999954
 31
0.0
 12
-53.48450340347553
 22
-3.000000000000048
 32
0.0
 13
-53.48450340347553
 23
-3.000000000000048
 33
0.0
  0
MTEXT
  5
2C2
330
2BA
100
AcDbEntity
  8
치수문자_일반주서
 62
     0
100
AcDbMText
 10
-57.85950340347554
 20
-0.000000000000019
 30
0.0
 40
3.5
 41
0.0
 71
     2
 72
     1
  1
\A1;%%c6
  7
SLDTEXTSTYLE0
 11
-3.552713678800503E-15
 21
1.0
 31
0.0
 73
     1
 44
1.0
  0
POINT
  5
2C3
330
2BA
100
AcDbEntity
  8
Defpoints
 62
     0
100
AcDbPoint
 10
-40.98804538186346
 20
2.999999999999996
 30
0.0
  0
POINT
  5
2C4
330
2BA
100
AcDbEntity
  8
Defpoints
 62
     0
100
AcDbPoint
 10
-40.98804538186346
 20
-3.0
 30
0.0
  0
POINT
  5
2C5
330
2BA
100
AcDbEntity
  8
Defpoints
 62
     0
100
AcDbPoint
 10
-53.48450340347553
 20
-3.000000000000047
 30
0.0
  0
ENDBLK
  5
2BC
330
2BA
100
AcDbEntity
  8
0
100
AcDbBlockEnd
  0
BLOCK
  5
2C7
330
2C6
100
AcDbEntity
  8
0
100
AcDbBlockBegin
  2
*D18
 70
     1
 10
0.0
 20
0.0
 30
0.0
  3
*D18
  1
*D18
  0
LINE
  5
2C9
330
2C6
100
AcDbEntity
  8
치수문자_일반주서
 62
     0
370
    -2
100
AcDbLine
 10
18.01195461813654
 20
1.962500000000002
 30
0.0
 11
18.01195461813654
 21
20.39999999999966
 31
0.0
  0
LINE
  5
2CA
330
2C6
100
AcDbEntity
  8
치수문자_일반주서
 62
     0
370
    -2
100
AcDbLine
 10
12.01195461813654
 20
1.644014153956213
 30
0.0
 11
12.01195461813654
 21
20.39999999999966
 31
0.0
  0
LINE
  5
2CB
330
2C6
100
AcDbEntity
  8
치수문자_일반주서
 62
     0
370
    -2
100
AcDbLine
 10
14.70995461813654
 20
20.39999999999966
 30
0.0
 11
15.31395461813653
 21
20.39999999999966
 31
0.0
  0
SOLID
  5
2CC
330
2C6
100
AcDbEntity
  8
치수문자_일반주서
 62
     0
100
AcDbTrace
 10
14.70995461813654
 20
19.84966666666632
 30
0.0
 11
14.70995461813654
 21
20.95033333333299
 31
0.0
 12
18.01195461813654
 22
20.39999999999966
 32
0.0
 13
18.01195461813654
 23
20.39999999999966
 33
0.0
  0
SOLID
  5
2CD
330
2C6
100
AcDbEntity
  8
치수문자_일반주서
 62
     0
100
AcDbTrace
 10
15.31395461813653
 20
20.95033333333299
 30
0.0
 11
15.31395461813653
 21
19.84966666666632
 31
0.0
 12
12.01195461813654
 22
20.39999999999966
 32
0.0
 13
12.01195461813654
 23
20.39999999999966
 33
0.0
  0
MTEXT
  5
2CE
330
2C6
100
AcDbEntity
  8
치수문자_일반주서
 62
     0
100
AcDbMText
 10
15.01195461813654
 20
24.77499999999966
 30
0.0
 40
3.5
 41
0.0
 71
     2
 72
     1
  1
\A1;6
  7
SLDTEXTSTYLE0
 73
     1
 44
1.0
  0
POINT
  5
2CF
330
2C6
100
AcDbEntity
  8
Defpoints
 62
     0
100
AcDbPoint
 10
18.01195461813654
 20
1.900000000000002
 30
0.0
  0
POINT
  5
2D0
330
2C6
100
AcDbEntity
  8
Defpoints
 62
     0
100
AcDbPoint
 10
12.01195461813654
 20
1.581514153956213
 30
0.0
  0
POINT
  5
2D1
330
2C6
100
AcDbEntity
  8
Defpoints
 62
     0
100
AcDbPoint
 10
12.01195461813654
 20
20.39999999999966
 30
0.0
  0
ENDBLK
  5
2C8
330
2C6
100
AcDbEntity
  8
0
100
AcDbBlockEnd
  0
BLOCK
  5
2D3
330
2D2
100
AcDbEntity
  8
0
100
AcDbBlockBegin
  2
*D19
 70
     1
 10
0.0
 20
0.0
 30
0.0
  3
*D19
  1
*D19
  0
LINE
  5
2D5
330
2D2
100
AcDbEntity
  8
치수문자_일반주서
 62
     0
370
    -2
100
AcDbLine
 10
18.01195461813654
 20
1.962500000000002
 30
0.0
 11
18.01195461813654
 21
42.4583245050443
 31
0.0
  0
LINE
  5
2D6
330
2D2
100
AcDbEntity
  8
치수문자_일반주서
 62
     0
370
    -2
100
AcDbLine
 10
-41.98804538186346
 20
2.062499999999996
 30
0.0
 11
-41.98804538186346
 21
42.4583245050443
 31
0.0
  0
LINE
  5
2D7
330
2D2
100
AcDbEntity
  8
치수문자_일반주서
 62
     0
370
    -2
100
AcDbLine
 10
14.70995461813654
 20
42.4583245050443
 30
0.0
 11
-38.68604538186346
 21
42.4583245050443
 31
0.0
  0
SOLID
  5
2D8
330
2D2
100
AcDbEntity
  8
치수문자_일반주서
 62
     0
100
AcDbTrace
 10
14.70995461813654
 20
41.90799117171096
 30
0.0
 11
14.70995461813654
 21
43.00865783837763
 31
0.0
 12
18.01195461813654
 22
42.4583245050443
 32
0.0
 13
18.01195461813654
 23
42.4583245050443
 33
0.0
  0
SOLID
  5
2D9
330
2D2
100
AcDbEntity
  8
치수문자_일반주서
 62
     0
100
AcDbTrace
 10
-38.68604538186346
 20
43.00865783837763
 30
0.0
 11
-38.68604538186346
 21
41.90799117171096
 31
0.0
 12
-41.98804538186346
 22
42.4583245050443
 32
0.0
 13
-41.98804538186346
 23
42.4583245050443
 33
0.0
  0
MTEXT
  5
2DA
330
2D2
100
AcDbEntity
  8
치수문자_일반주서
 62
     0
100
AcDbMText
 10
-11.98804538186347
 20
46.8333245050443
 30
0.0
 40
3.5
 41
0.0
 71
     2
 72
     1
  1
\A1;60
  7
SLDTEXTSTYLE0
 73
     1
 44
1.0
  0
POINT
  5
2DB
330
2D2
100
AcDbEntity
  8
Defpoints
 62
     0
100
AcDbPoint
 10
18.01195461813654
 20
1.900000000000002
 30
0.0
  0
POINT
  5
2DC
330
2D2
100
AcDbEntity
  8
Defpoints
 62
     0
100
AcDbPoint
 10
-41.98804538186346
 20
1.999999999999996
 30
0.0
  0
POINT
  5
2DD
330
2D2
100
AcDbEntity
  8
Defpoints
 62
     0
100
AcDbPoint
 10
-41.98804538186346
 20
42.4583245050443
 30
0.0
  0
ENDBLK
  5
2D4
330
2D2
100
AcDbEntity
  8
0
100
AcDbBlockEnd
  0
BLOCK
  5
2DF
330
2DE
100
AcDbEntity
  8
0
100
AcDbBlockBegin
  2
*D20
 70
     1
 10
0.0
 20
0.0
 30
0.0
  3
*D20
  1
*D20
  0
LINE
  5
2E1
330
2DE
100
AcDbEntity
  8
치수문자_일반주서
 62
     0
370
    -2
100
AcDbLine
 10
18.01195461813654
 20
1.959800810639994
 30
0.0
 11
18.01195461813654
 21
30.31999999999866
 31
0.0
  0
LINE
  5
2E2
330
2DE
100
AcDbEntity
  8
치수문자_일반주서
 62
     0
370
    -2
100
AcDbLine
 10
4.011954618136535
 20
1.987500000000001
 30
0.0
 11
4.011954618136535
 21
30.31999999999866
 31
0.0
  0
LINE
  5
2E3
330
2DE
100
AcDbEntity
  8
치수문자_일반주서
 62
     0
370
    -2
100
AcDbLine
 10
14.70995461813654
 20
30.31999999999866
 30
0.0
 11
7.313954618136535
 21
30.31999999999866
 31
0.0
  0
SOLID
  5
2E4
330
2DE
100
AcDbEntity
  8
치수문자_일반주서
 62
     0
100
AcDbTrace
 10
14.70995461813654
 20
29.76966666666533
 30
0.0
 11
14.70995461813654
 21
30.870333333332
 31
0.0
 12
18.01195461813654
 22
30.31999999999866
 32
0.0
 13
18.01195461813654
 23
30.31999999999866
 33
0.0
  0
SOLID
  5
2E5
330
2DE
100
AcDbEntity
  8
치수문자_일반주서
 62
     0
100
AcDbTrace
 10
7.313954618136535
 20
30.870333333332
 30
0.0
 11
7.313954618136535
 21
29.76966666666533
 31
0.0
 12
4.011954618136535
 22
30.31999999999866
 32
0.0
 13
4.011954618136535
 23
30.31999999999866
 33
0.0
  0
MTEXT
  5
2E6
330
2DE
100
AcDbEntity
  8
치수문자_일반주서
 62
     0
100
AcDbMText
 10
11.01195461813654
 20
34.69499999999866
 30
0.0
 40
3.5
 41
0.0
 71
     2
 72
     1
  1
\A1;14
  7
SLDTEXTSTYLE0
 73
     1
 44
1.0
  0
POINT
  5
2E7
330
2DE
100
AcDbEntity
  8
Defpoints
 62
     0
100
AcDbPoint
 10
18.01195461813654
 20
1.897300810639994
 30
0.0
  0
POINT
  5
2E8
330
2DE
100
AcDbEntity
  8
Defpoints
 62
     0
100
AcDbPoint
 10
4.011954618136535
 20
1.925000000000001
 30
0.0
  0
POINT
  5
2E9
330
2DE
100
AcDbEntity
  8
Defpoints
 62
     0
100
AcDbPoint
 10
4.011954618136535
 20
30.31999999999866
 30
0.0
  0
ENDBLK
  5
2E0
330
2DE
100
AcDbEntity
  8
0
100
AcDbBlockEnd
  0
BLOCK
  5
2EB
330
2EA
100
AcDbEntity
  8
0
100
AcDbBlockBegin
  2
*D21
 70
     1
 10
0.0
 20
0.0
 30
0.0
  3
*D21
  1
*D21
  0
LINE
  5
2ED
330
2EA
100
AcDbEntity
  8
치수문자_일반주서
 62
     0
370
    -2
100
AcDbLine
 10
18.07445461813654
 20
2.0053474977863
 30
0.0
 11
34.49360667914298
 21
2.00534749778636
 31
0.0
  0
LINE
  5
2EE
330
2EA
100
AcDbEntity
  8
치수문자_일반주서
 62
     0
370
    -2
100
AcDbLine
 10
17.97462418039785
 20
-1.996737255393856
 30
0.0
 11
34.49360667914299
 21
-1.996737255393796
 31
0.0
  0
LINE
  5
2EF
330
2EA
100
AcDbEntity
  8
치수문자_일반주서
 62
     0
370
    -2
100
AcDbLine
 10
34.49360667914298
 20
2.00534749778636
 30
0.0
 11
34.49360667914292
 21
17.78492148557045
 31
0.0
  0
LINE
  5
2F0
330
2EA
100
AcDbEntity
  8
치수문자_일반주서
 62
     0
370
    -2
100
AcDbLine
 10
34.49360667914298
 20
2.00534749778636
 30
0.0
 11
34.49360667914299
 21
-1.996737255393796
 31
0.0
  0
LINE
  5
2F1
330
2EA
100
AcDbEntity
  8
치수문자_일반주서
 62
     0
370
    -2
100
AcDbLine
 10
34.49360667914296
 20
5.30734749778636
 30
0.0
 11
34.49360667914295
 21
8.60934749778636
 31
0.0
  0
LINE
  5
2F2
330
2EA
100
AcDbEntity
  8
치수문자_일반주서
 62
     0
370
    -2
100
AcDbLine
 10
34.49360667914301
 20
-5.298737255393796
 30
0.0
 11
34.49360667914302
 21
-8.600737255393796
 31
0.0
  0
SOLID
  5
2F3
330
2EA
100
AcDbEntity
  8
치수문자_일반주서
 62
     0
100
AcDbTrace
 10
33.94327334580963
 20
5.307347497786358
 30
0.0
 11
35.0439400124763
 21
5.307347497786362
 31
0.0
 12
34.49360667914298
 22
2.00534749778636
 32
0.0
 13
34.49360667914298
 23
2.00534749778636
 33
0.0
  0
SOLID
  5
2F4
330
2EA
100
AcDbEntity
  8
치수문자_일반주서
 62
     0
100
AcDbTrace
 10
35.04394001247634
 20
-5.298737255393794
 30
0.0
 11
33.94327334580967
 21
-5.298737255393798
 31
0.0
 12
34.49360667914299
 22
-1.996737255393796
 32
0.0
 13
34.49360667914299
 23
-1.996737255393796
 33
0.0
  0
MTEXT
  5
2F5
330
2EA
100
AcDbEntity
  8
치수문자_일반주서
 62
     0
100
AcDbMText
 10
30.11860667914294
 20
14.72242148557044
 30
0.0
 40
3.5
 41
0.0
 71
     2
 72
     1
  1
\A1;%%c4
  7
SLDTEXTSTYLE0
 11
-3.550863010562109E-15
 21
1.0
 31
0.0
 73
     1
 44
1.0
  0
POINT
  5
2F6
330
2EA
100
AcDbEntity
  8
Defpoints
 62
     0
100
AcDbPoint
 10
18.01195461813654
 20
2.0053474977863
 30
0.0
  0
POINT
  5
2F7
330
2EA
100
AcDbEntity
  8
Defpoints
 62
     0
100
AcDbPoint
 10
17.91212418039785
 20
-1.996737255393857
 30
0.0
  0
POINT
  5
2F8
330
2EA
100
AcDbEntity
  8
Defpoints
 62
     0
100
AcDbPoint
 10
34.49360667914299
 20
-1.996737255393795
 30
0.0
  0
ENDBLK
  5
2EC
330
2EA
100
AcDbEntity
  8
0
100
AcDbBlockEnd
  0
BLOCK
  5
2FA
330
2F9
100
AcDbEntity
  8
0
100
AcDbBlockBegin
  2
*D22
 70
     1
 10
0.0
 20
0.0
 30
0.0
  3
*D22
  1
*D22
  0
LINE
  5
2FC
330
2F9
100
AcDbEntity
  8
치수문자_일반주서
 62
     0
370
    -2
100
AcDbLine
 10
18.87970988747501
 20
-5.158237201654758
 30
0.0
 11
25.23665713477602
 21
-26.58598562105379
 31
0.0
  0
MTEXT
  5
2FD
330
2F9
100
AcDbEntity
  8
치수문자_일반주서
 62
     0
100
AcDbMText
 10
26.5711395756624
 20
-21.85479172548515
 30
0.0
 40
3.5
 41
0.0
 71
     5
 72
     1
  1
\A1;R0.1
  7
SLDTEXTSTYLE0
 11
0.284416727535909
 21
-0.9587007484600002
 31
0.0
 73
     1
 44
1.0
  0
LINE
  5
2FE
330
2F9
100
AcDbEntity
  8
치수문자_일반주서
 62
     0
370
    -2
100
AcDbLine
 10
17.91212418039785
 20
-1.896737255393852
 30
0.0
 11
17.94056585315143
 21
-1.992607330239839
 31
0.0
  0
SOLID
  5
2FF
330
2F9
100
AcDbEntity
  8
치수문자_일반주서
 62
     0
100
AcDbTrace
 10
19.40731486604416
 20
-5.001713195934163
 30
0.0
 11
18.35210490890585
 21
-5.314761207375354
 31
0.0
 12
17.94056585315143
 22
-1.992607330239839
 32
0.0
 13
17.94056585315143
 23
-1.992607330239839
 33
0.0
  0
POINT
  5
300
330
2F9
100
AcDbEntity
  8
Defpoints
 62
     0
100
AcDbPoint
 10
17.94056585315143
 20
-1.992607330239839
 30
0.0
  0
POINT
  5
301
330
2F9
100
AcDbEntity
  8
Defpoints
 62
     0
100
AcDbPoint
 10
17.91212418039785
 20
-1.896737255393852
 30
0.0
  0
ENDBLK
  5
2FB
330
2F9
100
AcDbEntity
  8
0
100
AcDbBlockEnd
  0
BLOCK
  5
343
330
342
100
AcDbEntity
  8
0
100
AcDbBlockBegin
  2
*D24
 70
     1
 10
0.0
 20
0.0
 30
0.0
  3
*D24
  1
*D40
  0
LINE
  5
344
330
342
100
AcDbEntity
  8
치수문자_일반주서
 62
     0
370
    -2
100
AcDbLine
 10
7.249949160854044
 20
16.92509481371024
 30
0.0
 11
17.63340993747067
 21
0.000000000000004
 31
0.0
  0
MTEXT
  5
345
330
342
100
AcDbEntity
  8
치수문자_일반주서
 62
     0
100
AcDbMText
 10
18.49821033629772
 20
3.610175933412194
 30
0.0
 40
3.5
 41
0.0
 71
     5
 72
     1
  1
\A1;R1
  7
SLDTEXTSTYLE0
 11
0.5229286732543125
 21
-0.8523764442360457
 31
0.0
 73
     1
 44
1.0
  0
LINE
  5
346
330
342
100
AcDbEntity
  8
치수문자_일반주서
 62
     0
370
    -2
100
AcDbLine
 10
5.00031000851402
 20
20.59201827681366
 30
0.0
 11
5.523238681768305
 21
19.73964183257766
 31
0.0
  0
SOLID
  5
347
330
342
100
AcDbEntity
  8
치수문자_일반주서
 62
     0
100
AcDbTrace
 10
7.719040330665282
 20
17.21287989355786
 30
0.0
 11
6.780857991042808
 21
16.63730973386262
 31
0.0
 12
5.523238681768305
 22
19.73964183257766
 32
0.0
 13
5.523238681768305
 23
19.73964183257766
 33
0.0
  0
POINT
  5
348
330
342
100
AcDbEntity
  8
Defpoints
 62
     0
100
AcDbPoint
 10
5.523238681768305
 20
19.73964183257766
 30
0.0
  0
POINT
  5
349
330
342
100
AcDbEntity
  8
Defpoints
 62
     0
100
AcDbPoint
 10
5.00031000851402
 20
20.59201827681366
 30
0.0
  0
ENDBLK
  5
34A
330
342
100
AcDbEntity
  8
0
100
AcDbBlockEnd
  0
BLOCK
  5
369
330
368
100
AcDbEntity
  8
0
100
AcDbBlockBegin
  2
*D25
 70
     1
 10
0.0
 20
0.0
 30
0.0
  3
*D25
  1
*D25
  0
LINE
  5
36B
330
368
100
AcDbEntity
  8
치수문자_일반주서
 62
     0
370
    -2
100
AcDbLine
 10
19.26176333273786
 20
-4.66366071849728
 30
0.0
 11
29.64522410935449
 21
-21.58875553220751
 31
0.0
  0
MTEXT
  5
36C
330
368
100
AcDbEntity
  8
치수문자_일반주서
 62
     0
100
AcDbMText
 10
30.51002450818154
 20
-17.97857959879532
 30
0.0
 40
3.5
 41
0.0
 71
     5
 72
     1
  1
\A1;R1
  7
SLDTEXTSTYLE0
 11
0.5229286732543125
 21
-0.8523764442360457
 31
0.0
 73
     1
 44
1.0
  0
LINE
  5
36D
330
368
100
AcDbEntity
  8
치수문자_일반주서
 62
     0
370
    -2
100
AcDbLine
 10
17.01212418039784
 20
-0.9967372553938567
 30
0.0
 11
17.53505285365213
 21
-1.849113699629857
 31
0.0
  0
SOLID
  5
36E
330
368
100
AcDbEntity
  8
치수문자_일반주서
 62
     0
100
AcDbTrace
 10
19.7308545025491
 20
-4.375875638649656
 30
0.0
 11
18.79267216292663
 21
-4.951445798344903
 31
0.0
 12
17.53505285365213
 22
-1.849113699629857
 32
0.0
 13
17.53505285365213
 23
-1.849113699629857
 33
0.0
  0
POINT
  5
36F
330
368
100
AcDbEntity
  8
Defpoints
 62
     0
100
AcDbPoint
 10
17.53505285365213
 20
-1.849113699629857
 30
0.0
  0
POINT
  5
370
330
368
100
AcDbEntity
  8
Defpoints
 62
     0
100
AcDbPoint
 10
17.01212418039784
 20
-0.9967372553938567
 30
0.0
  0
ENDBLK
  5
36A
330
368
100
AcDbEntity
  8
0
100
AcDbBlockEnd
  0
ENDSEC
  0
SECTION
  2
ENTITIES
  0
INSERT
  5
CD
330
1F
100
AcDbEntity
  8
0
  6
Continuous
 62
     7
100
AcDbBlockReference
 66
     1
  2
블럭10
 10
-22.93944368806589
 20
-52.04609937292004
 30
0.0
  0
ATTRIB
  5
CE
330
CD
100
AcDbEntity
  8
FORMAT
 62
     2
100
AcDbText
 10
-42.21802657207924
 20
-49.97073246008785
 30
0.0
 40
4.233333333333333
  1
SEME610401014E [ 2 FLUTE ]
 41
0.75
  7
SLDTEXTSTYLE0
 11
-42.21802657207924
 21
-52.08739912675452
 31
0.0
100
AcDbAttribute
  2
AUTOATTR0
 70
     0
 74
     1
  0
SEQEND
  5
CF
330
CD
100
AcDbEntity
  8
0
  6
Continuous
 62
     7
  0
HATCH
  5
D0
330
1F
100
AcDbEntity
  8
중심선
100
AcDbHatch
 10
0.0
 20
0.0
 30
0.0
210
0.0
220
0.0
230
1.0
  2
SOLID
 70
     1
 71
     0
 91
        1
 92
        0
 93
        4
 72
     1
 10
-17.22453438368504
 20
-35.7989250712761
 11
-20.67080962752232
 21
-35.7989250712761
 72
     1
 10
-20.67080962752232
 20
-35.7989250712761
 11
-22.79903948672635
 21
-38.3352506518487
 72
     1
 10
-22.79903948672635
 20
-38.3352506518487
 11
-19.35273115777591
 21
-38.33521122254621
 72
     1
 10
-19.35273115777591
 20
-38.33521122254621
 11
-17.22453438368504
 21
-35.7989250712761
 97
        0
 75
     0
 76
     1
 98
        1
 10
0.0
 20
0.0
  0
HATCH
  5
D1
330
1F
100
AcDbEntity
  8
중심선
100
AcDbHatch
 10
0.0
 20
0.0
 30
0.0
210
0.0
220
0.0
230
1.0
  2
SOLID
 70
     1
 71
     0
 91
        1
 92
        0
 93
        4
 72
     1
 10
-12.21177039264909
 20
-35.7989250712761
 11
-15.65804563648637
 21
-35.7989250712761
 72
     1
 10
-15.65804563648637
 20
-35.7989250712761
 11
-20.18918364484376
 21
-41.19892507127612
 72
     1
 10
-20.18918364484376
 20
-41.19892507127612
 11
-16.74290840100648
 21
-41.19892507127612
 72
     1
 10
-16.74290840100648
 20
-41.19892507127612
 11
-12.21177039264909
 21
-35.7989250712761
 97
        0
 75
     0
 76
     1
 98
        1
 10
0.0
 20
0.0
  0
HATCH
  5
D2
330
1F
100
AcDbEntity
  8
중심선
100
AcDbHatch
 10
0.0
 20
0.0
 30
0.0
210
0.0
220
0.0
230
1.0
  2
SOLID
 70
     1
 71
     0
 91
        1
 92
        0
 93
        4
 72
     1
 10
-7.199006401613195
 20
-35.79892507127613
 11
-10.64528164545031
 21
-35.7989250712761
 72
     1
 10
-10.64528164545031
 20
-35.7989250712761
 11
-17.69371854733956
 21
-44.19892507127612
 72
     1
 10
-17.69371854733956
 20
-44.19892507127612
 11
-14.24744330350228
 21
-44.19892507127612
 72
     1
 10
-14.24744330350228
 20
-44.19892507127612
 11
-7.199006401613195
 21
-35.79892507127613
 97
        0
 75
     0
 76
     1
 98
        1
 10
0.0
 20
0.0
  0
HATCH
  5
D3
330
1F
100
AcDbEntity
  8
중심선
100
AcDbHatch
 10
0.0
 20
0.0
 30
0.0
210
0.0
220
0.0
230
1.0
  2
SOLID
 70
     1
 71
     0
 91
        1
 92
        0
 93
        6
 72
     3
 10
-2.399115970600996
 20
-39.99892507132738
 11
3.960054785062284
 21
1.540850780301639E-10
 40
0.3939339440162633
 50
17.09539180608433
 51
320.0019657685079
 73
     0
 72
     1
 10
-0.7161163149004002
 20
-38.58681907591441
 11
1.589185558800638
 21
-36.65249236586649
 72
     3
 10
-2.399115970653842
 20
-39.99892507127625
 11
6.600054785286829
 21
-1.249000902703301E-13
 40
0.6363583540795982
 50
39.99873849337408
 51
368.4976242363725
 73
     1
 72
     1
 10
4.026216521246767
 20
-39.03892507120613
 11
-3.71904866381792
 21
-39.0389250712061
 72
     1
 10
-3.71904866381792
 20
-39.0389250712061
 11
-3.719073708263854
 21
-40.95892507120602
 72
     1
 10
-3.719073708263854
 20
-40.95892507120602
 11
0.7223060612081831
 21
-40.95892507120599
 97
        0
 75
     0
 76
     1
 98
        1
 10
0.0
 20
0.0
  0
LINE
  5
27F
330
1F
100
AcDbEntity
  8
0
  6
Continuous
 62
     4
370
    25
100
AcDbLine
 10
0.0
 20
3.0
 30
0.0
 11
-40.98804538186346
 21
2.999999999999996
 31
0.0
  0
LINE
  5
280
330
1F
100
AcDbEntity
  8
0
  6
Continuous
 62
     4
370
    25
100
AcDbLine
 10
-40.98804538186346
 20
-3.0
 30
0.0
 11
0.0
 21
-3.0
 31
0.0
  0
LINE
  5
281
330
1F
100
AcDbEntity
  8
0
  6
Continuous
 62
     4
370
    25
100
AcDbLine
 10
0.0
 20
-3.0
 30
0.0
 11
4.011954618136535
 21
-1.924999999999997
 31
0.0
  0
LINE
  5
282
330
1F
100
AcDbEntity
  8
0
  6
Continuous
 62
     4
370
    25
100
AcDbLine
 10
4.011954618136535
 20
1.925000000000001
 30
0.0
 11
0.0
 21
3.0
 31
0.0
  0
LINE
  5
283
330
1F
100
AcDbEntity
  8
0
  6
Continuous
 62
     4
370
    25
100
AcDbLine
 10
-40.98804538186346
 20
2.999999999999996
 30
0.0
 11
-41.98804538186346
 21
1.999999999999993
 31
0.0
  0
LINE
  5
284
330
1F
100
AcDbEntity
  8
0
  6
Continuous
 62
     4
370
    25
100
AcDbLine
 10
-41.98804538186346
 20
-2.0
 30
0.0
 11
-40.98804538186346
 21
-3.0
 31
0.0
  0
LINE
  5
285
330
1F
100
AcDbEntity
  8
0
  6
Continuous
 62
     4
370
    25
100
AcDbLine
 10
8.962054472609104
 20
1.925000000000001
 30
0.0
 11
4.011954618136535
 21
1.925000000000001
 31
0.0
  0
LINE
  5
286
330
1F
100
AcDbEntity
  8
0
  6
Continuous
 62
     4
370
    25
100
AcDbLine
 10
4.011954618136535
 20
-1.924999999999997
 30
0.0
 11
8.962054472609104
 21
-1.924999999999997
 31
0.0
  0
SPLINE
  5
287
330
1F
100
AcDbEntity
  8
0
  6
Continuous
 62
     4
370
    25
100
AcDbSpline
210
0.0
220
0.0
230
1.0
 70
     8
 71
     3
 72
    14
 73
    10
 74
     0
 42
0.000000001
 43
0.00000001
 40
0.0
 40
0.0
 40
0.0
 40
0.0
 40
0.230860351054576
 40
0.3989552025869869
 40
0.5108277282803226
 40
0.6129537199445468
 40
0.720522655884329
 40
0.8298958555726512
 40
0.9999999999999999
 40
0.9999999999999999
 40
0.9999999999999999
 40
0.9999999999999999
 10
12.01195461813654
 20
1.580702654398447
 30
0.0
 10
11.88636178614031
 20
1.575996054278278
 30
0.0
 10
11.669321859173
 20
1.56786246790946
 30
0.0
 10
11.39195356816555
 20
1.56299424264467
 30
0.0
 10
11.18622324702793
 20
1.561664363422334
 30
0.0
 10
11.01368027431902
 20
1.56212826660774
 30
0.0
 10
10.84230416737771
 20
1.564230592440897
 30
0.0
 10
10.63448633722603
 20
1.568107723998182
 30
0.0
 10
10.48450351540118
 20
1.574723344577912
 30
0.0
 10
10.39321633194077
 20
1.578749948173034
 30
0.0
  0
SPLINE
  5
288
330
1F
100
AcDbEntity
  8
0
  6
Continuous
 62
     4
370
    25
100
AcDbSpline
210
0.0
220
0.0
230
1.0
 70
     8
 71
     3
 72
    18
 73
    14
 74
     0
 42
0.000000001
 43
0.00000001
 40
0.0
 40
0.0
 40
0.0
 40
0.0
 40
0.133676552178984
 40
0.2270940694151632
 40
0.2903901250152537
 40
0.35295511869489
 40
0.4158847768435101
 40
0.4788282821201683
 40
0.5539247532052749
 40
0.6220031412824945
 40
0.696376022103174
 40
0.820868997147252
 40
1.0
 40
1.0
 40
1.0
 40
1.0
 10
9.240562737104064
 20
-1.655951866660313
 30
0.0
 10
9.361794968830857
 20
-1.644963979823558
 30
0.0
 10
9.56774822239965
 20
-1.626297400716318
 30
0.0
 10
9.832420057523784
 20
-1.60718983390797
 30
0.0
 10
10.0354290554697
 20
-1.594467276375234
 30
0.0
 10
10.20981300265306
 20
-1.585086863165863
 30
0.0
 10
10.38392010958176
 20
-1.577204741833121
 30
0.0
 10
10.56949041864377
 20
-1.570501530877983
 30
0.0
 10
10.76001991510758
 20
-1.565594123859547
 30
0.0
 10
10.96093308819618
 20
-1.562503334384392
 30
0.0
 10
11.20832005867715
 20
-1.561334586072363
 30
0.0
 10
11.56084166031145
 20
-1.564323838800455
 30
0.0
 10
11.84456470035753
 20
-1.574625133128642
 30
0.0
 10
12.01195461813654
 20
-1.580702654398443
 30
0.0
  0
LINE
  5
289
330
1F
100
AcDbEntity
  8
0
  6
Continuous
 62
     4
370
    25
100
AcDbLine
 10
0.0
 20
3.0
 30
0.0
 11
0.0
 21
-3.0
 31
0.0
  0
LINE
  5
28A
330
1F
100
AcDbEntity
  8
0
  6
Continuous
 62
     4
370
    25
100
AcDbLine
 10
-40.98804538186346
 20
2.999999999999996
 30
0.0
 11
-40.98804538186346
 21
-3.0
 31
0.0
  0
LINE
  5
28B
330
1F
100
AcDbEntity
  8
0
  6
Continuous
 62
     4
370
    25
100
AcDbLine
 10
4.011954618136535
 20
1.925000000000001
 30
0.0
 11
4.011954618136535
 21
-1.925000000000001
 31
0.0
  0
LINE
  5
28C
330
1F
100
AcDbEntity
  8
0
  6
Continuous
 62
     4
370
    25
100
AcDbLine
 10
-41.98804538186346
 20
1.999999999999996
 30
0.0
 11
-41.98804538186346
 21
-2.0
 31
0.0
  0
SPLINE
  5
28D
330
1F
100
AcDbEntity
  8
0
  6
Continuous
 62
     4
370
    25
100
AcDbSpline
210
0.0
220
0.0
230
1.0
 70
     8
 71
     3
 72
    18
 73
    14
 74
     0
 42
0.000000001
 43
0.00000001
 40
0.0
 40
0.0
 40
0.0
 40
0.0
 40
0.1250000000000002
 40
0.1250000000000002
 40
0.2500000000000005
 40
0.2500000000000005
 40
0.5000000000000003
 40
0.5000000000000003
 40
0.6250000000000002
 40
0.6250000000000002
 40
0.7500000000000001
 40
0.7500000000000001
 40
1.0
 40
1.0
 40
1.0
 40
1.0
 10
12.01195461813654
 20
0.9195926915382522
 30
0.0
 10
11.88404583340876
 20
0.981780769108596
 30
0.0
 10
11.7561836238657
 20
1.042089630936328
 30
0.0
 10
11.5028634426271
 20
1.157894964710316
 30
0.0
 10
11.37773555710934
 20
1.213359940262652
 30
0.0
 10
10.99632815111043
 20
1.37295892649615
 30
0.0
 10
10.73827019406985
 20
1.469514920179446
 30
0.0
 10
10.35941488994305
 20
1.594490292186673
 30
0.0
 10
10.23381774072391
 20
1.63296128731913
 30
0.0
 10
9.979041231076828
 20
1.703508034446038
 30
0.0
 10
9.850873231364396
 20
1.73546831196419
 30
0.0
 10
9.467524193712286
 20
1.820506044655335
 30
0.0
 10
9.217341882038461
 20
1.86256985829343
 30
0.0
 10
8.962159175059675
 20
1.889580777962848
 30
0.0
  0
SPLINE
  5
28E
330
1F
100
AcDbEntity
  8
0
  6
Continuous
 62
     4
370
    25
100
AcDbSpline
210
0.0
220
0.0
230
1.0
 70
     8
 71
     3
 72
    18
 73
    14
 74
     0
 42
0.000000001
 43
0.00000001
 40
0.0
 40
0.0
 40
0.0
 40
0.0
 40
0.1250000000000002
 40
0.1250000000000002
 40
0.2500000000000005
 40
0.2500000000000005
 40
0.5000000000000003
 40
0.5000000000000003
 40
0.6250000000000002
 40
0.6250000000000002
 40
0.7500000000000001
 40
0.7500000000000001
 40
1.0
 40
1.0
 40
1.0
 40
1.0
 10
12.01195461813654
 20
0.4051148844735977
 30
0.0
 10
11.88404145995874
 20
0.4743194848036225
 30
0.0
 10
11.75617488040609
 20
0.5426905569955665
 30
0.0
 10
11.50284620156678
 20
0.6765454905830595
 30
0.0
 10
11.37771395140452
 20
0.7419820193595008
 30
0.0
 10
10.9962931161163
 20
0.9344443364665977
 30
0.0
 10
10.73822626911493
 20
1.05678029810996
 30
0.0
 10
10.35935912973924
 20
1.224807558637632
 30
0.0
 10
10.23375702756855
 20
1.27837317635813
 30
0.0
 10
9.97897127453357
 20
1.38062349550902
 30
0.0
 10
9.85079879768552
 20
1.429154893638032
 30
0.0
 10
9.467437127137323
 20
1.565617886610568
 30
0.0
 10
9.217246571067285
 20
1.644056332930052
 30
0.0
 10
8.962054472609118
 20
1.709143488653535
 30
0.0
  0
SPLINE
  5
28F
330
1F
100
AcDbEntity
  8
0
  6
Continuous
 62
     4
370
    25
100
AcDbSpline
210
0.0
220
0.0
230
1.0
 70
     8
 71
     3
 72
    10
 73
     6
 74
     0
 42
0.000000001
 43
0.00000001
 40
0.0
 40
0.0
 40
0.0
 40
0.0
 40
0.0653433290075386
 40
0.5338993100366272
 40
0.9999999999999999
 40
0.9999999999999999
 40
0.9999999999999999
 40
0.9999999999999999
 10
10.39822732974771
 20
-1.576954746586441
 30
0.0
 10
10.36694013446473
 20
-1.588328237110321
 30
0.0
 10
10.11130253184685
 20
-1.681257367530154
 30
0.0
 10
9.632144588776221
 20
-1.793625084448816
 30
0.0
 10
9.185096189208643
 20
-1.857651611499438
 30
0.0
 10
8.962159175059675
 20
-1.889580777962848
 30
0.0
  0
LINE
  5
290
330
1F
100
AcDbEntity
  8
0
  6
Continuous
 62
     4
370
    25
100
AcDbLine
 10
8.962054472609104
 20
1.889597655556031
 30
0.0
 11
8.96205447260909
 21
1.925000000000001
 31
0.0
  0
LINE
  5
291
330
1F
100
AcDbEntity
  8
0
  6
Continuous
 62
     4
370
    25
100
AcDbLine
 10
8.96205447260909
 20
-1.924999999999997
 30
0.0
 11
8.962054472609118
 21
1.709389812858344
 31
0.0
  0
SPLINE
  5
292
330
1F
100
AcDbEntity
  8
0
  6
Continuous
 62
     4
370
    25
100
AcDbSpline
210
0.0
220
0.0
230
1.0
 70
     8
 71
     3
 72
    16
 73
    12
 74
     0
 42
0.000000001
 43
0.00000001
 40
0.0
 40
0.0
 40
0.0
 40
0.0
 40
0.1250000000000003
 40
0.1250000000000003
 40
0.2500000000000006
 40
0.2500000000000006
 40
0.5000000000000004
 40
0.5000000000000004
 40
0.7500000000000002
 40
0.7500000000000002
 40
1.0
 40
1.0
 40
1.0
 40
1.0
 10
12.01195461813654
 20
0.2247554758747583
 30
0.0
 10
11.88404251319381
 20
0.2755708893496802
 30
0.0
 10
11.75617698604768
 20
0.3259222079488495
 30
0.0
 10
11.50285035363955
 20
0.4247951852010416
 30
0.0
 10
11.37771915459589
 20
0.4732806309359603
 30
0.0
 10
10.9963015534126
 20
0.6163490977546111
 30
0.0
 10
10.73823684733016
 20
0.7079288630246232
 30
0.0
 10
10.233084461766
 20
0.8769751245762301
 30
0.0
 10
9.978602932581019
 20
0.955304094486717
 30
0.0
 10
9.467458094895939
 20
1.095468304239816
 30
0.0
 10
9.21726952436196
 20
1.156785121358418
 30
0.0
 10
8.962079687577095
 20
1.208698484234873
 30
0.0
  0
SPLINE
  5
293
330
1F
100
AcDbEntity
  8
0
  6
Continuous
 62
     4
370
    25
100
AcDbSpline
210
0.0
220
0.0
230
1.0
 70
     8
 71
     3
 72
    18
 73
    14
 74
     0
 42
0.000000001
 43
0.00000001
 40
0.0
 40
0.0
 40
0.0
 40
0.0
 40
0.1250000000000001
 40
0.1250000000000001
 40
0.2500000000000002
 40
0.2500000000000002
 40
0.5000000000000003
 40
0.5000000000000003
 40
0.6250000000000004
 40
0.6250000000000004
 40
0.7500000000000004
 40
0.7500000000000004
 40
1.0
 40
1.0
 40
1.0
 40
1.0
 10
12.01195461813654
 20
-1.579247033629272
 30
0.0
 10
11.88404305644276
 20
-1.569801255833855
 30
0.0
 10
11.75617807211822
 20
-1.557143686891269
 30
0.0
 10
11.50285249524082
 20
-1.525696305024134
 30
0.0
 10
11.37772183835344
 20
-1.506945544896002
 30
0.0
 10
10.9963059052918
 20
-1.44139388616102
 30
0.0
 10
10.73824230347659
 20
-1.385335025760003
 30
0.0
 10
10.35937948441627
 20
-1.285846401530009
 30
0.0
 10
10.23377919031785
 20
-1.250099012856118
 30
0.0
 10
9.978996811477437
 20
-1.173357530621871
 30
0.0
 10
9.850825968954005
 20
-1.132450027170265
 30
0.0
 10
9.467468909879862
 20
-1.003211346154753
 30
0.0
 10
9.21728136344695
 20
-0.9088689548534639
 30
0.0
 10
8.962092693219155
 20
-0.8073574895676181
 30
0.0
  0
LINE
  5
294
330
1F
100
AcDbEntity
  8
0
  6
Continuous
 62
     4
370
    25
100
AcDbLine
 10
9.242626157789068
 20
-1.646589994165314
 30
0.0
 11
8.962159175059675
 21
-1.681492594845988
 31
0.0
  0
LINE
  5
295
330
1F
100
AcDbEntity
  8
중심선
100
AcDbLine
 10
-44.98804538186346
 20
-0.0000000000000036
 30
0.0
 11
21.01195461813654
 21
0.0000000000000036
 31
0.0
  0
CIRCLE
  5
296
330
1F
100
AcDbEntity
  8
외형선
100
AcDbCircle
 10
0.0
 20
0.0
 30
0.0
 40
3.000000000000005
  0
DIMENSION
  5
297
330
1F
100
AcDbEntity
  8
치수문자_일반주서
100
AcDbDimension
  2
*D17
 10
-53.48450340347553
 20
-3.000000000000048
 30
0.0
 11
-53.48450340347554
 21
-0.0000000000000036
 31
0.0
 70
   160
  1
%%c<>
 71
     2
 42
5.999999999999996
 52
-270.0
  3
SLDDIMSTYLE0
100
AcDbAlignedDimension
 13
-40.98804538186346
 23
2.999999999999996
 33
0.0
 14
-40.98804538186346
 24
-3.0
 34
0.0
 50
90.0000000000002
100
AcDbRotatedDimension
  0
DIMENSION
  5
298
330
1F
100
AcDbEntity
  8
치수문자_일반주서
100
AcDbDimension
  2
*D18
 10
12.01195461813654
 20
20.39999999999966
 30
0.0
 11
15.01195461813654
 21
20.39999999999966
 31
0.0
 70
   160
  1
<>
 71
     2
 42
6.0
  3
SLDDIMSTYLE0
100
AcDbAlignedDimension
 13
18.01195461813654
 23
1.900000000000002
 33
0.0
 14
12.01195461813654
 24
1.581514153956213
 34
0.0
100
AcDbRotatedDimension
  0
DIMENSION
  5
299
330
1F
100
AcDbEntity
  8
치수문자_일반주서
100
AcDbDimension
  2
*D19
 10
-41.98804538186346
 20
42.4583245050443
 30
0.0
 11
-11.98804538186347
 21
42.4583245050443
 31
0.0
 70
   160
  1
<>
 71
     2
 42
59.99999999999999
  3
SLDDIMSTYLE1
100
AcDbAlignedDimension
 13
18.01195461813654
 23
1.900000000000002
 33
0.0
 14
-41.98804538186346
 24
1.999999999999996
 34
0.0
100
AcDbRotatedDimension
  0
DIMENSION
  5
29A
330
1F
100
AcDbEntity
  8
치수문자_일반주서
100
AcDbDimension
  2
*D20
 10
4.011954618136535
 20
30.31999999999866
 30
0.0
 11
11.01195461813654
 21
30.31999999999866
 31
0.0
 70
   160
  1
<>
 71
     2
 42
14.0
  3
SLDDIMSTYLE0
100
AcDbAlignedDimension
 13
18.01195461813654
 23
1.897300810639994
 33
0.0
 14
4.011954618136535
 24
1.925000000000001
 34
0.0
 50
-0.0000000000022354
100
AcDbRotatedDimension
  0
DIMENSION
  5
29B
330
1F
100
AcDbEntity
  8
치수문자_일반주서
100
AcDbDimension
  2
*D21
 10
34.49360667914299
 20
-1.996737255393796
 30
0.0
 11
34.49360667914294
 21
14.72242148557045
 31
0.0
 70
   160
  1
%%c<>
 71
     2
 42
4.002084753180156
 52
-270.0
  3
SLDDIMSTYLE0
100
AcDbAlignedDimension
 13
18.01195461813654
 23
2.0053474977863
 33
0.0
 14
17.91212418039785
 24
-1.996737255393857
 34
0.0
 50
90.0000000000002
100
AcDbRotatedDimension
  0
INSERT
  5
29C
330
1F
100
AcDbEntity
  8
외형선
100
AcDbBlockReference
  2
SW_DOWELSYMBOL_0
 10
0.0
 20
0.0
 30
0.0
  0
LINE
  5
34E
330
1F
100
AcDbEntity
  8
0
  6
Continuous
 62
     1
370
    25
100
AcDbLine
 10
12.82949249869082
 20
0.5109449503610328
 30
0.0
 11
12.27663315242463
 21
0.7883401429245218
 31
0.0
  0
LINE
  5
34F
330
1F
100
AcDbEntity
  8
0
  6
Continuous
 62
     1
370
    25
100
AcDbLine
 10
12.17008264668632
 20
1.587623755273196
 30
0.0
 11
12.01195461813654
 21
1.580702654398447
 31
0.0
  0
SPLINE
  5
350
330
1F
100
AcDbEntity
  8
0
  6
Continuous
 62
     1
370
    25
100
AcDbSpline
210
0.0
220
0.0
230
1.0
 70
     8
 71
     3
 72
    24
 73
    20
 74
     0
 42
0.000000001
 43
0.00000001
 40
0.0
 40
0.0
 40
0.0
 40
0.0
 40
0.0696733751333698
 40
0.1251634060417312
 40
0.1898099577255584
 40
0.2293605199970527
 40
0.26858996495459
 40
0.3104580765986797
 40
0.358152349124791
 40
0.4096802595486949
 40
0.4609246854344826
 40
0.5118920556300405
 40
0.611759985042133
 40
0.7004427314145967
 40
0.7293166627362933
 40
0.757908737744257
 40
0.7937714264551317
 40
0.8786387525101766
 40
1.0
 40
1.0
 40
1.0
 40
1.0
 10
17.26822463524913
 20
1.36624629789797
 30
0.0
 10
17.18642886026154
 20
1.359608529587899
 30
0.0
 10
17.03948840018352
 20
1.34768423729383
 30
0.0
 10
16.81782161083262
 20
1.334004386760764
 30
0.0
 10
16.63191350814613
 20
1.325312767384698
 30
0.0
 10
16.46728659941063
 20
1.319836245425744
 30
0.0
 10
16.32697032767782
 20
1.316527210837489
 30
0.0
 10
16.17678588965202
 20
1.314547028813546
 30
0.0
 10
16.01243151656214
 20
1.314257054860459
 30
0.0
 10
15.83732250557852
 20
1.316198958422387
 30
0.0
 10
15.65847526695804
 20
1.320576181119247
 30
0.0
 10
15.42313666732604
 20
1.329364189219472
 30
0.0
 10
15.14403110480463
 20
1.345044469164574
 30
0.0
 10
14.89069469067123
 20
1.365206538477405
 30
0.0
 10
14.72071465651492
 20
1.381313765201863
 30
0.0
 10
14.61212416351633
 20
1.392317625998157
 30
0.0
 10
14.43844757794664
 20
1.411203644696453
 30
0.0
 10
14.15668757618032
 20
1.445148409610734
 30
0.0
 10
13.91604208937172
 20
1.481323147054621
 30
0.0
 10
13.77442720070774
 20
1.502611231379415
 30
0.0
  0
SPLINE
  5
351
330
1F
100
AcDbEntity
  8
0
  6
Continuous
 62
     1
370
    25
100
AcDbSpline
210
0.0
220
0.0
230
1.0
 70
     8
 71
     3
 72
    14
 73
    10
 74
     0
 42
0.000000001
 43
0.00000001
 40
0.0
 40
0.0
 40
0.0
 40
0.0
 40
0.2178536990656157
 40
0.3604180476555793
 40
0.4551079744437235
 40
0.5603316704049164
 40
0.6768500656639688
 40
0.9328662806170575
 40
1.0
 40
1.0
 40
1.0
 40
1.0
 10
13.77442720070774
 20
-1.505927001202881
 30
0.0
 10
13.88263871455091
 20
-1.489466999994963
 30
0.0
 10
14.06166428409843
 20
-1.462235506909412
 30
0.0
 10
14.28611831318573
 20
-1.433100022394047
 30
0.0
 10
14.45352141396912
 20
-1.412926843377466
 30
0.0
 10
14.61170279606093
 20
-1.395454354633745
 30
0.0
 10
14.85188755784193
 20
-1.371690874585756
 30
0.0
 10
15.07039670572671
 20
-1.35298218851668
 30
0.0
 10
15.23087298870822
 20
-1.344573010610919
 30
0.0
 10
15.26421159907013
 20
-1.34282602158267
 30
0.0
  0
LINE
  5
352
330
1F
100
AcDbEntity
  8
0
  6
Continuous
 62
     1
370
    25
100
AcDbLine
 10
12.01181417188382
 20
-1.584104775064919
 30
0.0
 11
12.17008264668632
 21
-1.590939525096662
 31
0.0
  0
SPLINE
  5
353
330
1F
100
AcDbEntity
  8
0
  6
Continuous
 62
     4
370
    25
100
AcDbSpline
210
0.0
220
0.0
230
1.0
 70
    24
 71
     3
 72
    10
 73
     6
 74
     0
 42
0.000000001
 43
0.00000001
 40
0.0
 40
0.0
 40
0.0
 40
0.0
 40
0.5
 40
0.5
 40
1.0
 40
1.0
 40
1.0
 40
1.0
 10
12.01212418039784
 20
0.403456999561822
 30
0.0
 10
12.01212418039784
 20
0.4027723920161428
 30
0.0
 10
12.01212418039784
 20
0.3859376466003646
 30
0.0
 10
12.01212418039784
 20
0.3231475210761054
 30
0.0
 10
12.01212418039784
 20
0.2773898750482822
 30
0.0
 10
12.01212418039784
 20
0.2230975909630324
 30
0.0
  0
SPLINE
  5
354
330
1F
100
AcDbEntity
  8
0
  6
Continuous
 62
     4
370
    25
100
AcDbSpline
210
0.0
220
0.0
230
1.0
 70
    24
 71
     3
 72
    14
 73
    10
 74
     0
 42
0.000000001
 43
0.00000001
 40
0.0
 40
0.0
 40
0.0
 40
0.0
 40
0.25
 40
0.25
 40
0.5
 40
0.5
 40
0.75
 40
0.75
 40
1.0
 40
1.0
 40
1.0
 40
1.0
 10
12.01212418039784
 20
0.2230975909630324
 30
0.0
 10
12.01212418039784
 20
0.0461800915529373
 30
0.0
 10
12.01212418039784
 20
-0.135261633042294
 30
0.0
 10
12.01212418039784
 20
-0.4901985758648983
 30
0.0
 10
12.01212418039784
 20
-0.6635057930861201
 30
0.0
 10
12.01212418039784
 20
-0.9841290504199272
 30
0.0
 10
12.01212418039784
 20
-1.131274249056322
 30
0.0
 10
12.01212418039784
 20
-1.386525447953492
 30
0.0
 10
12.01212418039784
 20
-1.494583461214251
 30
0.0
 10
12.01212418039784
 20
-1.580904918541012
 30
0.0
  0
SPLINE
  5
355
330
1F
100
AcDbEntity
  8
0
  6
Continuous
 62
     4
370
    25
100
AcDbSpline
210
0.0
220
0.0
230
1.0
 70
    24
 71
     3
 72
    12
 73
     8
 74
     0
 42
0.000000001
 43
0.00000001
 40
0.0
 40
0.0
 40
0.0
 40
0.0
 40
0.205051605710802
 40
0.4231367884804033
 40
0.6475464563244626
 40
0.8433752651337475
 40
1.0
 40
1.0
 40
1.0
 40
1.0
 10
12.01212418039784
 20
1.566601909342292
 30
0.0
 10
12.01212418039784
 20
1.563478969136451
 30
0.0
 10
12.01212418039784
 20
1.557034587075986
 30
0.0
 10
12.01212418039773
 20
1.453671401481397
 30
0.0
 10
12.01212418039784
 20
1.303698389526925
 30
0.0
 10
12.01212418039773
 20
1.124974136087882
 30
0.0
 10
12.01212418039784
 20
0.9870454096179877
 30
0.0
 10
12.01212418039784
 20
0.9257520828762544
 30
0.0
  0
SPLINE
  5
356
330
1F
100
AcDbEntity
  8
0
  6
Continuous
 62
     1
370
    25
100
AcDbSpline
210
0.0
220
0.0
230
1.0
 70
     8
 71
     3
 72
    32
 73
    28
 74
     0
 42
0.000000001
 43
0.00000001
 40
0.0
 40
0.0
 40
0.0
 40
0.0
 40
0.1250000000000003
 40
0.1250000000000003
 40
0.1875000000000005
 40
0.1875000000000005
 40
0.2500000000000007
 40
0.2500000000000007
 40
0.3125000000000008
 40
0.3125000000000008
 40
0.375000000000001
 40
0.375000000000001
 40
0.5000000000000013
 40
0.5000000000000013
 40
0.5625000000000011
 40
0.5625000000000011
 40
0.625000000000001
 40
0.625000000000001
 40
0.6875000000000008
 40
0.6875000000000008
 40
0.7500000000000007
 40
0.7500000000000007
 40
0.8750000000000003
 40
0.8750000000000003
 40
0.9375000000000001
 40
0.9375000000000001
 40
1.0
 40
1.0
 40
1.0
 40
1.0
 10
17.34728668991954
 20
-1.938897587933429
 30
0.0
 10
17.18600587912544
 20
-1.92228544952123
 30
0.0
 10
17.17236284455162
 20
-1.921941421337895
 30
0.0
 10
17.04955561070332
 20
-1.902136494435727
 30
0.0
 10
16.92842474662233
 20
-1.87879138605685
 30
0.0
 10
16.68390265222043
 20
-1.82500528878062
 30
0.0
 10
16.56043587438923
 20
-1.794533021231462
 30
0.0
 10
16.31317214779943
 20
-1.726870436793408
 30
0.0
 10
16.18937917027244
 20
-1.689681141381175
 30
0.0
 10
15.94357059133113
 20
-1.609256114314764
 30
0.0
 10
15.82256106853563
 20
-1.56615463794461
 30
0.0
 10
15.45543719341781
 20
-1.427805092351154
 30
0.0
 10
15.20605189461372
 20
-1.323434259021898
 30
0.0
 10
14.83760275132584
 20
-1.153882902260893
 30
0.0
 10
14.71667656139171
 20
-1.095386642280875
 30
0.0
 10
14.47170963295013
 20
-0.9740101457620831
 30
0.0
 10
14.34811915843462
 20
-0.9111879338356665
 30
0.0
 10
14.10081241716232
 20
-0.7823071501947574
 30
0.0
 10
13.97710012645762
 20
-0.7162506388947953
 30
0.0
 10
13.73165277397214
 20
-0.5820477866518736
 30
0.0
 10
13.61077189761783
 20
-0.5140672366673762
 30
0.0
 10
13.24300924604852
 20
-0.306672699686164
 30
0.0
 10
12.99359990142144
 20
-0.1642472016077541
 30
0.0
 10
12.62572134022232
 20
0.0484478506601498
 30
0.0
 10
12.50484775226203
 20
0.1190481003222708
 30
0.0
 10
12.25947401160092
 20
0.2602255703911958
 30
0.0
 10
12.13577943209523
 20
0.3306454334314815
 30
0.0
 10
12.01212418039784
 20
0.4002945023927929
 30
0.0
  0
SPLINE
  5
357
330
1F
100
AcDbEntity
  8
0
  6
Continuous
 62
     1
370
    25
100
AcDbSpline
210
0.0
220
0.0
230
1.0
 70
     8
 71
     3
 72
     9
 73
     5
 74
     0
 42
0.000000001
 43
0.00000001
 40
0.0
 40
0.0
 40
0.0
 40
0.0
 40
0.2863663946142813
 40
1.0
 40
1.0
 40
1.0
 40
1.0
 10
13.04369821821123
 20
-0.1911375691515964
 30
0.0
 10
12.94519025458123
 20
-0.1520640712342818
 30
0.0
 10
12.60119750444473
 20
-0.0156182498943345
 30
0.0
 10
12.25744063471742
 20
0.1236856480375899
 30
0.0
 10
12.01212418039784
 20
0.2230975909630324
 30
0.0
  0
SPLINE
  5
358
330
1F
100
AcDbEntity
  8
0
  6
Continuous
 62
     4
370
    25
100
AcDbSpline
210
0.0
220
0.0
230
1.0
 70
    24
 71
     3
 72
    11
 73
     7
 74
     0
 42
0.000000001
 43
0.00000001
 40
0.0
 40
0.0
 40
0.0
 40
0.0
 40
0.2386370911921052
 40
0.4828305794916839
 40
0.7341056954948049
 40
1.0
 40
1.0
 40
1.0
 40
1.0
 10
12.01212418039784
 20
0.4029152990255334
 30
0.0
 10
12.01212418039784
 20
0.4009580910988397
 30
0.0
 10
12.01212418039784
 20
0.3969981038533028
 30
0.0
 10
12.01212418039773
 20
0.3622699233055435
 30
0.0
 10
12.01212418039784
 20
0.307388248296089
 30
0.0
 10
12.01212418039784
 20
0.2517190236675013
 30
0.0
 10
12.01212418039784
 20
0.223097590964823
 30
0.0
  0
SPLINE
  5
359
330
1F
100
AcDbEntity
  8
0
  6
Continuous
 62
     1
370
    25
100
AcDbSpline
210
0.0
220
0.0
230
1.0
 70
     8
 71
     3
 72
    14
 73
    10
 74
     0
 42
0.000000001
 43
0.00000001
 40
0.0313473168644895
 40
0.0313473168644895
 40
0.0313473168644895
 40
0.0313473168644895
 40
0.1447044498564586
 40
0.2889183932473822
 40
0.4334222404618985
 40
0.5782945642134404
 40
0.7225606003485857
 40
0.8669150974862037
 40
1.0
 40
1.0
 40
1.0
 40
1.0
 10
17.84847098840452
 20
-1.54493796383645
 30
0.0
 10
17.65120794271484
 20
-1.50279446486822
 30
0.0
 10
17.20301853910814
 20
-1.40260660617486
 30
0.0
 10
16.50393092916982
 20
-1.173692447709701
 30
0.0
 10
15.74968345359374
 20
-0.8772025975256419
 30
0.0
 10
14.99478815771203
 20
-0.5388592273429431
 30
0.0
 10
14.24103693660384
 20
-0.1745252150277743
 30
0.0
 10
13.50762315525264
 20
0.189607441004835
 30
0.0
 10
13.02471499114264
 20
0.4179375143121256
 30
0.0
 10
12.79306877930522
 20
0.5274651646215283
 30
0.0
  0
SPLINE
  5
35A
330
1F
100
AcDbEntity
  8
0
  6
Continuous
 62
     1
370
    25
100
AcDbSpline
210
0.0
220
0.0
230
1.0
 70
     8
 71
     3
 72
    32
 73
    28
 74
     0
 42
0.000000001
 43
0.00000001
 40
0.0538265890601859
 40
0.0538265890601859
 40
0.0538265890601859
 40
0.0538265890601859
 40
0.125
 40
0.125
 40
0.1875000000000001
 40
0.1875000000000001
 40
0.2500000000000001
 40
0.2500000000000001
 40
0.3125000000000001
 40
0.3125000000000001
 40
0.3750000000000001
 40
0.3750000000000001
 40
0.5000000000000001
 40
0.5000000000000001
 40
0.5625000000000001
 40
0.5625000000000001
 40
0.6250000000000001
 40
0.6250000000000001
 40
0.6875000000000001
 40
0.6875000000000001
 40
0.7500000000000003
 40
0.7500000000000003
 40
0.8750000000000004
 40
0.8750000000000004
 40
0.9375000000000002
 40
0.9375000000000002
 40
1.0
 40
1.0
 40
1.0
 40
1.0
 10
17.59441499897283
 20
-1.809717822568263
 30
0.0
 10
17.45373764719033
 20
-1.775114969810961
 30
0.0
 10
17.31259791312203
 20
-1.736056060145987
 30
0.0
 10
17.04955561070332
 20
-1.655033770086721
 30
0.0
 10
16.92842474662233
 20
-1.614161703835411
 30
0.0
 10
16.68390265222052
 20
-1.526272421944842
 30
0.0
 10
16.56043587438932
 20
-1.479224091382921
 30
0.0
 10
16.31317214779943
 20
-1.379654098123854
 30
0.0
 10
16.18937917027244
 20
-1.327133982029455
 30
0.0
 10
15.94357059133113
 20
-1.217545561581677
 30
0.0
 10
15.82256106853563
 20
-1.160645844075507
 30
0.0
 10
15.45543719341781
 20
-0.9831087888077299
 30
0.0
 10
15.20605189461372
 20
-0.8556381979045291
 30
0.0
 10
14.83760275132584
 20
-0.6571590502493372
 30
0.0
 10
14.71667656139171
 20
-0.589983953484353
 30
0.0
 10
14.47170963295013
 20
-0.4531073324170798
 30
0.0
 10
14.34811915843462
 20
-0.3834811329604157
 30
0.0
 10
14.10081241716232
 20
-0.2430186484037229
 30
0.0
 10
13.97710012645762
 20
-0.1721846173915687
 30
0.0
 10
13.73165277397214
 20
-0.0305190786406406
 30
0.0
 10
13.61077189761783
 20
0.0401465837086725
 30
0.0
 10
13.24300924604844
 20
0.2524935718455303
 30
0.0
 10
12.99359990142153
 20
0.3940011365367688
 30
0.0
 10
12.62572134022232
 20
0.5990343009251653
 30
0.0
 10
12.50484775226203
 20
0.666055711909717
 30
0.0
 10
12.25947401160092
 20
0.7979956686417431
 30
0.0
 10
12.13577943209523
 20
0.8627584126171364
 30
0.0
 10
12.01212418039784
 20
0.9257520828762544
 30
0.0
  0
LINE
  5
35B
330
1F
100
AcDbEntity
  8
0
  6
Continuous
 62
     4
370
    25
100
AcDbLine
 10
12.01212418039784
 20
0.4002945023927929
 30
0.0
 11
12.01212418039784
 21
0.9257520828762544
 31
0.0
  0
SPLINE
  5
35C
330
1F
100
AcDbEntity
  8
0
  6
Continuous
 62
     1
370
    25
100
AcDbSpline
210
0.0
220
0.0
230
1.0
 70
     8
 71
     3
 72
    15
 73
    11
 74
     0
 42
0.000000001
 43
0.00000001
 40
0.0
 40
0.0
 40
0.0
 40
0.0
 40
0.12923824114849
 40
0.2580322866988912
 40
0.3870888378777521
 40
0.516479116315546
 40
0.6453203551894435
 40
0.7742416438805224
 40
0.9007741242745954
 40
0.9999999999999999
 40
0.9999999999999999
 40
0.9999999999999999
 40
0.9999999999999999
 10
18.01212418039784
 20
-0.0016578849117259
 30
0.0
 10
17.76030723696282
 20
0.1144523122505312
 30
0.0
 10
17.25753885226023
 20
0.3462736324464224
 30
0.0
 10
16.50390730362772
 20
0.6788524316196565
 30
0.0
 10
15.74964846958644
 20
0.9787095974482547
 30
0.0
 10
14.99479754818943
 20
1.231443825199843
 30
0.0
 10
14.24099390653392
 20
1.427652594536905
 30
0.0
 10
13.49267180087784
 20
1.552727655781123
 30
0.0
 10
12.80127177079984
 20
1.609202481926385
 30
0.0
 10
12.36168191143974
 20
1.589991048876765
 30
0.0
 10
12.16847228011192
 20
1.581547191909262
 30
0.0
  0
SPLINE
  5
35D
330
1F
100
AcDbEntity
  8
0
  6
Continuous
 62
     1
370
    25
100
AcDbSpline
210
0.0
220
0.0
230
1.0
 70
    24
 71
     3
 72
    10
 73
     6
 74
     0
 42
0.000000001
 43
0.00000001
 40
0.4388063989238263
 40
0.4388063989238263
 40
0.4388063989238263
 40
0.4388063989238263
 40
0.5
 40
0.5
 40
1.0
 40
1.0
 40
1.0
 40
1.0
 10
18.01212418039784
 20
-0.9967373187684991
 30
0.0
 10
18.01212418039784
 20
-0.9642303082737165
 30
0.0
 10
18.01212418039784
 20
-0.9310776886675463
 30
0.0
 10
18.01212418039784
 20
-0.6215402441439046
 30
0.0
 10
18.01212418039784
 20
-0.3080775834094887
 30
0.0
 10
18.01212418039784
 20
-0.0016578849117259
 30
0.0
  0
SPLINE
  5
35E
330
1F
100
AcDbEntity
  8
0
  6
Continuous
 62
     4
370
    25
100
AcDbSpline
210
0.0
220
0.0
230
1.0
 70
    24
 71
     3
 72
    13
 73
     9
 74
     0
 42
0.000000001
 43
0.00000001
 40
0.0
 40
0.0
 40
0.0
 40
0.0
 40
0.0897819337820375
 40
0.2352852897614771
 40
0.4450762001489252
 40
0.6609510611498548
 40
0.8493320577790119
 40
0.9999999999999999
 40
0.9999999999999999
 40
0.9999999999999999
 40
0.9999999999999999
 10
12.01212418039784
 20
1.576514123375116
 30
0.0
 10
12.01212418039784
 20
1.576888694592878
 30
0.0
 10
12.01212418039784
 20
1.577870307416244
 30
0.0
 10
12.01212418039784
 20
1.541831917699906
 30
0.0
 10
12.01212418039773
 20
1.455782809204432
 30
0.0
 10
12.01212418039784
 20
1.303204887959918
 30
0.0
 10
12.01212418039784
 20
1.125063592591726
 30
0.0
 10
12.01212418039784
 20
0.987072932106738
 30
0.0
 10
12.01212418039784
 20
0.9257520828762544
 30
0.0
  0
LINE
  5
35F
330
1F
100
AcDbEntity
  8
0
  6
Continuous
 62
     1
370
    25
100
AcDbLine
 10
17.92886872060634
 20
1.392895449675461
 30
0.0
 11
17.26374729806414
 21
1.349382461379587
 31
0.0
  0
SPLINE
  5
360
330
1F
100
AcDbEntity
  8
0
  6
Continuous
 62
     1
370
    25
100
AcDbSpline
210
0.0
220
0.0
230
1.0
 70
    24
 71
     3
 72
    12
 73
     8
 74
     0
 42
0.000000001
 43
0.00000001
 40
0.0
 40
0.0
 40
0.0
 40
0.0
 40
0.2499999999999999
 40
0.2499999999999999
 40
0.4999999999999999
 40
0.4999999999999999
 40
0.5619438431781869
 40
0.5619438431781869
 40
0.5619438431781869
 40
0.5619438431781869
 10
18.01212418039784
 20
-0.0016578849117259
 30
0.0
 10
18.01212418039784
 20
0.1649108184910624
 30
0.0
 10
18.01212418039784
 20
0.3294292678391848
 30
0.0
 10
18.01212418039784
 20
0.6370872150037847
 30
0.0
 10
18.01212418039784
 20
0.7800355758377968
 30
0.0
 10
18.01212418039784
 20
0.9352715367739357
 30
0.0
 10
18.01212418039773
 20
0.9649510687148357
 30
0.0
 10
18.01212418039784
 20
0.9934215489449763
 30
0.0
  0
SPLINE
  5
361
330
1F
100
AcDbEntity
  8
0
  6
Continuous
 62
     1
370
    25
100
AcDbSpline
210
0.0
220
0.0
230
1.0
 70
     8
 71
     3
 72
    10
 73
     6
 74
     0
 42
0.000000001
 43
0.00000001
 40
0.0
 40
0.0
 40
0.0
 40
0.0
 40
0.1649796165946697
 40
0.5833925670319611
 40
1.0
 40
1.0
 40
1.0
 40
1.0
 10
13.77938634602352
 20
-1.496951610424265
 30
0.0
 10
13.68222877264113
 20
-1.514380202107194
 30
0.0
 10
13.33866508088263
 20
-1.576010305580144
 30
0.0
 10
12.74910620420064
 20
-1.612365506343981
 30
0.0
 10
12.25743048077202
 20
-1.591376653471162
 30
0.0
 10
12.01212418039784
 20
-1.580904918541012
 30
0.0
  0
SPLINE
  5
362
330
1F
100
AcDbEntity
  8
0
  6
Continuous
 62
     4
370
    25
100
AcDbSpline
210
0.0
220
0.0
230
1.0
 70
    24
 71
     3
 72
    14
 73
    10
 74
     0
 42
0.000000001
 43
0.00000001
 40
0.0
 40
0.0
 40
0.0
 40
0.0
 40
0.25
 40
0.25
 40
0.5
 40
0.5
 40
0.75
 40
0.75
 40
1.0
 40
1.0
 40
1.0
 40
1.0
 10
12.01212418039784
 20
0.2230975909630324
 30
0.0
 10
12.01212418039784
 20
0.0461800915529373
 30
0.0
 10
12.01212418039784
 20
-0.135261633042294
 30
0.0
 10
12.01212418039784
 20
-0.4901985758648983
 30
0.0
 10
12.01212418039784
 20
-0.6635057930861201
 30
0.0
 10
12.01212418039784
 20
-0.9841290504199272
 30
0.0
 10
12.01212418039784
 20
-1.131274249056322
 30
0.0
 10
12.01212418039784
 20
-1.386525447953492
 30
0.0
 10
12.01212418039784
 20
-1.494583461214251
 30
0.0
 10
12.01212418039784
 20
-1.580904918541012
 30
0.0
  0
SPLINE
  5
363
330
1F
100
AcDbEntity
  8
0
  6
Continuous
 62
     1
370
    25
100
AcDbSpline
210
0.0
220
0.0
230
1.0
 70
     8
 71
     3
 72
    11
 73
     7
 74
     0
 42
0.000000001
 43
0.00000001
 40
0.0
 40
0.0
 40
0.0
 40
0.0
 40
0.0193261445241458
 40
0.3457537122003019
 40
0.6725729949454452
 40
0.7827745901609432
 40
0.7827745901609432
 40
0.7827745901609432
 40
0.7827745901609432
 10
15.26464913551293
 20
1.339713754152111
 30
0.0
 10
15.28169868418774
 20
1.347683418546534
 30
0.0
 10
15.58672303802484
 20
1.490264420459251
 30
0.0
 10
16.18008011978744
 20
1.693366816594274
 30
0.0
 10
16.85376131766562
 20
1.872607033111162
 30
0.0
 10
17.23952524539302
 20
1.927434322817145
 30
0.0
 10
17.33680702725993
 20
1.939244433564863
 30
0.0
  0
SPLINE
  5
364
330
1F
100
AcDbEntity
  8
0
  6
Continuous
 62
     1
370
    25
100
AcDbSpline
210
0.0
220
0.0
230
1.0
 70
    24
 71
     3
 72
     8
 73
     4
 74
     0
 42
0.000000001
 43
0.00000001
 40
0.9957334716245283
 40
0.9957334716245283
 40
0.9957334716245283
 40
0.9957334716245283
 40
1.0
 40
1.0
 40
1.0
 40
1.0
 10
18.01212418039784
 20
1.893421485570396
 30
0.0
 10
18.01212418039784
 20
1.894162152119943
 30
0.0
 10
18.01212418039784
 20
1.894902633621296
 30
0.0
 10
18.01212418039784
 20
1.895642925728264
 30
0.0
  0
ARC
  5
365
330
1F
100
AcDbEntity
  8
0
  6
Continuous
 62
     1
370
    25
100
AcDbCircle
 10
17.01212418039784
 20
0.9934214855704049
 30
0.0
 40
0.9999999999999997
100
AcDbArc
 50
0.0000036310946536
 51
71.0536385252374
  0
ARC
  5
366
330
1F
100
AcDbEntity
  8
0
  6
Continuous
 62
     1
370
    25
100
AcDbCircle
 10
17.01212418039784
 20
-0.9967372553938567
 30
0.0
 40
0.9999999999999997
100
AcDbArc
 50
288.9463614747626
 51
359.9999963689045
  0
DIMENSION
  5
367
330
1F
100
AcDbEntity
  8
치수문자_일반주서
100
AcDbDimension
  2
*D25
 10
17.01212418039784
 20
-0.9967372553938567
 30
0.0
 11
28.27253634206193
 21
-19.35126736608789
 31
0.0
 70
   164
  1
<>
 71
     5
 42
0.9999999999999469
  3
SLDDIMSTYLE0
100
AcDbRadialDimension
 15
17.53505285365213
 25
-1.849113699629857
 35
0.0
 40
0.0
1001
ACAD_DSTYLE_DIMRADIAL_EXTENSION
1070
   387
1070
     1
1070
   388
1040
5.043065369392306
1070
   390
1040
6.283185243805014
  0
ENDSEC
  0
SECTION
  2
OBJECTS
  0
DICTIONARY
  5
C
330
0
100
AcDbDictionary
281
     1
  3
ACAD_GROUP
350
D
  3
ACAD_IMAGE_VARS
350
13C
  3
ACAD_LAYOUT
350
1A
  3
ACAD_MLINESTYLE
350
17
  3
ACAD_PLOTSETTINGS
350
19
  3
ACAD_PLOTSTYLENAME
350
E
  3
ACAD_SCALELIST
350
47
  3
APPDATA
350
13A
  3
DWGPROPS
350
371
  0
DICTIONARY
  5
D
102
{ACAD_REACTORS
330
C
102
}
330
C
100
AcDbDictionary
281
     1
  0
RASTERVARIABLES
  5
13C
102
{ACAD_REACTORS
330
C
102
}
330
C
100
AcDbRasterVariables
 90
        0
 70
     1
 71
     1
 72
     1
  0
DICTIONARY
  5
1A
102
{ACAD_REACTORS
330
C
102
}
330
C
100
AcDbDictionary
281
     1
  3
Layout1
350
1E
  3
Layout2
350
26
  3
Model
350
22
  0
DICTIONARY
  5
17
102
{ACAD_REACTORS
330
C
102
}
330
C
100
AcDbDictionary
281
     1
  3
Standard
350
18
  0
DICTIONARY
  5
19
102
{ACAD_REACTORS
330
C
102
}
330
C
100
AcDbDictionary
281
     1
  0
ACDBDICTIONARYWDFLT
  5
E
102
{ACAD_REACTORS
330
C
102
}
330
C
100
AcDbDictionary
281
     1
  3
Normal
350
F
100
AcDbDictionaryWithDefault
340
F
  0
DICTIONARY
  5
47
102
{ACAD_REACTORS
330
C
102
}
330
C
100
AcDbDictionary
281
     1
  3
A0
350
48
  3
A1
350
49
  3
A2
350
4A
  3
A3
350
4B
  3
A4
350
4C
  3
A5
350
4D
  3
A6
350
4E
  3
A7
350
4F
  3
A8
350
50
  3
A9
350
51
  3
B0
350
52
  3
B1
350
53
  3
B2
350
54
  3
B3
350
55
  3
B4
350
56
  3
B5
350
57
  3
B6
350
58
  3
B7
350
59
  3
B8
350
5A
  3
B9
350
5B
  3
C0
350
5C
  3
C1
350
5D
  3
C2
350
5E
  3
C3
350
5F
  3
C4
350
60
  3
C5
350
61
  3
C6
350
62
  3
C7
350
63
  3
C8
350
64
  3
C9
350
65
  3
D0
350
66
  3
D1
350
67
  3
D2
350
68
  0
DICTIONARY
  5
13A
102
{ACAD_REACTORS
330
C
102
}
330
C
100
AcDbDictionary
281
     1
  0
XRECORD
  5
371
102
{ACAD_REACTORS
330
C
102
}
330
C
100
AcDbXrecord
280
     1
  1
DWGPROPS COOKIE
  2

  3

  4

  6

  7

  8
12016016
  9

300
=
301
=
302
=
303
=
304
=
305
=
306
=
307
=
308
=
309
=
 40
0.0
 41
2458263.425578333
 42
2458268.474732014
  1

 90
        0
  0
LAYOUT
  5
1E
102
{ACAD_REACTORS
330
1A
102
}
330
1A
100
AcDbPlotSettings
  1

  2
none_device
  4

  6

 40
0.0
 41
0.0
 42
0.0
 43
0.0
 44
0.0
 45
0.0
 46
0.0
 47
0.0
 48
0.0
 49
0.0
140
0.0
141
0.0
142
1.0
143
1.0
 70
   688
 72
     1
 73
     0
 74
     5
  7

 75
    16
147
1.0
148
0.0
149
0.0
100
AcDbLayout
  1
Layout1
 70
     1
 71
     1
 10
0.0
 20
0.0
 11
420.0
 21
297.0
 12
0.0
 22
0.0
 32
0.0
 14
1.000000000000000E+20
 24
1.000000000000000E+20
 34
1.000000000000000E+20
 15
-1.000000000000000E+20
 25
-1.000000000000000E+20
 35
-1.000000000000000E+20
146
0.0
 13
0.0
 23
0.0
 33
0.0
 16
1.0
 26
0.0
 36
0.0
 17
0.0
 27
1.0
 37
0.0
 76
     0
330
1B
  0
LAYOUT
  5
26
102
{ACAD_REACTORS
330
1A
102
}
330
1A
100
AcDbPlotSettings
  1

  2
none_device
  4

  6

 40
0.0
 41
0.0
 42
0.0
 43
0.0
 44
0.0
 45
0.0
 46
0.0
 47
0.0
 48
0.0
 49
0.0
140
0.0
141
0.0
142
1.0
143
1.0
 70
   688
 72
     1
 73
     0
 74
     5
  7

 75
    16
147
1.0
148
0.0
149
0.0
100
AcDbLayout
  1
Layout2
 70
     1
 71
     2
 10
0.0
 20
0.0
 11
0.0
 21
0.0
 12
0.0
 22
0.0
 32
0.0
 14
0.0
 24
0.0
 34
0.0
 15
0.0
 25
0.0
 35
0.0
146
0.0
 13
0.0
 23
0.0
 33
0.0
 16
1.0
 26
0.0
 36
0.0
 17
0.0
 27
1.0
 37
0.0
 76
     0
330
23
  0
LAYOUT
  5
22
102
{ACAD_REACTORS
330
1A
102
}
330
1A
100
AcDbPlotSettings
  1

  2
none_device
  4
ANSI_A_(11.00_x_8.50_Inches)
  6

 40
6.35
 41
19.05
 42
6.35000508
 43
19.05000254
 44
279.4
 45
215.9
 46
114.0454767277421
 47
94.02739964538725
 48
0.0
 49
0.0
140
0.0
141
0.0
142
0.0869445414139988
143
1.0
 70
  1696
 72
     0
 73
     0
 74
     0
  7

 75
     0
147
0.0235690232323232
148
0.0
149
0.0
100
AcDbLayout
  1
Model
 70
     1
 71
     0
 10
0.0
 20
0.0
 11
420.0
 21
297.0
 12
0.0
 22
0.0
 32
0.0
 14
1.000000000000000E+20
 24
1.000000000000000E+20
 34
1.000000000000000E+20
 15
-1.000000000000000E+20
 25
-1.000000000000000E+20
 35
-1.000000000000000E+20
146
0.0
 13
0.0
 23
0.0
 33
0.0
 16
1.0
 26
0.0
 36
0.0
 17
0.0
 27
1.0
 37
0.0
 76
     0
330
1F
331
29
  0
MLINESTYLE
  5
18
102
{ACAD_REACTORS
330
17
102
}
330
17
100
AcDbMlineStyle
  2
Standard
 70
     0
  3

 62
   256
 51
90.0
 52
90.0
 71
     2
 49
0.5
 62
   256
  6
BYLAYER
 49
-0.5
 62
   256
  6
BYLAYER
  0
ACDBPLACEHOLDER
  5
F
102
{ACAD_REACTORS
330
E
102
}
330
E
  0
SCALE
  5
48
102
{ACAD_REACTORS
330
47
102
}
330
47
100
AcDbScale
 70
     0
300
1:1
140
1.0
141
1.0
290
     1
  0
SCALE
  5
49
102
{ACAD_REACTORS
330
47
102
}
330
47
100
AcDbScale
 70
     0
300
1:2
140
1.0
141
2.0
290
     0
  0
SCALE
  5
4A
102
{ACAD_REACTORS
330
47
102
}
330
47
100
AcDbScale
 70
     0
300
1:4
140
1.0
141
4.0
290
     0
  0
SCALE
  5
4B
102
{ACAD_REACTORS
330
47
102
}
330
47
100
AcDbScale
 70
     0
300
1:5
140
1.0
141
5.0
290
     0
  0
SCALE
  5
4C
102
{ACAD_REACTORS
330
47
102
}
330
47
100
AcDbScale
 70
     0
300
1:8
140
1.0
141
8.0
290
     0
  0
SCALE
  5
4D
102
{ACAD_REACTORS
330
47
102
}
330
47
100
AcDbScale
 70
     0
300
1:10
140
1.0
141
10.0
290
     0
  0
SCALE
  5
4E
102
{ACAD_REACTORS
330
47
102
}
330
47
100
AcDbScale
 70
     0
300
1:16
140
1.0
141
16.0
290
     0
  0
SCALE
  5
4F
102
{ACAD_REACTORS
330
47
102
}
330
47
100
AcDbScale
 70
     0
300
1:20
140
1.0
141
20.0
290
     0
  0
SCALE
  5
50
102
{ACAD_REACTORS
330
47
102
}
330
47
100
AcDbScale
 70
     0
300
1:30
140
1.0
141
30.0
290
     0
  0
SCALE
  5
51
102
{ACAD_REACTORS
330
47
102
}
330
47
100
AcDbScale
 70
     0
300
1:40
140
1.0
141
40.0
290
     0
  0
SCALE
  5
52
102
{ACAD_REACTORS
330
47
102
}
330
47
100
AcDbScale
 70
     0
300
1:50
140
1.0
141
50.0
290
     0
  0
SCALE
  5
53
102
{ACAD_REACTORS
330
47
102
}
330
47
100
AcDbScale
 70
     0
300
1:100
140
1.0
141
100.0
290
     0
  0
SCALE
  5
54
102
{ACAD_REACTORS
330
47
102
}
330
47
100
AcDbScale
 70
     0
300
2:1
140
2.0
141
1.0
290
     0
  0
SCALE
  5
55
102
{ACAD_REACTORS
330
47
102
}
330
47
100
AcDbScale
 70
     0
300
4:1
140
4.0
141
1.0
290
     0
  0
SCALE
  5
56
102
{ACAD_REACTORS
330
47
102
}
330
47
100
AcDbScale
 70
     0
300
8:1
140
8.0
141
1.0
290
     0
  0
SCALE
  5
57
102
{ACAD_REACTORS
330
47
102
}
330
47
100
AcDbScale
 70
     0
300
10:1
140
10.0
141
1.0
290
     0
  0
SCALE
  5
58
102
{ACAD_REACTORS
330
47
102
}
330
47
100
AcDbScale
 70
     0
300
100:1
140
100.0
141
1.0
290
     0
  0
SCALE
  5
59
102
{ACAD_REACTORS
330
47
102
}
330
47
100
AcDbScale
 70
     0
300
1/128" = 1'-0"
140
0.0078125
141
12.0
290
     0
  0
SCALE
  5
5A
102
{ACAD_REACTORS
330
47
102
}
330
47
100
AcDbScale
 70
     0
300
1/64" = 1'-0"
140
0.015625
141
12.0
290
     0
  0
SCALE
  5
5B
102
{ACAD_REACTORS
330
47
102
}
330
47
100
AcDbScale
 70
     0
300
1/32" = 1'-0"
140
0.03125
141
12.0
290
     0
  0
SCALE
  5
5C
102
{ACAD_REACTORS
330
47
102
}
330
47
100
AcDbScale
 70
     0
300
1/16" = 1'-0"
140
0.0625
141
12.0
290
     0
  0
SCALE
  5
5D
102
{ACAD_REACTORS
330
47
102
}
330
47
100
AcDbScale
 70
     0
300
3/32" = 1'-0"
140
0.09375
141
12.0
290
     0
  0
SCALE
  5
5E
102
{ACAD_REACTORS
330
47
102
}
330
47
100
AcDbScale
 70
     0
300
1/8" = 1'-0"
140
0.125
141
12.0
290
     0
  0
SCALE
  5
5F
102
{ACAD_REACTORS
330
47
102
}
330
47
100
AcDbScale
 70
     0
300
3/16" = 1'-0"
140
0.1875
141
12.0
290
     0
  0
SCALE
  5
60
102
{ACAD_REACTORS
330
47
102
}
330
47
100
AcDbScale
 70
     0
300
1/4" = 1'-0"
140
0.25
141
12.0
290
     0
  0
SCALE
  5
61
102
{ACAD_REACTORS
330
47
102
}
330
47
100
AcDbScale
 70
     0
300
3/8" = 1'-0"
140
0.375
141
12.0
290
     0
  0
SCALE
  5
62
102
{ACAD_REACTORS
330
47
102
}
330
47
100
AcDbScale
 70
     0
300
1/2" = 1'-0"
140
0.5
141
12.0
290
     0
  0
SCALE
  5
63
102
{ACAD_REACTORS
330
47
102
}
330
47
100
AcDbScale
 70
     0
300
3/4" = 1'-0"
140
0.75
141
12.0
290
     0
  0
SCALE
  5
64
102
{ACAD_REACTORS
330
47
102
}
330
47
100
AcDbScale
 70
     0
300
1" = 1'-0"
140
1.0
141
12.0
290
     0
  0
SCALE
  5
65
102
{ACAD_REACTORS
330
47
102
}
330
47
100
AcDbScale
 70
     0
300
1-1/2" = 1'-0"
140
1.5
141
12.0
290
     0
  0
SCALE
  5
66
102
{ACAD_REACTORS
330
47
102
}
330
47
100
AcDbScale
 70
     0
300
3" = 1'-0"
140
3.0
141
12.0
290
     0
  0
SCALE
  5
67
102
{ACAD_REACTORS
330
47
102
}
330
47
100
AcDbScale
 70
     0
300
6" = 1'-0"
140
6.0
141
12.0
290
     0
  0
SCALE
  5
68
102
{ACAD_REACTORS
330
47
102
}
330
47
100
AcDbScale
 70
     0
300
1'-0" = 1'-0"
140
12.0
141
12.0
290
     0
  0
ENDSEC
  0
EOF
