  0
SECTION
  2
HEADER
  9
$ACADVER
  1
AC1015
  9
$ACADMAINTVER
 70
     6
  9
$DWGCODEPAGE
  3
ANSI_949
  9
$INSBASE
 10
0.0
 20
0.0
 30
0.0
  9
$EXTMIN
 10
1.000000000000000E+20
 20
1.000000000000000E+20
 30
1.000000000000000E+20
  9
$EXTMAX
 10
-1.000000000000000E+20
 20
-1.000000000000000E+20
 30
-1.000000000000000E+20
  9
$LIMMIN
 10
0.0
 20
0.0
  9
$LIMMAX
 10
420.0
 20
297.0
  9
$ORTHOMODE
 70
     1
  9
$REGENMODE
 70
     1
  9
$FILLMODE
 70
     1
  9
$QTEXTMODE
 70
     0
  9
$MIRRTEXT
 70
     1
  9
$LTSCALE
 40
1.0
  9
$ATTMODE
 70
     1
  9
$TEXTSIZE
 40
3.5
  9
$TRACEWID
 40
1.0
  9
$TEXTSTYLE
  7
Standard
  9
$CLAYER
  8
0
  9
$CELTYPE
  6
ByLayer
  9
$CECOLOR
 62
   256
  9
$CELTSCALE
 40
1.0
  9
$DISPSILH
 70
     0
  9
$DIMSCALE
 40
1.0
  9
$DIMASZ
 40
3.302
  9
$DIMEXO
 40
1.0
  9
$DIMDLI
 40
3.75
  9
$DIMRND
 40
0.0
  9
$DIMDLE
 40
0.0
  9
$DIMEXE
 40
1.0
  9
$DIMTP
 40
0.0
  9
$DIMTM
 40
0.0
  9
$DIMTXT
 40
3.5
  9
$DIMCEN
 40
2.5
  9
$DIMTSZ
 40
0.0
  9
$DIMTOL
 70
     0
  9
$DIMLIM
 70
     0
  9
$DIMTIH
 70
     1
  9
$DIMTOH
 70
     1
  9
$DIMSE1
 70
     0
  9
$DIMSE2
 70
     0
  9
$DIMTAD
 70
     1
  9
$DIMZIN
 70
     0
  9
$DIMBLK
  1

  9
$DIMASO
 70
     1
  9
$DIMSHO
 70
     1
  9
$DIMPOST
  1

  9
$DIMAPOST
  1

  9
$DIMALT
 70
     0
  9
$DIMALTD
 70
     3
  9
$DIMALTF
 40
0.0393700787401575
  9
$DIMLFAC
 40
1.0
  9
$DIMTOFL
 70
     1
  9
$DIMTVP
 40
0.0
  9
$DIMTIX
 70
     0
  9
$DIMSOXD
 70
     0
  9
$DIMSAH
 70
     0
  9
$DIMBLK1
  1

  9
$DIMBLK2
  1

  9
$DIMSTYLE
  2
ISO-25
  9
$DIMCLRD
 70
     0
  9
$DIMCLRE
 70
     0
  9
$DIMCLRT
 70
     0
  9
$DIMTFAC
 40
1.0
  9
$DIMGAP
 40
1.524
  9
$DIMJUST
 70
     0
  9
$DIMSD1
 70
     0
  9
$DIMSD2
 70
     0
  9
$DIMTOLJ
 70
     0
  9
$DIMTZIN
 70
     0
  9
$DIMALTZ
 70
     0
  9
$DIMALTTZ
 70
     0
  9
$DIMUPT
 70
     0
  9
$DIMDEC
 70
     2
  9
$DIMTDEC
 70
     2
  9
$DIMALTU
 70
     2
  9
$DIMALTTD
 70
     3
  9
$DIMTXSTY
  7
Standard
  9
$DIMAUNIT
 70
     0
  9
$DIMADEC
 70
     2
  9
$DIMALTRND
 40
0.0
  9
$DIMAZIN
 70
     0
  9
$DIMDSEP
 70
    44
  9
$DIMATFIT
 70
     3
  9
$DIMFRAC
 70
     0
  9
$DIMLDRBLK
  1

  9
$DIMLUNIT
 70
     2
  9
$DIMLWD
 70
    -2
  9
$DIMLWE
 70
    -2
  9
$DIMTMOVE
 70
     0
  9
$LUNITS
 70
     2
  9
$LUPREC
 70
     2
  9
$SKETCHINC
 40
1.0
  9
$FILLETRAD
 40
10.0
  9
$AUNITS
 70
     0
  9
$AUPREC
 70
     2
  9
$MENU
  1
.
  9
$ELEVATION
 40
0.0
  9
$PELEVATION
 40
0.0
  9
$THICKNESS
 40
0.0
  9
$LIMCHECK
 70
     0
  9
$CHAMFERA
 40
0.0
  9
$CHAMFERB
 40
0.0
  9
$CHAMFERC
 40
0.0
  9
$CHAMFERD
 40
0.0
  9
$SKPOLY
 70
     0
  9
$TDCREATE
 40
2458263.797553658
  9
$TDUCREATE
 40
2458263.422553658
  9
$TDUPDATE
 40
2458268.687143125
  9
$TDUUPDATE
 40
2458268.312143125
  9
$TDINDWG
 40
0.0009009954
  9
$TDUSRTIMER
 40
2458268.311242419
  9
$USRTIMER
 70
     1
  9
$ANGBASE
 50
0.0
  9
$ANGDIR
 70
     0
  9
$PDMODE
 70
     0
  9
$PDSIZE
 40
-1.0
  9
$PLINEWID
 40
0.0
  9
$SPLFRAME
 70
     0
  9
$SPLINETYPE
 70
     6
  9
$SPLINESEGS
 70
     8
  9
$HANDSEED
  5
2C9
  9
$SURFTAB1
 70
     6
  9
$SURFTAB2
 70
     6
  9
$SURFTYPE
 70
     6
  9
$SURFU
 70
     6
  9
$SURFV
 70
     6
  9
$UCSBASE
  2

  9
$UCSNAME
  2

  9
$UCSORG
 10
0.0
 20
0.0
 30
0.0
  9
$UCSXDIR
 10
1.0
 20
0.0
 30
0.0
  9
$UCSYDIR
 10
0.0
 20
1.0
 30
0.0
  9
$UCSORTHOREF
  2

  9
$UCSORTHOVIEW
 70
     0
  9
$UCSORGTOP
 10
0.0
 20
0.0
 30
0.0
  9
$UCSORGBOTTOM
 10
0.0
 20
0.0
 30
0.0
  9
$UCSORGLEFT
 10
0.0
 20
0.0
 30
0.0
  9
$UCSORGRIGHT
 10
0.0
 20
0.0
 30
0.0
  9
$UCSORGFRONT
 10
0.0
 20
0.0
 30
0.0
  9
$UCSORGBACK
 10
0.0
 20
0.0
 30
0.0
  9
$PUCSBASE
  2

  9
$PUCSNAME
  2

  9
$PUCSORG
 10
0.0
 20
0.0
 30
0.0
  9
$PUCSXDIR
 10
1.0
 20
0.0
 30
0.0
  9
$PUCSYDIR
 10
0.0
 20
1.0
 30
0.0
  9
$PUCSORTHOREF
  2

  9
$PUCSORTHOVIEW
 70
     0
  9
$PUCSORGTOP
 10
0.0
 20
0.0
 30
0.0
  9
$PUCSORGBOTTOM
 10
0.0
 20
0.0
 30
0.0
  9
$PUCSORGLEFT
 10
0.0
 20
0.0
 30
0.0
  9
$PUCSORGRIGHT
 10
0.0
 20
0.0
 30
0.0
  9
$PUCSORGFRONT
 10
0.0
 20
0.0
 30
0.0
  9
$PUCSORGBACK
 10
0.0
 20
0.0
 30
0.0
  9
$USERI1
 70
     0
  9
$USERI2
 70
     0
  9
$USERI3
 70
     0
  9
$USERI4
 70
     0
  9
$USERI5
 70
     0
  9
$USERR1
 40
0.0
  9
$USERR2
 40
0.0
  9
$USERR3
 40
0.0
  9
$USERR4
 40
0.0
  9
$USERR5
 40
0.0
  9
$WORLDVIEW
 70
     1
  9
$SHADEDGE
 70
     3
  9
$SHADEDIF
 70
    70
  9
$TILEMODE
 70
     1
  9
$MAXACTVP
 70
    64
  9
$PINSBASE
 10
0.0
 20
0.0
 30
0.0
  9
$PLIMCHECK
 70
     0
  9
$PEXTMIN
 10
1.000000000000000E+20
 20
1.000000000000000E+20
 30
1.000000000000000E+20
  9
$PEXTMAX
 10
-1.000000000000000E+20
 20
-1.000000000000000E+20
 30
-1.000000000000000E+20
  9
$PLIMMIN
 10
0.0
 20
0.0
  9
$PLIMMAX
 10
0.0
 20
0.0
  9
$UNITMODE
 70
     0
  9
$VISRETAIN
 70
     1
  9
$PLINEGEN
 70
     0
  9
$PSLTSCALE
 70
     1
  9
$TREEDEPTH
 70
  3020
  9
$CMLSTYLE
  2
Standard
  9
$CMLJUST
 70
     0
  9
$CMLSCALE
 40
20.0
  9
$PROXYGRAPHICS
 70
     1
  9
$MEASUREMENT
 70
     1
  9
$CELWEIGHT
370
    -1
  9
$ENDCAPS
280
     0
  9
$JOINSTYLE
280
     0
  9
$LWDISPLAY
290
     1
  9
$INSUNITS
 70
     4
  9
$HYPERLINKBASE
  1

  9
$STYLESHEET
  1

  9
$XEDIT
290
     1
  9
$CEPSNTYPE
380
     0
  9
$PSTYLEMODE
290
     1
  9
$FINGERPRINTGUID
  2
{1C964CFD-D13E-4BF7-A614-A18B35CBDB9F}
  9
$VERSIONGUID
  2
{FAEB1C32-E019-11D5-929B-00C0DF256EC4}
  9
$EXTNAMES
290
     1
  9
$PSVPSCALE
 40
0.0
  9
$OLESTARTUP
290
     0
  0
ENDSEC
  0
SECTION
  2
CLASSES
  0
CLASS
  1
ACDBDICTIONARYWDFLT
  2
AcDbDictionaryWithDefault
  3
ObjectDBX Classes
 90
        0
280
     0
281
     0
  0
CLASS
  1
VISUALSTYLE
  2
AcDbVisualStyle
  3
ObjectDBX Classes
 90
     4095
280
     0
281
     0
  0
CLASS
  1
MATERIAL
  2
AcDbMaterial
  3
ObjectDBX Classes
 90
     1153
280
     0
281
     0
  0
CLASS
  1
SCALE
  2
AcDbScale
  3
ObjectDBX Classes
 90
     1153
280
     0
281
     0
  0
CLASS
  1
TABLESTYLE
  2
AcDbTableStyle
  3
ObjectDBX Classes
 90
     4095
280
     0
281
     0
  0
CLASS
  1
MLEADERSTYLE
  2
AcDbMLeaderStyle
  3
ACDB_MLEADERSTYLE_CLASS
 90
     4095
280
     0
281
     0
  0
CLASS
  1
SUN
  2
AcDbSun
  3
SCENEOE
 90
     1153
280
     0
281
     0
  0
CLASS
  1
ACDBPLACEHOLDER
  2
AcDbPlaceHolder
  3
ObjectDBX Classes
 90
        0
280
     0
281
     0
  0
CLASS
  1
LAYOUT
  2
AcDbLayout
  3
ObjectDBX Classes
 90
        0
280
     0
281
     0
  0
CLASS
  1
RASTERVARIABLES
  2
AcDbRasterVariables
  3
ISM
 90
        0
280
     0
281
     0
  0
CLASS
  1
DIMASSOC
  2
AcDbDimAssoc
  3
"AcDbDimAssoc|Product Desc:     AcDim ARX App For Dimension|Company:          Autodesk, Inc.|WEB Address:      www.autodesk.com"
 90
        0
280
     0
281
     0
  0
ENDSEC
  0
SECTION
  2
TABLES
  0
TABLE
  2
VPORT
  5
8
330
0
100
AcDbSymbolTable
 70
     1
  0
VPORT
  5
29
330
8
100
AcDbSymbolTableRecord
100
AcDbViewportTableRecord
  2
*Active
 70
     0
 10
0.0
 20
0.0
 11
1.0
 21
1.0
 12
71.53596406757124
 22
-5.379908524129107
 13
0.0
 23
0.0
 14
10.0
 24
10.0
 15
10.0
 25
10.0
 16
0.0
 26
0.0
 36
1.0
 17
0.0
 27
0.0
 37
0.0
 40
33.04153997756038
 41
2.538461538461538
 42
50.0
 43
0.0
 44
0.0
 50
0.0
 51
0.0
 71
    16
 72
  2000
 73
     1
 74
     3
 75
     0
 76
     0
 77
     0
 78
     0
281
     0
 65
     1
110
0.0
120
0.0
130
0.0
111
1.0
121
0.0
131
0.0
112
0.0
122
1.0
132
0.0
 79
     0
146
0.0
  0
ENDTAB
  0
TABLE
  2
LTYPE
  5
5
330
0
100
AcDbSymbolTable
 70
     6
  0
LTYPE
  5
14
330
5
100
AcDbSymbolTableRecord
100
AcDbLinetypeTableRecord
  2
ByBlock
 70
     0
  3

 72
    65
 73
     0
 40
0.0
  0
LTYPE
  5
15
330
5
100
AcDbSymbolTableRecord
100
AcDbLinetypeTableRecord
  2
ByLayer
 70
     0
  3

 72
    65
 73
     0
 40
0.0
  0
LTYPE
  5
16
330
5
100
AcDbSymbolTableRecord
100
AcDbLinetypeTableRecord
  2
Continuous
 70
     0
  3
Solid line
 72
    65
 73
     0
 40
0.0
  0
LTYPE
  5
6E
330
5
100
AcDbSymbolTableRecord
100
AcDbLinetypeTableRecord
  2
HIDDEN
 70
     0
  3
Hidden __ __ __ __ __ __ __ __ __ __ __ __ __ __
 72
    65
 73
     2
 40
1.905
 49
1.27
 74
     0
 49
-0.635
 74
     0
  0
LTYPE
  5
6F
330
5
100
AcDbSymbolTableRecord
100
AcDbLinetypeTableRecord
  2
PHANTOM
 70
     0
  3
Phantom ______  __  __  ______  __  __  ______
 72
    65
 73
     6
 40
12.7
 49
6.35
 74
     0
 49
-1.27
 74
     0
 49
1.27
 74
     0
 49
-1.27
 74
     0
 49
1.27
 74
     0
 49
-1.27
 74
     0
  0
LTYPE
  5
70
330
5
100
AcDbSymbolTableRecord
100
AcDbLinetypeTableRecord
  2
CENTER
 70
     0
  3
Center ____ _ ____ _ ____ _ ____ _ ____ _ ____
 72
    65
 73
     4
 40
10.16
 49
6.35
 74
     0
 49
-1.27
 74
     0
 49
1.27
 74
     0
 49
-1.27
 74
     0
  0
LTYPE
  5
71
330
5
100
AcDbSymbolTableRecord
100
AcDbLinetypeTableRecord
  2
CENTERX2
 70
     0
  3
Center (2x) ________  __  ________  __  _____
 72
    65
 73
     4
 40
20.32
 49
12.7
 74
     0
 49
-2.54
 74
     0
 49
2.54
 74
     0
 49
-2.54
 74
     0
  0
LTYPE
  5
72
330
5
100
AcDbSymbolTableRecord
100
AcDbLinetypeTableRecord
  2
DOT2
 70
     0
  3
Dot (.5x) ........................................
 72
    65
 73
     2
 40
0.635
 49
0.0
 74
     0
 49
-0.635
 74
     0
  0
ENDTAB
  0
TABLE
  2
LAYER
  5
2
330
0
100
AcDbSymbolTable
 70
    17
  0
LAYER
  5
10
330
2
100
AcDbSymbolTableRecord
100
AcDbLayerTableRecord
  2
0
 70
     0
 62
     7
  6
Continuous
370
    -3
390
F
  0
LAYER
  5
73
330
2
100
AcDbSymbolTableRecord
100
AcDbLayerTableRecord
  2
FORMAT
 70
     0
 62
     2
  6
Continuous
370
    -3
390
F
  0
LAYER
  5
74
330
2
100
AcDbSymbolTableRecord
100
AcDbLayerTableRecord
  2
외형선
 70
     0
 62
   100
  6
Continuous
370
    35
390
F
  0
LAYER
  5
75
330
2
100
AcDbSymbolTableRecord
100
AcDbLayerTableRecord
  2
숨은선
 70
     0
 62
     2
  6
HIDDEN
370
    25
390
F
  0
LAYER
  5
76
330
2
100
AcDbSymbolTableRecord
100
AcDbLayerTableRecord
  2
중심선
 70
     0
 62
     1
  6
CENTERX2
370
    -3
390
F
  0
LAYER
  5
77
330
2
100
AcDbSymbolTableRecord
100
AcDbLayerTableRecord
  2
파단선
 70
     0
 62
     4
  6
Continuous
370
    -3
390
F
  0
LAYER
  5
78
330
2
100
AcDbSymbolTableRecord
100
AcDbLayerTableRecord
  2
해칭선
 70
     0
 62
     4
  6
Continuous
370
    -3
390
F
  0
LAYER
  5
79
330
2
100
AcDbSymbolTableRecord
100
AcDbLayerTableRecord
  2
가는실선
 70
     0
 62
     4
  6
Continuous
370
    -3
390
F
  0
LAYER
  5
7A
330
2
100
AcDbSymbolTableRecord
100
AcDbLayerTableRecord
  2
치수_보조선
 70
     0
 62
     4
  6
Continuous
370
    -3
390
F
  0
LAYER
  5
7B
330
2
100
AcDbSymbolTableRecord
100
AcDbLayerTableRecord
  2
치수문자_일반주서
 70
     0
 62
     7
  6
Continuous
370
    25
390
F
  0
LAYER
  5
7C
330
2
100
AcDbSymbolTableRecord
100
AcDbLayerTableRecord
  2
개별주서
 70
     0
 62
   100
  6
Continuous
370
    35
390
F
  0
LAYER
  5
7D
330
2
100
AcDbSymbolTableRecord
100
AcDbLayerTableRecord
  2
중간선
 70
     0
 62
     2
  6
Continuous
370
    25
390
F
  0
LAYER
  5
7E
330
2
100
AcDbSymbolTableRecord
100
AcDbLayerTableRecord
  2
윤곽선
 70
     0
 62
     3
  6
Continuous
370
    50
390
F
  0
LAYER
  5
7F
330
2
100
AcDbSymbolTableRecord
100
AcDbLayerTableRecord
  2
중심마크
 70
     0
 62
   100
  6
Continuous
370
    35
390
F
  0
LAYER
  5
80
330
2
100
AcDbSymbolTableRecord
100
AcDbLayerTableRecord
  2
가상선
 70
     0
 62
     4
  6
PHANTOM
370
    -3
390
F
  0
LAYER
  5
81
330
2
100
AcDbSymbolTableRecord
100
AcDbLayerTableRecord
  2
특수지정선
 70
     0
 62
     5
  6
CENTERX2
370
    70
390
F
  0
LAYER
  5
13D
330
2
100
AcDbSymbolTableRecord
100
AcDbLayerTableRecord
  2
Defpoints
 70
     0
 62
     7
  6
Continuous
290
     0
370
    -3
390
F
  0
ENDTAB
  0
TABLE
  2
STYLE
  5
3
330
0
100
AcDbSymbolTable
 70
     2
  0
STYLE
  5
11
330
3
100
AcDbSymbolTableRecord
100
AcDbTextStyleTableRecord
  2
Standard
 70
     0
 40
0.0
 41
1.0
 50
0.0
 71
     0
 42
3.5
  3
txt
  4

  0
STYLE
  5
97
330
3
100
AcDbSymbolTableRecord
100
AcDbTextStyleTableRecord
  2
SLDTEXTSTYLE0
 70
     0
 40
0.0
 41
0.75
 50
0.0
 71
     0
 42
3.5
  3
TXT
  4

  0
ENDTAB
  0
TABLE
  2
VIEW
  5
6
330
0
100
AcDbSymbolTable
 70
     0
  0
ENDTAB
  0
TABLE
  2
UCS
  5
7
330
0
100
AcDbSymbolTable
 70
     0
  0
ENDTAB
  0
TABLE
  2
APPID
  5
9
330
0
100
AcDbSymbolTable
 70
     4
  0
APPID
  5
12
330
9
100
AcDbSymbolTableRecord
100
AcDbRegAppTableRecord
  2
ACAD
 70
     0
  0
APPID
  5
148
330
9
100
AcDbSymbolTableRecord
100
AcDbRegAppTableRecord
  2
ACAD_DSTYLE_DIMRADIAL_EXTENSION
 70
     0
  0
APPID
  5
2C7
330
9
100
AcDbSymbolTableRecord
100
AcDbRegAppTableRecord
  2
ACAD_DSTYLE_DIMFLIPARROW_SYMBOL
 70
     0
  0
APPID
  5
2C8
330
9
100
AcDbSymbolTableRecord
100
AcDbRegAppTableRecord
  2
ACAD_DSTYLE_DIMFLIPARROW_WHICH_SYMBOL
 70
     0
  0
ENDTAB
  0
TABLE
  2
DIMSTYLE
  5
A
330
0
100
AcDbSymbolTable
 70
     3
100
AcDbDimStyleTable
  0
DIMSTYLE
105
27
330
A
100
AcDbSymbolTableRecord
100
AcDbDimStyleTableRecord
  2
ISO-25
 70
     0
 41
2.5
 42
0.625
 43
3.75
 44
1.25
 73
     0
 74
     0
 77
     1
 78
     8
140
2.5
141
2.5
143
0.03937007874016
147
0.625
171
     3
172
     1
178
     0
271
     2
272
     2
274
     3
278
    44
283
     0
284
     8
340
11
  0
DIMSTYLE
105
D4
102
{ACAD_REACTORS
330
199
330
1A6
330
1C0
330
1CD
330
1E3
330
262
330
263
330
265
330
266
330
2B9
102
}
330
A
100
AcDbSymbolTableRecord
100
AcDbDimStyleTableRecord
  2
SLDDIMSTYLE0
 70
     0
 41
3.302
 44
0.0
 45
0.000000001
 73
     0
 74
     0
 77
     1
 78
    12
 79
     3
140
3.5
147
0.875
172
     1
173
     1
178
     0
271
     2
272
     2
276
     2
284
    12
289
     0
340
97
  0
DIMSTYLE
105
EE
102
{ACAD_REACTORS
330
1B3
330
264
102
}
330
A
100
AcDbSymbolTableRecord
100
AcDbDimStyleTableRecord
  2
SLDDIMSTYLE1
 70
     0
 41
3.302
 44
0.0
 45
0.000000001
 73
     0
 74
     0
 77
     1
 78
    12
 79
     3
140
3.5
147
0.875
173
     1
178
     0
271
     2
272
     2
276
     2
284
    12
340
97
  0
ENDTAB
  0
TABLE
  2
BLOCK_RECORD
  5
1
330
0
100
AcDbSymbolTable
 70
    22
  0
BLOCK_RECORD
  5
1F
330
1
100
AcDbSymbolTableRecord
100
AcDbBlockTableRecord
  2
*Model_Space
340
22
  0
BLOCK_RECORD
  5
1B
330
1
100
AcDbSymbolTableRecord
100
AcDbBlockTableRecord
  2
*Paper_Space
340
1E
  0
BLOCK_RECORD
  5
23
330
1
100
AcDbSymbolTableRecord
100
AcDbBlockTableRecord
  2
*Paper_Space0
340
26
  0
BLOCK_RECORD
  5
82
330
1
100
AcDbSymbolTableRecord
100
AcDbBlockTableRecord
  2
블럭10
340
0
102
{BLKREFS
331
CC
102
}
  0
BLOCK_RECORD
  5
D5
330
1
100
AcDbSymbolTableRecord
100
AcDbBlockTableRecord
  2
_D
340
0
  0
BLOCK_RECORD
  5
E2
330
1
100
AcDbSymbolTableRecord
100
AcDbBlockTableRecord
  2
_D_1
340
0
  0
BLOCK_RECORD
  5
EF
330
1
100
AcDbSymbolTableRecord
100
AcDbBlockTableRecord
  2
_D_2
340
0
  0
BLOCK_RECORD
  5
F9
330
1
100
AcDbSymbolTableRecord
100
AcDbBlockTableRecord
  2
_D_3
340
0
  0
BLOCK_RECORD
  5
105
330
1
100
AcDbSymbolTableRecord
100
AcDbBlockTableRecord
  2
_D_4
340
0
  0
BLOCK_RECORD
  5
111
330
1
100
AcDbSymbolTableRecord
100
AcDbBlockTableRecord
  2
SW_DOWELSYMBOL_0
340
0
102
{BLKREFS
331
0
331
1DB
331
267
102
}
  0
BLOCK_RECORD
  5
1E6
330
1
100
AcDbSymbolTableRecord
100
AcDbBlockTableRecord
  2
*D9
340
0
  0
BLOCK_RECORD
  5
1F2
330
1
100
AcDbSymbolTableRecord
100
AcDbBlockTableRecord
  2
*D10
340
0
  0
BLOCK_RECORD
  5
1FE
330
1
100
AcDbSymbolTableRecord
100
AcDbBlockTableRecord
  2
*D11
340
0
  0
BLOCK_RECORD
  5
20A
330
1
100
AcDbSymbolTableRecord
100
AcDbBlockTableRecord
  2
*D12
340
0
  0
BLOCK_RECORD
  5
216
330
1
100
AcDbSymbolTableRecord
100
AcDbBlockTableRecord
  2
*D13
340
0
  0
BLOCK_RECORD
  5
222
330
1
100
AcDbSymbolTableRecord
100
AcDbBlockTableRecord
  2
*D14
340
0
  0
BLOCK_RECORD
  5
26D
330
1
100
AcDbSymbolTableRecord
100
AcDbBlockTableRecord
  2
*D15
340
0
  0
BLOCK_RECORD
  5
279
330
1
100
AcDbSymbolTableRecord
100
AcDbBlockTableRecord
  2
*D16
340
0
  0
BLOCK_RECORD
  5
285
330
1
100
AcDbSymbolTableRecord
100
AcDbBlockTableRecord
  2
*D17
340
0
  0
BLOCK_RECORD
  5
291
330
1
100
AcDbSymbolTableRecord
100
AcDbBlockTableRecord
  2
*D18
340
0
  0
BLOCK_RECORD
  5
29D
330
1
100
AcDbSymbolTableRecord
100
AcDbBlockTableRecord
  2
*D19
340
0
  0
BLOCK_RECORD
  5
2AA
330
1
100
AcDbSymbolTableRecord
100
AcDbBlockTableRecord
  2
*D20
340
0
  0
BLOCK_RECORD
  5
2BC
330
1
100
AcDbSymbolTableRecord
100
AcDbBlockTableRecord
  2
*D21
340
0
  0
ENDTAB
  0
ENDSEC
  0
SECTION
  2
BLOCKS
  0
BLOCK
  5
20
330
1F
100
AcDbEntity
  8
0
100
AcDbBlockBegin
  2
*Model_Space
 70
     0
 10
0.0
 20
0.0
 30
0.0
  3
*Model_Space
  1
*Model_Space
  0
ENDBLK
  5
21
330
1F
100
AcDbEntity
  8
0
100
AcDbBlockEnd
  0
BLOCK
  5
1C
330
1B
100
AcDbEntity
 67
     1
  8
0
100
AcDbBlockBegin
  2
*Paper_Space
 70
     0
 10
0.0
 20
0.0
 30
0.0
  3
*Paper_Space
  1
*Paper_Space
  0
ENDBLK
  5
1D
330
1B
100
AcDbEntity
 67
     1
  8
0
100
AcDbBlockEnd
  0
BLOCK
  5
24
330
23
100
AcDbEntity
  8
0
100
AcDbBlockBegin
  2
*Paper_Space0
 70
     0
 10
0.0
 20
0.0
 30
0.0
  3
*Paper_Space0
  1
*Paper_Space0
  0
ENDBLK
  5
25
330
23
100
AcDbEntity
  8
0
100
AcDbBlockEnd
  0
BLOCK
  5
83
330
82
100
AcDbEntity
  8
0
100
AcDbBlockBegin
  2
블럭10
 70
     2
 10
0.0
 20
0.0
 30
0.0
  3
블럭10
  1
블럭10
  0
ELLIPSE
  5
85
330
82
100
AcDbEntity
  8
중심선
100
AcDbEllipse
 10
20.54032771741204
 20
12.0471743016438
 30
0.0
 11
6.600054785286829
 21
-1.261213355974178E-13
 31
0.0
210
0.0
220
0.0
230
1.0
 40
0.636358354079598
 41
0.9219305317359503
 42
6.513795318482858
  0
ELLIPSE
  5
86
330
82
100
AcDbEntity
  8
중심선
100
AcDbEllipse
 10
20.54032771746488
 20
12.04717430159265
 30
0.0
 11
3.960054785062283
 21
1.540847449632565E-10
 31
0.0
210
0.0
220
0.0
230
1.0
 40
0.3939339440162632
 41
1.131841032648279
 42
5.62031148352944
  0
LINE
  5
87
330
82
100
AcDbEntity
  8
중심선
100
AcDbLine
 10
2.268634060543552
 20
16.24717430164393
 30
0.0
 11
5.714909304380834
 21
16.24717430164393
 31
0.0
  0
LINE
  5
88
330
82
100
AcDbEntity
  8
중심선
100
AcDbLine
 10
5.245725140726316
 20
7.84717430164391
 30
0.0
 11
8.692000384563599
 21
7.84717430164391
 31
0.0
  0
LINE
  5
89
330
82
100
AcDbEntity
  8
중심선
100
AcDbLine
 10
15.74043728645272
 20
16.24717430164393
 30
0.0
 11
8.692000384563599
 21
7.84717430164391
 31
0.0
  0
LINE
  5
8A
330
82
100
AcDbEntity
  8
중심선
100
AcDbLine
 10
0.1404042013395286
 20
13.71084872107135
 30
0.0
 11
3.58671253028996
 21
13.71088815037384
 31
0.0
  0
LINE
  5
8B
330
82
100
AcDbEntity
  8
중심선
100
AcDbLine
 10
2.750260043222114
 20
10.84717430164391
 30
0.0
 11
6.196535287059397
 21
10.84717430164391
 31
0.0
  0
LINE
  5
8C
330
82
100
AcDbEntity
  8
중심선
100
AcDbLine
 10
12.29416204261559
 20
16.24717430164393
 30
0.0
 11
5.245725140726316
 21
7.84717430164391
 31
0.0
  0
LINE
  5
8D
330
82
100
AcDbEntity
  8
중심선
100
AcDbLine
 10
10.72767329541681
 20
16.24717430164393
 30
0.0
 11
6.196535287059397
 21
10.84717430164391
 31
0.0
  0
LINE
  5
8E
330
82
100
AcDbEntity
  8
중심선
100
AcDbLine
 10
7.28139805157953
 20
16.24717430164393
 30
0.0
 11
2.750260043222114
 21
10.84717430164391
 31
0.0
  0
LINE
  5
8F
330
82
100
AcDbEntity
  8
중심선
100
AcDbLine
 10
5.714909304380834
 20
16.24717430164393
 30
0.0
 11
3.58671253028996
 21
13.71088815037384
 31
0.0
  0
LINE
  5
90
330
82
100
AcDbEntity
  8
중심선
100
AcDbLine
 10
2.268634060543552
 20
16.24717430164393
 30
0.0
 11
0.1404042013395286
 21
13.71084872107135
 31
0.0
  0
LINE
  5
91
330
82
100
AcDbEntity
  8
중심선
100
AcDbLine
 10
7.28139805157953
 20
16.24717430164393
 30
0.0
 11
10.72767329541681
 21
16.24717430164393
 31
0.0
  0
LINE
  5
92
330
82
100
AcDbEntity
  8
중심선
100
AcDbLine
 10
12.29416204261559
 20
16.24717430164393
 30
0.0
 11
15.74043728645272
 21
16.24717430164393
 31
0.0
  0
LINE
  5
93
330
82
100
AcDbEntity
  8
중심선
100
AcDbLine
 10
19.22036997980202
 20
11.08717430171403
 30
0.0
 11
23.66174974927406
 21
11.08717430171406
 31
0.0
  0
LINE
  5
94
330
82
100
AcDbEntity
  8
중심선
100
AcDbLine
 10
19.22039502424796
 20
13.00717430171391
 30
0.0
 11
19.22036997980202
 21
11.08717430171403
 31
0.0
  0
LINE
  5
95
330
82
100
AcDbEntity
  8
중심선
100
AcDbLine
 10
19.22039502424796
 20
13.00717430171391
 30
0.0
 11
26.96566020931264
 21
13.00717430171391
 31
0.0
  0
LINE
  5
96
330
82
100
AcDbEntity
  8
중심선
100
AcDbLine
 10
22.22332737316547
 20
13.45928029700563
 30
0.0
 11
24.52862924686651
 21
15.39360700705356
 31
0.0
  0
ATTDEF
  5
98
330
82
100
AcDbEntity
  8
FORMAT
 62
     2
100
AcDbText
 10
-19.27858288401334
 20
2.075366912832191
 30
0.0
 40
4.233333333333333
  1
SEME610400340E [ 2 FLUTE ]
 41
0.75
  7
SLDTEXTSTYLE0
 11
-19.27858288401334
 21
-0.0412997538344756
 31
0.0
100
AcDbAttributeDefinition
  3

  2
AUTOATTR0
 70
     0
 74
     1
  0
ENDBLK
  5
84
330
82
100
AcDbEntity
  8
0
100
AcDbBlockEnd
  0
BLOCK
  5
D6
330
D5
100
AcDbEntity
  8
0
100
AcDbBlockBegin
  2
_D
 70
     0
 10
0.0
 20
0.0
 30
0.0
  3
_D
  1
_D
  0
SOLID
  5
D8
330
D5
100
AcDbEntity
  8
치수문자_일반주서
100
AcDbTrace
 10
-41.00250885508846
 20
3.001074928723889
 30
0.0
 11
-40.49450885508846
 21
6.303074928723889
 31
0.0
 12
-41.51050885508847
 22
6.303074928723889
 32
0.0
 13
-41.51050885508847
 23
6.303074928723889
 33
0.0
  0
SOLID
  5
D9
330
D5
100
AcDbEntity
  8
치수문자_일반주서
100
AcDbTrace
 10
-41.00250885508846
 20
-2.998925071276108
 30
0.0
 11
-41.51050885508847
 21
-6.300925071276107
 31
0.0
 12
-40.49450885508846
 22
-6.300925071276107
 32
0.0
 13
-40.49450885508846
 23
-6.300925071276107
 33
0.0
  0
LINE
  5
DA
330
D5
100
AcDbEntity
  8
치수문자_일반주서
100
AcDbLine
 10
-29.50605083347638
 20
3.001074928723889
 30
0.0
 11
-42.00250885508846
 21
3.001074928723889
 31
0.0
  0
LINE
  5
DB
330
D5
100
AcDbEntity
  8
치수문자_일반주서
100
AcDbLine
 10
-29.50605083347638
 20
-2.998925071276108
 30
0.0
 11
-42.00250885508846
 21
-2.998925071276108
 31
0.0
  0
LINE
  5
DC
330
D5
100
AcDbEntity
  8
치수문자_일반주서
100
AcDbLine
 10
-41.00250885508846
 20
3.001074928723889
 30
0.0
 11
-41.00250885508846
 21
9.35107492872389
 31
0.0
  0
LINE
  5
DD
330
D5
100
AcDbEntity
  8
치수문자_일반주서
100
AcDbLine
 10
-41.00250885508846
 20
3.001074928723889
 30
0.0
 11
-41.00250885508846
 21
-2.998925071276108
 31
0.0
  0
LINE
  5
DE
330
D5
100
AcDbEntity
  8
치수문자_일반주서
100
AcDbLine
 10
-41.00250885508846
 20
-2.998925071276108
 30
0.0
 11
-41.00250885508846
 21
-9.348925071276108
 31
0.0
  0
MTEXT
  5
DF
330
D5
100
AcDbEntity
  8
치수문자_일반주서
100
AcDbMText
 10
-45.51424594429033
 20
-3.931199483639909
 30
0.0
 40
3.5
 41
0.0
 71
     1
 72
     1
  1
%%c
  7
SLDTEXTSTYLE0
 11
-7.044195017643634E-15
 21
1.0
 31
0.0
 73
     1
 44
1.0
  0
MTEXT
  5
E0
330
D5
100
AcDbEntity
  8
치수문자_일반주서
100
AcDbMText
 10
-45.56771812095022
 20
1.347237914734172
 30
0.0
 40
3.5
 41
0.0
 71
     1
 72
     1
  1
6
  7
SLDTEXTSTYLE0
 11
-7.044195017643634E-15
 21
1.0
 31
0.0
 73
     1
 44
1.0
  0
ENDBLK
  5
D7
330
D5
100
AcDbEntity
  8
0
100
AcDbBlockEnd
  0
BLOCK
  5
E3
330
E2
100
AcDbEntity
  8
0
100
AcDbBlockBegin
  2
_D_1
 70
     0
 10
0.0
 20
0.0
 30
0.0
  3
_D_1
  1
_D_1
  0
SOLID
  5
E5
330
E2
100
AcDbEntity
  8
치수문자_일반주서
100
AcDbTrace
 10
50.49394916652363
 20
20.20107492872356
 30
0.0
 11
53.79594916652363
 21
19.69307492872356
 31
0.0
 12
53.79594916652363
 22
20.70907492872356
 32
0.0
 13
53.79594916652363
 23
20.70907492872356
 33
0.0
  0
SOLID
  5
E6
330
E2
100
AcDbEntity
  8
치수문자_일반주서
100
AcDbTrace
 10
44.49394916652362
 20
20.20107492872356
 30
0.0
 11
41.19194916652362
 21
20.70907492872356
 31
0.0
 12
41.19194916652362
 22
19.69307492872356
 32
0.0
 13
41.19194916652362
 23
19.69307492872356
 33
0.0
  0
LINE
  5
E7
330
E2
100
AcDbEntity
  8
치수문자_일반주서
100
AcDbLine
 10
50.49394916652363
 20
2.701074928723894
 30
0.0
 11
50.49394916652363
 21
21.20107492872356
 31
0.0
  0
LINE
  5
E8
330
E2
100
AcDbEntity
  8
치수문자_일반주서
100
AcDbLine
 10
44.49394916652362
 20
2.582589082680109
 30
0.0
 11
44.49394916652362
 21
21.20107492872356
 31
0.0
  0
LINE
  5
E9
330
E2
100
AcDbEntity
  8
치수문자_일반주서
100
AcDbLine
 10
50.49394916652363
 20
20.20107492872356
 30
0.0
 11
58.349755708369
 21
20.20107492872356
 31
0.0
  0
LINE
  5
EA
330
E2
100
AcDbEntity
  8
치수문자_일반주서
100
AcDbLine
 10
50.49394916652363
 20
20.20107492872356
 30
0.0
 11
44.49394916652362
 21
20.20107492872356
 31
0.0
  0
LINE
  5
EB
330
E2
100
AcDbEntity
  8
치수문자_일반주서
100
AcDbLine
 10
44.49394916652362
 20
20.20107492872356
 30
0.0
 11
38.14394916652362
 21
20.20107492872356
 31
0.0
  0
MTEXT
  5
EC
330
E2
100
AcDbEntity
  8
치수문자_일반주서
100
AcDbMText
 10
55.76364451484618
 20
24.71281184330245
 30
0.0
 40
3.5
 41
0.0
 71
     1
 72
     1
  1
6
  7
SLDTEXTSTYLE0
 73
     1
 44
1.0
  0
ENDBLK
  5
E4
330
E2
100
AcDbEntity
  8
0
100
AcDbBlockEnd
  0
BLOCK
  5
F0
330
EF
100
AcDbEntity
  8
0
100
AcDbBlockBegin
  2
_D_2
 70
     0
 10
0.0
 20
0.0
 30
0.0
  3
_D_2
  1
_D_2
  0
SOLID
  5
F2
330
EF
100
AcDbEntity
  8
치수문자_일반주서
100
AcDbTrace
 10
50.49394916652363
 20
42.25939943376818
 30
0.0
 11
47.19194916652363
 21
42.76739943376818
 31
0.0
 12
47.19194916652363
 22
41.75139943376818
 32
0.0
 13
47.19194916652363
 23
41.75139943376818
 33
0.0
  0
SOLID
  5
F3
330
EF
100
AcDbEntity
  8
치수문자_일반주서
100
AcDbTrace
 10
-29.50605083347639
 20
42.25939943376818
 30
0.0
 11
-26.20405083347639
 21
41.75139943376818
 31
0.0
 12
-26.20405083347639
 22
42.76739943376818
 32
0.0
 13
-26.20405083347639
 23
42.76739943376818
 33
0.0
  0
LINE
  5
F4
330
EF
100
AcDbEntity
  8
치수문자_일반주서
100
AcDbLine
 10
50.49394916652363
 20
2.701074928723894
 30
0.0
 11
50.49394916652363
 21
43.25939943376818
 31
0.0
  0
LINE
  5
F5
330
EF
100
AcDbEntity
  8
치수문자_일반주서
100
AcDbLine
 10
-29.50605083347638
 20
3.001074928723888
 30
0.0
 11
-29.50605083347639
 21
43.25939943376818
 31
0.0
  0
LINE
  5
F6
330
EF
100
AcDbEntity
  8
치수문자_일반주서
100
AcDbLine
 10
50.49394916652363
 20
42.25939943376818
 30
0.0
 11
-29.50605083347639
 21
42.25939943376818
 31
0.0
  0
MTEXT
  5
F7
330
EF
100
AcDbEntity
  8
치수문자_일반주서
100
AcDbMText
 10
7.90783797300079
 20
46.77113634834707
 30
0.0
 40
3.5
 41
0.0
 71
     1
 72
     1
  1
80
  7
SLDTEXTSTYLE0
 73
     1
 44
1.0
  0
ENDBLK
  5
F1
330
EF
100
AcDbEntity
  8
0
100
AcDbBlockEnd
  0
BLOCK
  5
FA
330
F9
100
AcDbEntity
  8
0
100
AcDbBlockBegin
  2
_D_3
 70
     0
 10
0.0
 20
0.0
 30
0.0
  3
_D_3
  1
_D_3
  0
SOLID
  5
FC
330
F9
100
AcDbEntity
  8
치수문자_일반주서
100
AcDbTrace
 10
14.49394916652476
 20
30.32107492872395
 30
0.0
 11
17.79594916652475
 21
29.81307492872382
 31
0.0
 12
17.79594916652478
 22
30.82907492872382
 32
0.0
 13
17.79594916652478
 23
30.82907492872382
 33
0.0
  0
SOLID
  5
FD
330
F9
100
AcDbEntity
  8
치수문자_일반주서
100
AcDbTrace
 10
10.2140453559571
 20
30.32107492872411
 30
0.0
 11
6.912045355957115
 21
30.82907492872424
 31
0.0
 12
6.912045355957076
 22
29.81307492872424
 32
0.0
 13
6.912045355957076
 23
29.81307492872424
 33
0.0
  0
LINE
  5
FE
330
F9
100
AcDbEntity
  8
치수문자_일반주서
100
AcDbLine
 10
14.49394916652365
 20
1.401074928723893
 30
0.0
 11
14.4939491665248
 21
31.32107492872394
 31
0.0
  0
LINE
  5
FF
330
F9
100
AcDbEntity
  8
치수문자_일반주서
100
AcDbLine
 10
10.21404535595599
 20
1.551074928723894
 30
0.0
 11
10.21404535595713
 21
31.32107492872411
 31
0.0
  0
LINE
  5
100
330
F9
100
AcDbEntity
  8
치수문자_일반주서
100
AcDbLine
 10
14.49394916652476
 20
30.32107492872395
 30
0.0
 11
55.42440269528608
 21
30.32107492872239
 31
0.0
  0
LINE
  5
101
330
F9
100
AcDbEntity
  8
치수문자_일반주서
100
AcDbLine
 10
14.49394916652476
 20
30.32107492872395
 30
0.0
 11
10.2140453559571
 21
30.32107492872411
 31
0.0
  0
LINE
  5
102
330
F9
100
AcDbEntity
  8
치수문자_일반주서
100
AcDbLine
 10
10.2140453559571
 20
30.32107492872411
 30
0.0
 11
3.864045355957095
 21
30.32107492872435
 31
0.0
  0
MTEXT
  5
103
330
F9
100
AcDbEntity
  8
치수문자_일반주서
100
AcDbMText
 10
46.3730136343715
 20
34.83281184330144
 30
0.0
 40
3.5
 41
0.0
 71
     1
 72
     1
  1
4.28
  7
SLDTEXTSTYLE0
 73
     1
 44
1.0
  0
ENDBLK
  5
FB
330
F9
100
AcDbEntity
  8
0
100
AcDbBlockEnd
  0
BLOCK
  5
106
330
105
100
AcDbEntity
  8
0
100
AcDbBlockBegin
  2
_D_4
 70
     0
 10
0.0
 20
0.0
 30
0.0
  3
_D_4
  1
_D_4
  0
SOLID
  5
108
330
105
100
AcDbEntity
  8
치수문자_일반주서
100
AcDbTrace
 10
68.05059833193548
 20
1.501074928723896
 30
0.0
 11
68.55859833193547
 21
4.803074928723896
 31
0.0
 12
67.54259833193548
 22
4.803074928723896
 32
0.0
 13
67.54259833193548
 23
4.803074928723896
 33
0.0
  0
SOLID
  5
109
330
105
100
AcDbEntity
  8
치수문자_일반주서
100
AcDbTrace
 10
68.05059833193548
 20
-1.480510821134722
 30
0.0
 11
67.54259833193548
 21
-4.782510821134721
 31
0.0
 12
68.55859833193547
 22
-4.782510821134721
 32
0.0
 13
68.55859833193547
 23
-4.782510821134721
 33
0.0
  0
LINE
  5
10A
330
105
100
AcDbEntity
  8
치수문자_일반주서
100
AcDbLine
 10
51.19394916652362
 20
1.501074928723897
 30
0.0
 11
69.05059833193548
 21
1.501074928723896
 31
0.0
  0
LINE
  5
10B
330
105
100
AcDbEntity
  8
치수문자_일반주서
100
AcDbLine
 10
51.19394916652362
 20
-1.480510821134721
 30
0.0
 11
69.05059833193548
 21
-1.480510821134722
 31
0.0
  0
LINE
  5
10C
330
105
100
AcDbEntity
  8
치수문자_일반주서
100
AcDbLine
 10
68.05059833193548
 20
1.501074928723896
 30
0.0
 11
68.05059833193548
 21
7.851074928723896
 31
0.0
  0
LINE
  5
10D
330
105
100
AcDbEntity
  8
치수문자_일반주서
100
AcDbLine
 10
68.05059833193548
 20
1.501074928723896
 30
0.0
 11
68.05059833193548
 21
-1.480510821134722
 31
0.0
  0
LINE
  5
10E
330
105
100
AcDbEntity
  8
치수문자_일반주서
100
AcDbLine
 10
68.05059833193548
 20
-1.480510821134722
 30
0.0
 11
68.05059833193548
 21
-14.32156976103179
 31
0.0
  0
MTEXT
  5
10F
330
105
100
AcDbEntity
  8
치수문자_일반주서
100
AcDbMText
 10
63.53886124273361
 20
-14.32156976103178
 30
0.0
 40
3.5
 41
0.0
 71
     1
 72
     1
  1
%%c
  7
SLDTEXTSTYLE0
 11
-7.044195017643634E-15
 21
1.0
 31
0.0
 73
     1
 44
1.0
  0
MTEXT
  5
110
330
105
100
AcDbEntity
  8
치수문자_일반주서
100
AcDbMText
 10
63.48538906607372
 20
-9.043132362657696
 30
0.0
 40
3.5
 41
0.0
 71
     1
 72
     1
  1
2.98
  7
SLDTEXTSTYLE0
 11
-7.044195017643634E-15
 21
1.0
 31
0.0
 73
     1
 44
1.0
  0
ENDBLK
  5
107
330
105
100
AcDbEntity
  8
0
100
AcDbBlockEnd
  0
BLOCK
  5
112
330
111
100
AcDbEntity
  8
0
100
AcDbBlockBegin
  2
SW_DOWELSYMBOL_0
 70
     0
 10
0.0
 20
0.0
 30
0.0
  3
SW_DOWELSYMBOL_0
  1
SW_DOWELSYMBOL_0
  0
CIRCLE
  5
114
330
111
100
AcDbEntity
  8
외형선
 62
     0
100
AcDbCircle
 10
0.0
 20
0.0
 30
0.0
 40
3.000000000000004
  0
HATCH
  5
115
330
111
100
AcDbEntity
  8
0
  6
Continuous
 62
     0
370
    35
100
AcDbHatch
 10
0.0
 20
0.0
 30
0.0
210
0.0
220
0.0
230
1.0
  2
SOLID
 70
     1
 71
     0
 91
        1
 92
        0
 93
        3
 72
     2
 10
0.0000000000000104
 20
0.0
 40
3.000000000000004
 50
0.0
 51
90.0
 73
     1
 72
     1
 10
0.0000000000000104
 20
3.000000000000004
 11
0.0000000000000104
 21
0.0
 72
     1
 10
0.0000000000000104
 20
0.0
 11
3.000000000000015
 21
0.0
 97
        0
 75
     0
 76
     1
 98
        1
 10
0.0
 20
0.0
  0
HATCH
  5
116
330
111
100
AcDbEntity
  8
0
  6
Continuous
 62
     0
370
    35
100
AcDbHatch
 10
0.0
 20
0.0
 30
0.0
210
0.0
220
0.0
230
1.0
  2
SOLID
 70
     1
 71
     0
 91
        1
 92
        0
 93
        3
 72
     2
 10
0.0000000000000104
 20
0.0
 40
3.000000000000004
 50
180.0
 51
270.0000000000008
 73
     1
 72
     1
 10
0.0000000000000104
 20
-3.000000000000004
 11
0.0000000000000104
 21
0.0
 72
     1
 10
0.0000000000000104
 20
0.0
 11
-2.999999999999994
 21
0.0
 97
        0
 75
     0
 76
     1
 98
        1
 10
0.0
 20
0.0
  0
ENDBLK
  5
113
330
111
100
AcDbEntity
  8
0
100
AcDbBlockEnd
  0
BLOCK
  5
1E7
330
1E6
100
AcDbEntity
  8
0
100
AcDbBlockBegin
  2
*D9
 70
     1
 10
0.0
 20
0.0
 30
0.0
  3
*D9
  1
*D9
  0
LINE
  5
1E8
330
1E6
100
AcDbEntity
  8
치수문자_일반주서
 62
     0
370
    -2
100
AcDbLine
 10
98.32661945210752
 20
15.02917848700787
 30
0.0
 11
115.4241577817843
 21
0.0000000000001297
 31
0.0
  0
MTEXT
  5
1E9
330
1E6
100
AcDbEntity
  8
치수문자_일반주서
 62
     0
100
AcDbMText
 10
114.0355626674142
 20
4.715595685684773
 30
0.0
 40
3.5
 41
0.0
 71
     5
 72
     1
  1
\A1;R0.1
  7
SLDTEXTSTYLE0
 11
0.7510762582291074
 21
-0.660215460531305
 31
0.0
 73
     1
 44
1.0
  0
LINE
  5
1EA
330
1E6
100
AcDbEntity
  8
치수문자_일반주서
 62
     0
370
    -2
100
AcDbLine
 10
95.7714580216121
 20
17.27523148373537
 30
0.0
 11
95.84656564743501
 21
17.20920993768224
 31
0.0
  0
SOLID
  5
1EB
330
1E6
100
AcDbEntity
  8
치수문자_일반주서
 62
     0
100
AcDbTrace
 10
98.68995802721992
 20
15.44252078778663
 30
0.0
 11
97.96328087699513
 21
14.61583618622912
 31
0.0
 12
95.84656564743501
 22
17.20920993768224
 32
0.0
 13
95.84656564743501
 23
17.20920993768224
 33
0.0
  0
POINT
  5
1EC
330
1E6
100
AcDbEntity
  8
Defpoints
 62
     0
100
AcDbPoint
 10
95.84656564743501
 20
17.20920993768224
 30
0.0
  0
POINT
  5
1ED
330
1E6
100
AcDbEntity
  8
Defpoints
 62
     0
100
AcDbPoint
 10
95.7714580216121
 20
17.27523148373537
 30
0.0
  0
ENDBLK
  5
1EE
330
1E6
100
AcDbEntity
  8
0
100
AcDbBlockEnd
  0
BLOCK
  5
1F3
330
1F2
100
AcDbEntity
  8
0
100
AcDbBlockBegin
  2
*D10
 70
     1
 10
0.0
 20
0.0
 30
0.0
  3
*D10
  1
*D10
  0
LINE
  5
1F5
330
1F2
100
AcDbEntity
  8
치수문자_일반주서
 62
     0
370
    -2
100
AcDbLine
 10
16.80895802161208
 20
22.17031085421749
 30
0.0
 11
4.374999999999996
 21
22.17031085421744
 31
0.0
  0
LINE
  5
1F6
330
1F2
100
AcDbEntity
  8
치수문자_일반주서
 62
     0
370
    -2
100
AcDbLine
 10
16.80895802161208
 20
16.17031085421749
 30
0.0
 11
4.375000000000018
 21
16.17031085421744
 31
0.0
  0
LINE
  5
1F7
330
1F2
100
AcDbEntity
  8
치수문자_일반주서
 62
     0
370
    -2
100
AcDbLine
 10
4.375000000000008
 20
18.86831085421744
 30
0.0
 11
4.375000000000006
 21
19.47231085421744
 31
0.0
  0
SOLID
  5
1F8
330
1F2
100
AcDbEntity
  8
치수문자_일반주서
 62
     0
100
AcDbTrace
 10
4.925333333333342
 20
18.86831085421744
 30
0.0
 11
3.824666666666675
 21
18.86831085421744
 31
0.0
 12
4.374999999999996
 22
22.17031085421744
 32
0.0
 13
4.374999999999996
 23
22.17031085421744
 33
0.0
  0
SOLID
  5
1F9
330
1F2
100
AcDbEntity
  8
치수문자_일반주서
 62
     0
100
AcDbTrace
 10
3.824666666666673
 20
19.47231085421744
 30
0.0
 11
4.92533333333334
 21
19.47231085421745
 31
0.0
 12
4.375000000000018
 22
16.17031085421744
 32
0.0
 13
4.375000000000018
 23
16.17031085421744
 33
0.0
  0
MTEXT
  5
1FA
330
1F2
100
AcDbEntity
  8
치수문자_일반주서
 62
     0
100
AcDbMText
 10
0.0000000000000071
 20
19.17031085421747
 30
0.0
 40
3.5
 41
0.0
 71
     2
 72
     1
  1
\A1;%%c6
  7
SLDTEXTSTYLE0
 11
-3.552713678800503E-15
 21
1.0
 31
0.0
 73
     1
 44
1.0
  0
POINT
  5
1FB
330
1F2
100
AcDbEntity
  8
Defpoints
 62
     0
100
AcDbPoint
 10
16.87145802161208
 20
22.17031085421749
 30
0.0
  0
POINT
  5
1FC
330
1F2
100
AcDbEntity
  8
Defpoints
 62
     0
100
AcDbPoint
 10
16.87145802161208
 20
16.17031085421749
 30
0.0
  0
POINT
  5
1FD
330
1F2
100
AcDbEntity
  8
Defpoints
 62
     0
100
AcDbPoint
 10
4.375000000000021
 20
16.17031085421744
 30
0.0
  0
ENDBLK
  5
1F4
330
1F2
100
AcDbEntity
  8
0
100
AcDbBlockEnd
  0
BLOCK
  5
1FF
330
1FE
100
AcDbEntity
  8
0
100
AcDbBlockBegin
  2
*D11
 70
     1
 10
0.0
 20
0.0
 30
0.0
  3
*D11
  1
*D11
  0
LINE
  5
201
330
1FE
100
AcDbEntity
  8
치수문자_일반주서
 62
     0
370
    -2
100
AcDbLine
 10
95.87145802161209
 20
21.13281085421749
 30
0.0
 11
95.87145802161209
 21
39.57031085421715
 31
0.0
  0
LINE
  5
202
330
1FE
100
AcDbEntity
  8
치수문자_일반주서
 62
     0
370
    -2
100
AcDbLine
 10
89.87145802161209
 20
20.81432500817371
 30
0.0
 11
89.87145802161209
 21
39.57031085421715
 31
0.0
  0
LINE
  5
203
330
1FE
100
AcDbEntity
  8
치수문자_일반주서
 62
     0
370
    -2
100
AcDbLine
 10
92.56945802161209
 20
39.57031085421715
 30
0.0
 11
93.17345802161208
 21
39.57031085421715
 31
0.0
  0
SOLID
  5
204
330
1FE
100
AcDbEntity
  8
치수문자_일반주서
 62
     0
100
AcDbTrace
 10
92.56945802161209
 20
39.01997752088381
 30
0.0
 11
92.56945802161209
 21
40.12064418755048
 31
0.0
 12
95.87145802161209
 22
39.57031085421715
 32
0.0
 13
95.87145802161209
 23
39.57031085421715
 33
0.0
  0
SOLID
  5
205
330
1FE
100
AcDbEntity
  8
치수문자_일반주서
 62
     0
100
AcDbTrace
 10
93.17345802161208
 20
40.12064418755048
 30
0.0
 11
93.17345802161208
 21
39.01997752088381
 31
0.0
 12
89.87145802161209
 22
39.57031085421715
 32
0.0
 13
89.87145802161209
 23
39.57031085421715
 33
0.0
  0
MTEXT
  5
206
330
1FE
100
AcDbEntity
  8
치수문자_일반주서
 62
     0
100
AcDbMText
 10
92.87145802161209
 20
43.94531085421715
 30
0.0
 40
3.5
 41
0.0
 71
     2
 72
     1
  1
\A1;6
  7
SLDTEXTSTYLE0
 73
     1
 44
1.0
  0
POINT
  5
207
330
1FE
100
AcDbEntity
  8
Defpoints
 62
     0
100
AcDbPoint
 10
95.87145802161209
 20
21.07031085421749
 30
0.0
  0
POINT
  5
208
330
1FE
100
AcDbEntity
  8
Defpoints
 62
     0
100
AcDbPoint
 10
89.87145802161209
 20
20.75182500817371
 30
0.0
  0
POINT
  5
209
330
1FE
100
AcDbEntity
  8
Defpoints
 62
     0
100
AcDbPoint
 10
89.87145802161209
 20
39.57031085421715
 30
0.0
  0
ENDBLK
  5
200
330
1FE
100
AcDbEntity
  8
0
100
AcDbBlockEnd
  0
BLOCK
  5
20B
330
20A
100
AcDbEntity
  8
0
100
AcDbBlockBegin
  2
*D12
 70
     1
 10
0.0
 20
0.0
 30
0.0
  3
*D12
  1
*D12
  0
LINE
  5
20D
330
20A
100
AcDbEntity
  8
치수문자_일반주서
 62
     0
370
    -2
100
AcDbLine
 10
95.87145802161209
 20
21.13281085421749
 30
0.0
 11
95.87145802161209
 21
61.62863535926178
 31
0.0
  0
LINE
  5
20E
330
20A
100
AcDbEntity
  8
치수문자_일반주서
 62
     0
370
    -2
100
AcDbLine
 10
15.87145802161208
 20
21.23281085421749
 30
0.0
 11
15.87145802161208
 21
61.62863535926178
 31
0.0
  0
LINE
  5
20F
330
20A
100
AcDbEntity
  8
치수문자_일반주서
 62
     0
370
    -2
100
AcDbLine
 10
92.56945802161209
 20
61.62863535926178
 30
0.0
 11
19.17345802161208
 21
61.62863535926178
 31
0.0
  0
SOLID
  5
210
330
20A
100
AcDbEntity
  8
치수문자_일반주서
 62
     0
100
AcDbTrace
 10
92.56945802161209
 20
61.07830202592844
 30
0.0
 11
92.56945802161209
 21
62.17896869259511
 31
0.0
 12
95.87145802161209
 22
61.62863535926178
 32
0.0
 13
95.87145802161209
 23
61.62863535926178
 33
0.0
  0
SOLID
  5
211
330
20A
100
AcDbEntity
  8
치수문자_일반주서
 62
     0
100
AcDbTrace
 10
19.17345802161208
 20
62.17896869259511
 30
0.0
 11
19.17345802161208
 21
61.07830202592844
 31
0.0
 12
15.87145802161208
 22
61.62863535926178
 32
0.0
 13
15.87145802161208
 23
61.62863535926178
 33
0.0
  0
MTEXT
  5
212
330
20A
100
AcDbEntity
  8
치수문자_일반주서
 62
     0
100
AcDbMText
 10
55.87145802161208
 20
66.00363535926178
 30
0.0
 40
3.5
 41
0.0
 71
     2
 72
     1
  1
\A1;80
  7
SLDTEXTSTYLE0
 73
     1
 44
1.0
  0
POINT
  5
213
330
20A
100
AcDbEntity
  8
Defpoints
 62
     0
100
AcDbPoint
 10
95.87145802161209
 20
21.07031085421749
 30
0.0
  0
POINT
  5
214
330
20A
100
AcDbEntity
  8
Defpoints
 62
     0
100
AcDbPoint
 10
15.87145802161208
 20
21.17031085421749
 30
0.0
  0
POINT
  5
215
330
20A
100
AcDbEntity
  8
Defpoints
 62
     0
100
AcDbPoint
 10
15.87145802161208
 20
61.62863535926178
 30
0.0
  0
ENDBLK
  5
20C
330
20A
100
AcDbEntity
  8
0
100
AcDbBlockEnd
  0
BLOCK
  5
217
330
216
100
AcDbEntity
  8
0
100
AcDbBlockBegin
  2
*D13
 70
     1
 10
0.0
 20
0.0
 30
0.0
  3
*D13
  1
*D13
  0
LINE
  5
219
330
216
100
AcDbEntity
  8
치수문자_일반주서
 62
     0
370
    -2
100
AcDbLine
 10
95.87145802161209
 20
21.06466641070954
 30
0.0
 11
95.87145802161209
 21
49.49031085421615
 31
0.0
  0
LINE
  5
21A
330
216
100
AcDbEntity
  8
치수문자_일반주서
 62
     0
370
    -2
100
AcDbLine
 10
55.87145802161208
 20
21.15781085421749
 30
0.0
 11
55.87145802161208
 21
49.49031085421615
 31
0.0
  0
LINE
  5
21B
330
216
100
AcDbEntity
  8
치수문자_일반주서
 62
     0
370
    -2
100
AcDbLine
 10
92.56945802161209
 20
49.49031085421615
 30
0.0
 11
59.17345802161208
 21
49.49031085421615
 31
0.0
  0
SOLID
  5
21C
330
216
100
AcDbEntity
  8
치수문자_일반주서
 62
     0
100
AcDbTrace
 10
92.56945802161209
 20
48.93997752088281
 30
0.0
 11
92.56945802161209
 21
50.04064418754948
 31
0.0
 12
95.87145802161209
 22
49.49031085421615
 32
0.0
 13
95.87145802161209
 23
49.49031085421615
 33
0.0
  0
SOLID
  5
21D
330
216
100
AcDbEntity
  8
치수문자_일반주서
 62
     0
100
AcDbTrace
 10
59.17345802161208
 20
50.04064418754948
 30
0.0
 11
59.17345802161208
 21
48.93997752088281
 31
0.0
 12
55.87145802161208
 22
49.49031085421615
 32
0.0
 13
55.87145802161208
 23
49.49031085421615
 33
0.0
  0
MTEXT
  5
21E
330
216
100
AcDbEntity
  8
치수문자_일반주서
 62
     0
100
AcDbMText
 10
75.87145802161209
 20
53.86531085421615
 30
0.0
 40
3.5
 41
0.0
 71
     2
 72
     1
  1
\A1;40
  7
SLDTEXTSTYLE0
 73
     1
 44
1.0
  0
POINT
  5
21F
330
216
100
AcDbEntity
  8
Defpoints
 62
     0
100
AcDbPoint
 10
95.87145802161209
 20
21.00216641070954
 30
0.0
  0
POINT
  5
220
330
216
100
AcDbEntity
  8
Defpoints
 62
     0
100
AcDbPoint
 10
55.87145802161208
 20
21.09531085421749
 30
0.0
  0
POINT
  5
221
330
216
100
AcDbEntity
  8
Defpoints
 62
     0
100
AcDbPoint
 10
55.87145802161208
 20
49.49031085421615
 30
0.0
  0
ENDBLK
  5
218
330
216
100
AcDbEntity
  8
0
100
AcDbBlockEnd
  0
BLOCK
  5
223
330
222
100
AcDbEntity
  8
0
100
AcDbBlockBegin
  2
*D14
 70
     1
 10
0.0
 20
0.0
 30
0.0
  3
*D14
  1
*D14
  0
LINE
  5
225
330
222
100
AcDbEntity
  8
치수문자_일반주서
 62
     0
370
    -2
100
AcDbLine
 10
95.93395802161209
 20
21.17075113126276
 30
0.0
 11
113.1529405203573
 21
21.17075113126282
 31
0.0
  0
LINE
  5
226
330
222
100
AcDbEntity
  8
치수문자_일반주서
 62
     0
370
    -2
100
AcDbLine
 10
95.83395802161209
 20
17.17523148373536
 30
0.0
 11
113.1529405203573
 21
17.17523148373543
 31
0.0
  0
LINE
  5
227
330
222
100
AcDbEntity
  8
치수문자_일반주서
 62
     0
370
    -2
100
AcDbLine
 10
113.1529405203573
 20
21.17075113126282
 30
0.0
 11
113.1529405203572
 21
33.89975113126282
 31
0.0
  0
LINE
  5
228
330
222
100
AcDbEntity
  8
치수문자_일반주서
 62
     0
370
    -2
100
AcDbLine
 10
113.1529405203573
 20
17.86875113126282
 30
0.0
 11
113.1529405203573
 21
20.47723148373543
 31
0.0
  0
SOLID
  5
229
330
222
100
AcDbEntity
  8
치수문자_일반주서
 62
     0
100
AcDbTrace
 10
113.7032738536906
 20
17.86875113126283
 30
0.0
 11
112.6026071870239
 21
17.86875113126282
 31
0.0
 12
113.1529405203573
 22
21.17075113126282
 32
0.0
 13
113.1529405203573
 23
21.17075113126282
 33
0.0
  0
SOLID
  5
22A
330
222
100
AcDbEntity
  8
치수문자_일반주서
 62
     0
100
AcDbTrace
 10
112.6026071870239
 20
20.47723148373542
 30
0.0
 11
113.7032738536906
 21
20.47723148373543
 31
0.0
 12
113.1529405203573
 22
17.17523148373543
 32
0.0
 13
113.1529405203573
 23
17.17523148373543
 33
0.0
  0
MTEXT
  5
22B
330
222
100
AcDbEntity
  8
치수문자_일반주서
 62
     0
100
AcDbMText
 10
108.7779405203572
 20
30.8372511312628
 30
0.0
 40
3.5
 41
0.0
 71
     2
 72
     1
  1
\A1;%%c4
  7
SLDTEXTSTYLE0
 11
-3.556697493402719E-15
 21
1.0
 31
0.0
 73
     1
 44
1.0
  0
POINT
  5
22C
330
222
100
AcDbEntity
  8
Defpoints
 62
     0
100
AcDbPoint
 10
95.87145802161209
 20
21.17075113126276
 30
0.0
  0
POINT
  5
22D
330
222
100
AcDbEntity
  8
Defpoints
 62
     0
100
AcDbPoint
 10
95.77145802161209
 20
17.17523148373536
 30
0.0
  0
POINT
  5
22E
330
222
100
AcDbEntity
  8
Defpoints
 62
     0
100
AcDbPoint
 10
113.1529405203573
 20
17.17523148373543
 30
0.0
  0
ENDBLK
  5
224
330
222
100
AcDbEntity
  8
0
100
AcDbBlockEnd
  0
BLOCK
  5
26E
330
26D
100
AcDbEntity
  8
0
100
AcDbBlockBegin
  2
*D15
 70
     1
 10
0.0
 20
0.0
 30
0.0
  3
*D15
  1
*D15
  0
LINE
  5
270
330
26D
100
AcDbEntity
  8
치수문자_일반주서
 62
     0
370
    -2
100
AcDbLine
 10
-33.05054538186349
 20
2.999999999999996
 30
0.0
 11
-45.48450340347558
 21
2.999999999999949
 31
0.0
  0
LINE
  5
271
330
26D
100
AcDbEntity
  8
치수문자_일반주서
 62
     0
370
    -2
100
AcDbLine
 10
-33.05054538186349
 20
-3.0
 30
0.0
 11
-45.48450340347556
 21
-3.000000000000048
 31
0.0
  0
LINE
  5
272
330
26D
100
AcDbEntity
  8
치수문자_일반주서
 62
     0
370
    -2
100
AcDbLine
 10
-45.48450340347556
 20
-0.3020000000000507
 30
0.0
 11
-45.48450340347557
 21
0.3019999999999521
 31
0.0
  0
SOLID
  5
273
330
26D
100
AcDbEntity
  8
치수문자_일반주서
 62
     0
100
AcDbTrace
 10
-44.93417007014223
 20
-0.3020000000000487
 30
0.0
 11
-46.0348367368089
 21
-0.3020000000000526
 31
0.0
 12
-45.48450340347558
 22
2.999999999999949
 32
0.0
 13
-45.48450340347558
 23
2.999999999999949
 33
0.0
  0
SOLID
  5
274
330
26D
100
AcDbEntity
  8
치수문자_일반주서
 62
     0
100
AcDbTrace
 10
-46.03483673680891
 20
0.3019999999999501
 30
0.0
 11
-44.93417007014224
 21
0.301999999999954
 31
0.0
 12
-45.48450340347556
 22
-3.000000000000048
 32
0.0
 13
-45.48450340347556
 23
-3.000000000000048
 33
0.0
  0
MTEXT
  5
275
330
26D
100
AcDbEntity
  8
치수문자_일반주서
 62
     0
100
AcDbMText
 10
-49.85950340347557
 20
-0.0000000000000154
 30
0.0
 40
3.5
 41
0.0
 71
     2
 72
     1
  1
\A1;%%c6
  7
SLDTEXTSTYLE0
 11
-3.552713678800503E-15
 21
1.0
 31
0.0
 73
     1
 44
1.0
  0
POINT
  5
276
330
26D
100
AcDbEntity
  8
Defpoints
 62
     0
100
AcDbPoint
 10
-32.98804538186349
 20
2.999999999999996
 30
0.0
  0
POINT
  5
277
330
26D
100
AcDbEntity
  8
Defpoints
 62
     0
100
AcDbPoint
 10
-32.98804538186349
 20
-3.0
 30
0.0
  0
POINT
  5
278
330
26D
100
AcDbEntity
  8
Defpoints
 62
     0
100
AcDbPoint
 10
-45.48450340347556
 20
-3.000000000000047
 30
0.0
  0
ENDBLK
  5
26F
330
26D
100
AcDbEntity
  8
0
100
AcDbBlockEnd
  0
BLOCK
  5
27A
330
279
100
AcDbEntity
  8
0
100
AcDbBlockBegin
  2
*D16
 70
     1
 10
0.0
 20
0.0
 30
0.0
  3
*D16
  1
*D16
  0
LINE
  5
27C
330
279
100
AcDbEntity
  8
치수문자_일반주서
 62
     0
370
    -2
100
AcDbLine
 10
46.01195461813651
 20
1.962500000000002
 30
0.0
 11
46.01195461813651
 21
20.39999999999966
 31
0.0
  0
LINE
  5
27D
330
279
100
AcDbEntity
  8
치수문자_일반주서
 62
     0
370
    -2
100
AcDbLine
 10
40.01195461813651
 20
1.644014153956217
 30
0.0
 11
40.01195461813651
 21
20.39999999999966
 31
0.0
  0
LINE
  5
27E
330
279
100
AcDbEntity
  8
치수문자_일반주서
 62
     0
370
    -2
100
AcDbLine
 10
42.70995461813651
 20
20.39999999999966
 30
0.0
 11
43.31395461813651
 21
20.39999999999966
 31
0.0
  0
SOLID
  5
27F
330
279
100
AcDbEntity
  8
치수문자_일반주서
 62
     0
100
AcDbTrace
 10
42.70995461813651
 20
19.84966666666632
 30
0.0
 11
42.70995461813651
 21
20.95033333333299
 31
0.0
 12
46.01195461813651
 22
20.39999999999966
 32
0.0
 13
46.01195461813651
 23
20.39999999999966
 33
0.0
  0
SOLID
  5
280
330
279
100
AcDbEntity
  8
치수문자_일반주서
 62
     0
100
AcDbTrace
 10
43.31395461813651
 20
20.95033333333299
 30
0.0
 11
43.31395461813651
 21
19.84966666666632
 31
0.0
 12
40.01195461813651
 22
20.39999999999966
 32
0.0
 13
40.01195461813651
 23
20.39999999999966
 33
0.0
  0
MTEXT
  5
281
330
279
100
AcDbEntity
  8
치수문자_일반주서
 62
     0
100
AcDbMText
 10
43.01195461813651
 20
24.77499999999966
 30
0.0
 40
3.5
 41
0.0
 71
     2
 72
     1
  1
\A1;6
  7
SLDTEXTSTYLE0
 73
     1
 44
1.0
  0
POINT
  5
282
330
279
100
AcDbEntity
  8
Defpoints
 62
     0
100
AcDbPoint
 10
46.01195461813651
 20
1.900000000000002
 30
0.0
  0
POINT
  5
283
330
279
100
AcDbEntity
  8
Defpoints
 62
     0
100
AcDbPoint
 10
40.01195461813651
 20
1.581514153956217
 30
0.0
  0
POINT
  5
284
330
279
100
AcDbEntity
  8
Defpoints
 62
     0
100
AcDbPoint
 10
40.01195461813651
 20
20.39999999999966
 30
0.0
  0
ENDBLK
  5
27B
330
279
100
AcDbEntity
  8
0
100
AcDbBlockEnd
  0
BLOCK
  5
286
330
285
100
AcDbEntity
  8
0
100
AcDbBlockBegin
  2
*D17
 70
     1
 10
0.0
 20
0.0
 30
0.0
  3
*D17
  1
*D17
  0
LINE
  5
288
330
285
100
AcDbEntity
  8
치수문자_일반주서
 62
     0
370
    -2
100
AcDbLine
 10
46.01195461813651
 20
1.962500000000002
 30
0.0
 11
46.01195461813651
 21
42.45832450504429
 31
0.0
  0
LINE
  5
289
330
285
100
AcDbEntity
  8
치수문자_일반주서
 62
     0
370
    -2
100
AcDbLine
 10
-33.98804538186349
 20
2.062499999999996
 30
0.0
 11
-33.98804538186349
 21
42.45832450504429
 31
0.0
  0
LINE
  5
28A
330
285
100
AcDbEntity
  8
치수문자_일반주서
 62
     0
370
    -2
100
AcDbLine
 10
42.70995461813651
 20
42.45832450504429
 30
0.0
 11
-30.68604538186349
 21
42.45832450504429
 31
0.0
  0
SOLID
  5
28B
330
285
100
AcDbEntity
  8
치수문자_일반주서
 62
     0
100
AcDbTrace
 10
42.70995461813651
 20
41.90799117171095
 30
0.0
 11
42.70995461813651
 21
43.00865783837762
 31
0.0
 12
46.01195461813651
 22
42.45832450504429
 32
0.0
 13
46.01195461813651
 23
42.45832450504429
 33
0.0
  0
SOLID
  5
28C
330
285
100
AcDbEntity
  8
치수문자_일반주서
 62
     0
100
AcDbTrace
 10
-30.68604538186349
 20
43.00865783837762
 30
0.0
 11
-30.68604538186349
 21
41.90799117171095
 31
0.0
 12
-33.98804538186349
 22
42.45832450504429
 32
0.0
 13
-33.98804538186349
 23
42.45832450504429
 33
0.0
  0
MTEXT
  5
28D
330
285
100
AcDbEntity
  8
치수문자_일반주서
 62
     0
100
AcDbMText
 10
6.011954618136514
 20
46.83332450504429
 30
0.0
 40
3.5
 41
0.0
 71
     2
 72
     1
  1
\A1;80
  7
SLDTEXTSTYLE0
 73
     1
 44
1.0
  0
POINT
  5
28E
330
285
100
AcDbEntity
  8
Defpoints
 62
     0
100
AcDbPoint
 10
46.01195461813651
 20
1.900000000000002
 30
0.0
  0
POINT
  5
28F
330
285
100
AcDbEntity
  8
Defpoints
 62
     0
100
AcDbPoint
 10
-33.98804538186349
 20
1.999999999999996
 30
0.0
  0
POINT
  5
290
330
285
100
AcDbEntity
  8
Defpoints
 62
     0
100
AcDbPoint
 10
-33.98804538186349
 20
42.45832450504429
 30
0.0
  0
ENDBLK
  5
287
330
285
100
AcDbEntity
  8
0
100
AcDbBlockEnd
  0
BLOCK
  5
292
330
291
100
AcDbEntity
  8
0
100
AcDbBlockBegin
  2
*D18
 70
     1
 10
0.0
 20
0.0
 30
0.0
  3
*D18
  1
*D18
  0
LINE
  5
294
330
291
100
AcDbEntity
  8
치수문자_일반주서
 62
     0
370
    -2
100
AcDbLine
 10
46.01195461813651
 20
1.894355556492052
 30
0.0
 11
46.01195461813651
 21
30.31999999999866
 31
0.0
  0
LINE
  5
295
330
291
100
AcDbEntity
  8
치수문자_일반주서
 62
     0
370
    -2
100
AcDbLine
 10
6.011954618136514
 20
1.987500000000001
 30
0.0
 11
6.011954618136514
 21
30.31999999999866
 31
0.0
  0
LINE
  5
296
330
291
100
AcDbEntity
  8
치수문자_일반주서
 62
     0
370
    -2
100
AcDbLine
 10
42.70995461813651
 20
30.31999999999866
 30
0.0
 11
9.313954618136513
 21
30.31999999999866
 31
0.0
  0
SOLID
  5
297
330
291
100
AcDbEntity
  8
치수문자_일반주서
 62
     0
100
AcDbTrace
 10
42.70995461813651
 20
29.76966666666532
 30
0.0
 11
42.70995461813651
 21
30.87033333333199
 31
0.0
 12
46.01195461813651
 22
30.31999999999866
 32
0.0
 13
46.01195461813651
 23
30.31999999999866
 33
0.0
  0
SOLID
  5
298
330
291
100
AcDbEntity
  8
치수문자_일반주서
 62
     0
100
AcDbTrace
 10
9.313954618136513
 20
30.87033333333199
 30
0.0
 11
9.313954618136513
 21
29.76966666666532
 31
0.0
 12
6.011954618136514
 22
30.31999999999866
 32
0.0
 13
6.011954618136514
 23
30.31999999999866
 33
0.0
  0
MTEXT
  5
299
330
291
100
AcDbEntity
  8
치수문자_일반주서
 62
     0
100
AcDbMText
 10
26.01195461813651
 20
34.69499999999866
 30
0.0
 40
3.5
 41
0.0
 71
     2
 72
     1
  1
\A1;40
  7
SLDTEXTSTYLE0
 73
     1
 44
1.0
  0
POINT
  5
29A
330
291
100
AcDbEntity
  8
Defpoints
 62
     0
100
AcDbPoint
 10
46.01195461813651
 20
1.831855556492052
 30
0.0
  0
POINT
  5
29B
330
291
100
AcDbEntity
  8
Defpoints
 62
     0
100
AcDbPoint
 10
6.011954618136514
 20
1.925000000000001
 30
0.0
  0
POINT
  5
29C
330
291
100
AcDbEntity
  8
Defpoints
 62
     0
100
AcDbPoint
 10
6.011954618136514
 20
30.31999999999866
 30
0.0
  0
ENDBLK
  5
293
330
291
100
AcDbEntity
  8
0
100
AcDbBlockEnd
  0
BLOCK
  5
29E
330
29D
100
AcDbEntity
  8
0
100
AcDbBlockBegin
  2
*D19
 70
     1
 10
0.0
 20
0.0
 30
0.0
  3
*D19
  1
*D19
  0
LINE
  5
2A0
330
29D
100
AcDbEntity
  8
치수문자_일반주서
 62
     0
370
    -2
100
AcDbLine
 10
46.07445461813651
 20
2.000440277045268
 30
0.0
 11
63.29343711688168
 21
2.000440277045332
 31
0.0
  0
LINE
  5
2A1
330
29D
100
AcDbEntity
  8
치수문자_일반주서
 62
     0
370
    -2
100
AcDbLine
 10
45.97445461813652
 20
-1.995079370482127
 30
0.0
 11
63.2934371168817
 21
-1.995079370482063
 31
0.0
  0
LINE
  5
2A2
330
29D
100
AcDbEntity
  8
치수문자_일반주서
 62
     0
370
    -2
100
AcDbLine
 10
63.29343711688168
 20
2.000440277045332
 30
0.0
 11
63.29343711688163
 21
14.72944027704533
 31
0.0
  0
LINE
  5
2A3
330
29D
100
AcDbEntity
  8
치수문자_일반주서
 62
     0
370
    -2
100
AcDbLine
 10
63.2934371168817
 20
-1.301559722954668
 30
0.0
 11
63.29343711688168
 21
1.306920629517936
 31
0.0
  0
SOLID
  5
2A4
330
29D
100
AcDbEntity
  8
치수문자_일반주서
 62
     0
100
AcDbTrace
 10
63.84377045021503
 20
-1.301559722954666
 30
0.0
 11
62.74310378354836
 21
-1.30155972295467
 31
0.0
 12
63.29343711688168
 22
2.000440277045332
 32
0.0
 13
63.29343711688168
 23
2.000440277045332
 33
0.0
  0
SOLID
  5
2A5
330
29D
100
AcDbEntity
  8
치수문자_일반주서
 62
     0
100
AcDbTrace
 10
62.74310378354835
 20
1.306920629517934
 30
0.0
 11
63.84377045021502
 21
1.306920629517938
 31
0.0
 12
63.2934371168817
 22
-1.995079370482063
 32
0.0
 13
63.2934371168817
 23
-1.995079370482063
 33
0.0
  0
MTEXT
  5
2A6
330
29D
100
AcDbEntity
  8
치수문자_일반주서
 62
     0
100
AcDbMText
 10
58.91843711688165
 20
11.66694027704532
 30
0.0
 40
3.5
 41
0.0
 71
     2
 72
     1
  1
\A1;%%c4
  7
SLDTEXTSTYLE0
 11
-3.556697493402720E-15
 21
1.0
 31
0.0
 73
     1
 44
1.0
  0
POINT
  5
2A7
330
29D
100
AcDbEntity
  8
Defpoints
 62
     0
100
AcDbPoint
 10
46.01195461813651
 20
2.000440277045268
 30
0.0
  0
POINT
  5
2A8
330
29D
100
AcDbEntity
  8
Defpoints
 62
     0
100
AcDbPoint
 10
45.91195461813652
 20
-1.995079370482127
 30
0.0
  0
POINT
  5
2A9
330
29D
100
AcDbEntity
  8
Defpoints
 62
     0
100
AcDbPoint
 10
63.29343711688165
 20
-1.995079370482062
 30
0.0
  0
ENDBLK
  5
29F
330
29D
100
AcDbEntity
  8
0
100
AcDbBlockEnd
  0
BLOCK
  5
2AB
330
2AA
100
AcDbEntity
  8
0
100
AcDbBlockBegin
  2
*D20
 70
     1
 10
0.0
 20
0.0
 30
0.0
  3
*D20
  1
*D20
  0
LINE
  5
2AD
330
2AA
100
AcDbEntity
  8
치수문자_일반주서
 62
     0
370
    -2
100
AcDbLine
 10
48.46711604863194
 20
-4.141132367209616
 30
0.0
 11
65.5646543783087
 21
-19.17031085421737
 31
0.0
  0
MTEXT
  5
2AE
330
2AA
100
AcDbEntity
  8
치수문자_일반주서
 62
     0
100
AcDbMText
 10
64.17605926393864
 20
-14.45471516853272
 30
0.0
 40
3.5
 41
0.0
 71
     5
 72
     1
  1
\A1;R0.1
  7
SLDTEXTSTYLE0
 11
0.7510762582291074
 21
-0.660215460531305
 31
0.0
 73
     1
 44
1.0
  0
LINE
  5
2AF
330
2AA
100
AcDbEntity
  8
치수문자_일반주서
 62
     0
370
    -2
100
AcDbLine
 10
45.91195461813652
 20
-1.895079370482119
 30
0.0
 11
45.98706224395943
 21
-1.961100916535248
 31
0.0
  0
SOLID
  5
2B0
330
2AA
100
AcDbEntity
  8
치수문자_일반주서
 62
     0
100
AcDbTrace
 10
48.83045462374434
 20
-3.727790066430864
 30
0.0
 11
48.10377747351955
 21
-4.554474667988369
 31
0.0
 12
45.98706224395943
 22
-1.961100916535248
 32
0.0
 13
45.98706224395943
 23
-1.961100916535248
 33
0.0
  0
POINT
  5
2B1
330
2AA
100
AcDbEntity
  8
Defpoints
 62
     0
100
AcDbPoint
 10
45.98706224395943
 20
-1.961100916535248
 30
0.0
  0
POINT
  5
2B2
330
2AA
100
AcDbEntity
  8
Defpoints
 62
     0
100
AcDbPoint
 10
45.91195461813652
 20
-1.895079370482119
 30
0.0
  0
ENDBLK
  5
2AC
330
2AA
100
AcDbEntity
  8
0
100
AcDbBlockEnd
  0
BLOCK
  5
2BD
330
2BC
100
AcDbEntity
  8
0
100
AcDbBlockBegin
  2
*D21
 70
     1
 10
0.0
 20
0.0
 30
0.0
  3
*D21
  1
*D21
  0
LINE
  5
2BF
330
2BC
100
AcDbEntity
  8
치수문자_일반주서
 62
     0
370
    -2
100
AcDbLine
 10
47.52951538151198
 20
-4.804882719801494
 30
0.0
 11
55.41856175106788
 21
-18.30285391137742
 31
0.0
  0
MTEXT
  5
2C0
330
2BC
100
AcDbEntity
  8
치수문자_일반주서
 62
     0
100
AcDbMText
 10
55.36687214396275
 20
-13.0122497637382
 30
0.0
 40
3.5
 41
0.0
 71
     5
 72
     1
  1
\A1;R0.3
  7
SLDTEXTSTYLE0
 11
0.5045976577944099
 21
-0.8633546222430245
 31
0.0
 73
     1
 44
1.0
  0
LINE
  5
2C1
330
2BC
100
AcDbEntity
  8
치수문자_일반주서
 62
     0
370
    -2
100
AcDbLine
 10
45.71195461813652
 20
-1.69507937048212
 30
0.0
 11
45.86333391547485
 21
-1.954085757155028
 31
0.0
  0
SOLID
  5
2C2
330
2BC
100
AcDbEntity
  8
치수문자_일반주서
 62
     0
100
AcDbTrace
 10
48.00464820861973
 20
-4.527185808795304
 30
0.0
 11
47.05438255440424
 21
-5.082579630807684
 31
0.0
 12
45.86333391547485
 22
-1.954085757155028
 32
0.0
 13
45.86333391547485
 23
-1.954085757155028
 33
0.0
  0
POINT
  5
2C3
330
2BC
100
AcDbEntity
  8
Defpoints
 62
     0
100
AcDbPoint
 10
45.86333391547485
 20
-1.954085757155028
 30
0.0
  0
POINT
  5
2C4
330
2BC
100
AcDbEntity
  8
Defpoints
 62
     0
100
AcDbPoint
 10
45.71195461813652
 20
-1.69507937048212
 30
0.0
  0
ENDBLK
  5
2BE
330
2BC
100
AcDbEntity
  8
0
100
AcDbBlockEnd
  0
ENDSEC
  0
SECTION
  2
ENTITIES
  0
INSERT
  5
CC
330
1F
100
AcDbEntity
  8
0
  6
Continuous
 62
     7
100
AcDbBlockReference
 66
     1
  2
블럭10
 10
-22.93944368806589
 20
-52.04609937292004
 30
0.0
  0
ATTRIB
  5
CD
330
CC
100
AcDbEntity
  8
FORMAT
 62
     2
100
AcDbText
 10
-42.21802657207924
 20
-49.97073246008785
 30
0.0
 40
4.233333333333333
  1
SEME610400340E [ 2 FLUTE ]
 41
0.75
  7
SLDTEXTSTYLE0
 11
-42.21802657207924
 21
-52.08739912675452
 31
0.0
100
AcDbAttribute
  2
AUTOATTR0
 70
     0
 74
     1
  0
SEQEND
  5
CE
330
CC
100
AcDbEntity
  8
0
  6
Continuous
 62
     7
  0
HATCH
  5
CF
330
1F
100
AcDbEntity
  8
중심선
100
AcDbHatch
 10
0.0
 20
0.0
 30
0.0
210
0.0
220
0.0
230
1.0
  2
SOLID
 70
     1
 71
     0
 91
        1
 92
        0
 93
        4
 72
     1
 10
-17.22453438368504
 20
-35.7989250712761
 11
-20.67080962752232
 21
-35.7989250712761
 72
     1
 10
-20.67080962752232
 20
-35.7989250712761
 11
-22.79903948672635
 21
-38.3352506518487
 72
     1
 10
-22.79903948672635
 20
-38.3352506518487
 11
-19.35273115777591
 21
-38.33521122254621
 72
     1
 10
-19.35273115777591
 20
-38.33521122254621
 11
-17.22453438368504
 21
-35.7989250712761
 97
        0
 75
     0
 76
     1
 98
        1
 10
0.0
 20
0.0
  0
HATCH
  5
D0
330
1F
100
AcDbEntity
  8
중심선
100
AcDbHatch
 10
0.0
 20
0.0
 30
0.0
210
0.0
220
0.0
230
1.0
  2
SOLID
 70
     1
 71
     0
 91
        1
 92
        0
 93
        4
 72
     1
 10
-12.21177039264909
 20
-35.7989250712761
 11
-15.65804563648637
 21
-35.7989250712761
 72
     1
 10
-15.65804563648637
 20
-35.7989250712761
 11
-20.18918364484376
 21
-41.19892507127612
 72
     1
 10
-20.18918364484376
 20
-41.19892507127612
 11
-16.74290840100648
 21
-41.19892507127612
 72
     1
 10
-16.74290840100648
 20
-41.19892507127612
 11
-12.21177039264909
 21
-35.7989250712761
 97
        0
 75
     0
 76
     1
 98
        1
 10
0.0
 20
0.0
  0
HATCH
  5
D1
330
1F
100
AcDbEntity
  8
중심선
100
AcDbHatch
 10
0.0
 20
0.0
 30
0.0
210
0.0
220
0.0
230
1.0
  2
SOLID
 70
     1
 71
     0
 91
        1
 92
        0
 93
        4
 72
     1
 10
-7.199006401613195
 20
-35.79892507127613
 11
-10.64528164545031
 21
-35.7989250712761
 72
     1
 10
-10.64528164545031
 20
-35.7989250712761
 11
-17.69371854733956
 21
-44.19892507127612
 72
     1
 10
-17.69371854733956
 20
-44.19892507127612
 11
-14.24744330350228
 21
-44.19892507127612
 72
     1
 10
-14.24744330350228
 20
-44.19892507127612
 11
-7.199006401613195
 21
-35.79892507127613
 97
        0
 75
     0
 76
     1
 98
        1
 10
0.0
 20
0.0
  0
HATCH
  5
D2
330
1F
100
AcDbEntity
  8
중심선
100
AcDbHatch
 10
0.0
 20
0.0
 30
0.0
210
0.0
220
0.0
230
1.0
  2
SOLID
 70
     1
 71
     0
 91
        1
 92
        0
 93
        6
 72
     3
 10
-2.399115970600996
 20
-39.99892507132738
 11
3.960054785062284
 21
1.540850780301639E-10
 40
0.3939339440162633
 50
17.09539180608433
 51
320.0019657685079
 73
     0
 72
     1
 10
-0.7161163149004002
 20
-38.58681907591441
 11
1.589185558800638
 21
-36.65249236586649
 72
     3
 10
-2.399115970653842
 20
-39.99892507127625
 11
6.600054785286829
 21
-1.249000902703301E-13
 40
0.6363583540795982
 50
39.99873849337408
 51
368.4976242363725
 73
     1
 72
     1
 10
4.026216521246767
 20
-39.03892507120613
 11
-3.71904866381792
 21
-39.0389250712061
 72
     1
 10
-3.71904866381792
 20
-39.0389250712061
 11
-3.719073708263854
 21
-40.95892507120602
 72
     1
 10
-3.719073708263854
 20
-40.95892507120602
 11
0.7223060612081831
 21
-40.95892507120599
 97
        0
 75
     0
 76
     1
 98
        1
 10
0.0
 20
0.0
  0
LINE
  5
230
330
1F
100
AcDbEntity
  8
0
  6
Continuous
 62
     4
370
    25
100
AcDbLine
 10
1.999999999999972
 20
3.0
 30
0.0
 11
-32.98804538186349
 21
3.0
 31
0.0
  0
LINE
  5
231
330
1F
100
AcDbEntity
  8
0
  6
Continuous
 62
     4
370
    25
100
AcDbLine
 10
-32.98804538186349
 20
-3.0
 30
0.0
 11
1.999999999999972
 21
-2.999999999999996
 31
0.0
  0
LINE
  5
232
330
1F
100
AcDbEntity
  8
0
  6
Continuous
 62
     4
370
    25
100
AcDbLine
 10
1.999999999999972
 20
-3.0
 30
0.0
 11
6.011954618136514
 21
-1.924999999999997
 31
0.0
  0
LINE
  5
233
330
1F
100
AcDbEntity
  8
0
  6
Continuous
 62
     4
370
    25
100
AcDbLine
 10
6.011954618136514
 20
1.925000000000001
 30
0.0
 11
1.999999999999972
 21
3.0
 31
0.0
  0
LINE
  5
234
330
1F
100
AcDbEntity
  8
0
  6
Continuous
 62
     4
370
    25
100
AcDbLine
 10
-32.98804538186349
 20
2.999999999999996
 30
0.0
 11
-33.98804538186349
 21
1.999999999999996
 31
0.0
  0
LINE
  5
235
330
1F
100
AcDbEntity
  8
0
  6
Continuous
 62
     4
370
    25
100
AcDbLine
 10
-33.98804538186349
 20
-2.0
 30
0.0
 11
-32.98804538186349
 21
-3.0
 31
0.0
  0
LINE
  5
236
330
1F
100
AcDbEntity
  8
0
  6
Continuous
 62
     4
370
    25
100
AcDbLine
 10
36.96205447237259
 20
1.925000000000004
 30
0.0
 11
6.011954618136514
 21
1.925000000000001
 31
0.0
  0
LINE
  5
237
330
1F
100
AcDbEntity
  8
0
  6
Continuous
 62
     4
370
    25
100
AcDbLine
 10
6.011954618136514
 20
-1.924999999999997
 30
0.0
 11
36.96205447237259
 21
-1.924999999999994
 31
0.0
  0
SPLINE
  5
238
330
1F
100
AcDbEntity
  8
0
  6
Continuous
 62
     4
370
    25
100
AcDbSpline
210
0.0
220
0.0
230
1.0
 70
     8
 71
     3
 72
    13
 73
     9
 74
     0
 42
0.000000001
 43
0.00000001
 40
0.0
 40
0.0
 40
0.0
 40
0.0
 40
0.2694101355825509
 40
0.449572363884199
 40
0.5714238487852502
 40
0.6986245796496952
 40
0.8298948124500796
 40
1.0
 40
1.0
 40
1.0
 40
1.0
 10
40.01195461813651
 20
1.580702654398451
 30
0.0
 10
39.8653922033881
 20
1.57531214812737
 30
0.0
 10
39.62081932897655
 20
1.566316856834476
 30
0.0
 10
39.31081158822352
 20
1.562076196094054
 30
0.0
 10
39.08066136647162
 20
1.561641376452673
 30
0.0
 10
38.87635485896689
 20
1.563622345020214
 30
0.0
 10
38.64623934167759
 20
1.567634720408762
 30
0.0
 10
38.48450434212737
 20
1.57473969224279
 30
0.0
 10
38.39321633197747
 20
1.57874994817195
 30
0.0
  0
SPLINE
  5
239
330
1F
100
AcDbEntity
  8
0
  6
Continuous
 62
     4
370
    25
100
AcDbSpline
210
0.0
220
0.0
230
1.0
 70
     8
 71
     3
 72
    17
 73
    13
 74
     0
 42
0.000000001
 43
0.00000001
 40
0.0
 40
0.0
 40
0.0
 40
0.0
 40
0.1556618534073042
 40
0.2531932895394993
 40
0.3278430796589952
 40
0.403320815222668
 40
0.4788208311952813
 40
0.5539183758962632
 40
0.6219977372552326
 40
0.6963716813471902
 40
0.8208664362035862
 40
0.9999999999999999
 40
0.9999999999999999
 40
0.9999999999999999
 40
0.9999999999999999
 10
37.24056273700671
 20
-1.655951866671174
 30
0.0
 10
37.38159584134593
 20
-1.643264919932868
 30
0.0
 10
37.61099459794548
 20
-1.622628844307592
 30
0.0
 10
37.91144973891264
 20
-1.601880245599279
 30
0.0
 10
38.14074917399873
 20
-1.588508025518884
 30
0.0
 10
38.34912774901073
 20
-1.578547668502981
 30
0.0
 10
38.55789204432625
 20
-1.570797669351268
 30
0.0
 10
38.76001813012593
 20
-1.565594789478542
 30
0.0
 10
38.96093358567663
 20
-1.562503148875351
 30
0.0
 10
39.20831981701633
 20
-1.561334676188391
 30
0.0
 10
39.56084177023445
 20
-1.564323797810957
 30
0.0
 10
39.84456474114566
 20
-1.574625117919087
 30
0.0
 10
40.01195461813651
 20
-1.580702654398443
 30
0.0
  0
LINE
  5
23A
330
1F
100
AcDbEntity
  8
0
  6
Continuous
 62
     1
370
    25
100
AcDbLine
 10
40.82923279655964
 20
0.5126449810253746
 30
0.0
 11
40.27637720944296
 21
0.7900437741464046
 31
0.0
  0
LINE
  5
23B
330
1F
100
AcDbEntity
  8
0
  6
Continuous
 62
     1
370
    25
100
AcDbLine
 10
40.16973613558659
 20
1.589272224656511
 30
0.0
 11
40.0117738277078
 21
1.582600518897234
 31
0.0
  0
SPLINE
  5
23C
330
1F
100
AcDbEntity
  8
0
  6
Continuous
 62
     1
370
    25
100
AcDbSpline
210
0.0
220
0.0
230
1.0
 70
     8
 71
     3
 72
    18
 73
    14
 74
     0
 42
0.000000001
 43
0.00000001
 40
0.0
 40
0.0
 40
0.0
 40
0.0
 40
0.1355385977489577
 40
0.2281446029049149
 40
0.2856534023553124
 40
0.3399630644734567
 40
0.3940334836648047
 40
0.4478526504068716
 40
0.6081564392114137
 40
0.6517596426152502
 40
0.7291280267104312
 40
0.8452262443277562
 40
0.9999999999999999
 40
0.9999999999999999
 40
0.9999999999999999
 40
0.9999999999999999
 10
45.30254079361112
 20
1.370795833430527
 30
0.0
 10
45.14230044416746
 20
1.358128059007345
 30
0.0
 10
44.87257675290664
 20
1.336805097035892
 30
0.0
 10
44.5359525381524
 20
1.32303689533331
 30
0.0
 10
44.29490528933007
 20
1.3173984685879
 30
0.0
 10
44.09968116011783
 20
1.315711071420665
 30
0.0
 10
43.90919815113313
 20
1.316716661443383
 30
0.0
 10
43.59470732744086
 20
1.322867942266125
 30
0.0
 10
43.29175780073228
 20
1.337080663451161
 30
0.0
 10
42.96150242837336
 20
1.360940318429854
 30
0.0
 10
42.68399335012225
 20
1.385475304026201
 30
0.0
 10
42.275372453317
 20
1.43007024728163
 30
0.0
 10
41.956213706977
 20
1.477329872532561
 30
0.0
 10
41.77384933303756
 20
1.504333587988683
 30
0.0
  0
SPLINE
  5
23D
330
1F
100
AcDbEntity
  8
0
  6
Continuous
 62
     1
370
    25
100
AcDbSpline
210
0.0
220
0.0
230
1.0
 70
     8
 71
     3
 72
    13
 73
     9
 74
     0
 42
0.000000001
 43
0.00000001
 40
0.0
 40
0.0
 40
0.0
 40
0.0
 40
0.3043391523679538
 40
0.5226859093220954
 40
0.6652405843010951
 40
0.8029053643450236
 40
0.9471199387529113
 40
1.0
 40
1.0
 40
1.0
 40
1.0
 10
41.77384933303756
 20
-1.504333587988675
 30
0.0
 10
41.925340838761
 20
-1.481636247211334
 30
0.0
 10
42.18551924435732
 20
-1.442654801310962
 30
0.0
 10
42.51579235888235
 20
-1.403829380743367
 30
0.0
 10
42.76318252677675
 20
-1.378400211734938
 30
0.0
 10
42.97384997018804
 20
-1.360123661627856
 30
0.0
 10
43.14020193559875
 20
-1.347591650062622
 30
0.0
 10
43.23813750846432
 20
-1.342184990389832
 30
0.0
 10
43.26441340924765
 20
-1.340734395381556
 30
0.0
  0
LINE
  5
23E
330
1F
100
AcDbEntity
  8
0
  6
Continuous
 62
     4
370
    25
100
AcDbLine
 10
40.01164732171699
 20
-1.582595175782409
 30
0.0
 11
40.16973613558659
 21
-1.589272224656504
 31
0.0
  0
LINE
  5
23F
330
1F
100
AcDbEntity
  8
0
  6
Continuous
 62
     4
370
    25
100
AcDbLine
 10
1.999999999999972
 20
3.0
 30
0.0
 11
1.999999999999972
 21
-3.0
 31
0.0
  0
LINE
  5
240
330
1F
100
AcDbEntity
  8
0
  6
Continuous
 62
     4
370
    25
100
AcDbLine
 10
-32.98804538186349
 20
2.999999999999996
 30
0.0
 11
-32.98804538186349
 21
-3.000000000000004
 31
0.0
  0
LINE
  5
241
330
1F
100
AcDbEntity
  8
0
  6
Continuous
 62
     4
370
    25
100
AcDbLine
 10
6.011954618136514
 20
1.925000000000001
 30
0.0
 11
6.011954618136514
 21
-1.924999999999997
 31
0.0
  0
LINE
  5
242
330
1F
100
AcDbEntity
  8
0
  6
Continuous
 62
     4
370
    25
100
AcDbLine
 10
-33.98804538186349
 20
1.999999999999996
 30
0.0
 11
-33.98804538186349
 21
-2.0
 31
0.0
  0
SPLINE
  5
243
330
1F
100
AcDbEntity
  8
0
  6
Continuous
 62
     4
370
    25
100
AcDbSpline
210
0.0
220
0.0
230
1.0
 70
     8
 71
     3
 72
    18
 73
    14
 74
     0
 42
0.000000001
 43
0.00000001
 40
0.0
 40
0.0
 40
0.0
 40
0.0
 40
0.1250000000000013
 40
0.1250000000000013
 40
0.2500000000000026
 40
0.2500000000000026
 40
0.5
 40
0.5
 40
0.6250000000000013
 40
0.6250000000000013
 40
0.7500000000000026
 40
0.7500000000000026
 40
1.0
 40
1.0
 40
1.0
 40
1.0
 10
40.01195461813651
 20
0.9195926915382628
 30
0.0
 10
39.88404583342918
 20
0.9817807690986626
 30
0.0
 10
39.75618362390657
 20
1.042089630917058
 30
0.0
 10
39.50286344270771
 20
1.157894964674064
 30
0.0
 10
39.37773555721037
 20
1.213359940218581
 30
0.0
 10
38.99632815127421
 20
1.372958926431217
 30
0.0
 10
38.73827019427523
 20
1.46951492010448
 30
0.0
 10
38.35941489020377
 20
1.594490292104283
 30
0.0
 10
38.23381774100778
 20
1.632961287234902
 30
0.0
 10
37.97904123140393
 20
1.703508034361093
 30
0.0
 10
37.85087323171246
 20
1.735468311880243
 30
0.0
 10
37.46752419411939
 20
1.820506044578529
 30
0.0
 10
37.21734188248413
 20
1.862569858226465
 30
0.0
 10
36.96215917554923
 20
1.889580777911032
 30
0.0
  0
SPLINE
  5
244
330
1F
100
AcDbEntity
  8
0
  6
Continuous
 62
     4
370
    25
100
AcDbSpline
210
0.0
220
0.0
230
1.0
 70
     8
 71
     3
 72
    18
 73
    14
 74
     0
 42
0.000000001
 43
0.00000001
 40
0.0
 40
0.0
 40
0.0
 40
0.0
 40
0.125
 40
0.125
 40
0.2500000000000001
 40
0.2500000000000001
 40
0.5000000000000052
 40
0.5000000000000052
 40
0.6250000000000052
 40
0.6250000000000052
 40
0.7500000000000053
 40
0.7500000000000053
 40
1.0
 40
1.0
 40
1.0
 40
1.0
 10
40.01195461813651
 20
0.4051148844736296
 30
0.0
 10
39.88404145994883
 20
0.4743194848091328
 30
0.0
 10
39.75617488038631
 20
0.5426905570064235
 30
0.0
 10
39.5028462015278
 20
0.6765454906040738
 30
0.0
 10
39.3777139513557
 20
0.7419820193854214
 30
0.0
 10
38.99629311603712
 20
0.9344443365064059
 30
0.0
 10
38.73822626901566
 20
1.056780298157701
 30
0.0
 10
38.35935912961324
 20
1.224807558693982
 30
0.0
 10
38.23375702743135
 20
1.278373176417212
 30
0.0
 10
37.97897127437548
 20
1.38062349557223
 30
0.0
 10
37.85079879751734
 20
1.429154893702709
 30
0.0
 10
37.46743712694058
 20
1.565617886677657
 30
0.0
 10
37.21724657085196
 20
1.644056332996414
 30
0.0
 10
36.96205447237256
 20
1.709143488716659
 30
0.0
  0
SPLINE
  5
245
330
1F
100
AcDbEntity
  8
0
  6
Continuous
 62
     4
370
    25
100
AcDbSpline
210
0.0
220
0.0
230
1.0
 70
     8
 71
     3
 72
    10
 73
     6
 74
     0
 42
0.000000001
 43
0.00000001
 40
0.0
 40
0.0
 40
0.0
 40
0.0
 40
0.0650423578593402
 40
0.5337492197792326
 40
1.0
 40
1.0
 40
1.0
 40
1.0
 10
38.39776491454228
 20
-1.577120407918233
 30
0.0
 10
38.36663184931606
 20
-1.588437172045808
 30
0.0
 10
38.11114834870614
 20
-1.681304562194565
 30
0.0
 10
37.63214456522235
 20
-1.793620811425455
 30
0.0
 10
37.18509618169793
 20
-1.857650189620344
 30
0.0
 10
36.96215917554923
 20
-1.889580777911025
 30
0.0
  0
LINE
  5
246
330
1F
100
AcDbEntity
  8
0
  6
Continuous
 62
     4
370
    25
100
AcDbLine
 10
36.96205447237259
 20
1.889597655504225
 30
0.0
 11
36.96205447237259
 21
1.925000000000004
 31
0.0
  0
LINE
  5
247
330
1F
100
AcDbEntity
  8
0
  6
Continuous
 62
     4
370
    25
100
AcDbLine
 10
36.96205447237259
 20
-1.924999999999994
 30
0.0
 11
36.96205447237256
 21
1.709389812918648
 31
0.0
  0
SPLINE
  5
248
330
1F
100
AcDbEntity
  8
0
  6
Continuous
 62
     4
370
    25
100
AcDbSpline
210
0.0
220
0.0
230
1.0
 70
    24
 71
     3
 72
    10
 73
     6
 74
     0
 42
0.000000001
 43
0.00000001
 40
0.0
 40
0.0
 40
0.0
 40
0.0
 40
0.5
 40
0.5
 40
1.0
 40
1.0
 40
1.0
 40
1.0
 10
40.01195461813651
 20
0.4051148844735657
 30
0.0
 10
40.01195461813651
 20
0.4044302769278794
 30
0.0
 10
40.01195461813651
 20
0.3875955315121082
 30
0.0
 10
40.01195461813651
 20
0.3248054059878349
 30
0.0
 10
40.01195461813651
 20
0.2790477599600187
 30
0.0
 10
40.01195461813651
 20
0.2247554758747654
 30
0.0
  0
SPLINE
  5
249
330
1F
100
AcDbEntity
  8
0
  6
Continuous
 62
     4
370
    25
100
AcDbSpline
210
0.0
220
0.0
230
1.0
 70
     8
 71
     3
 72
    16
 73
    12
 74
     0
 42
0.000000001
 43
0.00000001
 40
0.0
 40
0.0
 40
0.0
 40
0.0
 40
0.1249999999999978
 40
0.1249999999999978
 40
0.2499999999999957
 40
0.2499999999999957
 40
0.4999999999999971
 40
0.4999999999999971
 40
0.7499999999999986
 40
0.7499999999999986
 40
1.0
 40
1.0
 40
1.0
 40
1.0
 10
40.01195461813651
 20
0.224755475874769
 30
0.0
 10
39.88404251317587
 20
0.2755708893568141
 30
0.0
 10
39.75617698601181
 20
0.3259222079629716
 30
0.0
 10
39.50285035356885
 20
0.4247951852285077
 30
0.0
 10
39.3777191545073
 20
0.47328063096991
 30
0.0
 10
38.99630155326895
 20
0.6163490978070385
 30
0.0
 10
38.73823684715012
 20
0.7079288630877727
 30
0.0
 10
38.23308446152126
 20
0.8769751246552389
 30
0.0
 10
37.97860293229314
 20
0.9553040945724014
 30
0.0
 10
37.46745809453904
 20
1.095468304330922
 30
0.0
 10
37.21726952397128
 20
1.156785121449239
 30
0.0
 10
36.96207968714793
 20
1.208698484322181
 30
0.0
  0
SPLINE
  5
24A
330
1F
100
AcDbEntity
  8
0
  6
Continuous
 62
     4
370
    25
100
AcDbSpline
210
0.0
220
0.0
230
1.0
 70
     8
 71
     3
 72
    18
 73
    14
 74
     0
 42
0.000000001
 43
0.00000001
 40
0.0
 40
0.0
 40
0.0
 40
0.0
 40
0.1250000000000007
 40
0.1250000000000007
 40
0.2500000000000014
 40
0.2500000000000014
 40
0.5000000000000028
 40
0.5000000000000028
 40
0.6250000000000034
 40
0.6250000000000034
 40
0.7500000000000042
 40
0.7500000000000042
 40
1.0
 40
1.0
 40
1.0
 40
1.0
 10
40.01195461813651
 20
-1.579247033629269
 30
0.0
 10
39.8840430564336
 20
-1.56980125583318
 30
0.0
 10
39.75617807209991
 20
-1.557143686889457
 30
0.0
 10
39.50285249520476
 20
-1.525696305019203
 30
0.0
 10
39.37772183830828
 20
-1.506945544889067
 30
0.0
 10
38.99630590521858
 20
-1.441393886146784
 30
0.0
 10
38.73824230338479
 20
-1.385335025739206
 30
0.0
 10
38.35937948429975
 20
-1.285846401497761
 30
0.0
 10
38.233779190191
 20
-1.25009901281955
 30
0.0
 10
37.97899681133126
 20
-1.173357530576205
 30
0.0
 10
37.85082596879846
 20
-1.132450027119802
 30
0.0
 10
37.46746890969794
 20
-1.003211346089493
 30
0.0
 10
37.21728136324782
 20
-0.908868954777617
 30
0.0
 10
36.96209269300039
 20
-0.8073574894806015
 30
0.0
  0
SPLINE
  5
24B
330
1F
100
AcDbEntity
  8
0
  6
Continuous
 62
     4
370
    25
100
AcDbSpline
210
0.0
220
0.0
230
1.0
 70
    24
 71
     3
 72
    14
 73
    10
 74
     0
 42
0.000000001
 43
0.00000001
 40
0.0
 40
0.0
 40
0.0
 40
0.0
 40
0.25
 40
0.25
 40
0.5
 40
0.5
 40
0.75
 40
0.75
 40
1.0
 40
1.0
 40
1.0
 40
1.0
 10
40.01195461813651
 20
0.2247554758747654
 30
0.0
 10
40.01195461813651
 20
0.047837976464681
 30
0.0
 10
40.01195461813651
 20
-0.1336037481305574
 30
0.0
 10
40.01195461813651
 20
-0.4885406909531582
 30
0.0
 10
40.01195461813651
 20
-0.66184790817438
 30
0.0
 10
40.01195461813654
 20
-0.9824711655081941
 30
0.0
 10
40.01195461813649
 20
-1.129616364144592
 30
0.0
 10
40.01195461813651
 20
-1.384867563041755
 30
0.0
 10
40.01195461813651
 20
-1.492925576302515
 30
0.0
 10
40.01195461813651
 20
-1.579247033629269
 30
0.0
  0
SPLINE
  5
24C
330
1F
100
AcDbEntity
  8
0
  6
Continuous
 62
     4
370
    25
100
AcDbSpline
210
0.0
220
0.0
230
1.0
 70
    24
 71
     3
 72
    12
 73
     8
 74
     0
 42
0.000000001
 43
0.00000001
 40
0.0
 40
0.0
 40
0.0
 40
0.0
 40
0.1964593587445073
 40
0.4054056605336391
 40
0.6204114192296838
 40
0.808034002592895
 40
1.0
 40
1.0
 40
1.0
 40
1.0
 10
40.01195461813651
 20
1.568259849869069
 30
0.0
 10
40.01195461813654
 20
1.565143594092284
 30
0.0
 10
40.01195461813654
 20
1.558713013540398
 30
0.0
 10
40.01195461813649
 20
1.45524017315859
 30
0.0
 10
40.01195461813651
 20
1.305682011491051
 30
0.0
 10
40.01195461813651
 20
1.112027207533984
 30
0.0
 10
40.01195461813651
 20
0.9563667007311629
 30
0.0
 10
40.01195461813651
 20
0.8776458804560683
 30
0.0
  0
LINE
  5
24D
330
1F
100
AcDbEntity
  8
0
  6
Continuous
 62
     4
370
    25
100
AcDbLine
 10
37.2446730410924
 20
-1.639258462038235
 30
0.0
 11
36.96215917554923
 21
-1.681492594810717
 31
0.0
  0
SPLINE
  5
24E
330
1F
100
AcDbEntity
  8
0
  6
Continuous
 62
     1
370
    25
100
AcDbSpline
210
0.0
220
0.0
230
1.0
 70
     8
 71
     3
 72
    32
 73
    28
 74
     0
 42
0.000000001
 43
0.00000001
 40
0.0
 40
0.0
 40
0.0
 40
0.0
 40
0.125
 40
0.125
 40
0.1875000000000014
 40
0.1875000000000014
 40
0.2500000000000027
 40
0.2500000000000027
 40
0.3125000000000039
 40
0.3125000000000039
 40
0.3750000000000053
 40
0.3750000000000053
 40
0.5000000000000052
 40
0.5000000000000052
 40
0.5625000000000039
 40
0.5625000000000039
 40
0.6250000000000026
 40
0.6250000000000026
 40
0.6875000000000012
 40
0.6875000000000012
 40
0.7499999999999999
 40
0.7499999999999999
 40
0.875
 40
0.875
 40
0.9375
 40
0.9375
 40
1.0
 40
1.0
 40
1.0
 40
1.0
 10
45.78861131426027
 20
-1.985120317486836
 30
0.0
 10
45.66766912707504
 20
-1.985151362637186
 30
0.0
 10
45.41834821793225
 20
-1.959980558823112
 30
0.0
 10
45.0493860484421
 20
-1.900478609523994
 30
0.0
 10
44.92825518436106
 20
-1.87713350114511
 30
0.0
 10
44.68373308995922
 20
-1.823347403868883
 30
0.0
 10
44.56026631212799
 20
-1.792875136319722
 30
0.0
 10
44.31300258553819
 20
-1.725212551881672
 30
0.0
 10
44.18920960801117
 20
-1.688023256469432
 30
0.0
 10
43.94340102906983
 20
-1.60759822940302
 30
0.0
 10
43.82239150627439
 20
-1.564496753032873
 30
0.0
 10
43.45526763115654
 20
-1.426147207439417
 30
0.0
 10
43.20588233235245
 20
-1.321776374110161
 30
0.0
 10
42.83743318906451
 20
-1.152225017349156
 30
0.0
 10
42.71650699913044
 20
-1.093728757369142
 30
0.0
 10
42.47154007068886
 20
-0.972352260850343
 30
0.0
 10
42.34794959617341
 20
-0.90953004892393
 30
0.0
 10
42.10064285490105
 20
-0.7806492652830137
 30
0.0
 10
41.97693056419638
 20
-0.7145927539830517
 30
0.0
 10
41.73148321171084
 20
-0.5803899017401335
 30
0.0
 10
41.61060233535659
 20
-0.512409351755629
 30
0.0
 10
41.24283968378722
 20
-0.3050148147744203
 30
0.0
 10
40.9934303391602
 20
-0.1625893166960033
 30
0.0
 10
40.62555177796105
 20
0.050105735571897
 30
0.0
 10
40.50467819000073
 20
0.1207059852340109
 30
0.0
 10
40.2593044493396
 20
0.2618834553029394
 30
0.0
 10
40.13560986983398
 20
0.332303318343218
 30
0.0
 10
40.01195461813651
 20
0.4019523873045436
 30
0.0
  0
SPLINE
  5
24F
330
1F
100
AcDbEntity
  8
0
  6
Continuous
 62
     1
370
    25
100
AcDbSpline
210
0.0
220
0.0
230
1.0
 70
     8
 71
     3
 72
     9
 73
     5
 74
     0
 42
0.000000001
 43
0.00000001
 40
0.0
 40
0.0
 40
0.0
 40
0.0
 40
0.2822150386108234
 40
1.0
 40
1.0
 40
1.0
 40
1.0
 10
41.03756053314771
 20
-0.1871075207377721
 30
0.0
 10
40.94104216555718
 20
-0.1488220564116816
 30
0.0
 10
40.59903924443137
 20
-0.0131614462806731
 30
0.0
 10
40.25727083948499
 20
0.1253407105684836
 30
0.0
 10
40.01195461813651
 20
0.224755475874769
 30
0.0
  0
SPLINE
  5
250
330
1F
100
AcDbEntity
  8
0
  6
Continuous
 62
     4
370
    25
100
AcDbSpline
210
0.0
220
0.0
230
1.0
 70
    24
 71
     3
 72
    11
 73
     7
 74
     0
 42
0.000000001
 43
0.00000001
 40
0.0
 40
0.0
 40
0.0
 40
0.0
 40
0.2375120440764383
 40
0.482066371046372
 40
0.7337127900657309
 40
1.0
 40
1.0
 40
1.0
 40
1.0
 10
40.01195461813654
 20
0.4045083618996763
 30
0.0
 10
40.01195461813651
 20
0.4025587949961213
 30
0.0
 10
40.01195461813651
 20
0.398601856113455
 30
0.0
 10
40.01195461813649
 20
0.3639234496159318
 30
0.0
 10
40.01195461813654
 20
0.3090473108695697
 30
0.0
 10
40.01195461813654
 20
0.2533773084618254
 30
0.0
 10
40.01195461813651
 20
0.2247554758765524
 30
0.0
  0
SPLINE
  5
251
330
1F
100
AcDbEntity
  8
0
  6
Continuous
 62
     1
370
    25
100
AcDbSpline
210
0.0
220
0.0
230
1.0
 70
     8
 71
     3
 72
    12
 73
     8
 74
     0
 42
0.000000001
 43
0.00000001
 40
0.0
 40
0.0
 40
0.0
 40
0.0
 40
0.216510924128883
 40
0.4330410920895404
 40
0.6495888985903305
 40
0.8661527252233953
 40
1.0
 40
1.0
 40
1.0
 40
1.0
 10
46.01195461813651
 20
-1.577944528736424
 30
0.0
 10
45.63499296073459
 20
-1.492776936051907
 30
0.0
 10
44.88103614098517
 20
-1.322434180853165
 30
0.0
 10
43.7500320528064
 20
-0.8821788274932736
 30
0.0
 10
42.61893217658243
 20
-0.3617613388278293
 30
0.0
 10
41.6317526497624
 20
0.1322525767448361
 30
0.0
 10
41.02167160003569
 20
0.4208991786702327
 30
0.0
 10
40.78863764200673
 20
0.5311541360212395
 30
0.0
  0
SPLINE
  5
252
330
1F
100
AcDbEntity
  8
0
  6
Continuous
 62
     1
370
    25
100
AcDbSpline
210
0.0
220
0.0
230
1.0
 70
    24
 71
     3
 72
     8
 73
     4
 74
     0
 42
0.000000001
 43
0.00000001
 40
0.4467551205272451
 40
0.4467551205272451
 40
0.4467551205272451
 40
0.4467551205272451
 40
1.0
 40
1.0
 40
1.0
 40
1.0
 10
46.01195461813651
 20
-1.69507937048223
 30
0.0
 10
46.01195461813651
 20
-1.65593818802978
 30
0.0
 10
46.01195461813651
 20
-1.616859692480645
 30
0.0
 10
46.01195461813651
 20
-1.577944528736424
 30
0.0
  0
SPLINE
  5
253
330
1F
100
AcDbEntity
  8
0
  6
Continuous
 62
     1
370
    25
100
AcDbSpline
210
0.0
220
0.0
230
1.0
 70
     8
 71
     3
 72
    11
 73
     7
 74
     0
 42
0.000000001
 43
0.00000001
 40
0.00012094114796
 40
0.00012094114796
 40
0.00012094114796
 40
0.00012094114796
 40
0.0001487828091073
 40
0.0001487828091073
 40
0.0001487828091073
 40
0.000163566718907
 40
0.000163566718907
 40
0.000163566718907
 40
0.000163566718907
 10
45.94962682743196
 20
-1.87814198525812
 30
0.0
 10
45.94154860607511
 20
-1.880143209373735
 30
0.0
 10
45.93319581990517
 20
-1.880851813315955
 30
0.0
 10
45.92500971907472
 20
-1.880411710245966
 30
0.0
 10
45.92062869773301
 20
-1.880176176750581
 30
0.0
 10
45.91626120757377
 20
-1.879615434866285
 30
0.0
 10
45.91195461813643
 20
-1.878759392336786
 30
0.0
  0
SPLINE
  5
254
330
1F
100
AcDbEntity
  8
0
  6
Continuous
 62
     1
370
    25
100
AcDbSpline
210
0.0
220
0.0
230
1.0
 70
     8
 71
     3
 72
    32
 73
    28
 74
     0
 42
0.000000001
 43
0.00000001
 40
0.0
 40
0.0
 40
0.0
 40
0.0
 40
0.1250000000000003
 40
0.1250000000000003
 40
0.1875000000000018
 40
0.1875000000000018
 40
0.2500000000000033
 40
0.2500000000000033
 40
0.3125000000000048
 40
0.3125000000000048
 40
0.3750000000000063
 40
0.3750000000000063
 40
0.5000000000000067
 40
0.5000000000000067
 40
0.5625000000000056
 40
0.5625000000000056
 40
0.6250000000000043
 40
0.6250000000000043
 40
0.6875000000000032
 40
0.6875000000000032
 40
0.750000000000002
 40
0.750000000000002
 40
0.8749999999999998
 40
0.8749999999999998
 40
0.9374999999999999
 40
0.9374999999999999
 40
1.0
 40
1.0
 40
1.0
 40
1.0
 10
45.91195461813655
 20
-1.878759392336733
 30
0.0
 10
45.66766912707504
 20
-1.830201531707353
 30
0.0
 10
45.41834821793225
 20
-1.767023612717097
 30
0.0
 10
45.04938604844213
 20
-1.653375885174992
 30
0.0
 10
44.92825518436109
 20
-1.612503818923678
 30
0.0
 10
44.68373308995922
 20
-1.524614537033102
 30
0.0
 10
44.56026631212802
 20
-1.477566206471185
 30
0.0
 10
44.31300258553821
 20
-1.377996213212121
 30
0.0
 10
44.1892096080112
 20
-1.325476097117722
 30
0.0
 10
43.94340102906983
 20
-1.215887676669936
 30
0.0
 10
43.82239150627436
 20
-1.15898795916377
 30
0.0
 10
43.45526763115657
 20
-0.9814509038959898
 30
0.0
 10
43.20588233235242
 20
-0.853980312992789
 30
0.0
 10
42.83743318906454
 20
-0.6555011653376006
 30
0.0
 10
42.71650699913044
 20
-0.5883260685726164
 30
0.0
 10
42.47154007068889
 20
-0.4514494475053468
 30
0.0
 10
42.34794959617341
 20
-0.3818232480486756
 30
0.0
 10
42.10064285490108
 20
-0.2413607634919863
 30
0.0
 10
41.97693056419638
 20
-0.1705267324798321
 30
0.0
 10
41.73148321171087
 20
-0.0288611937289041
 30
0.0
 10
41.61060233535662
 20
0.0418044686204126
 30
0.0
 10
41.24283968378722
 20
0.2541514567572776
 30
0.0
 10
40.99343033916023
 20
0.3956590214485125
 30
0.0
 10
40.62555177796105
 20
0.6006921858369054
 30
0.0
 10
40.50467819000073
 20
0.6677135968214571
 30
0.0
 10
40.2593044493396
 20
0.7996535535534903
 30
0.0
 10
40.13560986983398
 20
0.8644162975288836
 30
0.0
 10
40.01195461813649
 20
0.9274099677879946
 30
0.0
  0
LINE
  5
255
330
1F
100
AcDbEntity
  8
0
  6
Continuous
 62
     4
370
    25
100
AcDbLine
 10
40.01195461813651
 20
0.4019523873045436
 30
0.0
 11
40.01195461813651
 21
0.927409967787991
 31
0.0
  0
SPLINE
  5
256
330
1F
100
AcDbEntity
  8
0
  6
Continuous
 62
     1
370
    25
100
AcDbSpline
210
0.0
220
0.0
230
1.0
 70
     8
 71
     3
 72
    13
 73
     9
 74
     0
 42
0.000000001
 43
0.00000001
 40
0.0
 40
0.0
 40
0.0
 40
0.0
 40
0.1935156565381477
 40
0.3870487592848976
 40
0.5805978527300392
 40
0.7741614694326925
 40
0.9007355857974121
 40
1.0
 40
1.0
 40
1.0
 40
1.0
 10
46.01195461813654
 20
0.0000000000000071
 30
0.0
 10
45.63498974135047
 20
0.1741672803425622
 30
0.0
 10
44.88102600289051
 20
0.5225175429029605
 30
0.0
 10
43.75001960131303
 20
0.9895277007168879
 30
0.0
 10
42.61888949703527
 20
1.353045029831343
 30
0.0
 10
41.61825191502896
 20
1.544496341741102
 30
0.0
 10
40.80111187187921
 20
1.610800496644902
 30
0.0
 10
40.36149587341936
 20
1.591630243746714
 30
0.0
 10
40.16826832960041
 20
1.583204206261993
 30
0.0
  0
SPLINE
  5
257
330
1F
100
AcDbEntity
  8
0
  6
Continuous
 62
     1
370
    25
100
AcDbSpline
210
0.0
220
0.0
230
1.0
 70
    24
 71
     3
 72
    10
 73
     6
 74
     0
 42
0.000000001
 43
0.00000001
 40
0.0
 40
0.0
 40
0.0
 40
0.0
 40
0.5
 40
0.5
 40
1.0
 40
1.0
 40
1.0
 40
1.0
 10
46.01195461813651
 20
-1.577944528736424
 30
0.0
 10
46.01195461813651
 20
-1.407185134337965
 30
0.0
 10
46.01195461813651
 20
-1.171452163182273
 30
0.0
 10
46.01195461813651
 20
-0.6198823592321752
 30
0.0
 10
46.01195461813651
 20
-0.3064196984977414
 30
0.0
 10
46.01195461813651
 20
0.0000000000000071
 30
0.0
  0
SPLINE
  5
258
330
1F
100
AcDbEntity
  8
0
  6
Continuous
 62
     4
370
    25
100
AcDbSpline
210
0.0
220
0.0
230
1.0
 70
    24
 71
     3
 72
    13
 73
     9
 74
     0
 42
0.000000001
 43
0.00000001
 40
0.0
 40
0.0
 40
0.0
 40
0.0
 40
0.083322246154696
 40
0.2233839884426893
 40
0.4253290241929473
 40
0.633130479660691
 40
0.8144663012588997
 40
1.0
 40
1.0
 40
1.0
 40
1.0
 10
40.01195461813651
 20
1.578107643597949
 30
0.0
 10
40.01195461813651
 20
1.578448104022492
 30
0.0
 10
40.01195461813649
 20
1.579360866352495
 30
0.0
 10
40.01195461813654
 20
1.543460262791584
 30
0.0
 10
40.01195461813649
 20
1.457363382861981
 30
0.0
 10
40.01195461813654
 20
1.305190216156387
 30
0.0
 10
40.01195461813649
 20
1.112146259228375
 30
0.0
 10
40.01195461813654
 20
0.9564066861990916
 30
0.0
 10
40.01195461813654
 20
0.8776458804560612
 30
0.0
  0
LINE
  5
259
330
1F
100
AcDbEntity
  8
0
  6
Continuous
 62
     1
370
    25
100
AcDbLine
 10
46.01195461813651
 20
1.400000000000006
 30
0.0
 11
45.29822212767104
 21
1.353306821201528
 31
0.0
  0
SPLINE
  5
25A
330
1F
100
AcDbEntity
  8
0
  6
Continuous
 62
     1
370
    25
100
AcDbSpline
210
0.0
220
0.0
230
1.0
 70
    24
 71
     3
 72
    14
 73
    10
 74
     0
 42
0.000000001
 43
0.00000001
 40
0.0
 40
0.0
 40
0.0
 40
0.0
 40
0.2499999999999999
 40
0.2499999999999999
 40
0.4999999999999999
 40
0.4999999999999999
 40
0.7499999999999999
 40
0.7499999999999999
 40
1.0
 40
1.0
 40
1.0
 40
1.0
 10
46.01195461813651
 20
0.0000000000000071
 30
0.0
 10
46.01195461813651
 20
0.1665687034027989
 30
0.0
 10
46.01195461813651
 20
0.3310871527509143
 30
0.0
 10
46.01195461813651
 20
0.6387450999155178
 30
0.0
 10
46.01195461813651
 20
0.7816934607495405
 30
0.0
 10
46.01195461813654
 20
1.030513824303661
 30
0.0
 10
46.01195461813651
 20
1.136253245131321
 30
0.0
 10
46.01195461813651
 20
1.302133108422719
 30
0.0
 10
46.01195461813654
 20
1.362281548872787
 30
0.0
 10
46.01195461813651
 20
1.400000000000006
 30
0.0
  0
SPLINE
  5
25B
330
1F
100
AcDbEntity
  8
0
  6
Continuous
 62
     1
370
    25
100
AcDbSpline
210
0.0
220
0.0
230
1.0
 70
     8
 71
     3
 72
    10
 73
     6
 74
     0
 42
0.000000001
 43
0.00000001
 40
0.0
 40
0.0
 40
0.0
 40
0.0
 40
0.166407457087076
 40
0.5841049436086337
 40
1.0
 40
1.0
 40
1.0
 40
1.0
 10
41.78241143592942
 20
-1.488120469542125
 30
0.0
 10
41.68418038645933
 20
-1.508306654031955
 30
0.0
 10
41.33938068447651
 20
-1.579161953184411
 30
0.0
 10
40.74897803422857
 20
-1.609090181107842
 30
0.0
 10
40.25727469603729
 20
-1.589180399522942
 30
0.0
 10
40.01195461813651
 20
-1.579247033629269
 30
0.0
  0
SPLINE
  5
25C
330
1F
100
AcDbEntity
  8
0
  6
Continuous
 62
     4
370
    25
100
AcDbSpline
210
0.0
220
0.0
230
1.0
 70
    24
 71
     3
 72
    14
 73
    10
 74
     0
 42
0.000000001
 43
0.00000001
 40
0.0
 40
0.0
 40
0.0
 40
0.0
 40
0.25
 40
0.25
 40
0.5
 40
0.5
 40
0.75
 40
0.75
 40
1.0
 40
1.0
 40
1.0
 40
1.0
 10
40.01195461813651
 20
0.224755475874769
 30
0.0
 10
40.01195461813651
 20
0.047837976464681
 30
0.0
 10
40.01195461813651
 20
-0.1336037481305539
 30
0.0
 10
40.01195461813651
 20
-0.4885406909531582
 30
0.0
 10
40.01195461813651
 20
-0.66184790817438
 30
0.0
 10
40.01195461813654
 20
-0.9824711655081941
 30
0.0
 10
40.01195461813649
 20
-1.129616364144589
 30
0.0
 10
40.01195461813651
 20
-1.384867563041755
 30
0.0
 10
40.01195461813651
 20
-1.492925576302515
 30
0.0
 10
40.01195461813651
 20
-1.579247033629269
 30
0.0
  0
LINE
  5
25D
330
1F
100
AcDbEntity
  8
0
  6
Continuous
 62
     1
370
    25
100
AcDbLine
 10
46.01195461813654
 20
-1.895079370482092
 30
0.0
 11
46.01195461813654
 21
-1.897300810640363
 31
0.0
  0
SPLINE
  5
25E
330
1F
100
AcDbEntity
  8
0
  6
Continuous
 62
     1
370
    25
100
AcDbSpline
210
0.0
220
0.0
230
1.0
 70
     8
 71
     3
 72
    11
 73
     7
 74
     0
 42
0.000000001
 43
0.00000001
 40
0.0
 40
0.0
 40
0.0
 40
0.0
 40
0.0183485744302829
 40
0.3451015365545415
 40
0.6722466042231071
 40
0.9533826942438393
 40
0.9533826942438393
 40
0.9533826942438393
 40
0.9533826942438393
 10
43.26708124089424
 20
1.342006821085949
 30
0.0
 10
43.28326391178121
 20
1.349766874933756
 30
0.0
 10
43.58762895168474
 20
1.49571862267306
 30
0.0
 10
44.17982314805209
 20
1.693473099368141
 30
0.0
 10
45.00419722392382
 20
1.914627476906218
 30
0.0
 10
45.54066210051075
 20
1.964785470999544
 30
0.0
 10
45.78861131426244
 20
1.98512031748703
 30
0.0
  0
SPLINE
  5
25F
330
1F
100
AcDbEntity
  8
0
  6
Continuous
 62
     1
370
    25
100
AcDbSpline
210
0.0
220
0.0
230
1.0
 70
    24
 71
     3
 72
    10
 73
     6
 74
     0
 42
0.000000001
 43
0.00000001
 40
0.0
 40
0.0
 40
0.0
 40
0.0
 40
0.5
 40
0.5
 40
0.6142640382984661
 40
0.6142640382984661
 40
0.6142640382984661
 40
0.6142640382984661
 10
46.01195461813651
 20
1.400000000000006
 30
0.0
 10
46.01195461813651
 20
1.470887229722262
 30
0.0
 10
46.01195461813654
 20
1.551262239179056
 30
0.0
 10
46.01195461813654
 20
1.655641596823863
 30
0.0
 10
46.01195461813654
 20
1.675287488935362
 30
0.0
 10
46.01195461813653
 20
1.695079370482123
 30
0.0
  0
LINE
  5
260
330
1F
100
AcDbEntity
  8
중심선
100
AcDbLine
 10
-36.98804538186347
 20
-0.0000000000000036
 30
0.0
 11
49.01195461813654
 21
0.0000000000000071
 31
0.0
  0
CIRCLE
  5
261
330
1F
100
AcDbEntity
  8
외형선
100
AcDbCircle
 10
0.0
 20
0.0
 30
0.0
 40
3.000000000000005
  0
DIMENSION
  5
262
330
1F
100
AcDbEntity
  8
치수문자_일반주서
100
AcDbDimension
  2
*D15
 10
-45.48450340347556
 20
-3.000000000000048
 30
0.0
 11
-45.48450340347557
 21
0.0
 31
0.0
 70
   160
  1
%%c<>
 71
     2
 42
5.999999999999996
 52
-270.0
  3
SLDDIMSTYLE0
100
AcDbAlignedDimension
 13
-32.98804538186349
 23
2.999999999999996
 33
0.0
 14
-32.98804538186349
 24
-3.0
 34
0.0
 50
90.0000000000002
100
AcDbRotatedDimension
  0
DIMENSION
  5
263
330
1F
100
AcDbEntity
  8
치수문자_일반주서
100
AcDbDimension
  2
*D16
 10
40.01195461813651
 20
20.39999999999966
 30
0.0
 11
43.01195461813651
 21
20.39999999999966
 31
0.0
 70
   160
  1
<>
 71
     2
 42
6.0
  3
SLDDIMSTYLE0
100
AcDbAlignedDimension
 13
46.01195461813651
 23
1.900000000000002
 33
0.0
 14
40.01195461813651
 24
1.581514153956217
 34
0.0
100
AcDbRotatedDimension
  0
DIMENSION
  5
264
330
1F
100
AcDbEntity
  8
치수문자_일반주서
100
AcDbDimension
  2
*D17
 10
-33.98804538186349
 20
42.45832450504429
 30
0.0
 11
6.011954618136514
 21
42.45832450504429
 31
0.0
 70
   160
  1
<>
 71
     2
 42
80.0
  3
SLDDIMSTYLE1
100
AcDbAlignedDimension
 13
46.01195461813651
 23
1.900000000000002
 33
0.0
 14
-33.98804538186349
 24
1.999999999999996
 34
0.0
100
AcDbRotatedDimension
  0
DIMENSION
  5
265
330
1F
100
AcDbEntity
  8
치수문자_일반주서
100
AcDbDimension
  2
*D18
 10
6.011954618136514
 20
30.31999999999866
 30
0.0
 11
26.01195461813651
 21
30.31999999999866
 31
0.0
 70
   160
  1
<>
 71
     2
 42
40.00000000000001
  3
SLDDIMSTYLE0
100
AcDbAlignedDimension
 13
46.01195461813651
 23
1.831855556492052
 33
0.0
 14
6.011954618136514
 24
1.925000000000001
 34
0.0
 50
-0.0000000000022354
100
AcDbRotatedDimension
  0
DIMENSION
  5
266
330
1F
100
AcDbEntity
  8
치수문자_일반주서
100
AcDbDimension
  2
*D19
 10
63.2934371168817
 20
-1.995079370482063
 30
0.0
 11
63.29343711688165
 21
11.66694027704533
 31
0.0
 70
   160
  1
%%c<>
 71
     2
 42
3.995519647527395
 52
-270.0
  3
SLDDIMSTYLE0
100
AcDbAlignedDimension
 13
46.01195461813651
 23
2.000440277045268
 33
0.0
 14
45.91195461813652
 24
-1.995079370482127
 34
0.0
 50
90.0000000000002
100
AcDbRotatedDimension
1001
ACAD_DSTYLE_DIMFLIPARROW_SYMBOL
1070
   385
1070
     0
1001
ACAD_DSTYLE_DIMFLIPARROW_WHICH_SYMBOL
1070
   386
1070
     3
  0
INSERT
  5
267
330
1F
100
AcDbEntity
  8
외형선
100
AcDbBlockReference
  2
SW_DOWELSYMBOL_0
 10
0.0
 20
0.0
 30
0.0
  0
ARC
  5
2B6
330
1F
100
AcDbEntity
  8
0
  6
Continuous
 62
     1
370
    25
100
AcDbCircle
 10
45.71195461813652
 20
1.695079370482134
 30
0.0
 40
0.3
100
AcDbArc
 50
359.9999999999978
 51
75.19546271559904
  0
SPLINE
  5
2B7
330
1F
100
AcDbEntity
  8
0
  6
Continuous
 62
     1
370
    25
100
AcDbSpline
210
0.0
220
0.0
230
1.0
 70
    24
 71
     3
 72
     8
 73
     4
 74
     0
 42
0.000000001
 43
0.00000001
 40
0.99573347162453
 40
0.99573347162453
 40
0.99573347162453
 40
0.99573347162453
 40
1.0
 40
1.0
 40
1.0
 40
1.0
 10
46.01195461813651
 20
1.895079370482133
 30
0.0
 10
46.01195461813651
 20
1.895820037031682
 30
0.0
 10
46.01195461813651
 20
1.896560518533024
 30
0.0
 10
46.01195461813651
 20
1.897300810640001
 30
0.0
  0
ARC
  5
2B8
102
{ACAD_REACTORS
102
}
330
1F
100
AcDbEntity
  8
0
  6
Continuous
 62
     1
370
    25
100
AcDbCircle
 10
45.71195461813652
 20
-1.69507937048212
 30
0.0
 40
0.3
100
AcDbArc
 50
284.804537284401
 51
0.0000000000022476
  0
DIMENSION
  5
2B9
102
{ACAD_REACTORS
102
}
102
{ACAD_XDICTIONARY
360
2BA
102
}
330
1F
100
AcDbEntity
  8
치수문자_일반주서
100
AcDbDimension
  2
*D21
 10
45.71195461813652
 20
-1.69507937048212
 30
0.0
 11
53.10056626057482
 21
-14.33681861544853
 31
0.0
 70
   164
  1
<>
 71
     5
 42
0.3000000000000004
  3
SLDDIMSTYLE0
100
AcDbRadialDimension
 15
45.86333391547485
 25
-1.954085757155028
 35
0.0
 40
0.0
1001
ACAD_DSTYLE_DIMRADIAL_EXTENSION
1070
   387
1070
     1
1070
   388
1040
4.970776900231747
1070
   390
1040
0.0000000000000392
1001
ACAD
1000
DSTYLE
1002
{
1070
    78
1070
     8
1002
}
  0
ENDSEC
  0
SECTION
  2
OBJECTS
  0
DICTIONARY
  5
C
330
0
100
AcDbDictionary
281
     1
  3
ACAD_GROUP
350
D
  3
ACAD_IMAGE_VARS
350
13B
  3
ACAD_LAYOUT
350
1A
  3
ACAD_MLINESTYLE
350
17
  3
ACAD_PLOTSETTINGS
350
19
  3
ACAD_PLOTSTYLENAME
350
E
  3
ACAD_SCALELIST
350
47
  3
APPDATA
350
139
  3
DWGPROPS
350
2C6
  0
DICTIONARY
  5
2BA
330
2B9
100
AcDbDictionary
280
     1
281
     1
  0
DICTIONARY
  5
D
102
{ACAD_REACTORS
330
C
102
}
330
C
100
AcDbDictionary
281
     1
  0
RASTERVARIABLES
  5
13B
102
{ACAD_REACTORS
330
C
102
}
330
C
100
AcDbRasterVariables
 90
        0
 70
     1
 71
     1
 72
     1
  0
DICTIONARY
  5
1A
102
{ACAD_REACTORS
330
C
102
}
330
C
100
AcDbDictionary
281
     1
  3
Layout1
350
1E
  3
Layout2
350
26
  3
Model
350
22
  0
DICTIONARY
  5
17
102
{ACAD_REACTORS
330
C
102
}
330
C
100
AcDbDictionary
281
     1
  3
Standard
350
18
  0
DICTIONARY
  5
19
102
{ACAD_REACTORS
330
C
102
}
330
C
100
AcDbDictionary
281
     1
  0
ACDBDICTIONARYWDFLT
  5
E
102
{ACAD_REACTORS
330
C
102
}
330
C
100
AcDbDictionary
281
     1
  3
Normal
350
F
100
AcDbDictionaryWithDefault
340
F
  0
DICTIONARY
  5
47
102
{ACAD_REACTORS
330
C
102
}
330
C
100
AcDbDictionary
281
     1
  3
A0
350
48
  3
A1
350
49
  3
A2
350
4A
  3
A3
350
4B
  3
A4
350
4C
  3
A5
350
4D
  3
A6
350
4E
  3
A7
350
4F
  3
A8
350
50
  3
A9
350
51
  3
B0
350
52
  3
B1
350
53
  3
B2
350
54
  3
B3
350
55
  3
B4
350
56
  3
B5
350
57
  3
B6
350
58
  3
B7
350
59
  3
B8
350
5A
  3
B9
350
5B
  3
C0
350
5C
  3
C1
350
5D
  3
C2
350
5E
  3
C3
350
5F
  3
C4
350
60
  3
C5
350
61
  3
C6
350
62
  3
C7
350
63
  3
C8
350
64
  3
C9
350
65
  3
D0
350
66
  3
D1
350
67
  3
D2
350
68
  0
DICTIONARY
  5
139
102
{ACAD_REACTORS
330
C
102
}
330
C
100
AcDbDictionary
281
     1
  0
XRECORD
  5
2C6
102
{ACAD_REACTORS
330
C
102
}
330
C
100
AcDbXrecord
280
     1
  1
DWGPROPS COOKIE
  2

  3

  4

  6

  7

  8
12016016
  9

300
=
301
=
302
=
303
=
304
=
305
=
306
=
307
=
308
=
309
=
 40
0.0
 41
2458263.422553658
 42
2458268.312143125
  1

 90
        0
  0
LAYOUT
  5
1E
102
{ACAD_REACTORS
330
1A
102
}
330
1A
100
AcDbPlotSettings
  1

  2
none_device
  4

  6

 40
0.0
 41
0.0
 42
0.0
 43
0.0
 44
0.0
 45
0.0
 46
0.0
 47
0.0
 48
0.0
 49
0.0
140
0.0
141
0.0
142
1.0
143
1.0
 70
   688
 72
     1
 73
     0
 74
     5
  7

 75
    16
147
1.0
148
0.0
149
0.0
100
AcDbLayout
  1
Layout1
 70
     1
 71
     1
 10
0.0
 20
0.0
 11
420.0
 21
297.0
 12
0.0
 22
0.0
 32
0.0
 14
1.000000000000000E+20
 24
1.000000000000000E+20
 34
1.000000000000000E+20
 15
-1.000000000000000E+20
 25
-1.000000000000000E+20
 35
-1.000000000000000E+20
146
0.0
 13
0.0
 23
0.0
 33
0.0
 16
1.0
 26
0.0
 36
0.0
 17
0.0
 27
1.0
 37
0.0
 76
     0
330
1B
  0
LAYOUT
  5
26
102
{ACAD_REACTORS
330
1A
102
}
330
1A
100
AcDbPlotSettings
  1

  2
none_device
  4

  6

 40
0.0
 41
0.0
 42
0.0
 43
0.0
 44
0.0
 45
0.0
 46
0.0
 47
0.0
 48
0.0
 49
0.0
140
0.0
141
0.0
142
1.0
143
1.0
 70
   688
 72
     1
 73
     0
 74
     5
  7

 75
    16
147
1.0
148
0.0
149
0.0
100
AcDbLayout
  1
Layout2
 70
     1
 71
     2
 10
0.0
 20
0.0
 11
0.0
 21
0.0
 12
0.0
 22
0.0
 32
0.0
 14
0.0
 24
0.0
 34
0.0
 15
0.0
 25
0.0
 35
0.0
146
0.0
 13
0.0
 23
0.0
 33
0.0
 16
1.0
 26
0.0
 36
0.0
 17
0.0
 27
1.0
 37
0.0
 76
     0
330
23
  0
LAYOUT
  5
22
102
{ACAD_REACTORS
330
1A
102
}
330
1A
100
AcDbPlotSettings
  1

  2
none_device
  4
ANSI_A_(11.00_x_8.50_Inches)
  6

 40
6.35
 41
19.05
 42
6.35000508
 43
19.05000254
 44
279.4
 45
215.9
 46
107.6064916340746
 47
93.22319531143835
 48
0.0
 49
0.0
140
0.0
141
0.0
142
0.0863202334899497
143
1.0
 70
  1696
 72
     0
 73
     0
 74
     0
  7

 75
     0
147
0.0235690232323232
148
0.0
149
0.0
100
AcDbLayout
  1
Model
 70
     1
 71
     0
 10
0.0
 20
0.0
 11
420.0
 21
297.0
 12
0.0
 22
0.0
 32
0.0
 14
1.000000000000000E+20
 24
1.000000000000000E+20
 34
1.000000000000000E+20
 15
-1.000000000000000E+20
 25
-1.000000000000000E+20
 35
-1.000000000000000E+20
146
0.0
 13
0.0
 23
0.0
 33
0.0
 16
1.0
 26
0.0
 36
0.0
 17
0.0
 27
1.0
 37
0.0
 76
     0
330
1F
331
29
  0
MLINESTYLE
  5
18
102
{ACAD_REACTORS
330
17
102
}
330
17
100
AcDbMlineStyle
  2
Standard
 70
     0
  3

 62
   256
 51
90.0
 52
90.0
 71
     2
 49
0.5
 62
   256
  6
BYLAYER
 49
-0.5
 62
   256
  6
BYLAYER
  0
ACDBPLACEHOLDER
  5
F
102
{ACAD_REACTORS
330
E
102
}
330
E
  0
SCALE
  5
48
102
{ACAD_REACTORS
330
47
102
}
330
47
100
AcDbScale
 70
     0
300
1:1
140
1.0
141
1.0
290
     1
  0
SCALE
  5
49
102
{ACAD_REACTORS
330
47
102
}
330
47
100
AcDbScale
 70
     0
300
1:2
140
1.0
141
2.0
290
     0
  0
SCALE
  5
4A
102
{ACAD_REACTORS
330
47
102
}
330
47
100
AcDbScale
 70
     0
300
1:4
140
1.0
141
4.0
290
     0
  0
SCALE
  5
4B
102
{ACAD_REACTORS
330
47
102
}
330
47
100
AcDbScale
 70
     0
300
1:5
140
1.0
141
5.0
290
     0
  0
SCALE
  5
4C
102
{ACAD_REACTORS
330
47
102
}
330
47
100
AcDbScale
 70
     0
300
1:8
140
1.0
141
8.0
290
     0
  0
SCALE
  5
4D
102
{ACAD_REACTORS
330
47
102
}
330
47
100
AcDbScale
 70
     0
300
1:10
140
1.0
141
10.0
290
     0
  0
SCALE
  5
4E
102
{ACAD_REACTORS
330
47
102
}
330
47
100
AcDbScale
 70
     0
300
1:16
140
1.0
141
16.0
290
     0
  0
SCALE
  5
4F
102
{ACAD_REACTORS
330
47
102
}
330
47
100
AcDbScale
 70
     0
300
1:20
140
1.0
141
20.0
290
     0
  0
SCALE
  5
50
102
{ACAD_REACTORS
330
47
102
}
330
47
100
AcDbScale
 70
     0
300
1:30
140
1.0
141
30.0
290
     0
  0
SCALE
  5
51
102
{ACAD_REACTORS
330
47
102
}
330
47
100
AcDbScale
 70
     0
300
1:40
140
1.0
141
40.0
290
     0
  0
SCALE
  5
52
102
{ACAD_REACTORS
330
47
102
}
330
47
100
AcDbScale
 70
     0
300
1:50
140
1.0
141
50.0
290
     0
  0
SCALE
  5
53
102
{ACAD_REACTORS
330
47
102
}
330
47
100
AcDbScale
 70
     0
300
1:100
140
1.0
141
100.0
290
     0
  0
SCALE
  5
54
102
{ACAD_REACTORS
330
47
102
}
330
47
100
AcDbScale
 70
     0
300
2:1
140
2.0
141
1.0
290
     0
  0
SCALE
  5
55
102
{ACAD_REACTORS
330
47
102
}
330
47
100
AcDbScale
 70
     0
300
4:1
140
4.0
141
1.0
290
     0
  0
SCALE
  5
56
102
{ACAD_REACTORS
330
47
102
}
330
47
100
AcDbScale
 70
     0
300
8:1
140
8.0
141
1.0
290
     0
  0
SCALE
  5
57
102
{ACAD_REACTORS
330
47
102
}
330
47
100
AcDbScale
 70
     0
300
10:1
140
10.0
141
1.0
290
     0
  0
SCALE
  5
58
102
{ACAD_REACTORS
330
47
102
}
330
47
100
AcDbScale
 70
     0
300
100:1
140
100.0
141
1.0
290
     0
  0
SCALE
  5
59
102
{ACAD_REACTORS
330
47
102
}
330
47
100
AcDbScale
 70
     0
300
1/128" = 1'-0"
140
0.0078125
141
12.0
290
     0
  0
SCALE
  5
5A
102
{ACAD_REACTORS
330
47
102
}
330
47
100
AcDbScale
 70
     0
300
1/64" = 1'-0"
140
0.015625
141
12.0
290
     0
  0
SCALE
  5
5B
102
{ACAD_REACTORS
330
47
102
}
330
47
100
AcDbScale
 70
     0
300
1/32" = 1'-0"
140
0.03125
141
12.0
290
     0
  0
SCALE
  5
5C
102
{ACAD_REACTORS
330
47
102
}
330
47
100
AcDbScale
 70
     0
300
1/16" = 1'-0"
140
0.0625
141
12.0
290
     0
  0
SCALE
  5
5D
102
{ACAD_REACTORS
330
47
102
}
330
47
100
AcDbScale
 70
     0
300
3/32" = 1'-0"
140
0.09375
141
12.0
290
     0
  0
SCALE
  5
5E
102
{ACAD_REACTORS
330
47
102
}
330
47
100
AcDbScale
 70
     0
300
1/8" = 1'-0"
140
0.125
141
12.0
290
     0
  0
SCALE
  5
5F
102
{ACAD_REACTORS
330
47
102
}
330
47
100
AcDbScale
 70
     0
300
3/16" = 1'-0"
140
0.1875
141
12.0
290
     0
  0
SCALE
  5
60
102
{ACAD_REACTORS
330
47
102
}
330
47
100
AcDbScale
 70
     0
300
1/4" = 1'-0"
140
0.25
141
12.0
290
     0
  0
SCALE
  5
61
102
{ACAD_REACTORS
330
47
102
}
330
47
100
AcDbScale
 70
     0
300
3/8" = 1'-0"
140
0.375
141
12.0
290
     0
  0
SCALE
  5
62
102
{ACAD_REACTORS
330
47
102
}
330
47
100
AcDbScale
 70
     0
300
1/2" = 1'-0"
140
0.5
141
12.0
290
     0
  0
SCALE
  5
63
102
{ACAD_REACTORS
330
47
102
}
330
47
100
AcDbScale
 70
     0
300
3/4" = 1'-0"
140
0.75
141
12.0
290
     0
  0
SCALE
  5
64
102
{ACAD_REACTORS
330
47
102
}
330
47
100
AcDbScale
 70
     0
300
1" = 1'-0"
140
1.0
141
12.0
290
     0
  0
SCALE
  5
65
102
{ACAD_REACTORS
330
47
102
}
330
47
100
AcDbScale
 70
     0
300
1-1/2" = 1'-0"
140
1.5
141
12.0
290
     0
  0
SCALE
  5
66
102
{ACAD_REACTORS
330
47
102
}
330
47
100
AcDbScale
 70
     0
300
3" = 1'-0"
140
3.0
141
12.0
290
     0
  0
SCALE
  5
67
102
{ACAD_REACTORS
330
47
102
}
330
47
100
AcDbScale
 70
     0
300
6" = 1'-0"
140
6.0
141
12.0
290
     0
  0
SCALE
  5
68
102
{ACAD_REACTORS
330
47
102
}
330
47
100
AcDbScale
 70
     0
300
1'-0" = 1'-0"
140
12.0
141
12.0
290
     0
  0
ENDSEC
  0
EOF
