  0
SECTION
  2
HEADER
  9
$ACADVER
  1
AC1015
  9
$ACADMAINTVER
 70
     6
  9
$DWGCODEPAGE
  3
ANSI_949
  9
$INSBASE
 10
0.0
 20
0.0
 30
0.0
  9
$EXTMIN
 10
1.000000000000000E+20
 20
1.000000000000000E+20
 30
1.000000000000000E+20
  9
$EXTMAX
 10
-1.000000000000000E+20
 20
-1.000000000000000E+20
 30
-1.000000000000000E+20
  9
$LIMMIN
 10
0.0
 20
0.0
  9
$LIMMAX
 10
420.0
 20
297.0
  9
$ORTHOMODE
 70
     1
  9
$REGENMODE
 70
     1
  9
$FILLMODE
 70
     1
  9
$QTEXTMODE
 70
     0
  9
$MIRRTEXT
 70
     1
  9
$LTSCALE
 40
1.0
  9
$ATTMODE
 70
     1
  9
$TEXTSIZE
 40
3.5
  9
$TRACEWID
 40
1.0
  9
$TEXTSTYLE
  7
Standard
  9
$CLAYER
  8
0
  9
$CELTYPE
  6
ByLayer
  9
$CECOLOR
 62
   256
  9
$CELTSCALE
 40
1.0
  9
$DISPSILH
 70
     0
  9
$DIMSCALE
 40
1.0
  9
$DIMASZ
 40
3.302
  9
$DIMEXO
 40
1.0
  9
$DIMDLI
 40
3.75
  9
$DIMRND
 40
0.0
  9
$DIMDLE
 40
0.0
  9
$DIMEXE
 40
1.0
  9
$DIMTP
 40
0.0
  9
$DIMTM
 40
0.0
  9
$DIMTXT
 40
3.5
  9
$DIMCEN
 40
2.5
  9
$DIMTSZ
 40
0.0
  9
$DIMTOL
 70
     0
  9
$DIMLIM
 70
     0
  9
$DIMTIH
 70
     1
  9
$DIMTOH
 70
     1
  9
$DIMSE1
 70
     0
  9
$DIMSE2
 70
     0
  9
$DIMTAD
 70
     1
  9
$DIMZIN
 70
     0
  9
$DIMBLK
  1

  9
$DIMASO
 70
     1
  9
$DIMSHO
 70
     1
  9
$DIMPOST
  1

  9
$DIMAPOST
  1

  9
$DIMALT
 70
     0
  9
$DIMALTD
 70
     3
  9
$DIMALTF
 40
0.0393700787401575
  9
$DIMLFAC
 40
1.0
  9
$DIMTOFL
 70
     1
  9
$DIMTVP
 40
0.0
  9
$DIMTIX
 70
     0
  9
$DIMSOXD
 70
     0
  9
$DIMSAH
 70
     0
  9
$DIMBLK1
  1

  9
$DIMBLK2
  1

  9
$DIMSTYLE
  2
ISO-25
  9
$DIMCLRD
 70
     0
  9
$DIMCLRE
 70
     0
  9
$DIMCLRT
 70
     0
  9
$DIMTFAC
 40
1.0
  9
$DIMGAP
 40
1.524
  9
$DIMJUST
 70
     0
  9
$DIMSD1
 70
     0
  9
$DIMSD2
 70
     0
  9
$DIMTOLJ
 70
     0
  9
$DIMTZIN
 70
     0
  9
$DIMALTZ
 70
     0
  9
$DIMALTTZ
 70
     0
  9
$DIMUPT
 70
     0
  9
$DIMDEC
 70
     2
  9
$DIMTDEC
 70
     2
  9
$DIMALTU
 70
     2
  9
$DIMALTTD
 70
     3
  9
$DIMTXSTY
  7
Standard
  9
$DIMAUNIT
 70
     0
  9
$DIMADEC
 70
     2
  9
$DIMALTRND
 40
0.0
  9
$DIMAZIN
 70
     0
  9
$DIMDSEP
 70
    44
  9
$DIMATFIT
 70
     3
  9
$DIMFRAC
 70
     0
  9
$DIMLDRBLK
  1

  9
$DIMLUNIT
 70
     2
  9
$DIMLWD
 70
    -2
  9
$DIMLWE
 70
    -2
  9
$DIMTMOVE
 70
     0
  9
$LUNITS
 70
     2
  9
$LUPREC
 70
     2
  9
$SKETCHINC
 40
1.0
  9
$FILLETRAD
 40
10.0
  9
$AUNITS
 70
     0
  9
$AUPREC
 70
     2
  9
$MENU
  1
.
  9
$ELEVATION
 40
0.0
  9
$PELEVATION
 40
0.0
  9
$THICKNESS
 40
0.0
  9
$LIMCHECK
 70
     0
  9
$CHAMFERA
 40
0.0
  9
$CHAMFERB
 40
0.0
  9
$CHAMFERC
 40
0.0
  9
$CHAMFERD
 40
0.0
  9
$SKPOLY
 70
     0
  9
$TDCREATE
 40
2458263.796986539
  9
$TDUCREATE
 40
2458263.421986539
  9
$TDUPDATE
 40
2458268.827288079
  9
$TDUUPDATE
 40
2458268.452288079
  9
$TDINDWG
 40
0.0006519097
  9
$TDUSRTIMER
 40
2458268.45163632
  9
$USRTIMER
 70
     1
  9
$ANGBASE
 50
0.0
  9
$ANGDIR
 70
     0
  9
$PDMODE
 70
     0
  9
$PDSIZE
 40
-1.0
  9
$PLINEWID
 40
0.0
  9
$SPLFRAME
 70
     0
  9
$SPLINETYPE
 70
     6
  9
$SPLINESEGS
 70
     8
  9
$HANDSEED
  5
2CC
  9
$SURFTAB1
 70
     6
  9
$SURFTAB2
 70
     6
  9
$SURFTYPE
 70
     6
  9
$SURFU
 70
     6
  9
$SURFV
 70
     6
  9
$UCSBASE
  2

  9
$UCSNAME
  2

  9
$UCSORG
 10
0.0
 20
0.0
 30
0.0
  9
$UCSXDIR
 10
1.0
 20
0.0
 30
0.0
  9
$UCSYDIR
 10
0.0
 20
1.0
 30
0.0
  9
$UCSORTHOREF
  2

  9
$UCSORTHOVIEW
 70
     0
  9
$UCSORGTOP
 10
0.0
 20
0.0
 30
0.0
  9
$UCSORGBOTTOM
 10
0.0
 20
0.0
 30
0.0
  9
$UCSORGLEFT
 10
0.0
 20
0.0
 30
0.0
  9
$UCSORGRIGHT
 10
0.0
 20
0.0
 30
0.0
  9
$UCSORGFRONT
 10
0.0
 20
0.0
 30
0.0
  9
$UCSORGBACK
 10
0.0
 20
0.0
 30
0.0
  9
$PUCSBASE
  2

  9
$PUCSNAME
  2

  9
$PUCSORG
 10
0.0
 20
0.0
 30
0.0
  9
$PUCSXDIR
 10
1.0
 20
0.0
 30
0.0
  9
$PUCSYDIR
 10
0.0
 20
1.0
 30
0.0
  9
$PUCSORTHOREF
  2

  9
$PUCSORTHOVIEW
 70
     0
  9
$PUCSORGTOP
 10
0.0
 20
0.0
 30
0.0
  9
$PUCSORGBOTTOM
 10
0.0
 20
0.0
 30
0.0
  9
$PUCSORGLEFT
 10
0.0
 20
0.0
 30
0.0
  9
$PUCSORGRIGHT
 10
0.0
 20
0.0
 30
0.0
  9
$PUCSORGFRONT
 10
0.0
 20
0.0
 30
0.0
  9
$PUCSORGBACK
 10
0.0
 20
0.0
 30
0.0
  9
$USERI1
 70
     0
  9
$USERI2
 70
     0
  9
$USERI3
 70
     0
  9
$USERI4
 70
     0
  9
$USERI5
 70
     0
  9
$USERR1
 40
0.0
  9
$USERR2
 40
0.0
  9
$USERR3
 40
0.0
  9
$USERR4
 40
0.0
  9
$USERR5
 40
0.0
  9
$WORLDVIEW
 70
     1
  9
$SHADEDGE
 70
     3
  9
$SHADEDIF
 70
    70
  9
$TILEMODE
 70
     1
  9
$MAXACTVP
 70
    64
  9
$PINSBASE
 10
0.0
 20
0.0
 30
0.0
  9
$PLIMCHECK
 70
     0
  9
$PEXTMIN
 10
1.000000000000000E+20
 20
1.000000000000000E+20
 30
1.000000000000000E+20
  9
$PEXTMAX
 10
-1.000000000000000E+20
 20
-1.000000000000000E+20
 30
-1.000000000000000E+20
  9
$PLIMMIN
 10
0.0
 20
0.0
  9
$PLIMMAX
 10
0.0
 20
0.0
  9
$UNITMODE
 70
     0
  9
$VISRETAIN
 70
     1
  9
$PLINEGEN
 70
     0
  9
$PSLTSCALE
 70
     1
  9
$TREEDEPTH
 70
  3020
  9
$CMLSTYLE
  2
Standard
  9
$CMLJUST
 70
     0
  9
$CMLSCALE
 40
20.0
  9
$PROXYGRAPHICS
 70
     1
  9
$MEASUREMENT
 70
     1
  9
$CELWEIGHT
370
    -1
  9
$ENDCAPS
280
     0
  9
$JOINSTYLE
280
     0
  9
$LWDISPLAY
290
     1
  9
$INSUNITS
 70
     4
  9
$HYPERLINKBASE
  1

  9
$STYLESHEET
  1

  9
$XEDIT
290
     1
  9
$CEPSNTYPE
380
     0
  9
$PSTYLEMODE
290
     1
  9
$FINGERPRINTGUID
  2
{42029769-8478-43C5-A837-2A076A308BBF}
  9
$VERSIONGUID
  2
{FAEB1C32-E019-11D5-929B-00C0DF256EC4}
  9
$EXTNAMES
290
     1
  9
$PSVPSCALE
 40
0.0
  9
$OLESTARTUP
290
     0
  0
ENDSEC
  0
SECTION
  2
CLASSES
  0
CLASS
  1
ACDBDICTIONARYWDFLT
  2
AcDbDictionaryWithDefault
  3
ObjectDBX Classes
 90
        0
280
     0
281
     0
  0
CLASS
  1
VISUALSTYLE
  2
AcDbVisualStyle
  3
ObjectDBX Classes
 90
     4095
280
     0
281
     0
  0
CLASS
  1
MATERIAL
  2
AcDbMaterial
  3
ObjectDBX Classes
 90
     1153
280
     0
281
     0
  0
CLASS
  1
SCALE
  2
AcDbScale
  3
ObjectDBX Classes
 90
     1153
280
     0
281
     0
  0
CLASS
  1
TABLESTYLE
  2
AcDbTableStyle
  3
ObjectDBX Classes
 90
     4095
280
     0
281
     0
  0
CLASS
  1
MLEADERSTYLE
  2
AcDbMLeaderStyle
  3
ACDB_MLEADERSTYLE_CLASS
 90
     4095
280
     0
281
     0
  0
CLASS
  1
SUN
  2
AcDbSun
  3
SCENEOE
 90
     1153
280
     0
281
     0
  0
CLASS
  1
ACDBPLACEHOLDER
  2
AcDbPlaceHolder
  3
ObjectDBX Classes
 90
        0
280
     0
281
     0
  0
CLASS
  1
LAYOUT
  2
AcDbLayout
  3
ObjectDBX Classes
 90
        0
280
     0
281
     0
  0
CLASS
  1
RASTERVARIABLES
  2
AcDbRasterVariables
  3
ISM
 90
        0
280
     0
281
     0
  0
CLASS
  1
DIMASSOC
  2
AcDbDimAssoc
  3
"AcDbDimAssoc|Product Desc:     AcDim ARX App For Dimension|Company:          Autodesk, Inc.|WEB Address:      www.autodesk.com"
 90
        0
280
     0
281
     0
  0
ENDSEC
  0
SECTION
  2
TABLES
  0
TABLE
  2
VPORT
  5
8
330
0
100
AcDbSymbolTable
 70
     1
  0
VPORT
  5
29
330
8
100
AcDbSymbolTableRecord
100
AcDbViewportTableRecord
  2
*Active
 70
     0
 10
0.0
 20
0.0
 11
1.0
 21
1.0
 12
60.30125276921427
 22
-8.901022380197636
 13
0.0
 23
0.0
 14
10.0
 24
10.0
 15
10.0
 25
10.0
 16
0.0
 26
0.0
 36
1.0
 17
0.0
 27
0.0
 37
0.0
 40
80.66782221084077
 41
1.742632612966601
 42
50.0
 43
0.0
 44
0.0
 50
0.0
 51
0.0
 71
    16
 72
  2000
 73
     1
 74
     3
 75
     0
 76
     0
 77
     0
 78
     0
281
     0
 65
     1
110
0.0
120
0.0
130
0.0
111
1.0
121
0.0
131
0.0
112
0.0
122
1.0
132
0.0
 79
     0
146
0.0
  0
ENDTAB
  0
TABLE
  2
LTYPE
  5
5
330
0
100
AcDbSymbolTable
 70
     6
  0
LTYPE
  5
14
330
5
100
AcDbSymbolTableRecord
100
AcDbLinetypeTableRecord
  2
ByBlock
 70
     0
  3

 72
    65
 73
     0
 40
0.0
  0
LTYPE
  5
15
330
5
100
AcDbSymbolTableRecord
100
AcDbLinetypeTableRecord
  2
ByLayer
 70
     0
  3

 72
    65
 73
     0
 40
0.0
  0
LTYPE
  5
16
330
5
100
AcDbSymbolTableRecord
100
AcDbLinetypeTableRecord
  2
Continuous
 70
     0
  3
Solid line
 72
    65
 73
     0
 40
0.0
  0
LTYPE
  5
6E
330
5
100
AcDbSymbolTableRecord
100
AcDbLinetypeTableRecord
  2
HIDDEN
 70
     0
  3
Hidden __ __ __ __ __ __ __ __ __ __ __ __ __ __
 72
    65
 73
     2
 40
1.905
 49
1.27
 74
     0
 49
-0.635
 74
     0
  0
LTYPE
  5
6F
330
5
100
AcDbSymbolTableRecord
100
AcDbLinetypeTableRecord
  2
PHANTOM
 70
     0
  3
Phantom ______  __  __  ______  __  __  ______
 72
    65
 73
     6
 40
12.7
 49
6.35
 74
     0
 49
-1.27
 74
     0
 49
1.27
 74
     0
 49
-1.27
 74
     0
 49
1.27
 74
     0
 49
-1.27
 74
     0
  0
LTYPE
  5
70
330
5
100
AcDbSymbolTableRecord
100
AcDbLinetypeTableRecord
  2
CENTER
 70
     0
  3
Center ____ _ ____ _ ____ _ ____ _ ____ _ ____
 72
    65
 73
     4
 40
10.16
 49
6.35
 74
     0
 49
-1.27
 74
     0
 49
1.27
 74
     0
 49
-1.27
 74
     0
  0
LTYPE
  5
71
330
5
100
AcDbSymbolTableRecord
100
AcDbLinetypeTableRecord
  2
CENTERX2
 70
     0
  3
Center (2x) ________  __  ________  __  _____
 72
    65
 73
     4
 40
20.32
 49
12.7
 74
     0
 49
-2.54
 74
     0
 49
2.54
 74
     0
 49
-2.54
 74
     0
  0
LTYPE
  5
72
330
5
100
AcDbSymbolTableRecord
100
AcDbLinetypeTableRecord
  2
DOT2
 70
     0
  3
Dot (.5x) ........................................
 72
    65
 73
     2
 40
0.635
 49
0.0
 74
     0
 49
-0.635
 74
     0
  0
ENDTAB
  0
TABLE
  2
LAYER
  5
2
330
0
100
AcDbSymbolTable
 70
    17
  0
LAYER
  5
10
330
2
100
AcDbSymbolTableRecord
100
AcDbLayerTableRecord
  2
0
 70
     0
 62
     7
  6
Continuous
370
    -3
390
F
  0
LAYER
  5
73
330
2
100
AcDbSymbolTableRecord
100
AcDbLayerTableRecord
  2
FORMAT
 70
     0
 62
     2
  6
Continuous
370
    -3
390
F
  0
LAYER
  5
74
330
2
100
AcDbSymbolTableRecord
100
AcDbLayerTableRecord
  2
외형선
 70
     0
 62
   100
  6
Continuous
370
    35
390
F
  0
LAYER
  5
75
330
2
100
AcDbSymbolTableRecord
100
AcDbLayerTableRecord
  2
숨은선
 70
     0
 62
     2
  6
HIDDEN
370
    25
390
F
  0
LAYER
  5
76
330
2
100
AcDbSymbolTableRecord
100
AcDbLayerTableRecord
  2
중심선
 70
     0
 62
     1
  6
CENTERX2
370
    -3
390
F
  0
LAYER
  5
77
330
2
100
AcDbSymbolTableRecord
100
AcDbLayerTableRecord
  2
파단선
 70
     0
 62
     4
  6
Continuous
370
    -3
390
F
  0
LAYER
  5
78
330
2
100
AcDbSymbolTableRecord
100
AcDbLayerTableRecord
  2
해칭선
 70
     0
 62
     4
  6
Continuous
370
    -3
390
F
  0
LAYER
  5
79
330
2
100
AcDbSymbolTableRecord
100
AcDbLayerTableRecord
  2
가는실선
 70
     0
 62
     4
  6
Continuous
370
    -3
390
F
  0
LAYER
  5
7A
330
2
100
AcDbSymbolTableRecord
100
AcDbLayerTableRecord
  2
치수_보조선
 70
     0
 62
     4
  6
Continuous
370
    -3
390
F
  0
LAYER
  5
7B
330
2
100
AcDbSymbolTableRecord
100
AcDbLayerTableRecord
  2
치수문자_일반주서
 70
     0
 62
     7
  6
Continuous
370
    25
390
F
  0
LAYER
  5
7C
330
2
100
AcDbSymbolTableRecord
100
AcDbLayerTableRecord
  2
개별주서
 70
     0
 62
   100
  6
Continuous
370
    35
390
F
  0
LAYER
  5
7D
330
2
100
AcDbSymbolTableRecord
100
AcDbLayerTableRecord
  2
중간선
 70
     0
 62
     2
  6
Continuous
370
    25
390
F
  0
LAYER
  5
7E
330
2
100
AcDbSymbolTableRecord
100
AcDbLayerTableRecord
  2
윤곽선
 70
     0
 62
     3
  6
Continuous
370
    50
390
F
  0
LAYER
  5
7F
330
2
100
AcDbSymbolTableRecord
100
AcDbLayerTableRecord
  2
중심마크
 70
     0
 62
   100
  6
Continuous
370
    35
390
F
  0
LAYER
  5
80
330
2
100
AcDbSymbolTableRecord
100
AcDbLayerTableRecord
  2
가상선
 70
     0
 62
     4
  6
PHANTOM
370
    -3
390
F
  0
LAYER
  5
81
330
2
100
AcDbSymbolTableRecord
100
AcDbLayerTableRecord
  2
특수지정선
 70
     0
 62
     5
  6
CENTERX2
370
    70
390
F
  0
LAYER
  5
13C
330
2
100
AcDbSymbolTableRecord
100
AcDbLayerTableRecord
  2
Defpoints
 70
     0
 62
     7
  6
Continuous
290
     0
370
    -3
390
F
  0
ENDTAB
  0
TABLE
  2
STYLE
  5
3
330
0
100
AcDbSymbolTable
 70
     2
  0
STYLE
  5
11
330
3
100
AcDbSymbolTableRecord
100
AcDbTextStyleTableRecord
  2
Standard
 70
     0
 40
0.0
 41
1.0
 50
0.0
 71
     0
 42
3.5
  3
txt
  4

  0
STYLE
  5
97
330
3
100
AcDbSymbolTableRecord
100
AcDbTextStyleTableRecord
  2
SLDTEXTSTYLE0
 70
     0
 40
0.0
 41
0.75
 50
0.0
 71
     0
 42
3.5
  3
TXT
  4

  0
ENDTAB
  0
TABLE
  2
VIEW
  5
6
330
0
100
AcDbSymbolTable
 70
     0
  0
ENDTAB
  0
TABLE
  2
UCS
  5
7
330
0
100
AcDbSymbolTable
 70
     0
  0
ENDTAB
  0
TABLE
  2
APPID
  5
9
330
0
100
AcDbSymbolTable
 70
     2
  0
APPID
  5
12
330
9
100
AcDbSymbolTableRecord
100
AcDbRegAppTableRecord
  2
ACAD
 70
     0
  0
APPID
  5
148
330
9
100
AcDbSymbolTableRecord
100
AcDbRegAppTableRecord
  2
ACAD_DSTYLE_DIMRADIAL_EXTENSION
 70
     0
  0
ENDTAB
  0
TABLE
  2
DIMSTYLE
  5
A
330
0
100
AcDbSymbolTable
 70
     3
100
AcDbDimStyleTable
  0
DIMSTYLE
105
27
330
A
100
AcDbSymbolTableRecord
100
AcDbDimStyleTableRecord
  2
ISO-25
 70
     0
 41
2.5
 42
0.625
 43
3.75
 44
1.25
 73
     0
 74
     0
 77
     1
 78
     8
140
2.5
141
2.5
143
0.03937007874016
147
0.625
171
     3
172
     1
178
     0
271
     2
272
     2
274
     3
278
    44
283
     0
284
     8
340
11
  0
DIMSTYLE
105
D4
102
{ACAD_REACTORS
330
199
330
1A6
330
1C0
330
1CD
330
1E6
330
266
330
267
330
269
330
26A
330
2BE
102
}
330
A
100
AcDbSymbolTableRecord
100
AcDbDimStyleTableRecord
  2
SLDDIMSTYLE0
 70
     0
 41
3.302
 44
0.0
 45
0.000000001
 73
     0
 74
     0
 77
     1
 78
    12
 79
     3
140
3.5
147
0.875
172
     1
173
     1
178
     0
271
     2
272
     2
276
     2
284
    12
289
     0
340
97
  0
DIMSTYLE
105
EE
102
{ACAD_REACTORS
330
1B3
330
268
102
}
330
A
100
AcDbSymbolTableRecord
100
AcDbDimStyleTableRecord
  2
SLDDIMSTYLE1
 70
     0
 41
3.302
 44
0.0
 45
0.000000001
 73
     0
 74
     0
 77
     1
 78
    12
 79
     3
140
3.5
147
0.875
173
     1
178
     0
271
     2
272
     2
276
     2
284
    12
340
97
  0
ENDTAB
  0
TABLE
  2
BLOCK_RECORD
  5
1
330
0
100
AcDbSymbolTable
 70
    22
  0
BLOCK_RECORD
  5
1F
330
1
100
AcDbSymbolTableRecord
100
AcDbBlockTableRecord
  2
*Model_Space
340
22
  0
BLOCK_RECORD
  5
1B
330
1
100
AcDbSymbolTableRecord
100
AcDbBlockTableRecord
  2
*Paper_Space
340
1E
  0
BLOCK_RECORD
  5
23
330
1
100
AcDbSymbolTableRecord
100
AcDbBlockTableRecord
  2
*Paper_Space0
340
26
  0
BLOCK_RECORD
  5
82
330
1
100
AcDbSymbolTableRecord
100
AcDbBlockTableRecord
  2
블럭10
340
0
102
{BLKREFS
331
CC
102
}
  0
BLOCK_RECORD
  5
D5
330
1
100
AcDbSymbolTableRecord
100
AcDbBlockTableRecord
  2
_D
340
0
  0
BLOCK_RECORD
  5
E2
330
1
100
AcDbSymbolTableRecord
100
AcDbBlockTableRecord
  2
_D_1
340
0
  0
BLOCK_RECORD
  5
EF
330
1
100
AcDbSymbolTableRecord
100
AcDbBlockTableRecord
  2
_D_2
340
0
  0
BLOCK_RECORD
  5
F9
330
1
100
AcDbSymbolTableRecord
100
AcDbBlockTableRecord
  2
_D_3
340
0
  0
BLOCK_RECORD
  5
105
330
1
100
AcDbSymbolTableRecord
100
AcDbBlockTableRecord
  2
_D_4
340
0
  0
BLOCK_RECORD
  5
111
330
1
100
AcDbSymbolTableRecord
100
AcDbBlockTableRecord
  2
SW_DOWELSYMBOL_0
340
0
102
{BLKREFS
331
0
331
1DD
331
26B
102
}
  0
BLOCK_RECORD
  5
1E9
330
1
100
AcDbSymbolTableRecord
100
AcDbBlockTableRecord
  2
*D9
340
0
  0
BLOCK_RECORD
  5
1F4
330
1
100
AcDbSymbolTableRecord
100
AcDbBlockTableRecord
  2
*D10
340
0
  0
BLOCK_RECORD
  5
200
330
1
100
AcDbSymbolTableRecord
100
AcDbBlockTableRecord
  2
*D11
340
0
  0
BLOCK_RECORD
  5
20C
330
1
100
AcDbSymbolTableRecord
100
AcDbBlockTableRecord
  2
*D12
340
0
  0
BLOCK_RECORD
  5
218
330
1
100
AcDbSymbolTableRecord
100
AcDbBlockTableRecord
  2
*D13
340
0
  0
BLOCK_RECORD
  5
224
330
1
100
AcDbSymbolTableRecord
100
AcDbBlockTableRecord
  2
*D14
340
0
  0
BLOCK_RECORD
  5
271
330
1
100
AcDbSymbolTableRecord
100
AcDbBlockTableRecord
  2
*D15
340
0
  0
BLOCK_RECORD
  5
27D
330
1
100
AcDbSymbolTableRecord
100
AcDbBlockTableRecord
  2
*D16
340
0
  0
BLOCK_RECORD
  5
289
330
1
100
AcDbSymbolTableRecord
100
AcDbBlockTableRecord
  2
*D17
340
0
  0
BLOCK_RECORD
  5
295
330
1
100
AcDbSymbolTableRecord
100
AcDbBlockTableRecord
  2
*D18
340
0
  0
BLOCK_RECORD
  5
2A1
330
1
100
AcDbSymbolTableRecord
100
AcDbBlockTableRecord
  2
*D19
340
0
  0
BLOCK_RECORD
  5
2B0
330
1
100
AcDbSymbolTableRecord
100
AcDbBlockTableRecord
  2
*D20
340
0
  0
BLOCK_RECORD
  5
2C1
330
1
100
AcDbSymbolTableRecord
100
AcDbBlockTableRecord
  2
*D21
340
0
  0
ENDTAB
  0
ENDSEC
  0
SECTION
  2
BLOCKS
  0
BLOCK
  5
20
330
1F
100
AcDbEntity
  8
0
100
AcDbBlockBegin
  2
*Model_Space
 70
     0
 10
0.0
 20
0.0
 30
0.0
  3
*Model_Space
  1
*Model_Space
  0
ENDBLK
  5
21
330
1F
100
AcDbEntity
  8
0
100
AcDbBlockEnd
  0
BLOCK
  5
1C
330
1B
100
AcDbEntity
 67
     1
  8
0
100
AcDbBlockBegin
  2
*Paper_Space
 70
     0
 10
0.0
 20
0.0
 30
0.0
  3
*Paper_Space
  1
*Paper_Space
  0
ENDBLK
  5
1D
330
1B
100
AcDbEntity
 67
     1
  8
0
100
AcDbBlockEnd
  0
BLOCK
  5
24
330
23
100
AcDbEntity
  8
0
100
AcDbBlockBegin
  2
*Paper_Space0
 70
     0
 10
0.0
 20
0.0
 30
0.0
  3
*Paper_Space0
  1
*Paper_Space0
  0
ENDBLK
  5
25
330
23
100
AcDbEntity
  8
0
100
AcDbBlockEnd
  0
BLOCK
  5
83
330
82
100
AcDbEntity
  8
0
100
AcDbBlockBegin
  2
블럭10
 70
     2
 10
0.0
 20
0.0
 30
0.0
  3
블럭10
  1
블럭10
  0
ELLIPSE
  5
85
330
82
100
AcDbEntity
  8
중심선
100
AcDbEllipse
 10
20.54032771741204
 20
12.0471743016438
 30
0.0
 11
6.600054785286829
 21
-1.261213355974178E-13
 31
0.0
210
0.0
220
0.0
230
1.0
 40
0.636358354079598
 41
0.9219305317359503
 42
6.513795318482858
  0
ELLIPSE
  5
86
330
82
100
AcDbEntity
  8
중심선
100
AcDbEllipse
 10
20.54032771746488
 20
12.04717430159265
 30
0.0
 11
3.960054785062283
 21
1.540847449632565E-10
 31
0.0
210
0.0
220
0.0
230
1.0
 40
0.3939339440162632
 41
1.131841032648279
 42
5.62031148352944
  0
LINE
  5
87
330
82
100
AcDbEntity
  8
중심선
100
AcDbLine
 10
2.268634060543552
 20
16.24717430164393
 30
0.0
 11
5.714909304380834
 21
16.24717430164393
 31
0.0
  0
LINE
  5
88
330
82
100
AcDbEntity
  8
중심선
100
AcDbLine
 10
5.245725140726316
 20
7.84717430164391
 30
0.0
 11
8.692000384563599
 21
7.84717430164391
 31
0.0
  0
LINE
  5
89
330
82
100
AcDbEntity
  8
중심선
100
AcDbLine
 10
15.74043728645272
 20
16.24717430164393
 30
0.0
 11
8.692000384563599
 21
7.84717430164391
 31
0.0
  0
LINE
  5
8A
330
82
100
AcDbEntity
  8
중심선
100
AcDbLine
 10
0.1404042013395286
 20
13.71084872107135
 30
0.0
 11
3.58671253028996
 21
13.71088815037384
 31
0.0
  0
LINE
  5
8B
330
82
100
AcDbEntity
  8
중심선
100
AcDbLine
 10
2.750260043222114
 20
10.84717430164391
 30
0.0
 11
6.196535287059397
 21
10.84717430164391
 31
0.0
  0
LINE
  5
8C
330
82
100
AcDbEntity
  8
중심선
100
AcDbLine
 10
12.29416204261559
 20
16.24717430164393
 30
0.0
 11
5.245725140726316
 21
7.84717430164391
 31
0.0
  0
LINE
  5
8D
330
82
100
AcDbEntity
  8
중심선
100
AcDbLine
 10
10.72767329541681
 20
16.24717430164393
 30
0.0
 11
6.196535287059397
 21
10.84717430164391
 31
0.0
  0
LINE
  5
8E
330
82
100
AcDbEntity
  8
중심선
100
AcDbLine
 10
7.28139805157953
 20
16.24717430164393
 30
0.0
 11
2.750260043222114
 21
10.84717430164391
 31
0.0
  0
LINE
  5
8F
330
82
100
AcDbEntity
  8
중심선
100
AcDbLine
 10
5.714909304380834
 20
16.24717430164393
 30
0.0
 11
3.58671253028996
 21
13.71088815037384
 31
0.0
  0
LINE
  5
90
330
82
100
AcDbEntity
  8
중심선
100
AcDbLine
 10
2.268634060543552
 20
16.24717430164393
 30
0.0
 11
0.1404042013395286
 21
13.71084872107135
 31
0.0
  0
LINE
  5
91
330
82
100
AcDbEntity
  8
중심선
100
AcDbLine
 10
7.28139805157953
 20
16.24717430164393
 30
0.0
 11
10.72767329541681
 21
16.24717430164393
 31
0.0
  0
LINE
  5
92
330
82
100
AcDbEntity
  8
중심선
100
AcDbLine
 10
12.29416204261559
 20
16.24717430164393
 30
0.0
 11
15.74043728645272
 21
16.24717430164393
 31
0.0
  0
LINE
  5
93
330
82
100
AcDbEntity
  8
중심선
100
AcDbLine
 10
19.22036997980202
 20
11.08717430171403
 30
0.0
 11
23.66174974927406
 21
11.08717430171406
 31
0.0
  0
LINE
  5
94
330
82
100
AcDbEntity
  8
중심선
100
AcDbLine
 10
19.22039502424796
 20
13.00717430171391
 30
0.0
 11
19.22036997980202
 21
11.08717430171403
 31
0.0
  0
LINE
  5
95
330
82
100
AcDbEntity
  8
중심선
100
AcDbLine
 10
19.22039502424796
 20
13.00717430171391
 30
0.0
 11
26.96566020931264
 21
13.00717430171391
 31
0.0
  0
LINE
  5
96
330
82
100
AcDbEntity
  8
중심선
100
AcDbLine
 10
22.22332737316547
 20
13.45928029700563
 30
0.0
 11
24.52862924686651
 21
15.39360700705356
 31
0.0
  0
ATTDEF
  5
98
330
82
100
AcDbEntity
  8
FORMAT
 62
     2
100
AcDbText
 10
-19.27858288401334
 20
2.075366912832191
 30
0.0
 40
4.233333333333333
  1
SEME610400326E [ 2 FLUTE ]
 41
0.75
  7
SLDTEXTSTYLE0
 11
-19.27858288401334
 21
-0.0412997538344756
 31
0.0
100
AcDbAttributeDefinition
  3

  2
AUTOATTR0
 70
     0
 74
     1
  0
ENDBLK
  5
84
330
82
100
AcDbEntity
  8
0
100
AcDbBlockEnd
  0
BLOCK
  5
D6
330
D5
100
AcDbEntity
  8
0
100
AcDbBlockBegin
  2
_D
 70
     0
 10
0.0
 20
0.0
 30
0.0
  3
_D
  1
_D
  0
SOLID
  5
D8
330
D5
100
AcDbEntity
  8
치수문자_일반주서
100
AcDbTrace
 10
-40.00250885508848
 20
3.001074928723889
 30
0.0
 11
-39.49450885508848
 21
6.303074928723889
 31
0.0
 12
-40.51050885508848
 22
6.303074928723889
 32
0.0
 13
-40.51050885508848
 23
6.303074928723889
 33
0.0
  0
SOLID
  5
D9
330
D5
100
AcDbEntity
  8
치수문자_일반주서
100
AcDbTrace
 10
-40.00250885508848
 20
-2.998925071276107
 30
0.0
 11
-40.51050885508848
 21
-6.300925071276106
 31
0.0
 12
-39.49450885508848
 22
-6.300925071276106
 32
0.0
 13
-39.49450885508848
 23
-6.300925071276106
 33
0.0
  0
LINE
  5
DA
330
D5
100
AcDbEntity
  8
치수문자_일반주서
100
AcDbLine
 10
-28.50605083347639
 20
3.001074928723889
 30
0.0
 11
-41.00250885508848
 21
3.001074928723889
 31
0.0
  0
LINE
  5
DB
330
D5
100
AcDbEntity
  8
치수문자_일반주서
100
AcDbLine
 10
-28.50605083347639
 20
-2.998925071276107
 30
0.0
 11
-41.00250885508848
 21
-2.998925071276107
 31
0.0
  0
LINE
  5
DC
330
D5
100
AcDbEntity
  8
치수문자_일반주서
100
AcDbLine
 10
-40.00250885508848
 20
3.001074928723889
 30
0.0
 11
-40.00250885508848
 21
9.35107492872389
 31
0.0
  0
LINE
  5
DD
330
D5
100
AcDbEntity
  8
치수문자_일반주서
100
AcDbLine
 10
-40.00250885508848
 20
3.001074928723889
 30
0.0
 11
-40.00250885508848
 21
-2.998925071276107
 31
0.0
  0
LINE
  5
DE
330
D5
100
AcDbEntity
  8
치수문자_일반주서
100
AcDbLine
 10
-40.00250885508848
 20
-2.998925071276107
 30
0.0
 11
-40.00250885508848
 21
-9.348925071276106
 31
0.0
  0
MTEXT
  5
DF
330
D5
100
AcDbEntity
  8
치수문자_일반주서
100
AcDbMText
 10
-44.51424594429033
 20
-3.931199483639909
 30
0.0
 40
3.5
 41
0.0
 71
     1
 72
     1
  1
%%c
  7
SLDTEXTSTYLE0
 11
-7.044195017643634E-15
 21
1.0
 31
0.0
 73
     1
 44
1.0
  0
MTEXT
  5
E0
330
D5
100
AcDbEntity
  8
치수문자_일반주서
100
AcDbMText
 10
-44.56771812095021
 20
1.347237914734172
 30
0.0
 40
3.5
 41
0.0
 71
     1
 72
     1
  1
6
  7
SLDTEXTSTYLE0
 11
-7.044195017643634E-15
 21
1.0
 31
0.0
 73
     1
 44
1.0
  0
ENDBLK
  5
D7
330
D5
100
AcDbEntity
  8
0
100
AcDbBlockEnd
  0
BLOCK
  5
E3
330
E2
100
AcDbEntity
  8
0
100
AcDbBlockBegin
  2
_D_1
 70
     0
 10
0.0
 20
0.0
 30
0.0
  3
_D_1
  1
_D_1
  0
SOLID
  5
E5
330
E2
100
AcDbEntity
  8
치수문자_일반주서
100
AcDbTrace
 10
36.49394916652361
 20
20.20107492872356
 30
0.0
 11
39.79594916652361
 21
19.69307492872356
 31
0.0
 12
39.79594916652361
 22
20.70907492872356
 32
0.0
 13
39.79594916652361
 23
20.70907492872356
 33
0.0
  0
SOLID
  5
E6
330
E2
100
AcDbEntity
  8
치수문자_일반주서
100
AcDbTrace
 10
30.49394916652362
 20
20.20107492872356
 30
0.0
 11
27.19194916652362
 21
20.70907492872356
 31
0.0
 12
27.19194916652362
 22
19.69307492872356
 32
0.0
 13
27.19194916652362
 23
19.69307492872356
 33
0.0
  0
LINE
  5
E7
330
E2
100
AcDbEntity
  8
치수문자_일반주서
100
AcDbLine
 10
36.49394916652361
 20
2.701074928723893
 30
0.0
 11
36.49394916652361
 21
21.20107492872356
 31
0.0
  0
LINE
  5
E8
330
E2
100
AcDbEntity
  8
치수문자_일반주서
100
AcDbLine
 10
30.49394916652362
 20
2.582589082680107
 30
0.0
 11
30.49394916652362
 21
21.20107492872356
 31
0.0
  0
LINE
  5
E9
330
E2
100
AcDbEntity
  8
치수문자_일반주서
100
AcDbLine
 10
36.49394916652361
 20
20.20107492872356
 30
0.0
 11
44.34975570836897
 21
20.20107492872356
 31
0.0
  0
LINE
  5
EA
330
E2
100
AcDbEntity
  8
치수문자_일반주서
100
AcDbLine
 10
36.49394916652361
 20
20.20107492872356
 30
0.0
 11
30.49394916652362
 21
20.20107492872356
 31
0.0
  0
LINE
  5
EB
330
E2
100
AcDbEntity
  8
치수문자_일반주서
100
AcDbLine
 10
30.49394916652362
 20
20.20107492872356
 30
0.0
 11
24.14394916652362
 21
20.20107492872356
 31
0.0
  0
MTEXT
  5
EC
330
E2
100
AcDbEntity
  8
치수문자_일반주서
100
AcDbMText
 10
41.76364451484616
 20
24.71281184330245
 30
0.0
 40
3.5
 41
0.0
 71
     1
 72
     1
  1
6
  7
SLDTEXTSTYLE0
 73
     1
 44
1.0
  0
ENDBLK
  5
E4
330
E2
100
AcDbEntity
  8
0
100
AcDbBlockEnd
  0
BLOCK
  5
F0
330
EF
100
AcDbEntity
  8
0
100
AcDbBlockBegin
  2
_D_2
 70
     0
 10
0.0
 20
0.0
 30
0.0
  3
_D_2
  1
_D_2
  0
SOLID
  5
F2
330
EF
100
AcDbEntity
  8
치수문자_일반주서
100
AcDbTrace
 10
36.49394916652361
 20
42.25939943376818
 30
0.0
 11
33.19194916652361
 21
42.76739943376818
 31
0.0
 12
33.19194916652361
 22
41.75139943376818
 32
0.0
 13
33.19194916652361
 23
41.75139943376818
 33
0.0
  0
SOLID
  5
F3
330
EF
100
AcDbEntity
  8
치수문자_일반주서
100
AcDbTrace
 10
-28.50605083347639
 20
42.25939943376818
 30
0.0
 11
-25.20405083347639
 21
41.75139943376818
 31
0.0
 12
-25.20405083347639
 22
42.76739943376818
 32
0.0
 13
-25.20405083347639
 23
42.76739943376818
 33
0.0
  0
LINE
  5
F4
330
EF
100
AcDbEntity
  8
치수문자_일반주서
100
AcDbLine
 10
36.49394916652361
 20
2.701074928723894
 30
0.0
 11
36.49394916652361
 21
43.25939943376818
 31
0.0
  0
LINE
  5
F5
330
EF
100
AcDbEntity
  8
치수문자_일반주서
100
AcDbLine
 10
-28.50605083347639
 20
3.001074928723888
 30
0.0
 11
-28.50605083347639
 21
43.25939943376818
 31
0.0
  0
LINE
  5
F6
330
EF
100
AcDbEntity
  8
치수문자_일반주서
100
AcDbLine
 10
36.49394916652361
 20
42.25939943376818
 30
0.0
 11
-28.50605083347639
 21
42.25939943376818
 31
0.0
  0
MTEXT
  5
F7
330
EF
100
AcDbEntity
  8
치수문자_일반주서
100
AcDbMText
 10
1.407837973000793
 20
46.77113634834707
 30
0.0
 40
3.5
 41
0.0
 71
     1
 72
     1
  1
65
  7
SLDTEXTSTYLE0
 73
     1
 44
1.0
  0
ENDBLK
  5
F1
330
EF
100
AcDbEntity
  8
0
100
AcDbBlockEnd
  0
BLOCK
  5
FA
330
F9
100
AcDbEntity
  8
0
100
AcDbBlockBegin
  2
_D_3
 70
     0
 10
0.0
 20
0.0
 30
0.0
  3
_D_3
  1
_D_3
  0
SOLID
  5
FC
330
F9
100
AcDbEntity
  8
치수문자_일반주서
100
AcDbTrace
 10
14.49394916652476
 20
30.32107492872395
 30
0.0
 11
17.79594916652475
 21
29.81307492872382
 31
0.0
 12
17.79594916652478
 22
30.82907492872382
 32
0.0
 13
17.79594916652478
 23
30.82907492872382
 33
0.0
  0
SOLID
  5
FD
330
F9
100
AcDbEntity
  8
치수문자_일반주서
100
AcDbTrace
 10
10.2140453559571
 20
30.32107492872411
 30
0.0
 11
6.912045355957115
 21
30.82907492872424
 31
0.0
 12
6.912045355957076
 22
29.81307492872424
 32
0.0
 13
6.912045355957076
 23
29.81307492872424
 33
0.0
  0
LINE
  5
FE
330
F9
100
AcDbEntity
  8
치수문자_일반주서
100
AcDbLine
 10
14.49394916652365
 20
1.401074928723893
 30
0.0
 11
14.4939491665248
 21
31.32107492872394
 31
0.0
  0
LINE
  5
FF
330
F9
100
AcDbEntity
  8
치수문자_일반주서
100
AcDbLine
 10
10.21404535595599
 20
1.551074928723894
 30
0.0
 11
10.21404535595713
 21
31.32107492872411
 31
0.0
  0
LINE
  5
100
330
F9
100
AcDbEntity
  8
치수문자_일반주서
100
AcDbLine
 10
14.49394916652476
 20
30.32107492872395
 30
0.0
 11
55.42440269528608
 21
30.32107492872239
 31
0.0
  0
LINE
  5
101
330
F9
100
AcDbEntity
  8
치수문자_일반주서
100
AcDbLine
 10
14.49394916652476
 20
30.32107492872395
 30
0.0
 11
10.2140453559571
 21
30.32107492872411
 31
0.0
  0
LINE
  5
102
330
F9
100
AcDbEntity
  8
치수문자_일반주서
100
AcDbLine
 10
10.2140453559571
 20
30.32107492872411
 30
0.0
 11
3.864045355957095
 21
30.32107492872435
 31
0.0
  0
MTEXT
  5
103
330
F9
100
AcDbEntity
  8
치수문자_일반주서
100
AcDbMText
 10
46.3730136343715
 20
34.83281184330144
 30
0.0
 40
3.5
 41
0.0
 71
     1
 72
     1
  1
4.28
  7
SLDTEXTSTYLE0
 73
     1
 44
1.0
  0
ENDBLK
  5
FB
330
F9
100
AcDbEntity
  8
0
100
AcDbBlockEnd
  0
BLOCK
  5
106
330
105
100
AcDbEntity
  8
0
100
AcDbBlockBegin
  2
_D_4
 70
     0
 10
0.0
 20
0.0
 30
0.0
  3
_D_4
  1
_D_4
  0
SOLID
  5
108
330
105
100
AcDbEntity
  8
치수문자_일반주서
100
AcDbTrace
 10
68.05059833193548
 20
1.501074928723896
 30
0.0
 11
68.55859833193547
 21
4.803074928723896
 31
0.0
 12
67.54259833193548
 22
4.803074928723896
 32
0.0
 13
67.54259833193548
 23
4.803074928723896
 33
0.0
  0
SOLID
  5
109
330
105
100
AcDbEntity
  8
치수문자_일반주서
100
AcDbTrace
 10
68.05059833193548
 20
-1.480510821134722
 30
0.0
 11
67.54259833193548
 21
-4.782510821134721
 31
0.0
 12
68.55859833193547
 22
-4.782510821134721
 32
0.0
 13
68.55859833193547
 23
-4.782510821134721
 33
0.0
  0
LINE
  5
10A
330
105
100
AcDbEntity
  8
치수문자_일반주서
100
AcDbLine
 10
51.19394916652362
 20
1.501074928723897
 30
0.0
 11
69.05059833193548
 21
1.501074928723896
 31
0.0
  0
LINE
  5
10B
330
105
100
AcDbEntity
  8
치수문자_일반주서
100
AcDbLine
 10
51.19394916652362
 20
-1.480510821134721
 30
0.0
 11
69.05059833193548
 21
-1.480510821134722
 31
0.0
  0
LINE
  5
10C
330
105
100
AcDbEntity
  8
치수문자_일반주서
100
AcDbLine
 10
68.05059833193548
 20
1.501074928723896
 30
0.0
 11
68.05059833193548
 21
7.851074928723896
 31
0.0
  0
LINE
  5
10D
330
105
100
AcDbEntity
  8
치수문자_일반주서
100
AcDbLine
 10
68.05059833193548
 20
1.501074928723896
 30
0.0
 11
68.05059833193548
 21
-1.480510821134722
 31
0.0
  0
LINE
  5
10E
330
105
100
AcDbEntity
  8
치수문자_일반주서
100
AcDbLine
 10
68.05059833193548
 20
-1.480510821134722
 30
0.0
 11
68.05059833193548
 21
-14.32156976103179
 31
0.0
  0
MTEXT
  5
10F
330
105
100
AcDbEntity
  8
치수문자_일반주서
100
AcDbMText
 10
63.53886124273361
 20
-14.32156976103178
 30
0.0
 40
3.5
 41
0.0
 71
     1
 72
     1
  1
%%c
  7
SLDTEXTSTYLE0
 11
-7.044195017643634E-15
 21
1.0
 31
0.0
 73
     1
 44
1.0
  0
MTEXT
  5
110
330
105
100
AcDbEntity
  8
치수문자_일반주서
100
AcDbMText
 10
63.48538906607372
 20
-9.043132362657696
 30
0.0
 40
3.5
 41
0.0
 71
     1
 72
     1
  1
2.98
  7
SLDTEXTSTYLE0
 11
-7.044195017643634E-15
 21
1.0
 31
0.0
 73
     1
 44
1.0
  0
ENDBLK
  5
107
330
105
100
AcDbEntity
  8
0
100
AcDbBlockEnd
  0
BLOCK
  5
112
330
111
100
AcDbEntity
  8
0
100
AcDbBlockBegin
  2
SW_DOWELSYMBOL_0
 70
     0
 10
0.0
 20
0.0
 30
0.0
  3
SW_DOWELSYMBOL_0
  1
SW_DOWELSYMBOL_0
  0
CIRCLE
  5
114
330
111
100
AcDbEntity
  8
외형선
 62
     0
100
AcDbCircle
 10
0.0
 20
0.0
 30
0.0
 40
3.000000000000004
  0
HATCH
  5
115
330
111
100
AcDbEntity
  8
0
  6
Continuous
 62
     0
370
    35
100
AcDbHatch
 10
0.0
 20
0.0
 30
0.0
210
0.0
220
0.0
230
1.0
  2
SOLID
 70
     1
 71
     0
 91
        1
 92
        0
 93
        3
 72
     2
 10
0.0000000000000104
 20
0.0
 40
3.000000000000004
 50
0.0
 51
90.0
 73
     1
 72
     1
 10
0.0000000000000104
 20
3.000000000000004
 11
0.0000000000000104
 21
0.0
 72
     1
 10
0.0000000000000104
 20
0.0
 11
3.000000000000015
 21
0.0
 97
        0
 75
     0
 76
     1
 98
        1
 10
0.0
 20
0.0
  0
HATCH
  5
116
330
111
100
AcDbEntity
  8
0
  6
Continuous
 62
     0
370
    35
100
AcDbHatch
 10
0.0
 20
0.0
 30
0.0
210
0.0
220
0.0
230
1.0
  2
SOLID
 70
     1
 71
     0
 91
        1
 92
        0
 93
        3
 72
     2
 10
0.0000000000000104
 20
0.0
 40
3.000000000000004
 50
180.0
 51
270.0000000000008
 73
     1
 72
     1
 10
0.0000000000000104
 20
-3.000000000000004
 11
0.0000000000000104
 21
0.0
 72
     1
 10
0.0000000000000104
 20
0.0
 11
-2.999999999999994
 21
0.0
 97
        0
 75
     0
 76
     1
 98
        1
 10
0.0
 20
0.0
  0
ENDBLK
  5
113
330
111
100
AcDbEntity
  8
0
100
AcDbBlockEnd
  0
BLOCK
  5
1EA
330
1E9
100
AcDbEntity
  8
0
100
AcDbBlockBegin
  2
*D9
 70
     1
 10
0.0
 20
0.0
 30
0.0
  3
*D9
  1
*D9
  0
LINE
  5
1EB
330
1E9
100
AcDbEntity
  8
치수문자_일반주서
 62
     0
370
    -2
100
AcDbLine
 10
81.47361369823317
 20
14.92694238769199
 30
0.0
 11
84.62225359053468
 21
-0.0000000000001226
 31
0.0
  0
MTEXT
  5
1EC
330
1E9
100
AcDbEntity
  8
치수문자_일반주서
 62
     0
100
AcDbMText
 10
86.33290500990981
 20
4.608547578564068
 30
0.0
 40
3.5
 41
0.0
 71
     5
 72
     1
  1
\A1;R0.1
  7
SLDTEXTSTYLE0
 11
0.2063949666728634
 21
-0.9784687617558916
 31
0.0
 73
     1
 44
1.0
  0
LINE
  5
1ED
330
1E9
100
AcDbEntity
  8
치수문자_일반주서
 62
     0
370
    -2
100
AcDbLine
 10
80.77145802161209
 20
18.25569311518554
 30
0.0
 11
80.79209751827938
 21
18.15784623900995
 31
0.0
  0
SOLID
  5
1EE
330
1E9
100
AcDbEntity
  8
치수문자_일반주서
 62
     0
100
AcDbTrace
 10
82.01209767345283
 20
15.04052841768429
 30
0.0
 11
80.9351297230135
 21
14.81335635769969
 31
0.0
 12
80.79209751827938
 22
18.15784623900995
 32
0.0
 13
80.79209751827938
 23
18.15784623900995
 33
0.0
  0
POINT
  5
1EF
330
1E9
100
AcDbEntity
  8
Defpoints
 62
     0
100
AcDbPoint
 10
80.79209751827938
 20
18.15784623900995
 30
0.0
  0
POINT
  5
1F0
330
1E9
100
AcDbEntity
  8
Defpoints
 62
     0
100
AcDbPoint
 10
80.77145802161209
 20
18.25569311518554
 30
0.0
  0
ENDBLK
  5
1F1
330
1E9
100
AcDbEntity
  8
0
100
AcDbBlockEnd
  0
BLOCK
  5
1F5
330
1F4
100
AcDbEntity
  8
0
100
AcDbBlockBegin
  2
*D10
 70
     1
 10
0.0
 20
0.0
 30
0.0
  3
*D10
  1
*D10
  0
LINE
  5
1F7
330
1F4
100
AcDbEntity
  8
치수문자_일반주서
 62
     0
370
    -2
100
AcDbLine
 10
16.80895802161209
 20
23.15077248566766
 30
0.0
 11
4.374999999999996
 21
23.15077248566761
 31
0.0
  0
LINE
  5
1F8
330
1F4
100
AcDbEntity
  8
치수문자_일반주서
 62
     0
370
    -2
100
AcDbLine
 10
16.80895802161209
 20
17.15077248566766
 30
0.0
 11
4.375000000000018
 21
17.15077248566761
 31
0.0
  0
LINE
  5
1F9
330
1F4
100
AcDbEntity
  8
치수문자_일반주서
 62
     0
370
    -2
100
AcDbLine
 10
4.375000000000008
 20
19.84877248566761
 30
0.0
 11
4.375000000000006
 21
20.45277248566761
 31
0.0
  0
SOLID
  5
1FA
330
1F4
100
AcDbEntity
  8
치수문자_일반주서
 62
     0
100
AcDbTrace
 10
4.925333333333342
 20
19.84877248566761
 30
0.0
 11
3.824666666666675
 21
19.84877248566761
 31
0.0
 12
4.374999999999996
 22
23.15077248566761
 32
0.0
 13
4.374999999999996
 23
23.15077248566761
 33
0.0
  0
SOLID
  5
1FB
330
1F4
100
AcDbEntity
  8
치수문자_일반주서
 62
     0
100
AcDbTrace
 10
3.824666666666673
 20
20.45277248566761
 30
0.0
 11
4.92533333333334
 21
20.45277248566762
 31
0.0
 12
4.375000000000018
 22
17.15077248566761
 32
0.0
 13
4.375000000000018
 23
17.15077248566761
 33
0.0
  0
MTEXT
  5
1FC
330
1F4
100
AcDbEntity
  8
치수문자_일반주서
 62
     0
100
AcDbMText
 10
0.0000000000000071
 20
20.15077248566764
 30
0.0
 40
3.5
 41
0.0
 71
     2
 72
     1
  1
\A1;%%c6
  7
SLDTEXTSTYLE0
 11
-3.552713678800503E-15
 21
1.0
 31
0.0
 73
     1
 44
1.0
  0
POINT
  5
1FD
330
1F4
100
AcDbEntity
  8
Defpoints
 62
     0
100
AcDbPoint
 10
16.87145802161209
 20
23.15077248566766
 30
0.0
  0
POINT
  5
1FE
330
1F4
100
AcDbEntity
  8
Defpoints
 62
     0
100
AcDbPoint
 10
16.87145802161209
 20
17.15077248566766
 30
0.0
  0
POINT
  5
1FF
330
1F4
100
AcDbEntity
  8
Defpoints
 62
     0
100
AcDbPoint
 10
4.375000000000021
 20
17.15077248566761
 30
0.0
  0
ENDBLK
  5
1F6
330
1F4
100
AcDbEntity
  8
0
100
AcDbBlockEnd
  0
BLOCK
  5
201
330
200
100
AcDbEntity
  8
0
100
AcDbBlockBegin
  2
*D11
 70
     1
 10
0.0
 20
0.0
 30
0.0
  3
*D11
  1
*D11
  0
LINE
  5
203
330
200
100
AcDbEntity
  8
치수문자_일반주서
 62
     0
370
    -2
100
AcDbLine
 10
80.87145802161209
 20
22.11327248566766
 30
0.0
 11
80.87145802161209
 21
40.55077248566732
 31
0.0
  0
LINE
  5
204
330
200
100
AcDbEntity
  8
치수문자_일반주서
 62
     0
370
    -2
100
AcDbLine
 10
74.87145802161209
 20
21.79478663962387
 30
0.0
 11
74.87145802161209
 21
40.55077248566732
 31
0.0
  0
LINE
  5
205
330
200
100
AcDbEntity
  8
치수문자_일반주서
 62
     0
370
    -2
100
AcDbLine
 10
77.56945802161209
 20
40.55077248566732
 30
0.0
 11
78.17345802161208
 21
40.55077248566732
 31
0.0
  0
SOLID
  5
206
330
200
100
AcDbEntity
  8
치수문자_일반주서
 62
     0
100
AcDbTrace
 10
77.56945802161209
 20
40.00043915233398
 30
0.0
 11
77.56945802161209
 21
41.10110581900065
 31
0.0
 12
80.87145802161209
 22
40.55077248566732
 32
0.0
 13
80.87145802161209
 23
40.55077248566732
 33
0.0
  0
SOLID
  5
207
330
200
100
AcDbEntity
  8
치수문자_일반주서
 62
     0
100
AcDbTrace
 10
78.17345802161208
 20
41.10110581900065
 30
0.0
 11
78.17345802161208
 21
40.00043915233398
 31
0.0
 12
74.87145802161209
 22
40.55077248566732
 32
0.0
 13
74.87145802161209
 23
40.55077248566732
 33
0.0
  0
MTEXT
  5
208
330
200
100
AcDbEntity
  8
치수문자_일반주서
 62
     0
100
AcDbMText
 10
77.87145802161209
 20
44.92577248566732
 30
0.0
 40
3.5
 41
0.0
 71
     2
 72
     1
  1
\A1;6
  7
SLDTEXTSTYLE0
 73
     1
 44
1.0
  0
POINT
  5
209
330
200
100
AcDbEntity
  8
Defpoints
 62
     0
100
AcDbPoint
 10
80.87145802161209
 20
22.05077248566766
 30
0.0
  0
POINT
  5
20A
330
200
100
AcDbEntity
  8
Defpoints
 62
     0
100
AcDbPoint
 10
74.87145802161209
 20
21.73228663962387
 30
0.0
  0
POINT
  5
20B
330
200
100
AcDbEntity
  8
Defpoints
 62
     0
100
AcDbPoint
 10
74.87145802161209
 20
40.55077248566732
 30
0.0
  0
ENDBLK
  5
202
330
200
100
AcDbEntity
  8
0
100
AcDbBlockEnd
  0
BLOCK
  5
20D
330
20C
100
AcDbEntity
  8
0
100
AcDbBlockBegin
  2
*D12
 70
     1
 10
0.0
 20
0.0
 30
0.0
  3
*D12
  1
*D12
  0
LINE
  5
20F
330
20C
100
AcDbEntity
  8
치수문자_일반주서
 62
     0
370
    -2
100
AcDbLine
 10
80.87145802161209
 20
22.11327248566766
 30
0.0
 11
80.87145802161209
 21
62.60909699071195
 31
0.0
  0
LINE
  5
210
330
20C
100
AcDbEntity
  8
치수문자_일반주서
 62
     0
370
    -2
100
AcDbLine
 10
15.87145802161209
 20
22.21327248566766
 30
0.0
 11
15.87145802161209
 21
62.60909699071195
 31
0.0
  0
LINE
  5
211
330
20C
100
AcDbEntity
  8
치수문자_일반주서
 62
     0
370
    -2
100
AcDbLine
 10
77.56945802161209
 20
62.60909699071195
 30
0.0
 11
19.17345802161208
 21
62.60909699071195
 31
0.0
  0
SOLID
  5
212
330
20C
100
AcDbEntity
  8
치수문자_일반주서
 62
     0
100
AcDbTrace
 10
77.56945802161209
 20
62.05876365737861
 30
0.0
 11
77.56945802161209
 21
63.15943032404528
 31
0.0
 12
80.87145802161209
 22
62.60909699071195
 32
0.0
 13
80.87145802161209
 23
62.60909699071195
 33
0.0
  0
SOLID
  5
213
330
20C
100
AcDbEntity
  8
치수문자_일반주서
 62
     0
100
AcDbTrace
 10
19.17345802161208
 20
63.15943032404528
 30
0.0
 11
19.17345802161208
 21
62.05876365737861
 31
0.0
 12
15.87145802161209
 22
62.60909699071195
 32
0.0
 13
15.87145802161209
 23
62.60909699071195
 33
0.0
  0
MTEXT
  5
214
330
20C
100
AcDbEntity
  8
치수문자_일반주서
 62
     0
100
AcDbMText
 10
48.37145802161209
 20
66.98409699071195
 30
0.0
 40
3.5
 41
0.0
 71
     2
 72
     1
  1
\A1;65
  7
SLDTEXTSTYLE0
 73
     1
 44
1.0
  0
POINT
  5
215
330
20C
100
AcDbEntity
  8
Defpoints
 62
     0
100
AcDbPoint
 10
80.87145802161209
 20
22.05077248566766
 30
0.0
  0
POINT
  5
216
330
20C
100
AcDbEntity
  8
Defpoints
 62
     0
100
AcDbPoint
 10
15.87145802161209
 20
22.15077248566766
 30
0.0
  0
POINT
  5
217
330
20C
100
AcDbEntity
  8
Defpoints
 62
     0
100
AcDbPoint
 10
15.87145802161209
 20
62.60909699071195
 30
0.0
  0
ENDBLK
  5
20E
330
20C
100
AcDbEntity
  8
0
100
AcDbBlockEnd
  0
BLOCK
  5
219
330
218
100
AcDbEntity
  8
0
100
AcDbBlockBegin
  2
*D13
 70
     1
 10
0.0
 20
0.0
 30
0.0
  3
*D13
  1
*D13
  0
LINE
  5
21B
330
218
100
AcDbEntity
  8
치수문자_일반주서
 62
     0
370
    -2
100
AcDbLine
 10
80.87145802161209
 20
22.11057329630766
 30
0.0
 11
80.87145802161209
 21
50.47077248566632
 31
0.0
  0
LINE
  5
21C
330
218
100
AcDbEntity
  8
치수문자_일반주서
 62
     0
370
    -2
100
AcDbLine
 10
54.87145802161209
 20
22.13827248566766
 30
0.0
 11
54.87145802161209
 21
50.47077248566632
 31
0.0
  0
LINE
  5
21D
330
218
100
AcDbEntity
  8
치수문자_일반주서
 62
     0
370
    -2
100
AcDbLine
 10
77.56945802161209
 20
50.47077248566632
 30
0.0
 11
58.17345802161209
 21
50.47077248566632
 31
0.0
  0
SOLID
  5
21E
330
218
100
AcDbEntity
  8
치수문자_일반주서
 62
     0
100
AcDbTrace
 10
77.56945802161209
 20
49.92043915233298
 30
0.0
 11
77.56945802161209
 21
51.02110581899965
 31
0.0
 12
80.87145802161209
 22
50.47077248566632
 32
0.0
 13
80.87145802161209
 23
50.47077248566632
 33
0.0
  0
SOLID
  5
21F
330
218
100
AcDbEntity
  8
치수문자_일반주서
 62
     0
100
AcDbTrace
 10
58.17345802161209
 20
51.02110581899965
 30
0.0
 11
58.17345802161209
 21
49.92043915233298
 31
0.0
 12
54.87145802161209
 22
50.47077248566632
 32
0.0
 13
54.87145802161209
 23
50.47077248566632
 33
0.0
  0
MTEXT
  5
220
330
218
100
AcDbEntity
  8
치수문자_일반주서
 62
     0
100
AcDbMText
 10
67.87145802161209
 20
54.84577248566632
 30
0.0
 40
3.5
 41
0.0
 71
     2
 72
     1
  1
\A1;26
  7
SLDTEXTSTYLE0
 73
     1
 44
1.0
  0
POINT
  5
221
330
218
100
AcDbEntity
  8
Defpoints
 62
     0
100
AcDbPoint
 10
80.87145802161209
 20
22.04807329630766
 30
0.0
  0
POINT
  5
222
330
218
100
AcDbEntity
  8
Defpoints
 62
     0
100
AcDbPoint
 10
54.87145802161209
 20
22.07577248566766
 30
0.0
  0
POINT
  5
223
330
218
100
AcDbEntity
  8
Defpoints
 62
     0
100
AcDbPoint
 10
54.87145802161209
 20
50.47077248566632
 30
0.0
  0
ENDBLK
  5
21A
330
218
100
AcDbEntity
  8
0
100
AcDbBlockEnd
  0
BLOCK
  5
225
330
224
100
AcDbEntity
  8
0
100
AcDbBlockBegin
  2
*D14
 70
     1
 10
0.0
 20
0.0
 30
0.0
  3
*D14
  1
*D14
  0
LINE
  5
227
330
224
100
AcDbEntity
  8
치수문자_일반주서
 62
     0
370
    -2
100
AcDbLine
 10
80.93395802161209
 20
22.1554005418028
 30
0.0
 11
100.3430622820286
 21
22.15540054180288
 31
0.0
  0
LINE
  5
228
330
224
100
AcDbEntity
  8
치수문자_일반주서
 62
     0
370
    -2
100
AcDbLine
 10
80.83395802161209
 20
18.15569311518553
 30
0.0
 11
100.3430622820286
 21
18.15569311518561
 31
0.0
  0
LINE
  5
229
330
224
100
AcDbEntity
  8
치수문자_일반주서
 62
     0
370
    -2
100
AcDbLine
 10
100.3430622820286
 20
22.15540054180288
 30
0.0
 11
100.3430622820286
 21
37.9373518561499
 31
0.0
  0
LINE
  5
22A
330
224
100
AcDbEntity
  8
치수문자_일반주서
 62
     0
370
    -2
100
AcDbLine
 10
100.3430622820286
 20
22.15540054180288
 30
0.0
 11
100.3430622820286
 21
18.15569311518561
 31
0.0
  0
LINE
  5
22B
330
224
100
AcDbEntity
  8
치수문자_일반주서
 62
     0
370
    -2
100
AcDbLine
 10
100.3430622820286
 20
25.45740054180288
 30
0.0
 11
100.3430622820286
 21
28.75940054180288
 31
0.0
  0
LINE
  5
22C
330
224
100
AcDbEntity
  8
치수문자_일반주서
 62
     0
370
    -2
100
AcDbLine
 10
100.3430622820286
 20
14.85369311518561
 30
0.0
 11
100.3430622820287
 21
11.55169311518561
 31
0.0
  0
SOLID
  5
22D
330
224
100
AcDbEntity
  8
치수문자_일반주서
 62
     0
100
AcDbTrace
 10
99.79272894869527
 20
25.45740054180287
 30
0.0
 11
100.8933956153619
 21
25.45740054180288
 31
0.0
 12
100.3430622820286
 22
22.15540054180288
 32
0.0
 13
100.3430622820286
 23
22.15540054180288
 33
0.0
  0
SOLID
  5
22E
330
224
100
AcDbEntity
  8
치수문자_일반주서
 62
     0
100
AcDbTrace
 10
100.893395615362
 20
14.85369311518561
 30
0.0
 11
99.79272894869531
 21
14.8536931151856
 31
0.0
 12
100.3430622820286
 22
18.15569311518561
 32
0.0
 13
100.3430622820286
 23
18.15569311518561
 33
0.0
  0
MTEXT
  5
22F
330
224
100
AcDbEntity
  8
치수문자_일반주서
 62
     0
100
AcDbMText
 10
95.96806228202857
 20
34.87485185614989
 30
0.0
 40
3.5
 41
0.0
 71
     2
 72
     1
  1
\A1;%%c4
  7
SLDTEXTSTYLE0
 11
-3.552973555173448E-15
 21
1.0
 31
0.0
 73
     1
 44
1.0
  0
POINT
  5
230
330
224
100
AcDbEntity
  8
Defpoints
 62
     0
100
AcDbPoint
 10
80.87145802161209
 20
22.1554005418028
 30
0.0
  0
POINT
  5
231
330
224
100
AcDbEntity
  8
Defpoints
 62
     0
100
AcDbPoint
 10
80.77145802161209
 20
18.15569311518553
 30
0.0
  0
POINT
  5
232
330
224
100
AcDbEntity
  8
Defpoints
 62
     0
100
AcDbPoint
 10
100.3430622820286
 20
18.15569311518561
 30
0.0
  0
ENDBLK
  5
226
330
224
100
AcDbEntity
  8
0
100
AcDbBlockEnd
  0
BLOCK
  5
272
330
271
100
AcDbEntity
  8
0
100
AcDbBlockBegin
  2
*D15
 70
     1
 10
0.0
 20
0.0
 30
0.0
  3
*D15
  1
*D15
  0
LINE
  5
274
330
271
100
AcDbEntity
  8
치수문자_일반주서
 62
     0
370
    -2
100
AcDbLine
 10
-34.05054538186347
 20
2.999999999999996
 30
0.0
 11
-46.48450340347556
 21
2.999999999999949
 31
0.0
  0
LINE
  5
275
330
271
100
AcDbEntity
  8
치수문자_일반주서
 62
     0
370
    -2
100
AcDbLine
 10
-34.05054538186347
 20
-3.0
 30
0.0
 11
-46.48450340347554
 21
-3.000000000000048
 31
0.0
  0
LINE
  5
276
330
271
100
AcDbEntity
  8
치수문자_일반주서
 62
     0
370
    -2
100
AcDbLine
 10
-46.48450340347554
 20
-0.3020000000000507
 30
0.0
 11
-46.48450340347555
 21
0.3019999999999521
 31
0.0
  0
SOLID
  5
277
330
271
100
AcDbEntity
  8
치수문자_일반주서
 62
     0
100
AcDbTrace
 10
-45.93417007014221
 20
-0.3020000000000487
 30
0.0
 11
-47.03483673680888
 21
-0.3020000000000526
 31
0.0
 12
-46.48450340347556
 22
2.999999999999949
 32
0.0
 13
-46.48450340347556
 23
2.999999999999949
 33
0.0
  0
SOLID
  5
278
330
271
100
AcDbEntity
  8
치수문자_일반주서
 62
     0
100
AcDbTrace
 10
-47.03483673680888
 20
0.3019999999999501
 30
0.0
 11
-45.93417007014222
 21
0.301999999999954
 31
0.0
 12
-46.48450340347554
 22
-3.000000000000048
 32
0.0
 13
-46.48450340347554
 23
-3.000000000000048
 33
0.0
  0
MTEXT
  5
279
330
271
100
AcDbEntity
  8
치수문자_일반주서
 62
     0
100
AcDbMText
 10
-50.85950340347555
 20
-0.000000000000019
 30
0.0
 40
3.5
 41
0.0
 71
     2
 72
     1
  1
\A1;%%c6
  7
SLDTEXTSTYLE0
 11
-3.552713678800503E-15
 21
1.0
 31
0.0
 73
     1
 44
1.0
  0
POINT
  5
27A
330
271
100
AcDbEntity
  8
Defpoints
 62
     0
100
AcDbPoint
 10
-33.98804538186347
 20
2.999999999999996
 30
0.0
  0
POINT
  5
27B
330
271
100
AcDbEntity
  8
Defpoints
 62
     0
100
AcDbPoint
 10
-33.98804538186347
 20
-3.0
 30
0.0
  0
POINT
  5
27C
330
271
100
AcDbEntity
  8
Defpoints
 62
     0
100
AcDbPoint
 10
-46.48450340347554
 20
-3.000000000000047
 30
0.0
  0
ENDBLK
  5
273
330
271
100
AcDbEntity
  8
0
100
AcDbBlockEnd
  0
BLOCK
  5
27E
330
27D
100
AcDbEntity
  8
0
100
AcDbBlockBegin
  2
*D16
 70
     1
 10
0.0
 20
0.0
 30
0.0
  3
*D16
  1
*D16
  0
LINE
  5
280
330
27D
100
AcDbEntity
  8
치수문자_일반주서
 62
     0
370
    -2
100
AcDbLine
 10
30.01195461813653
 20
1.962499999999999
 30
0.0
 11
30.01195461813653
 21
20.39999999999966
 31
0.0
  0
LINE
  5
281
330
27D
100
AcDbEntity
  8
치수문자_일반주서
 62
     0
370
    -2
100
AcDbLine
 10
24.01195461813653
 20
1.644014153956213
 30
0.0
 11
24.01195461813653
 21
20.39999999999966
 31
0.0
  0
LINE
  5
282
330
27D
100
AcDbEntity
  8
치수문자_일반주서
 62
     0
370
    -2
100
AcDbLine
 10
26.70995461813653
 20
20.39999999999966
 30
0.0
 11
27.31395461813653
 21
20.39999999999966
 31
0.0
  0
SOLID
  5
283
330
27D
100
AcDbEntity
  8
치수문자_일반주서
 62
     0
100
AcDbTrace
 10
26.70995461813653
 20
19.84966666666632
 30
0.0
 11
26.70995461813653
 21
20.95033333333299
 31
0.0
 12
30.01195461813653
 22
20.39999999999966
 32
0.0
 13
30.01195461813653
 23
20.39999999999966
 33
0.0
  0
SOLID
  5
284
330
27D
100
AcDbEntity
  8
치수문자_일반주서
 62
     0
100
AcDbTrace
 10
27.31395461813653
 20
20.95033333333299
 30
0.0
 11
27.31395461813653
 21
19.84966666666632
 31
0.0
 12
24.01195461813653
 22
20.39999999999966
 32
0.0
 13
24.01195461813653
 23
20.39999999999966
 33
0.0
  0
MTEXT
  5
285
330
27D
100
AcDbEntity
  8
치수문자_일반주서
 62
     0
100
AcDbMText
 10
27.01195461813653
 20
24.77499999999966
 30
0.0
 40
3.5
 41
0.0
 71
     2
 72
     1
  1
\A1;6
  7
SLDTEXTSTYLE0
 73
     1
 44
1.0
  0
POINT
  5
286
330
27D
100
AcDbEntity
  8
Defpoints
 62
     0
100
AcDbPoint
 10
30.01195461813653
 20
1.899999999999999
 30
0.0
  0
POINT
  5
287
330
27D
100
AcDbEntity
  8
Defpoints
 62
     0
100
AcDbPoint
 10
24.01195461813653
 20
1.581514153956213
 30
0.0
  0
POINT
  5
288
330
27D
100
AcDbEntity
  8
Defpoints
 62
     0
100
AcDbPoint
 10
24.01195461813653
 20
20.39999999999966
 30
0.0
  0
ENDBLK
  5
27F
330
27D
100
AcDbEntity
  8
0
100
AcDbBlockEnd
  0
BLOCK
  5
28A
330
289
100
AcDbEntity
  8
0
100
AcDbBlockBegin
  2
*D17
 70
     1
 10
0.0
 20
0.0
 30
0.0
  3
*D17
  1
*D17
  0
LINE
  5
28C
330
289
100
AcDbEntity
  8
치수문자_일반주서
 62
     0
370
    -2
100
AcDbLine
 10
30.01195461813653
 20
1.962499999999999
 30
0.0
 11
30.01195461813653
 21
42.45832450504429
 31
0.0
  0
LINE
  5
28D
330
289
100
AcDbEntity
  8
치수문자_일반주서
 62
     0
370
    -2
100
AcDbLine
 10
-34.98804538186347
 20
2.062499999999996
 30
0.0
 11
-34.98804538186347
 21
42.45832450504429
 31
0.0
  0
LINE
  5
28E
330
289
100
AcDbEntity
  8
치수문자_일반주서
 62
     0
370
    -2
100
AcDbLine
 10
26.70995461813653
 20
42.45832450504429
 30
0.0
 11
-31.68604538186347
 21
42.45832450504429
 31
0.0
  0
SOLID
  5
28F
330
289
100
AcDbEntity
  8
치수문자_일반주서
 62
     0
100
AcDbTrace
 10
26.70995461813653
 20
41.90799117171095
 30
0.0
 11
26.70995461813653
 21
43.00865783837762
 31
0.0
 12
30.01195461813653
 22
42.45832450504429
 32
0.0
 13
30.01195461813653
 23
42.45832450504429
 33
0.0
  0
SOLID
  5
290
330
289
100
AcDbEntity
  8
치수문자_일반주서
 62
     0
100
AcDbTrace
 10
-31.68604538186347
 20
43.00865783837762
 30
0.0
 11
-31.68604538186347
 21
41.90799117171095
 31
0.0
 12
-34.98804538186347
 22
42.45832450504429
 32
0.0
 13
-34.98804538186347
 23
42.45832450504429
 33
0.0
  0
MTEXT
  5
291
330
289
100
AcDbEntity
  8
치수문자_일반주서
 62
     0
100
AcDbMText
 10
-2.488045381863472
 20
46.83332450504429
 30
0.0
 40
3.5
 41
0.0
 71
     2
 72
     1
  1
\A1;65
  7
SLDTEXTSTYLE0
 73
     1
 44
1.0
  0
POINT
  5
292
330
289
100
AcDbEntity
  8
Defpoints
 62
     0
100
AcDbPoint
 10
30.01195461813653
 20
1.899999999999999
 30
0.0
  0
POINT
  5
293
330
289
100
AcDbEntity
  8
Defpoints
 62
     0
100
AcDbPoint
 10
-34.98804538186347
 20
1.999999999999996
 30
0.0
  0
POINT
  5
294
330
289
100
AcDbEntity
  8
Defpoints
 62
     0
100
AcDbPoint
 10
-34.98804538186347
 20
42.45832450504429
 30
0.0
  0
ENDBLK
  5
28B
330
289
100
AcDbEntity
  8
0
100
AcDbBlockEnd
  0
BLOCK
  5
296
330
295
100
AcDbEntity
  8
0
100
AcDbBlockBegin
  2
*D18
 70
     1
 10
0.0
 20
0.0
 30
0.0
  3
*D18
  1
*D18
  0
LINE
  5
298
330
295
100
AcDbEntity
  8
치수문자_일반주서
 62
     0
370
    -2
100
AcDbLine
 10
30.01195461813653
 20
1.959800810639997
 30
0.0
 11
30.01195461813653
 21
30.31999999999866
 31
0.0
  0
LINE
  5
299
330
295
100
AcDbEntity
  8
치수문자_일반주서
 62
     0
370
    -2
100
AcDbLine
 10
4.011954618136535
 20
1.987500000000001
 30
0.0
 11
4.011954618136535
 21
30.31999999999866
 31
0.0
  0
LINE
  5
29A
330
295
100
AcDbEntity
  8
치수문자_일반주서
 62
     0
370
    -2
100
AcDbLine
 10
26.70995461813653
 20
30.31999999999866
 30
0.0
 11
7.313954618136535
 21
30.31999999999866
 31
0.0
  0
SOLID
  5
29B
330
295
100
AcDbEntity
  8
치수문자_일반주서
 62
     0
100
AcDbTrace
 10
26.70995461813653
 20
29.76966666666532
 30
0.0
 11
26.70995461813653
 21
30.87033333333199
 31
0.0
 12
30.01195461813653
 22
30.31999999999866
 32
0.0
 13
30.01195461813653
 23
30.31999999999866
 33
0.0
  0
SOLID
  5
29C
330
295
100
AcDbEntity
  8
치수문자_일반주서
 62
     0
100
AcDbTrace
 10
7.313954618136535
 20
30.87033333333199
 30
0.0
 11
7.313954618136535
 21
29.76966666666532
 31
0.0
 12
4.011954618136535
 22
30.31999999999866
 32
0.0
 13
4.011954618136535
 23
30.31999999999866
 33
0.0
  0
MTEXT
  5
29D
330
295
100
AcDbEntity
  8
치수문자_일반주서
 62
     0
100
AcDbMText
 10
17.01195461813653
 20
34.69499999999866
 30
0.0
 40
3.5
 41
0.0
 71
     2
 72
     1
  1
\A1;26
  7
SLDTEXTSTYLE0
 73
     1
 44
1.0
  0
POINT
  5
29E
330
295
100
AcDbEntity
  8
Defpoints
 62
     0
100
AcDbPoint
 10
30.01195461813653
 20
1.897300810639997
 30
0.0
  0
POINT
  5
29F
330
295
100
AcDbEntity
  8
Defpoints
 62
     0
100
AcDbPoint
 10
4.011954618136535
 20
1.925000000000001
 30
0.0
  0
POINT
  5
2A0
330
295
100
AcDbEntity
  8
Defpoints
 62
     0
100
AcDbPoint
 10
4.011954618136535
 20
30.31999999999866
 30
0.0
  0
ENDBLK
  5
297
330
295
100
AcDbEntity
  8
0
100
AcDbBlockEnd
  0
BLOCK
  5
2A2
330
2A1
100
AcDbEntity
  8
0
100
AcDbBlockBegin
  2
*D19
 70
     1
 10
0.0
 20
0.0
 30
0.0
  3
*D19
  1
*D19
  0
LINE
  5
2A4
330
2A1
100
AcDbEntity
  8
치수문자_일반주서
 62
     0
370
    -2
100
AcDbLine
 10
30.07445461813653
 20
2.004628056135143
 30
0.0
 11
49.48355887855305
 21
2.004628056135216
 31
0.0
  0
LINE
  5
2A5
330
2A1
100
AcDbEntity
  8
치수문자_일반주서
 62
     0
370
    -2
100
AcDbLine
 10
29.97445461813653
 20
-1.995079370482127
 30
0.0
 11
49.48355887855307
 21
-1.995079370482053
 31
0.0
  0
LINE
  5
2A6
330
2A1
100
AcDbEntity
  8
치수문자_일반주서
 62
     0
370
    -2
100
AcDbLine
 10
49.48355887855305
 20
2.004628056135216
 30
0.0
 11
49.483558878553
 21
17.78657937048224
 31
0.0
  0
LINE
  5
2A7
330
2A1
100
AcDbEntity
  8
치수문자_일반주서
 62
     0
370
    -2
100
AcDbLine
 10
49.48355887855305
 20
2.004628056135216
 30
0.0
 11
49.48355887855307
 21
-1.995079370482053
 31
0.0
  0
LINE
  5
2A8
330
2A1
100
AcDbEntity
  8
치수문자_일반주서
 62
     0
370
    -2
100
AcDbLine
 10
49.48355887855304
 20
5.306628056135215
 30
0.0
 11
49.48355887855303
 21
8.608628056135215
 31
0.0
  0
LINE
  5
2A9
330
2A1
100
AcDbEntity
  8
치수문자_일반주서
 62
     0
370
    -2
100
AcDbLine
 10
49.48355887855308
 20
-5.297079370482052
 30
0.0
 11
49.4835588785531
 21
-8.599079370482052
 31
0.0
  0
SOLID
  5
2AA
330
2A1
100
AcDbEntity
  8
치수문자_일반주서
 62
     0
100
AcDbTrace
 10
48.93322554521971
 20
5.306628056135214
 30
0.0
 11
50.03389221188637
 21
5.306628056135217
 31
0.0
 12
49.48355887855305
 22
2.004628056135216
 32
0.0
 13
49.48355887855305
 23
2.004628056135216
 33
0.0
  0
SOLID
  5
2AB
330
2A1
100
AcDbEntity
  8
치수문자_일반주서
 62
     0
100
AcDbTrace
 10
50.03389221188642
 20
-5.29707937048205
 30
0.0
 11
48.93322554521975
 21
-5.297079370482054
 31
0.0
 12
49.48355887855307
 22
-1.995079370482053
 32
0.0
 13
49.48355887855307
 23
-1.995079370482053
 33
0.0
  0
MTEXT
  5
2AC
330
2A1
100
AcDbEntity
  8
치수문자_일반주서
 62
     0
100
AcDbMText
 10
45.10855887855301
 20
14.72407937048223
 30
0.0
 40
3.5
 41
0.0
 71
     2
 72
     1
  1
\A1;%%c4
  7
SLDTEXTSTYLE0
 11
-3.552973555173448E-15
 21
1.0
 31
0.0
 73
     1
 44
1.0
  0
POINT
  5
2AD
330
2A1
100
AcDbEntity
  8
Defpoints
 62
     0
100
AcDbPoint
 10
30.01195461813653
 20
2.004628056135143
 30
0.0
  0
POINT
  5
2AE
330
2A1
100
AcDbEntity
  8
Defpoints
 62
     0
100
AcDbPoint
 10
29.91195461813653
 20
-1.995079370482127
 30
0.0
  0
POINT
  5
2AF
330
2A1
100
AcDbEntity
  8
Defpoints
 62
     0
100
AcDbPoint
 10
49.48355887855307
 20
-1.995079370482054
 30
0.0
  0
ENDBLK
  5
2A3
330
2A1
100
AcDbEntity
  8
0
100
AcDbBlockEnd
  0
BLOCK
  5
2B1
330
2B0
100
AcDbEntity
  8
0
100
AcDbBlockBegin
  2
*D20
 70
     1
 10
0.0
 20
0.0
 30
0.0
  3
*D20
  1
*D20
  0
LINE
  5
2B3
330
2B0
100
AcDbEntity
  8
치수문자_일반주서
 62
     0
370
    -2
100
AcDbLine
 10
30.61411029475762
 20
-5.223830097975664
 30
0.0
 11
33.76275018705913
 21
-20.15077248566778
 31
0.0
  0
MTEXT
  5
2B4
330
2B0
100
AcDbEntity
  8
치수문자_일반주서
 62
     0
100
AcDbMText
 10
35.47340160643426
 20
-15.54222490710359
 30
0.0
 40
3.5
 41
0.0
 71
     5
 72
     1
  1
\A1;R0.1
  7
SLDTEXTSTYLE0
 11
0.2063949666728634
 21
-0.9784687617558916
 31
0.0
 73
     1
 44
1.0
  0
LINE
  5
2B5
330
2B0
100
AcDbEntity
  8
치수문자_일반주서
 62
     0
370
    -2
100
AcDbLine
 10
29.91195461813653
 20
-1.895079370482122
 30
0.0
 11
29.93259411480382
 21
-1.99292624665771
 31
0.0
  0
SOLID
  5
2B6
330
2B0
100
AcDbEntity
  8
치수문자_일반주서
 62
     0
100
AcDbTrace
 10
31.15259426997727
 20
-5.110244067983365
 30
0.0
 11
30.07562631953796
 21
-5.337416127967963
 31
0.0
 12
29.93259411480382
 22
-1.99292624665771
 32
0.0
 13
29.93259411480382
 23
-1.99292624665771
 33
0.0
  0
POINT
  5
2B7
330
2B0
100
AcDbEntity
  8
Defpoints
 62
     0
100
AcDbPoint
 10
29.93259411480382
 20
-1.99292624665771
 30
0.0
  0
POINT
  5
2B8
330
2B0
100
AcDbEntity
  8
Defpoints
 62
     0
100
AcDbPoint
 10
29.91195461813653
 20
-1.895079370482122
 30
0.0
  0
ENDBLK
  5
2B2
330
2B0
100
AcDbEntity
  8
0
100
AcDbBlockEnd
  0
BLOCK
  5
2C2
330
2C1
100
AcDbEntity
  8
0
100
AcDbBlockBegin
  2
*D21
 70
     1
 10
0.0
 20
0.0
 30
0.0
  3
*D21
  1
*D21
  0
LINE
  5
2C4
330
2C1
100
AcDbEntity
  8
치수문자_일반주서
 62
     0
370
    -2
100
AcDbLine
 10
30.94238316195488
 20
-5.080407951071761
 30
0.0
 11
38.97938760937081
 21
-27.19294832967002
 31
0.0
  0
MTEXT
  5
2C5
330
2C1
100
AcDbEntity
  8
치수문자_일반주서
 62
     0
100
AcDbMText
 10
39.87727944748359
 20
-21.97883725398795
 30
0.0
 40
3.5
 41
0.0
 71
     5
 72
     1
  1
\A1;R0.3
  7
SLDTEXTSTYLE0
 11
0.3415959310989318
 21
-0.939846912989905
 31
0.0
 73
     1
 44
1.0
  0
LINE
  5
2C6
330
2C1
100
AcDbEntity
  8
치수문자_일반주서
 62
     0
370
    -2
100
AcDbLine
 10
29.71195461813653
 20
-1.695079370482124
 30
0.0
 11
29.81443339746621
 21
-1.977033444379095
 31
0.0
  0
SOLID
  5
2C7
330
2C1
100
AcDbEntity
  8
치수문자_일반주서
 62
     0
100
AcDbTrace
 10
31.45961224640366
 20
-4.892416323656982
 30
0.0
 11
30.4251540775061
 21
-5.26839957848654
 31
0.0
 12
29.81443339746621
 22
-1.977033444379095
 32
0.0
 13
29.81443339746621
 23
-1.977033444379095
 33
0.0
  0
POINT
  5
2C8
330
2C1
100
AcDbEntity
  8
Defpoints
 62
     0
100
AcDbPoint
 10
29.81443339746621
 20
-1.977033444379095
 30
0.0
  0
POINT
  5
2C9
330
2C1
100
AcDbEntity
  8
Defpoints
 62
     0
100
AcDbPoint
 10
29.71195461813653
 20
-1.695079370482124
 30
0.0
  0
ENDBLK
  5
2C3
330
2C1
100
AcDbEntity
  8
0
100
AcDbBlockEnd
  0
ENDSEC
  0
SECTION
  2
ENTITIES
  0
INSERT
  5
CC
330
1F
100
AcDbEntity
  8
0
  6
Continuous
 62
     7
100
AcDbBlockReference
 66
     1
  2
블럭10
 10
-22.93944368806589
 20
-52.04609937292004
 30
0.0
  0
ATTRIB
  5
CD
330
CC
100
AcDbEntity
  8
FORMAT
 62
     2
100
AcDbText
 10
-42.21802657207924
 20
-49.97073246008785
 30
0.0
 40
4.233333333333333
  1
SEME610400326E [ 2 FLUTE ]
 41
0.75
  7
SLDTEXTSTYLE0
 11
-42.21802657207924
 21
-52.08739912675452
 31
0.0
100
AcDbAttribute
  2
AUTOATTR0
 70
     0
 74
     1
  0
SEQEND
  5
CE
330
CC
100
AcDbEntity
  8
0
  6
Continuous
 62
     7
  0
HATCH
  5
CF
330
1F
100
AcDbEntity
  8
중심선
100
AcDbHatch
 10
0.0
 20
0.0
 30
0.0
210
0.0
220
0.0
230
1.0
  2
SOLID
 70
     1
 71
     0
 91
        1
 92
        0
 93
        4
 72
     1
 10
-17.22453438368504
 20
-35.7989250712761
 11
-20.67080962752232
 21
-35.7989250712761
 72
     1
 10
-20.67080962752232
 20
-35.7989250712761
 11
-22.79903948672635
 21
-38.3352506518487
 72
     1
 10
-22.79903948672635
 20
-38.3352506518487
 11
-19.35273115777591
 21
-38.33521122254621
 72
     1
 10
-19.35273115777591
 20
-38.33521122254621
 11
-17.22453438368504
 21
-35.7989250712761
 97
        0
 75
     0
 76
     1
 98
        1
 10
0.0
 20
0.0
  0
HATCH
  5
D0
330
1F
100
AcDbEntity
  8
중심선
100
AcDbHatch
 10
0.0
 20
0.0
 30
0.0
210
0.0
220
0.0
230
1.0
  2
SOLID
 70
     1
 71
     0
 91
        1
 92
        0
 93
        4
 72
     1
 10
-12.21177039264909
 20
-35.7989250712761
 11
-15.65804563648637
 21
-35.7989250712761
 72
     1
 10
-15.65804563648637
 20
-35.7989250712761
 11
-20.18918364484376
 21
-41.19892507127612
 72
     1
 10
-20.18918364484376
 20
-41.19892507127612
 11
-16.74290840100648
 21
-41.19892507127612
 72
     1
 10
-16.74290840100648
 20
-41.19892507127612
 11
-12.21177039264909
 21
-35.7989250712761
 97
        0
 75
     0
 76
     1
 98
        1
 10
0.0
 20
0.0
  0
HATCH
  5
D1
330
1F
100
AcDbEntity
  8
중심선
100
AcDbHatch
 10
0.0
 20
0.0
 30
0.0
210
0.0
220
0.0
230
1.0
  2
SOLID
 70
     1
 71
     0
 91
        1
 92
        0
 93
        4
 72
     1
 10
-7.199006401613195
 20
-35.79892507127613
 11
-10.64528164545031
 21
-35.7989250712761
 72
     1
 10
-10.64528164545031
 20
-35.7989250712761
 11
-17.69371854733956
 21
-44.19892507127612
 72
     1
 10
-17.69371854733956
 20
-44.19892507127612
 11
-14.24744330350228
 21
-44.19892507127612
 72
     1
 10
-14.24744330350228
 20
-44.19892507127612
 11
-7.199006401613195
 21
-35.79892507127613
 97
        0
 75
     0
 76
     1
 98
        1
 10
0.0
 20
0.0
  0
HATCH
  5
D2
330
1F
100
AcDbEntity
  8
중심선
100
AcDbHatch
 10
0.0
 20
0.0
 30
0.0
210
0.0
220
0.0
230
1.0
  2
SOLID
 70
     1
 71
     0
 91
        1
 92
        0
 93
        6
 72
     3
 10
-2.399115970600996
 20
-39.99892507132738
 11
3.960054785062284
 21
1.540850780301639E-10
 40
0.3939339440162633
 50
17.09539180608433
 51
320.0019657685079
 73
     0
 72
     1
 10
-0.7161163149004002
 20
-38.58681907591441
 11
1.589185558800638
 21
-36.65249236586649
 72
     3
 10
-2.399115970653842
 20
-39.99892507127625
 11
6.600054785286829
 21
-1.249000902703301E-13
 40
0.6363583540795982
 50
39.99873849337408
 51
368.4976242363725
 73
     1
 72
     1
 10
4.026216521246767
 20
-39.03892507120613
 11
-3.71904866381792
 21
-39.0389250712061
 72
     1
 10
-3.71904866381792
 20
-39.0389250712061
 11
-3.719073708263854
 21
-40.95892507120602
 72
     1
 10
-3.719073708263854
 20
-40.95892507120602
 11
0.7223060612081831
 21
-40.95892507120599
 97
        0
 75
     0
 76
     1
 98
        1
 10
0.0
 20
0.0
  0
LINE
  5
234
330
1F
100
AcDbEntity
  8
0
  6
Continuous
 62
     4
370
    25
100
AcDbLine
 10
0.0
 20
3.0
 30
0.0
 11
-33.98804538186347
 21
2.999999999999996
 31
0.0
  0
LINE
  5
235
330
1F
100
AcDbEntity
  8
0
  6
Continuous
 62
     4
370
    25
100
AcDbLine
 10
-33.98804538186347
 20
-3.0
 30
0.0
 11
0.0
 21
-3.0
 31
0.0
  0
LINE
  5
236
330
1F
100
AcDbEntity
  8
0
  6
Continuous
 62
     4
370
    25
100
AcDbLine
 10
0.0
 20
-3.0
 30
0.0
 11
4.011954618136535
 21
-1.925000000000001
 31
0.0
  0
LINE
  5
237
330
1F
100
AcDbEntity
  8
0
  6
Continuous
 62
     4
370
    25
100
AcDbLine
 10
4.011954618136535
 20
1.925000000000001
 30
0.0
 11
0.0
 21
3.0
 31
0.0
  0
LINE
  5
238
330
1F
100
AcDbEntity
  8
0
  6
Continuous
 62
     4
370
    25
100
AcDbLine
 10
-33.98804538186347
 20
2.999999999999996
 30
0.0
 11
-34.98804538186347
 21
1.999999999999996
 31
0.0
  0
LINE
  5
239
330
1F
100
AcDbEntity
  8
0
  6
Continuous
 62
     4
370
    25
100
AcDbLine
 10
-34.98804538186347
 20
-2.0
 30
0.0
 11
-33.98804538186347
 21
-3.0
 31
0.0
  0
LINE
  5
23A
330
1F
100
AcDbEntity
  8
0
  6
Continuous
 62
     4
370
    25
100
AcDbLine
 10
20.96205447250655
 20
1.925000000000001
 30
0.0
 11
4.011954618136535
 21
1.925000000000001
 31
0.0
  0
LINE
  5
23B
330
1F
100
AcDbEntity
  8
0
  6
Continuous
 62
     4
370
    25
100
AcDbLine
 10
4.011954618136535
 20
-1.925000000000001
 30
0.0
 11
20.96205447250655
 21
-1.924999999999997
 31
0.0
  0
SPLINE
  5
23C
330
1F
100
AcDbEntity
  8
0
  6
Continuous
 62
     4
370
    25
100
AcDbSpline
210
0.0
220
0.0
230
1.0
 70
     8
 71
     3
 72
    14
 73
    10
 74
     0
 42
0.000000001
 43
0.00000001
 40
0.0
 40
0.0
 40
0.0
 40
0.0
 40
0.2308603510109695
 40
0.398955202509773
 40
0.5108277281791408
 40
0.6129537198230922
 40
0.7205226557413984
 40
0.829895855408123
 40
1.0
 40
1.0
 40
1.0
 40
1.0
 10
24.01195461813653
 20
1.580702654398447
 30
0.0
 10
23.88636178616535
 20
1.575996054279145
 30
0.0
 10
23.66932185924237
 20
1.567862467911858
 30
0.0
 10
23.39195356829256
 20
1.562994242646496
 30
0.0
 10
23.18622324719938
 20
1.561664363422754
 30
0.0
 10
23.01368027452783
 20
1.562128266606361
 30
0.0
 10
22.84230416762264
 20
1.564230592436875
 30
0.0
 10
22.63448633740818
 20
1.568107723993176
 30
0.0
 10
22.48450351550845
 20
1.574723344573748
 30
0.0
 10
22.39321633196089
 20
1.578749948171218
 30
0.0
  0
SPLINE
  5
23D
330
1F
100
AcDbEntity
  8
0
  6
Continuous
 62
     4
370
    25
100
AcDbSpline
210
0.0
220
0.0
230
1.0
 70
     8
 71
     3
 72
    18
 73
    14
 74
     0
 42
0.000000001
 43
0.00000001
 40
0.0
 40
0.0
 40
0.0
 40
0.0
 40
0.1336765521262542
 40
0.2270940693431178
 40
0.2903901249476815
 40
0.3529551186328644
 40
0.4158847767874843
 40
0.4788282820699265
 40
0.5539247531618942
 40
0.6220031412458732
 40
0.6963760220727465
 40
0.8208689971286018
 40
1.0
 40
1.0
 40
1.0
 40
1.0
 10
21.24056273739858
 20
-1.655951866627447
 30
0.0
 10
21.36179496905403
 20
-1.644963979800227
 30
0.0
 10
21.56774822251752
 20
-1.626297400707745
 30
0.0
 10
21.83242005754038
 20
-1.607189833906983
 30
0.0
 10
22.03542905546107
 20
-1.594467276375738
 30
0.0
 10
22.20981300264314
 20
-1.585086863166353
 30
0.0
 10
22.38392010957232
 20
-1.577204741833508
 30
0.0
 10
22.56949041863477
 20
-1.570501530878261
 30
0.0
 10
22.76001991509931
 20
-1.565594123859718
 30
0.0
 10
22.9609330881881
 20
-1.562503334384473
 30
0.0
 10
23.2083200586696
 20
-1.561334586072341
 30
0.0
 10
23.56084166030625
 20
-1.564323838800306
 30
0.0
 10
23.84456470035519
 20
-1.574625133128574
 30
0.0
 10
24.01195461813653
 20
-1.580702654398443
 30
0.0
  0
LINE
  5
23E
330
1F
100
AcDbEntity
  8
0
  6
Continuous
 62
     1
370
    25
100
AcDbLine
 10
24.82932293642948
 20
0.5126028352728227
 30
0.0
 11
24.27646359016366
 21
0.7899980278361163
 31
0.0
  0
LINE
  5
23F
330
1F
100
AcDbEntity
  8
0
  6
Continuous
 62
     1
370
    25
100
AcDbLine
 10
24.16991308442486
 20
1.589281640184922
 30
0.0
 11
24.01178505587531
 21
1.582360539307984
 31
0.0
  0
SPLINE
  5
240
330
1F
100
AcDbEntity
  8
0
  6
Continuous
 62
     1
370
    25
100
AcDbSpline
210
0.0
220
0.0
230
1.0
 70
     8
 71
     3
 72
    12
 73
     8
 74
     0
 42
0.000000001
 43
0.00000001
 40
0.0
 40
0.0
 40
0.0
 40
0.0
 40
0.1251794714740641
 40
0.511824278893793
 40
0.7004035173506648
 40
0.7937509703285055
 40
0.9999999999999999
 40
0.9999999999999999
 40
0.9999999999999999
 40
0.9999999999999999
 10
29.26805507298793
 20
1.367904182809703
 30
0.0
 10
29.12135644686285
 20
1.356635668374324
 30
0.0
 10
28.52154628911869
 20
1.31056182569727
 30
0.0
 10
27.71170366270333
 20
1.308725558602205
 30
0.0
 10
26.93149929684905
 20
1.361170087805931
 30
0.0
 10
26.36418136872595
 20
1.41858100338715
 30
0.0
 10
26.01478798612534
 20
1.469331393784241
 30
0.0
 10
25.77425763844649
 20
1.504269116291155
 30
0.0
  0
SPLINE
  5
241
330
1F
100
AcDbEntity
  8
0
  6
Continuous
 62
     1
370
    25
100
AcDbSpline
210
0.0
220
0.0
230
1.0
 70
     8
 71
     3
 72
    14
 73
    10
 74
     0
 42
0.000000001
 43
0.00000001
 40
0.0
 40
0.0
 40
0.0
 40
0.0
 40
0.2178536990656117
 40
0.360418047655573
 40
0.4551079744437204
 40
0.5603316704049114
 40
0.6768500656639683
 40
0.9328662806170597
 40
0.9999999999999999
 40
0.9999999999999999
 40
0.9999999999999999
 40
0.9999999999999999
 10
25.77425763844649
 20
-1.504269116291152
 30
0.0
 10
25.88246915228974
 20
-1.48780911508323
 30
0.0
 10
26.06149472183721
 20
-1.460577621997675
 30
0.0
 10
26.28594875092449
 20
-1.431442137482311
 30
0.0
 10
26.45335185170795
 20
-1.411268958465733
 30
0.0
 10
26.61153323379965
 20
-1.393796469722002
 30
0.0
 10
26.8517179955807
 20
-1.37003298967403
 30
0.0
 10
27.07022714346546
 20
-1.351324303604944
 30
0.0
 10
27.23070342644699
 20
-1.342915125699196
 30
0.0
 10
27.26404203680889
 20
-1.341168136670941
 30
0.0
  0
LINE
  5
242
330
1F
100
AcDbEntity
  8
0
  6
Continuous
 62
     1
370
    25
100
AcDbLine
 10
24.01164460962258
 20
-1.582446890153175
 30
0.0
 11
24.16991308442486
 21
-1.589281640184918
 31
0.0
  0
LINE
  5
243
330
1F
100
AcDbEntity
  8
0
  6
Continuous
 62
     4
370
    25
100
AcDbLine
 10
0.0
 20
3.0
 30
0.0
 11
0.0
 21
-3.0
 31
0.0
  0
LINE
  5
244
330
1F
100
AcDbEntity
  8
0
  6
Continuous
 62
     4
370
    25
100
AcDbLine
 10
-33.98804538186347
 20
2.999999999999996
 30
0.0
 11
-33.98804538186347
 21
-3.0
 31
0.0
  0
LINE
  5
245
330
1F
100
AcDbEntity
  8
0
  6
Continuous
 62
     4
370
    25
100
AcDbLine
 10
4.011954618136535
 20
1.925000000000001
 30
0.0
 11
4.011954618136535
 21
-1.925000000000001
 31
0.0
  0
LINE
  5
246
330
1F
100
AcDbEntity
  8
0
  6
Continuous
 62
     4
370
    25
100
AcDbLine
 10
-34.98804538186347
 20
1.999999999999996
 30
0.0
 11
-34.98804538186347
 21
-2.0
 31
0.0
  0
SPLINE
  5
247
330
1F
100
AcDbEntity
  8
0
  6
Continuous
 62
     4
370
    25
100
AcDbSpline
210
0.0
220
0.0
230
1.0
 70
     8
 71
     3
 72
    18
 73
    14
 74
     0
 42
0.000000001
 43
0.00000001
 40
0.0
 40
0.0
 40
0.0
 40
0.0
 40
0.125
 40
0.125
 40
0.25
 40
0.25
 40
0.5
 40
0.5
 40
0.625
 40
0.625
 40
0.75
 40
0.75
 40
1.0
 40
1.0
 40
1.0
 40
1.0
 10
24.01195461813653
 20
0.9195926915382522
 30
0.0
 10
23.88404583341789
 20
0.9817807691041587
 30
0.0
 10
23.75618362388396
 20
1.042089630927723
 30
0.0
 10
23.50286344266307
 20
1.157894964694137
 30
0.0
 10
23.37773555715442
 20
1.213359940242984
 30
0.0
 10
22.9963281511835
 20
1.37295892646717
 30
0.0
 10
22.7382701941615
 20
1.469514920145993
 30
0.0
 10
22.3594148900594
 20
1.594490292149906
 30
0.0
 10
22.23381774085058
 20
1.632961287281542
 30
0.0
 10
21.97904123122278
 20
1.703508034408131
 30
0.0
 10
21.85087323151971
 20
1.735468311926731
 30
0.0
 10
21.46752419389395
 20
1.820506044621062
 30
0.0
 10
21.21734188223733
 20
1.862569858263548
 30
0.0
 10
20.96215917527813
 20
1.889580777939724
 30
0.0
  0
SPLINE
  5
248
330
1F
100
AcDbEntity
  8
0
  6
Continuous
 62
     4
370
    25
100
AcDbSpline
210
0.0
220
0.0
230
1.0
 70
     8
 71
     3
 72
    18
 73
    14
 74
     0
 42
0.000000001
 43
0.00000001
 40
0.0
 40
0.0
 40
0.0
 40
0.0
 40
0.1249999999999984
 40
0.1249999999999984
 40
0.2499999999999967
 40
0.2499999999999967
 40
0.4999999999999961
 40
0.4999999999999961
 40
0.6249999999999971
 40
0.6249999999999971
 40
0.7499999999999981
 40
0.7499999999999981
 40
1.0
 40
1.0
 40
1.0
 40
1.0
 10
24.01195461813653
 20
0.4051148844736261
 30
0.0
 10
23.88404145995446
 20
0.4743194848060988
 30
0.0
 10
23.75617488039752
 20
0.5426905570004372
 30
0.0
 10
23.50284620154987
 20
0.6765454905924813
 30
0.0
 10
23.37771395138334
 20
0.7419820193711253
 30
0.0
 10
22.99629311608199
 20
0.9344443364844643
 30
0.0
 10
22.73822626907187
 20
1.056780298131407
 30
0.0
 10
22.35935912968461
 20
1.224807558663016
 30
0.0
 10
22.23375702750907
 20
1.278373176384765
 30
0.0
 10
21.97897127446502
 20
1.38062349553757
 30
0.0
 10
21.8507987976126
 20
1.429154893667281
 30
0.0
 10
21.46743712705202
 20
1.565617886641039
 30
0.0
 10
21.2172465709739
 20
1.644056332960314
 30
0.0
 10
20.96205447250655
 20
1.709143488682486
 30
0.0
  0
SPLINE
  5
249
330
1F
100
AcDbEntity
  8
0
  6
Continuous
 62
     4
370
    25
100
AcDbSpline
210
0.0
220
0.0
230
1.0
 70
     8
 71
     3
 72
    10
 73
     6
 74
     0
 42
0.000000001
 43
0.00000001
 40
0.0
 40
0.0
 40
0.0
 40
0.0
 40
0.0653433289438557
 40
0.5338993100046333
 40
1.0
 40
1.0
 40
1.0
 40
1.0
 10
22.39822732976413
 20
-1.576954746585884
 30
0.0
 10
22.36694013451604
 20
-1.588328237097265
 30
0.0
 10
22.11130253194933
 20
-1.681257367499953
 30
0.0
 10
21.63214458894632
 20
-1.793625084410799
 30
0.0
 10
21.18509618941108
 20
-1.857651611471347
 30
0.0
 10
20.96215917527813
 20
-1.88958077793972
 30
0.0
  0
LINE
  5
24A
330
1F
100
AcDbEntity
  8
0
  6
Continuous
 62
     4
370
    25
100
AcDbLine
 10
20.96205447250655
 20
1.889597655532913
 30
0.0
 11
20.96205447250655
 21
1.925000000000001
 31
0.0
  0
LINE
  5
24B
330
1F
100
AcDbEntity
  8
0
  6
Continuous
 62
     4
370
    25
100
AcDbLine
 10
20.96205447250655
 20
-1.924999999999997
 30
0.0
 11
20.96205447250655
 21
1.709389812884492
 31
0.0
  0
SPLINE
  5
24C
330
1F
100
AcDbEntity
  8
0
  6
Continuous
 62
     4
370
    25
100
AcDbSpline
210
0.0
220
0.0
230
1.0
 70
    24
 71
     3
 72
    10
 73
     6
 74
     0
 42
0.000000001
 43
0.00000001
 40
0.0
 40
0.0
 40
0.0
 40
0.0
 40
0.5
 40
0.5
 40
1.0
 40
1.0
 40
1.0
 40
1.0
 10
24.01195461813653
 20
0.4051148844735586
 30
0.0
 10
24.01195461813653
 20
0.4044302769278723
 30
0.0
 10
24.01195461813653
 20
0.3875955315121011
 30
0.0
 10
24.01195461813653
 20
0.3248054059878278
 30
0.0
 10
24.01195461813653
 20
0.2790477599600116
 30
0.0
 10
24.01195461813653
 20
0.2247554758747619
 30
0.0
  0
SPLINE
  5
24D
330
1F
100
AcDbEntity
  8
0
  6
Continuous
 62
     4
370
    25
100
AcDbSpline
210
0.0
220
0.0
230
1.0
 70
     8
 71
     3
 72
    16
 73
    12
 74
     0
 42
0.000000001
 43
0.00000001
 40
0.0
 40
0.0
 40
0.0
 40
0.0
 40
0.125
 40
0.125
 40
0.25
 40
0.25
 40
0.5
 40
0.5
 40
0.75
 40
0.75
 40
1.0
 40
1.0
 40
1.0
 40
1.0
 10
24.01195461813653
 20
0.2247554758747619
 30
0.0
 10
23.88404251319379
 20
0.2755708893496873
 30
0.0
 10
23.75617698604766
 20
0.3259222079488531
 30
0.0
 10
23.50285035363953
 20
0.4247951852010452
 30
0.0
 10
23.37771915459588
 20
0.4732806309359638
 30
0.0
 10
22.99630155341258
 20
0.6163490977546147
 30
0.0
 10
22.73823684733016
 20
0.7079288630246268
 30
0.0
 10
22.23308446176598
 20
0.8769751245762336
 30
0.0
 10
21.97860293258101
 20
0.955304094486717
 30
0.0
 10
21.46745809489592
 20
1.095468304239816
 30
0.0
 10
21.21726952436195
 20
1.156785121358418
 30
0.0
 10
20.96207968757709
 20
1.208698484234876
 30
0.0
  0
SPLINE
  5
24E
330
1F
100
AcDbEntity
  8
0
  6
Continuous
 62
     4
370
    25
100
AcDbSpline
210
0.0
220
0.0
230
1.0
 70
     8
 71
     3
 72
    18
 73
    14
 74
     0
 42
0.000000001
 43
0.00000001
 40
0.0
 40
0.0
 40
0.0
 40
0.0
 40
0.125000000000001
 40
0.125000000000001
 40
0.2500000000000021
 40
0.2500000000000021
 40
0.5000000000000013
 40
0.5000000000000013
 40
0.625000000000001
 40
0.625000000000001
 40
0.7500000000000007
 40
0.7500000000000007
 40
1.0
 40
1.0
 40
1.0
 40
1.0
 10
24.01195461813653
 20
-1.579247033629272
 30
0.0
 10
23.88404305647039
 20
-1.569801255835898
 30
0.0
 10
23.75617807217348
 20
-1.557143686896744
 30
0.0
 10
23.50285249534979
 20
-1.525696305039048
 30
0.0
 10
23.37772183848999
 20
-1.50694554491697
 30
0.0
 10
22.99630590551322
 20
-1.441393886204075
 30
0.0
 10
22.73824230375419
 20
-1.385335025822908
 30
0.0
 10
22.3593794847687
 20
-1.285846401627552
 30
0.0
 10
22.23377919070157
 20
-1.250099012966739
 30
0.0
 10
21.97899681191957
 20
-1.173357530760004
 30
0.0
 10
21.85082596942443
 20
-1.132450027322911
 30
0.0
 10
21.46746891043013
 20
-1.003211346352167
 30
0.0
 10
21.21728136404933
 20
-0.9088689550828946
 30
0.0
 10
20.96209269388089
 20
-0.8073574898308529
 30
0.0
  0
SPLINE
  5
24F
330
1F
100
AcDbEntity
  8
0
  6
Continuous
 62
     4
370
    25
100
AcDbSpline
210
0.0
220
0.0
230
1.0
 70
    24
 71
     3
 72
    14
 73
    10
 74
     0
 42
0.000000001
 43
0.00000001
 40
0.0
 40
0.0
 40
0.0
 40
0.0
 40
0.25
 40
0.25
 40
0.5
 40
0.5
 40
0.75
 40
0.75
 40
1.0
 40
1.0
 40
1.0
 40
1.0
 10
24.01195461813653
 20
0.2247554758747619
 30
0.0
 10
24.01195461813653
 20
0.0478379764646739
 30
0.0
 10
24.01195461813653
 20
-0.133603748130561
 30
0.0
 10
24.01195461813653
 20
-0.4885406909531653
 30
0.0
 10
24.01195461813653
 20
-0.6618479081743835
 30
0.0
 10
24.01195461813653
 20
-0.9824711655081977
 30
0.0
 10
24.01195461813653
 20
-1.129616364144596
 30
0.0
 10
24.01195461813653
 20
-1.384867563041759
 30
0.0
 10
24.01195461813653
 20
-1.492925576302518
 30
0.0
 10
24.01195461813653
 20
-1.579247033629272
 30
0.0
  0
SPLINE
  5
250
330
1F
100
AcDbEntity
  8
0
  6
Continuous
 62
     4
370
    25
100
AcDbSpline
210
0.0
220
0.0
230
1.0
 70
    24
 71
     3
 72
    12
 73
     8
 74
     0
 42
0.000000001
 43
0.00000001
 40
0.0
 40
0.0
 40
0.0
 40
0.0
 40
0.2050516057108068
 40
0.4231367884804073
 40
0.6475464563244664
 40
0.8433752651337508
 40
1.0
 40
1.0
 40
1.0
 40
1.0
 10
24.01195461813653
 20
1.568259794254029
 30
0.0
 10
24.01195461813653
 20
1.565136854048191
 30
0.0
 10
24.01195461813653
 20
1.558692471987719
 30
0.0
 10
24.01195461813653
 20
1.455329286393123
 30
0.0
 10
24.0119546181365
 20
1.305356274438665
 30
0.0
 10
24.01195461813653
 20
1.126632020999608
 30
0.0
 10
24.01195461813653
 20
0.9887032945297172
 30
0.0
 10
24.01195461813653
 20
0.9274099677879839
 30
0.0
  0
LINE
  5
251
330
1F
100
AcDbEntity
  8
0
  6
Continuous
 62
     4
370
    25
100
AcDbLine
 10
21.24262615808381
 20
-1.646589994132064
 30
0.0
 11
20.96215917527813
 21
-1.681492594830249
 31
0.0
  0
SPLINE
  5
252
330
1F
100
AcDbEntity
  8
0
  6
Continuous
 62
     1
370
    25
100
AcDbSpline
210
0.0
220
0.0
230
1.0
 70
     8
 71
     3
 72
    32
 73
    28
 74
     0
 42
0.000000001
 43
0.00000001
 40
0.0
 40
0.0
 40
0.0
 40
0.0
 40
0.1249999999999999
 40
0.1249999999999999
 40
0.1874999999999998
 40
0.1874999999999998
 40
0.2499999999999998
 40
0.2499999999999998
 40
0.3124999999999997
 40
0.3124999999999997
 40
0.3749999999999997
 40
0.3749999999999997
 40
0.4999999999999995
 40
0.4999999999999995
 40
0.5624999999999994
 40
0.5624999999999994
 40
0.6249999999999993
 40
0.6249999999999993
 40
0.6874999999999993
 40
0.6874999999999993
 40
0.7499999999999992
 40
0.7499999999999992
 40
0.8750000000000003
 40
0.8750000000000003
 40
0.9375000000000001
 40
0.9375000000000001
 40
1.0
 40
1.0
 40
1.0
 40
1.0
 10
29.7887617280754
 20
-1.985080521967489
 30
0.0
 10
29.66766912707504
 20
-1.985151362637186
 30
0.0
 10
29.41834821793226
 20
-1.959980558823116
 30
0.0
 10
29.04938604844212
 20
-1.900478609523994
 30
0.0
 10
28.92825518436108
 20
-1.87713350114511
 30
0.0
 10
28.68373308995923
 20
-1.823347403868887
 30
0.0
 10
28.56026631212801
 20
-1.792875136319726
 30
0.0
 10
28.3130025855382
 20
-1.725212551881675
 30
0.0
 10
28.1892096080112
 20
-1.688023256469435
 30
0.0
 10
27.94340102906985
 20
-1.607598229403024
 30
0.0
 10
27.82239150627439
 20
-1.564496753032877
 30
0.0
 10
27.45526763115656
 20
-1.426147207439421
 30
0.0
 10
27.20588233235245
 20
-1.321776374110165
 30
0.0
 10
26.83743318906453
 20
-1.15222501734916
 30
0.0
 10
26.71650699913046
 20
-1.093728757369153
 30
0.0
 10
26.47154007068889
 20
-0.9723522608503536
 30
0.0
 10
26.34794959617339
 20
-0.9095300489239371
 30
0.0
 10
26.10064285490108
 20
-0.7806492652830244
 30
0.0
 10
25.97693056419639
 20
-0.7145927539830623
 30
0.0
 10
25.73148321171088
 20
-0.5803899017401442
 30
0.0
 10
25.61060233535662
 20
-0.5124093517556396
 30
0.0
 10
25.24283968378725
 20
-0.3050148147744309
 30
0.0
 10
24.99343033916024
 20
-0.1625893166960175
 30
0.0
 10
24.62555177796106
 20
0.0501057355718828
 30
0.0
 10
24.50467819000077
 20
0.1207059852339967
 30
0.0
 10
24.25930444933964
 20
0.2618834553029252
 30
0.0
 10
24.135609869834
 20
0.3323033183432038
 30
0.0
 10
24.01195461813653
 20
0.4019523873045259
 30
0.0
  0
SPLINE
  5
253
330
1F
100
AcDbEntity
  8
0
  6
Continuous
 62
     1
370
    25
100
AcDbSpline
210
0.0
220
0.0
230
1.0
 70
     8
 71
     3
 72
     9
 73
     5
 74
     0
 42
0.000000001
 43
0.00000001
 40
0.0
 40
0.0
 40
0.0
 40
0.0
 40
0.2863663946142828
 40
1.0
 40
1.0
 40
1.0
 40
1.0
 10
25.04352865595001
 20
-0.1894796842398634
 30
0.0
 10
24.94502069231997
 20
-0.1504061863225559
 30
0.0
 10
24.60102794218351
 20
-0.0139603649826086
 30
0.0
 10
24.25727107245616
 20
0.1253435329493193
 30
0.0
 10
24.01195461813653
 20
0.2247554758747619
 30
0.0
  0
SPLINE
  5
254
330
1F
100
AcDbEntity
  8
0
  6
Continuous
 62
     4
370
    25
100
AcDbSpline
210
0.0
220
0.0
230
1.0
 70
    24
 71
     3
 72
    11
 73
     7
 74
     0
 42
0.000000001
 43
0.00000001
 40
0.0
 40
0.0
 40
0.0
 40
0.0
 40
0.2386370911921957
 40
0.4828305794917479
 40
0.7341056954948413
 40
1.0
 40
1.0
 40
1.0
 40
1.0
 10
24.01195461813653
 20
0.4045731839372699
 30
0.0
 10
24.01195461813653
 20
0.4026159760105763
 30
0.0
 10
24.01195461813653
 20
0.39865598876505
 30
0.0
 10
24.01195461813653
 20
0.3639278082172659
 30
0.0
 10
24.0119546181365
 20
0.3090461332078185
 30
0.0
 10
24.01195461813653
 20
0.2533769085792272
 30
0.0
 10
24.01195461813653
 20
0.2247554758765489
 30
0.0
  0
SPLINE
  5
255
330
1F
100
AcDbEntity
  8
0
  6
Continuous
 62
     1
370
    25
100
AcDbSpline
210
0.0
220
0.0
230
1.0
 70
     8
 71
     3
 72
    14
 73
    10
 74
     0
 42
0.000000001
 43
0.00000001
 40
0.0
 40
0.0
 40
0.0
 40
0.0
 40
0.1446137793256651
 40
0.2887373595327922
 40
0.4331506619124593
 40
0.5779322099448498
 40
0.7221078502552839
 40
0.8663718961395308
 40
1.0
 40
1.0
 40
1.0
 40
1.0
 10
30.01195461813653
 20
-1.577944528736428
 30
0.0
 10
29.76013606539401
 20
-1.524834925521148
 30
0.0
 10
29.25735255237548
 20
-1.418795745370261
 30
0.0
 10
28.50376136561256
 20
-1.17203460057209
 30
0.0
 10
27.74951389639998
 20
-0.8755445705441858
 30
0.0
 10
26.99461857678845
 20
-0.5372018734783239
 30
0.0
 10
26.24086744404126
 20
-0.1728653572385106
 30
0.0
 10
25.50636291482988
 20
0.1917995722878238
 30
0.0
 10
25.02236328420308
 20
0.4206415500784431
 30
0.0
 10
24.78962568089462
 20
0.5306832320904498
 30
0.0
  0
SPLINE
  5
256
330
1F
100
AcDbEntity
  8
0
  6
Continuous
 62
     1
370
    25
100
AcDbSpline
210
0.0
220
0.0
230
1.0
 70
    24
 71
     3
 72
     8
 73
     4
 74
     0
 42
0.000000001
 43
0.00000001
 40
0.4467552968214377
 40
0.4467552968214377
 40
0.4467552968214377
 40
0.4467552968214377
 40
1.0
 40
1.0
 40
1.0
 40
1.0
 10
30.01195461813653
 20
-1.695079333064645
 30
0.0
 10
30.01195461813653
 20
-1.655938163124676
 30
0.0
 10
30.01195461813653
 20
-1.61685968008014
 30
0.0
 10
30.01195461813653
 20
-1.577944528736428
 30
0.0
  0
SPLINE
  5
257
330
1F
100
AcDbEntity
  8
0
  6
Continuous
 62
     1
370
    25
100
AcDbSpline
210
0.0
220
0.0
230
1.0
 70
     8
 71
     3
 72
    11
 73
     7
 74
     0
 42
0.000000001
 43
0.00000001
 40
0.0001209411479601
 40
0.0001209411479601
 40
0.0001209411479601
 40
0.0001209411479601
 40
0.0001487828091073
 40
0.0001487828091073
 40
0.0001487828091073
 40
0.0001635667189071
 40
0.0001635667189071
 40
0.0001635667189071
 40
0.0001635667189071
 10
29.94962682743196
 20
-1.878141985258124
 30
0.0
 10
29.94154860607512
 20
-1.880143209373739
 30
0.0
 10
29.93319581990518
 20
-1.880851813315958
 30
0.0
 10
29.92500971907474
 20
-1.880411710245973
 30
0.0
 10
29.92062869773302
 20
-1.880176176750588
 30
0.0
 10
29.91626120757381
 20
-1.879615434866288
 30
0.0
 10
29.91195461813645
 20
-1.878759392336793
 30
0.0
  0
SPLINE
  5
258
330
1F
100
AcDbEntity
  8
0
  6
Continuous
 62
     1
370
    25
100
AcDbSpline
210
0.0
220
0.0
230
1.0
 70
     8
 71
     3
 72
    32
 73
    28
 74
     0
 42
0.000000001
 43
0.00000001
 40
0.0
 40
0.0
 40
0.0
 40
0.0
 40
0.1250000000000011
 40
0.1250000000000011
 40
0.187500000000001
 40
0.187500000000001
 40
0.2500000000000009
 40
0.2500000000000009
 40
0.3125000000000008
 40
0.3125000000000008
 40
0.3750000000000007
 40
0.3750000000000007
 40
0.5000000000000007
 40
0.5000000000000007
 40
0.5625000000000006
 40
0.5625000000000006
 40
0.6250000000000004
 40
0.6250000000000004
 40
0.6875000000000003
 40
0.6875000000000003
 40
0.7500000000000002
 40
0.7500000000000002
 40
0.8750000000000002
 40
0.8750000000000002
 40
0.9375000000000001
 40
0.9375000000000001
 40
1.0
 40
1.0
 40
1.0
 40
1.0
 10
29.91195461813656
 20
-1.878759392336736
 30
0.0
 10
29.66766912707506
 20
-1.830201531707356
 30
0.0
 10
29.41834821793228
 20
-1.767023612717097
 30
0.0
 10
29.04938604844214
 20
-1.653375885174992
 30
0.0
 10
28.92825518436108
 20
-1.612503818923678
 30
0.0
 10
28.68373308995923
 20
-1.524614537033106
 30
0.0
 10
28.56026631212802
 20
-1.477566206471188
 30
0.0
 10
28.3130025855382
 20
-1.377996213212121
 30
0.0
 10
28.1892096080112
 20
-1.325476097117722
 30
0.0
 10
27.94340102906985
 20
-1.215887676669936
 30
0.0
 10
27.8223915062744
 20
-1.158987959163774
 30
0.0
 10
27.45526763115659
 20
-0.9814509038959898
 30
0.0
 10
27.20588233235245
 20
-0.8539803129927925
 30
0.0
 10
26.83743318906453
 20
-0.6555011653376042
 30
0.0
 10
26.71650699913046
 20
-0.5883260685726199
 30
0.0
 10
26.4715400706889
 20
-0.4514494475053503
 30
0.0
 10
26.34794959617341
 20
-0.3818232480486792
 30
0.0
 10
26.10064285490108
 20
-0.2413607634919899
 30
0.0
 10
25.97693056419639
 20
-0.1705267324798356
 30
0.0
 10
25.73148321171087
 20
-0.0288611937289112
 30
0.0
 10
25.61060233535662
 20
0.0418044686204055
 30
0.0
 10
25.24283968378724
 20
0.254151456757274
 30
0.0
 10
24.99343033916024
 20
0.3956590214485054
 30
0.0
 10
24.62555177796106
 20
0.6006921858368983
 30
0.0
 10
24.50467819000076
 20
0.6677135968214536
 30
0.0
 10
24.25930444933964
 20
0.7996535535534832
 30
0.0
 10
24.135609869834
 20
0.8644162975288765
 30
0.0
 10
24.01195461813653
 20
0.9274099677879875
 30
0.0
  0
LINE
  5
259
330
1F
100
AcDbEntity
  8
0
  6
Continuous
 62
     4
370
    25
100
AcDbLine
 10
24.01195461813653
 20
0.4019523873045294
 30
0.0
 11
24.01195461813653
 21
0.9274099677879875
 31
0.0
  0
SPLINE
  5
25A
330
1F
100
AcDbEntity
  8
0
  6
Continuous
 62
     1
370
    25
100
AcDbSpline
210
0.0
220
0.0
230
1.0
 70
     8
 71
     3
 72
    14
 73
    10
 74
     0
 42
0.000000001
 43
0.00000001
 40
0.0
 40
0.0
 40
0.0
 40
0.0
 40
0.1292598837316096
 40
0.2580754974788445
 40
0.3871536608149689
 40
0.5806714887839679
 40
0.7742038376643648
 40
0.9007575075866262
 40
1.0
 40
1.0
 40
1.0
 40
1.0
 10
30.01195461813653
 20
0.0000000000000036
 30
0.0
 10
29.76013708940413
 20
0.1161041177315276
 30
0.0
 10
29.25736753611842
 20
0.3479132999610322
 30
0.0
 10
28.50374473522004
 20
0.680582955398318
 30
0.0
 10
27.6246040272493
 20
1.029668483521309
 30
0.0
 10
26.61885608767336
 20
1.353107941910679
 30
0.0
 10
25.61825752178046
 20
1.544485592579402
 30
0.0
 10
24.80112248025581
 20
1.610801620493582
 30
0.0
 10
24.361518538651
 20
1.591630997047488
 30
0.0
 10
24.16830271784904
 20
1.583205076818246
 30
0.0
  0
SPLINE
  5
25B
330
1F
100
AcDbEntity
  8
0
  6
Continuous
 62
     1
370
    25
100
AcDbSpline
210
0.0
220
0.0
230
1.0
 70
    24
 71
     3
 72
    10
 73
     6
 74
     0
 42
0.000000001
 43
0.00000001
 40
0.0
 40
0.0
 40
0.0
 40
0.0
 40
0.5000000000000001
 40
0.5000000000000001
 40
1.0
 40
1.0
 40
1.0
 40
1.0
 10
30.01195461813653
 20
-1.577944528736428
 30
0.0
 10
30.01195461813653
 20
-1.407185134337968
 30
0.0
 10
30.01195461813653
 20
-1.171452163182277
 30
0.0
 10
30.01195461813653
 20
-0.6198823592321787
 30
0.0
 10
30.01195461813653
 20
-0.306419698497745
 30
0.0
 10
30.01195461813653
 20
0.0000000000000036
 30
0.0
  0
SPLINE
  5
25C
330
1F
100
AcDbEntity
  8
0
  6
Continuous
 62
     4
370
    25
100
AcDbSpline
210
0.0
220
0.0
230
1.0
 70
    24
 71
     3
 72
    13
 73
     9
 74
     0
 42
0.000000001
 43
0.00000001
 40
0.0
 40
0.0
 40
0.0
 40
0.0
 40
0.0897819338000888
 40
0.235285289776643
 40
0.4450762001599308
 40
0.6609510611565801
 40
0.8493320577820018
 40
1.0
 40
1.0
 40
1.0
 40
1.0
 10
24.01195461813653
 20
1.57817200828724
 30
0.0
 10
24.01195461813653
 20
1.578546579505215
 30
0.0
 10
24.01195461813653
 20
1.579528192329001
 30
0.0
 10
24.01195461813653
 20
1.543489802611923
 30
0.0
 10
24.01195461813653
 20
1.457440694116077
 30
0.0
 10
24.01195461813656
 20
1.304862772871665
 30
0.0
 10
24.01195461813653
 20
1.126721477503452
 30
0.0
 10
24.01195461813653
 20
0.988730817018471
 30
0.0
 10
24.01195461813653
 20
0.9274099677879839
 30
0.0
  0
LINE
  5
25D
330
1F
100
AcDbEntity
  8
0
  6
Continuous
 62
     1
370
    25
100
AcDbLine
 10
30.01195461813653
 20
1.400000000000006
 30
0.0
 11
29.26394713199103
 21
1.351064512603614
 31
0.0
  0
SPLINE
  5
25E
330
1F
100
AcDbEntity
  8
0
  6
Continuous
 62
     1
370
    25
100
AcDbSpline
210
0.0
220
0.0
230
1.0
 70
    24
 71
     3
 72
    14
 73
    10
 74
     0
 42
0.000000001
 43
0.00000001
 40
0.0
 40
0.0
 40
0.0
 40
0.0
 40
0.2499999999999999
 40
0.2499999999999999
 40
0.4999999999999998
 40
0.4999999999999998
 40
0.7499999999999999
 40
0.7499999999999999
 40
1.0
 40
1.0
 40
1.0
 40
1.0
 10
30.01195461813653
 20
0.0000000000000036
 30
0.0
 10
30.01195461813653
 20
0.1665687034027954
 30
0.0
 10
30.01195461813653
 20
0.3310871527509107
 30
0.0
 10
30.01195461813653
 20
0.6387450999155142
 30
0.0
 10
30.01195461813653
 20
0.7816934607495369
 30
0.0
 10
30.01195461813653
 20
1.030513824303657
 30
0.0
 10
30.01195461813653
 20
1.136253245131318
 30
0.0
 10
30.01195461813653
 20
1.302133108422716
 30
0.0
 10
30.01195461813653
 20
1.362281548872783
 30
0.0
 10
30.01195461813653
 20
1.400000000000006
 30
0.0
  0
SPLINE
  5
25F
330
1F
100
AcDbEntity
  8
0
  6
Continuous
 62
     1
370
    25
100
AcDbSpline
210
0.0
220
0.0
230
1.0
 70
     8
 71
     3
 72
    10
 73
     6
 74
     0
 42
0.000000001
 43
0.00000001
 40
0.0
 40
0.0
 40
0.0
 40
0.0
 40
0.1665959829164662
 40
0.5841990027036469
 40
1.0
 40
1.0
 40
1.0
 40
1.0
 10
25.78281204424566
 20
-1.488044036000449
 30
0.0
 10
25.68444746237914
 20
-1.508259011269232
 30
0.0
 10
25.33951423156654
 20
-1.57914648517443
 30
0.0
 10
24.74897803755221
 20
-1.609093067931845
 30
0.0
 10
24.25727469714369
 20
-1.589181360409501
 30
0.0
 10
24.01195461813653
 20
-1.579247033629272
 30
0.0
  0
SPLINE
  5
260
330
1F
100
AcDbEntity
  8
0
  6
Continuous
 62
     4
370
    25
100
AcDbSpline
210
0.0
220
0.0
230
1.0
 70
    24
 71
     3
 72
    14
 73
    10
 74
     0
 42
0.000000001
 43
0.00000001
 40
0.0
 40
0.0
 40
0.0
 40
0.0
 40
0.25
 40
0.25
 40
0.5
 40
0.5
 40
0.75
 40
0.75
 40
1.0
 40
1.0
 40
1.0
 40
1.0
 10
24.01195461813653
 20
0.2247554758747619
 30
0.0
 10
24.01195461813653
 20
0.0478379764646739
 30
0.0
 10
24.01195461813653
 20
-0.133603748130561
 30
0.0
 10
24.01195461813653
 20
-0.4885406909531653
 30
0.0
 10
24.01195461813653
 20
-0.6618479081743835
 30
0.0
 10
24.01195461813653
 20
-0.9824711655081977
 30
0.0
 10
24.01195461813653
 20
-1.129616364144596
 30
0.0
 10
24.01195461813653
 20
-1.384867563041759
 30
0.0
 10
24.01195461813653
 20
-1.492925576302518
 30
0.0
 10
24.01195461813653
 20
-1.579247033629272
 30
0.0
  0
LINE
  5
261
330
1F
100
AcDbEntity
  8
0
  6
Continuous
 62
     1
370
    25
100
AcDbLine
 10
30.01195461813653
 20
-1.895079370482122
 30
0.0
 11
30.01195461813653
 21
-1.897300810640363
 31
0.0
  0
SPLINE
  5
262
330
1F
100
AcDbEntity
  8
0
  6
Continuous
 62
     1
370
    25
100
AcDbSpline
210
0.0
220
0.0
230
1.0
 70
     8
 71
     3
 72
    11
 73
     7
 74
     0
 42
0.000000001
 43
0.00000001
 40
0.0
 40
0.0
 40
0.0
 40
0.0
 40
0.0176615486273814
 40
0.3446431944883593
 40
0.6720172203155219
 40
0.9534081110483894
 40
0.9534081110483894
 40
0.9534081110483894
 40
0.9534081110483894
 10
27.26896430801703
 20
1.343457532185088
 30
0.0
 10
27.28451894618108
 20
1.350725419941053
 30
0.0
 10
27.58804839872604
 20
1.492549226349276
 30
0.0
 10
28.17991056604576
 20
1.694973485143056
 30
0.0
 10
29.0042316342469
 20
1.914354098315024
 30
0.0
 10
29.54075546597952
 20
1.964641546350947
 30
0.0
 10
29.7887617280755
 20
1.985080521967505
 30
0.0
  0
SPLINE
  5
263
330
1F
100
AcDbEntity
  8
0
  6
Continuous
 62
     1
370
    25
100
AcDbSpline
210
0.0
220
0.0
230
1.0
 70
    24
 71
     3
 72
    10
 73
     6
 74
     0
 42
0.000000001
 43
0.00000001
 40
0.0
 40
0.0
 40
0.0
 40
0.0
 40
0.5
 40
0.5
 40
0.6142639662899393
 40
0.6142639662899393
 40
0.6142639662899393
 40
0.6142639662899393
 10
30.01195461813653
 20
1.400000000000002
 30
0.0
 10
30.01195461813653
 20
1.470887229722258
 30
0.0
 10
30.01195461813653
 20
1.551262239179053
 30
0.0
 10
30.01195461813653
 20
1.655641584587747
 30
0.0
 10
30.01195461813653
 20
1.675287464173907
 30
0.0
 10
30.01195461813652
 20
1.695079333063936
 30
0.0
  0
LINE
  5
264
330
1F
100
AcDbEntity
  8
중심선
100
AcDbLine
 10
-37.98804538186346
 20
-0.0000000000000036
 30
0.0
 11
33.01195461813653
 21
0.0000000000000036
 31
0.0
  0
CIRCLE
  5
265
330
1F
100
AcDbEntity
  8
외형선
100
AcDbCircle
 10
0.0
 20
0.0
 30
0.0
 40
3.000000000000005
  0
DIMENSION
  5
266
330
1F
100
AcDbEntity
  8
치수문자_일반주서
100
AcDbDimension
  2
*D15
 10
-46.48450340347554
 20
-3.000000000000048
 30
0.0
 11
-46.48450340347555
 21
-0.0000000000000036
 31
0.0
 70
   160
  1
%%c<>
 71
     2
 42
5.999999999999996
 52
-270.0
  3
SLDDIMSTYLE0
100
AcDbAlignedDimension
 13
-33.98804538186347
 23
2.999999999999996
 33
0.0
 14
-33.98804538186347
 24
-3.0
 34
0.0
 50
90.0000000000002
100
AcDbRotatedDimension
  0
DIMENSION
  5
267
330
1F
100
AcDbEntity
  8
치수문자_일반주서
100
AcDbDimension
  2
*D16
 10
24.01195461813653
 20
20.39999999999966
 30
0.0
 11
27.01195461813653
 21
20.39999999999966
 31
0.0
 70
   160
  1
<>
 71
     2
 42
6.0
  3
SLDDIMSTYLE0
100
AcDbAlignedDimension
 13
30.01195461813653
 23
1.899999999999999
 33
0.0
 14
24.01195461813653
 24
1.581514153956213
 34
0.0
100
AcDbRotatedDimension
  0
DIMENSION
  5
268
330
1F
100
AcDbEntity
  8
치수문자_일반주서
100
AcDbDimension
  2
*D17
 10
-34.98804538186347
 20
42.45832450504429
 30
0.0
 11
-2.488045381863472
 21
42.45832450504429
 31
0.0
 70
   160
  1
<>
 71
     2
 42
65.0
  3
SLDDIMSTYLE1
100
AcDbAlignedDimension
 13
30.01195461813653
 23
1.899999999999999
 33
0.0
 14
-34.98804538186347
 24
1.999999999999996
 34
0.0
100
AcDbRotatedDimension
  0
DIMENSION
  5
269
330
1F
100
AcDbEntity
  8
치수문자_일반주서
100
AcDbDimension
  2
*D18
 10
4.011954618136535
 20
30.31999999999866
 30
0.0
 11
17.01195461813653
 21
30.31999999999866
 31
0.0
 70
   160
  1
<>
 71
     2
 42
25.99999999999999
  3
SLDDIMSTYLE0
100
AcDbAlignedDimension
 13
30.01195461813653
 23
1.897300810639997
 33
0.0
 14
4.011954618136535
 24
1.925000000000001
 34
0.0
 50
-0.0000000000022354
100
AcDbRotatedDimension
  0
DIMENSION
  5
26A
330
1F
100
AcDbEntity
  8
치수문자_일반주서
100
AcDbDimension
  2
*D19
 10
49.48355887855307
 20
-1.995079370482053
 30
0.0
 11
49.48355887855301
 21
14.72407937048224
 31
0.0
 70
   160
  1
%%c<>
 71
     2
 42
3.99970742661727
 52
-270.0
  3
SLDDIMSTYLE0
100
AcDbAlignedDimension
 13
30.01195461813653
 23
2.004628056135143
 33
0.0
 14
29.91195461813653
 24
-1.995079370482127
 34
0.0
 50
90.0000000000002
100
AcDbRotatedDimension
  0
INSERT
  5
26B
330
1F
100
AcDbEntity
  8
외형선
100
AcDbBlockReference
  2
SW_DOWELSYMBOL_0
 10
0.0
 20
0.0
 30
0.0
  0
ARC
  5
2BB
330
1F
100
AcDbEntity
  8
0
  6
Continuous
 62
     1
370
    25
100
AcDbCircle
 10
29.71195461813653
 20
1.695079370482131
 30
0.0
 40
0.2999999999999999
100
AcDbArc
 50
359.9999928536513
 51
75.1657473669485
  0
SPLINE
  5
2BC
330
1F
100
AcDbEntity
  8
0
  6
Continuous
 62
     1
370
    25
100
AcDbSpline
210
0.0
220
0.0
230
1.0
 70
    24
 71
     3
 72
     8
 73
     4
 74
     0
 42
0.000000001
 43
0.00000001
 40
0.9957334716245283
 40
0.9957334716245283
 40
0.9957334716245283
 40
0.9957334716245283
 40
1.0
 40
1.0
 40
1.0
 40
1.0
 10
30.01195461813652
 20
1.895079370482128
 30
0.0
 10
30.01195461813652
 20
1.895820037031678
 30
0.0
 10
30.01195461813652
 20
1.89656051853302
 30
0.0
 10
30.01195461813653
 20
1.897300810639997
 30
0.0
  0
ARC
  5
2BD
102
{ACAD_REACTORS
102
}
330
1F
100
AcDbEntity
  8
0
  6
Continuous
 62
     1
370
    25
100
AcDbCircle
 10
29.71195461813653
 20
-1.695079370482124
 30
0.0
 40
0.2999999999999999
100
AcDbArc
 50
284.8342526330515
 51
0.0000071463487477
  0
DIMENSION
  5
2BE
102
{ACAD_REACTORS
102
}
102
{ACAD_XDICTIONARY
360
2BF
102
}
330
1F
100
AcDbEntity
  8
치수문자_일반주서
100
AcDbDimension
  2
*D21
 10
29.71195461813653
 20
-1.695079370482124
 30
0.0
 11
37.41018130088509
 21
-22.87552657312264
 31
0.0
 70
   164
  1
<>
 71
     5
 42
0.3
  3
SLDDIMSTYLE0
100
AcDbRadialDimension
 15
29.81443339746621
 25
-1.977033444379095
 35
0.0
 40
0.0
1001
ACAD_DSTYLE_DIMRADIAL_EXTENSION
1070
   387
1070
     1
1070
   388
1040
4.971295530904077
1070
   390
1040
0.0000001247273151
1001
ACAD
1000
DSTYLE
1002
{
1070
    78
1070
     8
1002
}
  0
ENDSEC
  0
SECTION
  2
OBJECTS
  0
DICTIONARY
  5
C
330
0
100
AcDbDictionary
281
     1
  3
ACAD_GROUP
350
D
  3
ACAD_IMAGE_VARS
350
13B
  3
ACAD_LAYOUT
350
1A
  3
ACAD_MLINESTYLE
350
17
  3
ACAD_PLOTSETTINGS
350
19
  3
ACAD_PLOTSTYLENAME
350
E
  3
ACAD_SCALELIST
350
47
  3
APPDATA
350
139
  3
DWGPROPS
350
2CB
  0
DICTIONARY
  5
2BF
330
2BE
100
AcDbDictionary
280
     1
281
     1
  0
DICTIONARY
  5
D
102
{ACAD_REACTORS
330
C
102
}
330
C
100
AcDbDictionary
281
     1
  0
RASTERVARIABLES
  5
13B
102
{ACAD_REACTORS
330
C
102
}
330
C
100
AcDbRasterVariables
 90
        0
 70
     1
 71
     1
 72
     1
  0
DICTIONARY
  5
1A
102
{ACAD_REACTORS
330
C
102
}
330
C
100
AcDbDictionary
281
     1
  3
Layout1
350
1E
  3
Layout2
350
26
  3
Model
350
22
  0
DICTIONARY
  5
17
102
{ACAD_REACTORS
330
C
102
}
330
C
100
AcDbDictionary
281
     1
  3
Standard
350
18
  0
DICTIONARY
  5
19
102
{ACAD_REACTORS
330
C
102
}
330
C
100
AcDbDictionary
281
     1
  0
ACDBDICTIONARYWDFLT
  5
E
102
{ACAD_REACTORS
330
C
102
}
330
C
100
AcDbDictionary
281
     1
  3
Normal
350
F
100
AcDbDictionaryWithDefault
340
F
  0
DICTIONARY
  5
47
102
{ACAD_REACTORS
330
C
102
}
330
C
100
AcDbDictionary
281
     1
  3
A0
350
48
  3
A1
350
49
  3
A2
350
4A
  3
A3
350
4B
  3
A4
350
4C
  3
A5
350
4D
  3
A6
350
4E
  3
A7
350
4F
  3
A8
350
50
  3
A9
350
51
  3
B0
350
52
  3
B1
350
53
  3
B2
350
54
  3
B3
350
55
  3
B4
350
56
  3
B5
350
57
  3
B6
350
58
  3
B7
350
59
  3
B8
350
5A
  3
B9
350
5B
  3
C0
350
5C
  3
C1
350
5D
  3
C2
350
5E
  3
C3
350
5F
  3
C4
350
60
  3
C5
350
61
  3
C6
350
62
  3
C7
350
63
  3
C8
350
64
  3
C9
350
65
  3
D0
350
66
  3
D1
350
67
  3
D2
350
68
  0
DICTIONARY
  5
139
102
{ACAD_REACTORS
330
C
102
}
330
C
100
AcDbDictionary
281
     1
  0
XRECORD
  5
2CB
102
{ACAD_REACTORS
330
C
102
}
330
C
100
AcDbXrecord
280
     1
  1
DWGPROPS COOKIE
  2

  3

  4

  6

  7

  8
12016016
  9

300
=
301
=
302
=
303
=
304
=
305
=
306
=
307
=
308
=
309
=
 40
0.0
 41
2458263.421986539
 42
2458268.452288079
  1

 90
        0
  0
LAYOUT
  5
1E
102
{ACAD_REACTORS
330
1A
102
}
330
1A
100
AcDbPlotSettings
  1

  2
none_device
  4

  6

 40
0.0
 41
0.0
 42
0.0
 43
0.0
 44
0.0
 45
0.0
 46
0.0
 47
0.0
 48
0.0
 49
0.0
140
0.0
141
0.0
142
1.0
143
1.0
 70
   688
 72
     1
 73
     0
 74
     5
  7

 75
    16
147
1.0
148
0.0
149
0.0
100
AcDbLayout
  1
Layout1
 70
     1
 71
     1
 10
0.0
 20
0.0
 11
420.0
 21
297.0
 12
0.0
 22
0.0
 32
0.0
 14
1.000000000000000E+20
 24
1.000000000000000E+20
 34
1.000000000000000E+20
 15
-1.000000000000000E+20
 25
-1.000000000000000E+20
 35
-1.000000000000000E+20
146
0.0
 13
0.0
 23
0.0
 33
0.0
 16
1.0
 26
0.0
 36
0.0
 17
0.0
 27
1.0
 37
0.0
 76
     0
330
1B
  0
LAYOUT
  5
26
102
{ACAD_REACTORS
330
1A
102
}
330
1A
100
AcDbPlotSettings
  1

  2
none_device
  4

  6

 40
0.0
 41
0.0
 42
0.0
 43
0.0
 44
0.0
 45
0.0
 46
0.0
 47
0.0
 48
0.0
 49
0.0
140
0.0
141
0.0
142
1.0
143
1.0
 70
   688
 72
     1
 73
     0
 74
     5
  7

 75
    16
147
1.0
148
0.0
149
0.0
100
AcDbLayout
  1
Layout2
 70
     1
 71
     2
 10
0.0
 20
0.0
 11
0.0
 21
0.0
 12
0.0
 22
0.0
 32
0.0
 14
0.0
 24
0.0
 34
0.0
 15
0.0
 25
0.0
 35
0.0
146
0.0
 13
0.0
 23
0.0
 33
0.0
 16
1.0
 26
0.0
 36
0.0
 17
0.0
 27
1.0
 37
0.0
 76
     0
330
23
  0
LAYOUT
  5
22
102
{ACAD_REACTORS
330
1A
102
}
330
1A
100
AcDbPlotSettings
  1

  2
none_device
  4
ANSI_A_(11.00_x_8.50_Inches)
  6

 40
6.35
 41
19.05
 42
6.35000508
 43
19.05000254
 44
279.4
 45
215.9
 46
106.5102246687523
 47
93.22319531143835
 48
0.0
 49
0.0
140
0.0
141
0.0
142
0.0863202334899497
143
1.0
 70
  1696
 72
     0
 73
     0
 74
     0
  7

 75
     0
147
0.0235690232323232
148
0.0
149
0.0
100
AcDbLayout
  1
Model
 70
     1
 71
     0
 10
0.0
 20
0.0
 11
420.0
 21
297.0
 12
0.0
 22
0.0
 32
0.0
 14
1.000000000000000E+20
 24
1.000000000000000E+20
 34
1.000000000000000E+20
 15
-1.000000000000000E+20
 25
-1.000000000000000E+20
 35
-1.000000000000000E+20
146
0.0
 13
0.0
 23
0.0
 33
0.0
 16
1.0
 26
0.0
 36
0.0
 17
0.0
 27
1.0
 37
0.0
 76
     0
330
1F
331
29
  0
MLINESTYLE
  5
18
102
{ACAD_REACTORS
330
17
102
}
330
17
100
AcDbMlineStyle
  2
Standard
 70
     0
  3

 62
   256
 51
90.0
 52
90.0
 71
     2
 49
0.5
 62
   256
  6
BYLAYER
 49
-0.5
 62
   256
  6
BYLAYER
  0
ACDBPLACEHOLDER
  5
F
102
{ACAD_REACTORS
330
E
102
}
330
E
  0
SCALE
  5
48
102
{ACAD_REACTORS
330
47
102
}
330
47
100
AcDbScale
 70
     0
300
1:1
140
1.0
141
1.0
290
     1
  0
SCALE
  5
49
102
{ACAD_REACTORS
330
47
102
}
330
47
100
AcDbScale
 70
     0
300
1:2
140
1.0
141
2.0
290
     0
  0
SCALE
  5
4A
102
{ACAD_REACTORS
330
47
102
}
330
47
100
AcDbScale
 70
     0
300
1:4
140
1.0
141
4.0
290
     0
  0
SCALE
  5
4B
102
{ACAD_REACTORS
330
47
102
}
330
47
100
AcDbScale
 70
     0
300
1:5
140
1.0
141
5.0
290
     0
  0
SCALE
  5
4C
102
{ACAD_REACTORS
330
47
102
}
330
47
100
AcDbScale
 70
     0
300
1:8
140
1.0
141
8.0
290
     0
  0
SCALE
  5
4D
102
{ACAD_REACTORS
330
47
102
}
330
47
100
AcDbScale
 70
     0
300
1:10
140
1.0
141
10.0
290
     0
  0
SCALE
  5
4E
102
{ACAD_REACTORS
330
47
102
}
330
47
100
AcDbScale
 70
     0
300
1:16
140
1.0
141
16.0
290
     0
  0
SCALE
  5
4F
102
{ACAD_REACTORS
330
47
102
}
330
47
100
AcDbScale
 70
     0
300
1:20
140
1.0
141
20.0
290
     0
  0
SCALE
  5
50
102
{ACAD_REACTORS
330
47
102
}
330
47
100
AcDbScale
 70
     0
300
1:30
140
1.0
141
30.0
290
     0
  0
SCALE
  5
51
102
{ACAD_REACTORS
330
47
102
}
330
47
100
AcDbScale
 70
     0
300
1:40
140
1.0
141
40.0
290
     0
  0
SCALE
  5
52
102
{ACAD_REACTORS
330
47
102
}
330
47
100
AcDbScale
 70
     0
300
1:50
140
1.0
141
50.0
290
     0
  0
SCALE
  5
53
102
{ACAD_REACTORS
330
47
102
}
330
47
100
AcDbScale
 70
     0
300
1:100
140
1.0
141
100.0
290
     0
  0
SCALE
  5
54
102
{ACAD_REACTORS
330
47
102
}
330
47
100
AcDbScale
 70
     0
300
2:1
140
2.0
141
1.0
290
     0
  0
SCALE
  5
55
102
{ACAD_REACTORS
330
47
102
}
330
47
100
AcDbScale
 70
     0
300
4:1
140
4.0
141
1.0
290
     0
  0
SCALE
  5
56
102
{ACAD_REACTORS
330
47
102
}
330
47
100
AcDbScale
 70
     0
300
8:1
140
8.0
141
1.0
290
     0
  0
SCALE
  5
57
102
{ACAD_REACTORS
330
47
102
}
330
47
100
AcDbScale
 70
     0
300
10:1
140
10.0
141
1.0
290
     0
  0
SCALE
  5
58
102
{ACAD_REACTORS
330
47
102
}
330
47
100
AcDbScale
 70
     0
300
100:1
140
100.0
141
1.0
290
     0
  0
SCALE
  5
59
102
{ACAD_REACTORS
330
47
102
}
330
47
100
AcDbScale
 70
     0
300
1/128" = 1'-0"
140
0.0078125
141
12.0
290
     0
  0
SCALE
  5
5A
102
{ACAD_REACTORS
330
47
102
}
330
47
100
AcDbScale
 70
     0
300
1/64" = 1'-0"
140
0.015625
141
12.0
290
     0
  0
SCALE
  5
5B
102
{ACAD_REACTORS
330
47
102
}
330
47
100
AcDbScale
 70
     0
300
1/32" = 1'-0"
140
0.03125
141
12.0
290
     0
  0
SCALE
  5
5C
102
{ACAD_REACTORS
330
47
102
}
330
47
100
AcDbScale
 70
     0
300
1/16" = 1'-0"
140
0.0625
141
12.0
290
     0
  0
SCALE
  5
5D
102
{ACAD_REACTORS
330
47
102
}
330
47
100
AcDbScale
 70
     0
300
3/32" = 1'-0"
140
0.09375
141
12.0
290
     0
  0
SCALE
  5
5E
102
{ACAD_REACTORS
330
47
102
}
330
47
100
AcDbScale
 70
     0
300
1/8" = 1'-0"
140
0.125
141
12.0
290
     0
  0
SCALE
  5
5F
102
{ACAD_REACTORS
330
47
102
}
330
47
100
AcDbScale
 70
     0
300
3/16" = 1'-0"
140
0.1875
141
12.0
290
     0
  0
SCALE
  5
60
102
{ACAD_REACTORS
330
47
102
}
330
47
100
AcDbScale
 70
     0
300
1/4" = 1'-0"
140
0.25
141
12.0
290
     0
  0
SCALE
  5
61
102
{ACAD_REACTORS
330
47
102
}
330
47
100
AcDbScale
 70
     0
300
3/8" = 1'-0"
140
0.375
141
12.0
290
     0
  0
SCALE
  5
62
102
{ACAD_REACTORS
330
47
102
}
330
47
100
AcDbScale
 70
     0
300
1/2" = 1'-0"
140
0.5
141
12.0
290
     0
  0
SCALE
  5
63
102
{ACAD_REACTORS
330
47
102
}
330
47
100
AcDbScale
 70
     0
300
3/4" = 1'-0"
140
0.75
141
12.0
290
     0
  0
SCALE
  5
64
102
{ACAD_REACTORS
330
47
102
}
330
47
100
AcDbScale
 70
     0
300
1" = 1'-0"
140
1.0
141
12.0
290
     0
  0
SCALE
  5
65
102
{ACAD_REACTORS
330
47
102
}
330
47
100
AcDbScale
 70
     0
300
1-1/2" = 1'-0"
140
1.5
141
12.0
290
     0
  0
SCALE
  5
66
102
{ACAD_REACTORS
330
47
102
}
330
47
100
AcDbScale
 70
     0
300
3" = 1'-0"
140
3.0
141
12.0
290
     0
  0
SCALE
  5
67
102
{ACAD_REACTORS
330
47
102
}
330
47
100
AcDbScale
 70
     0
300
6" = 1'-0"
140
6.0
141
12.0
290
     0
  0
SCALE
  5
68
102
{ACAD_REACTORS
330
47
102
}
330
47
100
AcDbScale
 70
     0
300
1'-0" = 1'-0"
140
12.0
141
12.0
290
     0
  0
ENDSEC
  0
EOF
