  0
SECTION
  2
HEADER
  9
$ACADVER
  1
AC1015
  9
$ACADMAINTVER
 70
     6
  9
$DWGCODEPAGE
  3
ANSI_949
  9
$INSBASE
 10
0.0
 20
0.0
 30
0.0
  9
$EXTMIN
 10
1.000000000000000E+20
 20
1.000000000000000E+20
 30
1.000000000000000E+20
  9
$EXTMAX
 10
-1.000000000000000E+20
 20
-1.000000000000000E+20
 30
-1.000000000000000E+20
  9
$LIMMIN
 10
0.0
 20
0.0
  9
$LIMMAX
 10
420.0
 20
297.0
  9
$ORTHOMODE
 70
     1
  9
$REGENMODE
 70
     1
  9
$FILLMODE
 70
     1
  9
$QTEXTMODE
 70
     0
  9
$MIRRTEXT
 70
     1
  9
$LTSCALE
 40
1.0
  9
$ATTMODE
 70
     1
  9
$TEXTSIZE
 40
3.5
  9
$TRACEWID
 40
1.0
  9
$TEXTSTYLE
  7
Standard
  9
$CLAYER
  8
0
  9
$CELTYPE
  6
ByLayer
  9
$CECOLOR
 62
   256
  9
$CELTSCALE
 40
1.0
  9
$DISPSILH
 70
     0
  9
$DIMSCALE
 40
1.0
  9
$DIMASZ
 40
3.302
  9
$DIMEXO
 40
1.0
  9
$DIMDLI
 40
3.75
  9
$DIMRND
 40
0.0
  9
$DIMDLE
 40
0.0
  9
$DIMEXE
 40
1.0
  9
$DIMTP
 40
0.0
  9
$DIMTM
 40
0.0
  9
$DIMTXT
 40
3.5
  9
$DIMCEN
 40
2.5
  9
$DIMTSZ
 40
0.0
  9
$DIMTOL
 70
     0
  9
$DIMLIM
 70
     0
  9
$DIMTIH
 70
     1
  9
$DIMTOH
 70
     1
  9
$DIMSE1
 70
     0
  9
$DIMSE2
 70
     0
  9
$DIMTAD
 70
     1
  9
$DIMZIN
 70
     0
  9
$DIMBLK
  1

  9
$DIMASO
 70
     1
  9
$DIMSHO
 70
     1
  9
$DIMPOST
  1

  9
$DIMAPOST
  1

  9
$DIMALT
 70
     0
  9
$DIMALTD
 70
     3
  9
$DIMALTF
 40
0.0393700787401575
  9
$DIMLFAC
 40
1.0
  9
$DIMTOFL
 70
     1
  9
$DIMTVP
 40
0.0
  9
$DIMTIX
 70
     0
  9
$DIMSOXD
 70
     0
  9
$DIMSAH
 70
     0
  9
$DIMBLK1
  1

  9
$DIMBLK2
  1

  9
$DIMSTYLE
  2
ISO-25
  9
$DIMCLRD
 70
     0
  9
$DIMCLRE
 70
     0
  9
$DIMCLRT
 70
     0
  9
$DIMTFAC
 40
1.0
  9
$DIMGAP
 40
1.524
  9
$DIMJUST
 70
     0
  9
$DIMSD1
 70
     0
  9
$DIMSD2
 70
     0
  9
$DIMTOLJ
 70
     0
  9
$DIMTZIN
 70
     0
  9
$DIMALTZ
 70
     0
  9
$DIMALTTZ
 70
     0
  9
$DIMUPT
 70
     0
  9
$DIMDEC
 70
     2
  9
$DIMTDEC
 70
     2
  9
$DIMALTU
 70
     2
  9
$DIMALTTD
 70
     3
  9
$DIMTXSTY
  7
Standard
  9
$DIMAUNIT
 70
     0
  9
$DIMADEC
 70
     2
  9
$DIMALTRND
 40
0.0
  9
$DIMAZIN
 70
     0
  9
$DIMDSEP
 70
    44
  9
$DIMATFIT
 70
     3
  9
$DIMFRAC
 70
     0
  9
$DIMLDRBLK
  1

  9
$DIMLUNIT
 70
     2
  9
$DIMLWD
 70
    -2
  9
$DIMLWE
 70
    -2
  9
$DIMTMOVE
 70
     0
  9
$LUNITS
 70
     2
  9
$LUPREC
 70
     2
  9
$SKETCHINC
 40
1.0
  9
$FILLETRAD
 40
10.0
  9
$AUNITS
 70
     0
  9
$AUPREC
 70
     2
  9
$MENU
  1
.
  9
$ELEVATION
 40
0.0
  9
$PELEVATION
 40
0.0
  9
$THICKNESS
 40
0.0
  9
$LIMCHECK
 70
     0
  9
$CHAMFERA
 40
0.0
  9
$CHAMFERB
 40
0.0
  9
$CHAMFERC
 40
0.0
  9
$CHAMFERD
 40
0.0
  9
$SKPOLY
 70
     0
  9
$TDCREATE
 40
2458263.79585228
  9
$TDUCREATE
 40
2458263.42085228
  9
$TDUPDATE
 40
2458264.803133646
  9
$TDUUPDATE
 40
2458264.428133646
  9
$TDINDWG
 40
0.0006701157
  9
$TDUSRTIMER
 40
2458264.427463796
  9
$USRTIMER
 70
     1
  9
$ANGBASE
 50
0.0
  9
$ANGDIR
 70
     0
  9
$PDMODE
 70
     0
  9
$PDSIZE
 40
-1.0
  9
$PLINEWID
 40
0.0
  9
$SPLFRAME
 70
     0
  9
$SPLINETYPE
 70
     6
  9
$SPLINESEGS
 70
     8
  9
$HANDSEED
  5
2D0
  9
$SURFTAB1
 70
     6
  9
$SURFTAB2
 70
     6
  9
$SURFTYPE
 70
     6
  9
$SURFU
 70
     6
  9
$SURFV
 70
     6
  9
$UCSBASE
  2

  9
$UCSNAME
  2

  9
$UCSORG
 10
0.0
 20
0.0
 30
0.0
  9
$UCSXDIR
 10
1.0
 20
0.0
 30
0.0
  9
$UCSYDIR
 10
0.0
 20
1.0
 30
0.0
  9
$UCSORTHOREF
  2

  9
$UCSORTHOVIEW
 70
     0
  9
$UCSORGTOP
 10
0.0
 20
0.0
 30
0.0
  9
$UCSORGBOTTOM
 10
0.0
 20
0.0
 30
0.0
  9
$UCSORGLEFT
 10
0.0
 20
0.0
 30
0.0
  9
$UCSORGRIGHT
 10
0.0
 20
0.0
 30
0.0
  9
$UCSORGFRONT
 10
0.0
 20
0.0
 30
0.0
  9
$UCSORGBACK
 10
0.0
 20
0.0
 30
0.0
  9
$PUCSBASE
  2

  9
$PUCSNAME
  2

  9
$PUCSORG
 10
0.0
 20
0.0
 30
0.0
  9
$PUCSXDIR
 10
1.0
 20
0.0
 30
0.0
  9
$PUCSYDIR
 10
0.0
 20
1.0
 30
0.0
  9
$PUCSORTHOREF
  2

  9
$PUCSORTHOVIEW
 70
     0
  9
$PUCSORGTOP
 10
0.0
 20
0.0
 30
0.0
  9
$PUCSORGBOTTOM
 10
0.0
 20
0.0
 30
0.0
  9
$PUCSORGLEFT
 10
0.0
 20
0.0
 30
0.0
  9
$PUCSORGRIGHT
 10
0.0
 20
0.0
 30
0.0
  9
$PUCSORGFRONT
 10
0.0
 20
0.0
 30
0.0
  9
$PUCSORGBACK
 10
0.0
 20
0.0
 30
0.0
  9
$USERI1
 70
     0
  9
$USERI2
 70
     0
  9
$USERI3
 70
     0
  9
$USERI4
 70
     0
  9
$USERI5
 70
     0
  9
$USERR1
 40
0.0
  9
$USERR2
 40
0.0
  9
$USERR3
 40
0.0
  9
$USERR4
 40
0.0
  9
$USERR5
 40
0.0
  9
$WORLDVIEW
 70
     1
  9
$SHADEDGE
 70
     3
  9
$SHADEDIF
 70
    70
  9
$TILEMODE
 70
     1
  9
$MAXACTVP
 70
    64
  9
$PINSBASE
 10
0.0
 20
0.0
 30
0.0
  9
$PLIMCHECK
 70
     0
  9
$PEXTMIN
 10
1.000000000000000E+20
 20
1.000000000000000E+20
 30
1.000000000000000E+20
  9
$PEXTMAX
 10
-1.000000000000000E+20
 20
-1.000000000000000E+20
 30
-1.000000000000000E+20
  9
$PLIMMIN
 10
0.0
 20
0.0
  9
$PLIMMAX
 10
0.0
 20
0.0
  9
$UNITMODE
 70
     0
  9
$VISRETAIN
 70
     1
  9
$PLINEGEN
 70
     0
  9
$PSLTSCALE
 70
     1
  9
$TREEDEPTH
 70
  3020
  9
$CMLSTYLE
  2
Standard
  9
$CMLJUST
 70
     0
  9
$CMLSCALE
 40
20.0
  9
$PROXYGRAPHICS
 70
     1
  9
$MEASUREMENT
 70
     1
  9
$CELWEIGHT
370
    -1
  9
$ENDCAPS
280
     0
  9
$JOINSTYLE
280
     0
  9
$LWDISPLAY
290
     1
  9
$INSUNITS
 70
     4
  9
$HYPERLINKBASE
  1

  9
$STYLESHEET
  1

  9
$XEDIT
290
     1
  9
$CEPSNTYPE
380
     0
  9
$PSTYLEMODE
290
     1
  9
$FINGERPRINTGUID
  2
{3FE47352-BF11-4DF6-B123-60C8FAF5F0D5}
  9
$VERSIONGUID
  2
{FAEB1C32-E019-11D5-929B-00C0DF256EC4}
  9
$EXTNAMES
290
     1
  9
$PSVPSCALE
 40
0.0
  9
$OLESTARTUP
290
     0
  0
ENDSEC
  0
SECTION
  2
CLASSES
  0
CLASS
  1
ACDBDICTIONARYWDFLT
  2
AcDbDictionaryWithDefault
  3
ObjectDBX Classes
 90
        0
280
     0
281
     0
  0
CLASS
  1
VISUALSTYLE
  2
AcDbVisualStyle
  3
ObjectDBX Classes
 90
     4095
280
     0
281
     0
  0
CLASS
  1
MATERIAL
  2
AcDbMaterial
  3
ObjectDBX Classes
 90
     1153
280
     0
281
     0
  0
CLASS
  1
SCALE
  2
AcDbScale
  3
ObjectDBX Classes
 90
     1153
280
     0
281
     0
  0
CLASS
  1
TABLESTYLE
  2
AcDbTableStyle
  3
ObjectDBX Classes
 90
     4095
280
     0
281
     0
  0
CLASS
  1
MLEADERSTYLE
  2
AcDbMLeaderStyle
  3
ACDB_MLEADERSTYLE_CLASS
 90
     4095
280
     0
281
     0
  0
CLASS
  1
SUN
  2
AcDbSun
  3
SCENEOE
 90
     1153
280
     0
281
     0
  0
CLASS
  1
ACDBPLACEHOLDER
  2
AcDbPlaceHolder
  3
ObjectDBX Classes
 90
        0
280
     0
281
     0
  0
CLASS
  1
LAYOUT
  2
AcDbLayout
  3
ObjectDBX Classes
 90
        0
280
     0
281
     0
  0
CLASS
  1
RASTERVARIABLES
  2
AcDbRasterVariables
  3
ISM
 90
        0
280
     0
281
     0
  0
CLASS
  1
DIMASSOC
  2
AcDbDimAssoc
  3
"AcDbDimAssoc|Product Desc:     AcDim ARX App For Dimension|Company:          Autodesk, Inc.|WEB Address:      www.autodesk.com"
 90
        0
280
     0
281
     0
  0
ENDSEC
  0
SECTION
  2
TABLES
  0
TABLE
  2
VPORT
  5
8
330
0
100
AcDbSymbolTable
 70
     1
  0
VPORT
  5
29
330
8
100
AcDbSymbolTableRecord
100
AcDbViewportTableRecord
  2
*Active
 70
     0
 10
0.0
 20
0.0
 11
1.0
 21
1.0
 12
62.18253284630563
 22
0.2197156734265047
 13
0.0
 23
0.0
 14
10.0
 24
10.0
 15
10.0
 25
10.0
 16
0.0
 26
0.0
 36
1.0
 17
0.0
 27
0.0
 37
0.0
 40
51.67963021493811
 41
1.730844793713163
 42
50.0
 43
0.0
 44
0.0
 50
0.0
 51
0.0
 71
    16
 72
  2000
 73
     1
 74
     3
 75
     0
 76
     0
 77
     0
 78
     0
281
     0
 65
     1
110
0.0
120
0.0
130
0.0
111
1.0
121
0.0
131
0.0
112
0.0
122
1.0
132
0.0
 79
     0
146
0.0
  0
ENDTAB
  0
TABLE
  2
LTYPE
  5
5
330
0
100
AcDbSymbolTable
 70
     6
  0
LTYPE
  5
14
330
5
100
AcDbSymbolTableRecord
100
AcDbLinetypeTableRecord
  2
ByBlock
 70
     0
  3

 72
    65
 73
     0
 40
0.0
  0
LTYPE
  5
15
330
5
100
AcDbSymbolTableRecord
100
AcDbLinetypeTableRecord
  2
ByLayer
 70
     0
  3

 72
    65
 73
     0
 40
0.0
  0
LTYPE
  5
16
330
5
100
AcDbSymbolTableRecord
100
AcDbLinetypeTableRecord
  2
Continuous
 70
     0
  3
Solid line
 72
    65
 73
     0
 40
0.0
  0
LTYPE
  5
6E
330
5
100
AcDbSymbolTableRecord
100
AcDbLinetypeTableRecord
  2
HIDDEN
 70
     0
  3
Hidden __ __ __ __ __ __ __ __ __ __ __ __ __ __
 72
    65
 73
     2
 40
1.905
 49
1.27
 74
     0
 49
-0.635
 74
     0
  0
LTYPE
  5
6F
330
5
100
AcDbSymbolTableRecord
100
AcDbLinetypeTableRecord
  2
PHANTOM
 70
     0
  3
Phantom ______  __  __  ______  __  __  ______
 72
    65
 73
     6
 40
12.7
 49
6.35
 74
     0
 49
-1.27
 74
     0
 49
1.27
 74
     0
 49
-1.27
 74
     0
 49
1.27
 74
     0
 49
-1.27
 74
     0
  0
LTYPE
  5
70
330
5
100
AcDbSymbolTableRecord
100
AcDbLinetypeTableRecord
  2
CENTER
 70
     0
  3
Center ____ _ ____ _ ____ _ ____ _ ____ _ ____
 72
    65
 73
     4
 40
10.16
 49
6.35
 74
     0
 49
-1.27
 74
     0
 49
1.27
 74
     0
 49
-1.27
 74
     0
  0
LTYPE
  5
71
330
5
100
AcDbSymbolTableRecord
100
AcDbLinetypeTableRecord
  2
CENTERX2
 70
     0
  3
Center (2x) ________  __  ________  __  _____
 72
    65
 73
     4
 40
20.32
 49
12.7
 74
     0
 49
-2.54
 74
     0
 49
2.54
 74
     0
 49
-2.54
 74
     0
  0
LTYPE
  5
72
330
5
100
AcDbSymbolTableRecord
100
AcDbLinetypeTableRecord
  2
DOT2
 70
     0
  3
Dot (.5x) ........................................
 72
    65
 73
     2
 40
0.635
 49
0.0
 74
     0
 49
-0.635
 74
     0
  0
ENDTAB
  0
TABLE
  2
LAYER
  5
2
330
0
100
AcDbSymbolTable
 70
    17
  0
LAYER
  5
10
330
2
100
AcDbSymbolTableRecord
100
AcDbLayerTableRecord
  2
0
 70
     0
 62
     7
  6
Continuous
370
    -3
390
F
  0
LAYER
  5
73
330
2
100
AcDbSymbolTableRecord
100
AcDbLayerTableRecord
  2
FORMAT
 70
     0
 62
     2
  6
Continuous
370
    -3
390
F
  0
LAYER
  5
74
330
2
100
AcDbSymbolTableRecord
100
AcDbLayerTableRecord
  2
외형선
 70
     0
 62
   100
  6
Continuous
370
    35
390
F
  0
LAYER
  5
75
330
2
100
AcDbSymbolTableRecord
100
AcDbLayerTableRecord
  2
숨은선
 70
     0
 62
     2
  6
HIDDEN
370
    25
390
F
  0
LAYER
  5
76
330
2
100
AcDbSymbolTableRecord
100
AcDbLayerTableRecord
  2
중심선
 70
     0
 62
     1
  6
CENTERX2
370
    -3
390
F
  0
LAYER
  5
77
330
2
100
AcDbSymbolTableRecord
100
AcDbLayerTableRecord
  2
파단선
 70
     0
 62
     4
  6
Continuous
370
    -3
390
F
  0
LAYER
  5
78
330
2
100
AcDbSymbolTableRecord
100
AcDbLayerTableRecord
  2
해칭선
 70
     0
 62
     4
  6
Continuous
370
    -3
390
F
  0
LAYER
  5
79
330
2
100
AcDbSymbolTableRecord
100
AcDbLayerTableRecord
  2
가는실선
 70
     0
 62
     4
  6
Continuous
370
    -3
390
F
  0
LAYER
  5
7A
330
2
100
AcDbSymbolTableRecord
100
AcDbLayerTableRecord
  2
치수_보조선
 70
     0
 62
     4
  6
Continuous
370
    -3
390
F
  0
LAYER
  5
7B
330
2
100
AcDbSymbolTableRecord
100
AcDbLayerTableRecord
  2
치수문자_일반주서
 70
     0
 62
     7
  6
Continuous
370
    25
390
F
  0
LAYER
  5
7C
330
2
100
AcDbSymbolTableRecord
100
AcDbLayerTableRecord
  2
개별주서
 70
     0
 62
   100
  6
Continuous
370
    35
390
F
  0
LAYER
  5
7D
330
2
100
AcDbSymbolTableRecord
100
AcDbLayerTableRecord
  2
중간선
 70
     0
 62
     2
  6
Continuous
370
    25
390
F
  0
LAYER
  5
7E
330
2
100
AcDbSymbolTableRecord
100
AcDbLayerTableRecord
  2
윤곽선
 70
     0
 62
     3
  6
Continuous
370
    50
390
F
  0
LAYER
  5
7F
330
2
100
AcDbSymbolTableRecord
100
AcDbLayerTableRecord
  2
중심마크
 70
     0
 62
   100
  6
Continuous
370
    35
390
F
  0
LAYER
  5
80
330
2
100
AcDbSymbolTableRecord
100
AcDbLayerTableRecord
  2
가상선
 70
     0
 62
     4
  6
PHANTOM
370
    -3
390
F
  0
LAYER
  5
81
330
2
100
AcDbSymbolTableRecord
100
AcDbLayerTableRecord
  2
특수지정선
 70
     0
 62
     5
  6
CENTERX2
370
    70
390
F
  0
LAYER
  5
13E
330
2
100
AcDbSymbolTableRecord
100
AcDbLayerTableRecord
  2
Defpoints
 70
     0
 62
     7
  6
Continuous
290
     0
370
    -3
390
F
  0
ENDTAB
  0
TABLE
  2
STYLE
  5
3
330
0
100
AcDbSymbolTable
 70
     2
  0
STYLE
  5
11
330
3
100
AcDbSymbolTableRecord
100
AcDbTextStyleTableRecord
  2
Standard
 70
     0
 40
0.0
 41
1.0
 50
0.0
 71
     0
 42
3.5
  3
txt
  4

  0
STYLE
  5
97
330
3
100
AcDbSymbolTableRecord
100
AcDbTextStyleTableRecord
  2
SLDTEXTSTYLE0
 70
     0
 40
0.0
 41
0.75
 50
0.0
 71
     0
 42
3.5
  3
TXT
  4

  0
ENDTAB
  0
TABLE
  2
VIEW
  5
6
330
0
100
AcDbSymbolTable
 70
     0
  0
ENDTAB
  0
TABLE
  2
UCS
  5
7
330
0
100
AcDbSymbolTable
 70
     0
  0
ENDTAB
  0
TABLE
  2
APPID
  5
9
330
0
100
AcDbSymbolTable
 70
     2
  0
APPID
  5
12
330
9
100
AcDbSymbolTableRecord
100
AcDbRegAppTableRecord
  2
ACAD
 70
     0
  0
APPID
  5
149
330
9
100
AcDbSymbolTableRecord
100
AcDbRegAppTableRecord
  2
ACAD_DSTYLE_DIMRADIAL_EXTENSION
 70
     0
  0
ENDTAB
  0
TABLE
  2
DIMSTYLE
  5
A
330
0
100
AcDbSymbolTable
 70
     3
100
AcDbDimStyleTable
  0
DIMSTYLE
105
27
330
A
100
AcDbSymbolTableRecord
100
AcDbDimStyleTableRecord
  2
ISO-25
 70
     0
 41
2.5
 42
0.625
 43
3.75
 44
1.25
 73
     0
 74
     0
 77
     1
 78
     8
140
2.5
141
2.5
143
0.03937007874016
147
0.625
171
     3
172
     1
178
     0
271
     2
272
     2
274
     3
278
    44
283
     0
284
     8
340
11
  0
DIMSTYLE
105
D5
102
{ACAD_REACTORS
330
199
330
1A6
330
1C0
330
1CD
330
1E8
330
267
330
268
330
26A
330
26B
330
2C2
102
}
330
A
100
AcDbSymbolTableRecord
100
AcDbDimStyleTableRecord
  2
SLDDIMSTYLE0
 70
     0
 41
3.302
 44
0.0
 45
0.000000001
 73
     0
 74
     0
 77
     1
 78
    12
 79
     3
140
3.5
147
0.875
172
     1
173
     1
178
     0
271
     2
272
     2
276
     2
284
    12
289
     0
340
97
  0
DIMSTYLE
105
EF
102
{ACAD_REACTORS
330
1B3
330
269
102
}
330
A
100
AcDbSymbolTableRecord
100
AcDbDimStyleTableRecord
  2
SLDDIMSTYLE1
 70
     0
 41
3.302
 44
0.0
 45
0.000000001
 73
     0
 74
     0
 77
     1
 78
    12
 79
     3
140
3.5
147
0.875
173
     1
178
     0
271
     2
272
     2
276
     2
284
    12
340
97
  0
ENDTAB
  0
TABLE
  2
BLOCK_RECORD
  5
1
330
0
100
AcDbSymbolTable
 70
    22
  0
BLOCK_RECORD
  5
1F
330
1
100
AcDbSymbolTableRecord
100
AcDbBlockTableRecord
  2
*Model_Space
340
22
  0
BLOCK_RECORD
  5
1B
330
1
100
AcDbSymbolTableRecord
100
AcDbBlockTableRecord
  2
*Paper_Space
340
1E
  0
BLOCK_RECORD
  5
23
330
1
100
AcDbSymbolTableRecord
100
AcDbBlockTableRecord
  2
*Paper_Space0
340
26
  0
BLOCK_RECORD
  5
82
330
1
100
AcDbSymbolTableRecord
100
AcDbBlockTableRecord
  2
블럭10
340
0
102
{BLKREFS
331
CD
102
}
  0
BLOCK_RECORD
  5
D6
330
1
100
AcDbSymbolTableRecord
100
AcDbBlockTableRecord
  2
_D
340
0
  0
BLOCK_RECORD
  5
E3
330
1
100
AcDbSymbolTableRecord
100
AcDbBlockTableRecord
  2
_D_1
340
0
  0
BLOCK_RECORD
  5
F0
330
1
100
AcDbSymbolTableRecord
100
AcDbBlockTableRecord
  2
_D_2
340
0
  0
BLOCK_RECORD
  5
FA
330
1
100
AcDbSymbolTableRecord
100
AcDbBlockTableRecord
  2
_D_3
340
0
  0
BLOCK_RECORD
  5
106
330
1
100
AcDbSymbolTableRecord
100
AcDbBlockTableRecord
  2
_D_4
340
0
  0
BLOCK_RECORD
  5
112
330
1
100
AcDbSymbolTableRecord
100
AcDbBlockTableRecord
  2
SW_DOWELSYMBOL_0
340
0
102
{BLKREFS
331
0
331
1DD
331
26C
102
}
  0
BLOCK_RECORD
  5
1EB
330
1
100
AcDbSymbolTableRecord
100
AcDbBlockTableRecord
  2
*D9
340
0
  0
BLOCK_RECORD
  5
1F6
330
1
100
AcDbSymbolTableRecord
100
AcDbBlockTableRecord
  2
*D10
340
0
  0
BLOCK_RECORD
  5
202
330
1
100
AcDbSymbolTableRecord
100
AcDbBlockTableRecord
  2
*D11
340
0
  0
BLOCK_RECORD
  5
20E
330
1
100
AcDbSymbolTableRecord
100
AcDbBlockTableRecord
  2
*D12
340
0
  0
BLOCK_RECORD
  5
21A
330
1
100
AcDbSymbolTableRecord
100
AcDbBlockTableRecord
  2
*D13
340
0
  0
BLOCK_RECORD
  5
226
330
1
100
AcDbSymbolTableRecord
100
AcDbBlockTableRecord
  2
*D14
340
0
  0
BLOCK_RECORD
  5
274
330
1
100
AcDbSymbolTableRecord
100
AcDbBlockTableRecord
  2
*D15
340
0
  0
BLOCK_RECORD
  5
280
330
1
100
AcDbSymbolTableRecord
100
AcDbBlockTableRecord
  2
*D16
340
0
  0
BLOCK_RECORD
  5
28C
330
1
100
AcDbSymbolTableRecord
100
AcDbBlockTableRecord
  2
*D17
340
0
  0
BLOCK_RECORD
  5
298
330
1
100
AcDbSymbolTableRecord
100
AcDbBlockTableRecord
  2
*D18
340
0
  0
BLOCK_RECORD
  5
2A4
330
1
100
AcDbSymbolTableRecord
100
AcDbBlockTableRecord
  2
*D19
340
0
  0
BLOCK_RECORD
  5
2B3
330
1
100
AcDbSymbolTableRecord
100
AcDbBlockTableRecord
  2
*D20
340
0
  0
BLOCK_RECORD
  5
2C5
330
1
100
AcDbSymbolTableRecord
100
AcDbBlockTableRecord
  2
*D21
340
0
  0
ENDTAB
  0
ENDSEC
  0
SECTION
  2
BLOCKS
  0
BLOCK
  5
20
330
1F
100
AcDbEntity
  8
0
100
AcDbBlockBegin
  2
*Model_Space
 70
     0
 10
0.0
 20
0.0
 30
0.0
  3
*Model_Space
  1
*Model_Space
  0
ENDBLK
  5
21
330
1F
100
AcDbEntity
  8
0
100
AcDbBlockEnd
  0
BLOCK
  5
1C
330
1B
100
AcDbEntity
 67
     1
  8
0
100
AcDbBlockBegin
  2
*Paper_Space
 70
     0
 10
0.0
 20
0.0
 30
0.0
  3
*Paper_Space
  1
*Paper_Space
  0
ENDBLK
  5
1D
330
1B
100
AcDbEntity
 67
     1
  8
0
100
AcDbBlockEnd
  0
BLOCK
  5
24
330
23
100
AcDbEntity
  8
0
100
AcDbBlockBegin
  2
*Paper_Space0
 70
     0
 10
0.0
 20
0.0
 30
0.0
  3
*Paper_Space0
  1
*Paper_Space0
  0
ENDBLK
  5
25
330
23
100
AcDbEntity
  8
0
100
AcDbBlockEnd
  0
BLOCK
  5
83
330
82
100
AcDbEntity
  8
0
100
AcDbBlockBegin
  2
블럭10
 70
     2
 10
0.0
 20
0.0
 30
0.0
  3
블럭10
  1
블럭10
  0
ELLIPSE
  5
85
330
82
100
AcDbEntity
  8
중심선
100
AcDbEllipse
 10
20.54032771741204
 20
12.0471743016438
 30
0.0
 11
6.600054785286829
 21
-1.261213355974178E-13
 31
0.0
210
0.0
220
0.0
230
1.0
 40
0.636358354079598
 41
0.9219305317359503
 42
6.513795318482858
  0
ELLIPSE
  5
86
330
82
100
AcDbEntity
  8
중심선
100
AcDbEllipse
 10
20.54032771746488
 20
12.04717430159265
 30
0.0
 11
3.960054785062283
 21
1.540847449632565E-10
 31
0.0
210
0.0
220
0.0
230
1.0
 40
0.3939339440162632
 41
1.131841032648279
 42
5.62031148352944
  0
LINE
  5
87
330
82
100
AcDbEntity
  8
중심선
100
AcDbLine
 10
2.268634060543552
 20
16.24717430164393
 30
0.0
 11
5.714909304380834
 21
16.24717430164393
 31
0.0
  0
LINE
  5
88
330
82
100
AcDbEntity
  8
중심선
100
AcDbLine
 10
5.245725140726316
 20
7.84717430164391
 30
0.0
 11
8.692000384563599
 21
7.84717430164391
 31
0.0
  0
LINE
  5
89
330
82
100
AcDbEntity
  8
중심선
100
AcDbLine
 10
15.74043728645272
 20
16.24717430164393
 30
0.0
 11
8.692000384563599
 21
7.84717430164391
 31
0.0
  0
LINE
  5
8A
330
82
100
AcDbEntity
  8
중심선
100
AcDbLine
 10
0.1404042013395286
 20
13.71084872107135
 30
0.0
 11
3.58671253028996
 21
13.71088815037384
 31
0.0
  0
LINE
  5
8B
330
82
100
AcDbEntity
  8
중심선
100
AcDbLine
 10
2.750260043222114
 20
10.84717430164391
 30
0.0
 11
6.196535287059397
 21
10.84717430164391
 31
0.0
  0
LINE
  5
8C
330
82
100
AcDbEntity
  8
중심선
100
AcDbLine
 10
12.29416204261559
 20
16.24717430164393
 30
0.0
 11
5.245725140726316
 21
7.84717430164391
 31
0.0
  0
LINE
  5
8D
330
82
100
AcDbEntity
  8
중심선
100
AcDbLine
 10
10.72767329541681
 20
16.24717430164393
 30
0.0
 11
6.196535287059397
 21
10.84717430164391
 31
0.0
  0
LINE
  5
8E
330
82
100
AcDbEntity
  8
중심선
100
AcDbLine
 10
7.28139805157953
 20
16.24717430164393
 30
0.0
 11
2.750260043222114
 21
10.84717430164391
 31
0.0
  0
LINE
  5
8F
330
82
100
AcDbEntity
  8
중심선
100
AcDbLine
 10
5.714909304380834
 20
16.24717430164393
 30
0.0
 11
3.58671253028996
 21
13.71088815037384
 31
0.0
  0
LINE
  5
90
330
82
100
AcDbEntity
  8
중심선
100
AcDbLine
 10
2.268634060543552
 20
16.24717430164393
 30
0.0
 11
0.1404042013395286
 21
13.71084872107135
 31
0.0
  0
LINE
  5
91
330
82
100
AcDbEntity
  8
중심선
100
AcDbLine
 10
7.28139805157953
 20
16.24717430164393
 30
0.0
 11
10.72767329541681
 21
16.24717430164393
 31
0.0
  0
LINE
  5
92
330
82
100
AcDbEntity
  8
중심선
100
AcDbLine
 10
12.29416204261559
 20
16.24717430164393
 30
0.0
 11
15.74043728645272
 21
16.24717430164393
 31
0.0
  0
LINE
  5
93
330
82
100
AcDbEntity
  8
중심선
100
AcDbLine
 10
19.22036997980202
 20
11.08717430171403
 30
0.0
 11
23.66174974927406
 21
11.08717430171406
 31
0.0
  0
LINE
  5
94
330
82
100
AcDbEntity
  8
중심선
100
AcDbLine
 10
19.22039502424796
 20
13.00717430171391
 30
0.0
 11
19.22036997980202
 21
11.08717430171403
 31
0.0
  0
LINE
  5
95
330
82
100
AcDbEntity
  8
중심선
100
AcDbLine
 10
19.22039502424796
 20
13.00717430171391
 30
0.0
 11
26.96566020931264
 21
13.00717430171391
 31
0.0
  0
LINE
  5
96
330
82
100
AcDbEntity
  8
중심선
100
AcDbLine
 10
22.22332737316547
 20
13.45928029700563
 30
0.0
 11
24.52862924686651
 21
15.39360700705356
 31
0.0
  0
ATTDEF
  5
98
330
82
100
AcDbEntity
  8
FORMAT
 62
     2
100
AcDbText
 10
-19.27858288401334
 20
2.075366912832191
 30
0.0
 40
4.233333333333333
  1
SEME610400250E [ 2 FLUTE ]
 41
0.75
  7
SLDTEXTSTYLE0
 11
-19.27858288401334
 21
-0.0412997538344756
 31
0.0
100
AcDbAttributeDefinition
  3

  2
AUTOATTR0
 70
     0
 74
     1
  0
ENDBLK
  5
84
330
82
100
AcDbEntity
  8
0
100
AcDbBlockEnd
  0
BLOCK
  5
D7
330
D6
100
AcDbEntity
  8
0
100
AcDbBlockBegin
  2
_D
 70
     0
 10
0.0
 20
0.0
 30
0.0
  3
_D
  1
_D
  0
SOLID
  5
D9
330
D6
100
AcDbEntity
  8
치수문자_일반주서
100
AcDbTrace
 10
-51.00250885508846
 20
3.001074928723888
 30
0.0
 11
-50.49450885508845
 21
6.303074928723888
 31
0.0
 12
-51.51050885508846
 22
6.303074928723888
 32
0.0
 13
-51.51050885508846
 23
6.303074928723888
 33
0.0
  0
SOLID
  5
DA
330
D6
100
AcDbEntity
  8
치수문자_일반주서
100
AcDbTrace
 10
-51.00250885508846
 20
-2.998925071276107
 30
0.0
 11
-51.51050885508846
 21
-6.300925071276106
 31
0.0
 12
-50.49450885508845
 22
-6.300925071276106
 32
0.0
 13
-50.49450885508845
 23
-6.300925071276106
 33
0.0
  0
LINE
  5
DB
330
D6
100
AcDbEntity
  8
치수문자_일반주서
100
AcDbLine
 10
-39.50605083347639
 20
3.001074928723888
 30
0.0
 11
-52.00250885508846
 21
3.001074928723888
 31
0.0
  0
LINE
  5
DC
330
D6
100
AcDbEntity
  8
치수문자_일반주서
100
AcDbLine
 10
-39.50605083347639
 20
-2.998925071276107
 30
0.0
 11
-52.00250885508846
 21
-2.998925071276107
 31
0.0
  0
LINE
  5
DD
330
D6
100
AcDbEntity
  8
치수문자_일반주서
100
AcDbLine
 10
-51.00250885508846
 20
3.001074928723888
 30
0.0
 11
-51.00250885508846
 21
9.351074928723888
 31
0.0
  0
LINE
  5
DE
330
D6
100
AcDbEntity
  8
치수문자_일반주서
100
AcDbLine
 10
-51.00250885508846
 20
3.001074928723888
 30
0.0
 11
-51.00250885508846
 21
-2.998925071276107
 31
0.0
  0
LINE
  5
DF
330
D6
100
AcDbEntity
  8
치수문자_일반주서
100
AcDbLine
 10
-51.00250885508846
 20
-2.998925071276107
 30
0.0
 11
-51.00250885508846
 21
-9.348925071276106
 31
0.0
  0
MTEXT
  5
E0
330
D6
100
AcDbEntity
  8
치수문자_일반주서
100
AcDbMText
 10
-55.51424594429031
 20
-3.931199483639951
 30
0.0
 40
3.5
 41
0.0
 71
     1
 72
     1
  1
%%c
  7
SLDTEXTSTYLE0
 11
-7.044195017643634E-15
 21
1.0
 31
0.0
 73
     1
 44
1.0
  0
MTEXT
  5
E1
330
D6
100
AcDbEntity
  8
치수문자_일반주서
100
AcDbMText
 10
-55.5677181209502
 20
1.34723791473413
 30
0.0
 40
3.5
 41
0.0
 71
     1
 72
     1
  1
6
  7
SLDTEXTSTYLE0
 11
-7.044195017643634E-15
 21
1.0
 31
0.0
 73
     1
 44
1.0
  0
ENDBLK
  5
D8
330
D6
100
AcDbEntity
  8
0
100
AcDbBlockEnd
  0
BLOCK
  5
E4
330
E3
100
AcDbEntity
  8
0
100
AcDbBlockBegin
  2
_D_1
 70
     0
 10
0.0
 20
0.0
 30
0.0
  3
_D_1
  1
_D_1
  0
SOLID
  5
E6
330
E3
100
AcDbEntity
  8
치수문자_일반주서
100
AcDbTrace
 10
60.49394916652362
 20
20.30107492872356
 30
0.0
 11
63.79594916652362
 21
19.79307492872356
 31
0.0
 12
63.79594916652362
 22
20.80907492872356
 32
0.0
 13
63.79594916652362
 23
20.80907492872356
 33
0.0
  0
SOLID
  5
E7
330
E3
100
AcDbEntity
  8
치수문자_일반주서
100
AcDbTrace
 10
54.49394916652361
 20
20.30107492872356
 30
0.0
 11
51.19194916652361
 21
20.80907492872356
 31
0.0
 12
51.19194916652361
 22
19.79307492872356
 32
0.0
 13
51.19194916652361
 23
19.79307492872356
 33
0.0
  0
LINE
  5
E8
330
E3
100
AcDbEntity
  8
치수문자_일반주서
100
AcDbLine
 10
60.49394916652362
 20
2.801074928723895
 30
0.0
 11
60.49394916652362
 21
21.30107492872356
 31
0.0
  0
LINE
  5
E9
330
E3
100
AcDbEntity
  8
치수문자_일반주서
100
AcDbLine
 10
54.49394916652361
 20
2.58258908268011
 30
0.0
 11
54.49394916652361
 21
21.30107492872356
 31
0.0
  0
LINE
  5
EA
330
E3
100
AcDbEntity
  8
치수문자_일반주서
100
AcDbLine
 10
60.49394916652362
 20
20.30107492872356
 30
0.0
 11
68.34975570836899
 21
20.30107492872356
 31
0.0
  0
LINE
  5
EB
330
E3
100
AcDbEntity
  8
치수문자_일반주서
100
AcDbLine
 10
60.49394916652362
 20
20.30107492872356
 30
0.0
 11
54.49394916652361
 21
20.30107492872356
 31
0.0
  0
LINE
  5
EC
330
E3
100
AcDbEntity
  8
치수문자_일반주서
100
AcDbLine
 10
54.49394916652361
 20
20.30107492872356
 30
0.0
 11
48.14394916652361
 21
20.30107492872356
 31
0.0
  0
MTEXT
  5
ED
330
E3
100
AcDbEntity
  8
치수문자_일반주서
100
AcDbMText
 10
65.76364451484618
 20
24.81281184330245
 30
0.0
 40
3.5
 41
0.0
 71
     1
 72
     1
  1
6
  7
SLDTEXTSTYLE0
 73
     1
 44
1.0
  0
ENDBLK
  5
E5
330
E3
100
AcDbEntity
  8
0
100
AcDbBlockEnd
  0
BLOCK
  5
F1
330
F0
100
AcDbEntity
  8
0
100
AcDbBlockBegin
  2
_D_2
 70
     0
 10
0.0
 20
0.0
 30
0.0
  3
_D_2
  1
_D_2
  0
SOLID
  5
F3
330
F0
100
AcDbEntity
  8
치수문자_일반주서
100
AcDbTrace
 10
60.49394916652362
 20
42.3593994337682
 30
0.0
 11
57.19194916652362
 21
42.8673994337682
 31
0.0
 12
57.19194916652362
 22
41.85139943376819
 32
0.0
 13
57.19194916652362
 23
41.85139943376819
 33
0.0
  0
SOLID
  5
F4
330
F0
100
AcDbEntity
  8
치수문자_일반주서
100
AcDbTrace
 10
-39.50605083347639
 20
42.3593994337682
 30
0.0
 11
-36.20405083347639
 21
41.85139943376819
 31
0.0
 12
-36.20405083347639
 22
42.8673994337682
 32
0.0
 13
-36.20405083347639
 23
42.8673994337682
 33
0.0
  0
LINE
  5
F5
330
F0
100
AcDbEntity
  8
치수문자_일반주서
100
AcDbLine
 10
60.49394916652362
 20
2.801074928723895
 30
0.0
 11
60.49394916652362
 21
43.3593994337682
 31
0.0
  0
LINE
  5
F6
330
F0
100
AcDbEntity
  8
치수문자_일반주서
100
AcDbLine
 10
-39.50605083347639
 20
3.001074928723888
 30
0.0
 11
-39.50605083347639
 21
43.3593994337682
 31
0.0
  0
LINE
  5
F7
330
F0
100
AcDbEntity
  8
치수문자_일반주서
100
AcDbLine
 10
60.49394916652362
 20
42.3593994337682
 30
0.0
 11
-39.50605083347639
 21
42.3593994337682
 31
0.0
  0
MTEXT
  5
F8
330
F0
100
AcDbEntity
  8
치수문자_일반주서
100
AcDbMText
 10
6.614782492654707
 20
46.87113634834708
 30
0.0
 40
3.5
 41
0.0
 71
     1
 72
     1
  1
100
  7
SLDTEXTSTYLE0
 73
     1
 44
1.0
  0
ENDBLK
  5
F2
330
F0
100
AcDbEntity
  8
0
100
AcDbBlockEnd
  0
BLOCK
  5
FB
330
FA
100
AcDbEntity
  8
0
100
AcDbBlockBegin
  2
_D_3
 70
     0
 10
0.0
 20
0.0
 30
0.0
  3
_D_3
  1
_D_3
  0
SOLID
  5
FD
330
FA
100
AcDbEntity
  8
치수문자_일반주서
100
AcDbTrace
 10
14.49394916652476
 20
30.32107492872395
 30
0.0
 11
17.79594916652475
 21
29.81307492872382
 31
0.0
 12
17.79594916652478
 22
30.82907492872382
 32
0.0
 13
17.79594916652478
 23
30.82907492872382
 33
0.0
  0
SOLID
  5
FE
330
FA
100
AcDbEntity
  8
치수문자_일반주서
100
AcDbTrace
 10
10.2140453559571
 20
30.32107492872411
 30
0.0
 11
6.912045355957115
 21
30.82907492872424
 31
0.0
 12
6.912045355957076
 22
29.81307492872424
 32
0.0
 13
6.912045355957076
 23
29.81307492872424
 33
0.0
  0
LINE
  5
FF
330
FA
100
AcDbEntity
  8
치수문자_일반주서
100
AcDbLine
 10
14.49394916652365
 20
1.401074928723893
 30
0.0
 11
14.4939491665248
 21
31.32107492872394
 31
0.0
  0
LINE
  5
100
330
FA
100
AcDbEntity
  8
치수문자_일반주서
100
AcDbLine
 10
10.21404535595599
 20
1.551074928723894
 30
0.0
 11
10.21404535595713
 21
31.32107492872411
 31
0.0
  0
LINE
  5
101
330
FA
100
AcDbEntity
  8
치수문자_일반주서
100
AcDbLine
 10
14.49394916652476
 20
30.32107492872395
 30
0.0
 11
55.42440269528608
 21
30.32107492872239
 31
0.0
  0
LINE
  5
102
330
FA
100
AcDbEntity
  8
치수문자_일반주서
100
AcDbLine
 10
14.49394916652476
 20
30.32107492872395
 30
0.0
 11
10.2140453559571
 21
30.32107492872411
 31
0.0
  0
LINE
  5
103
330
FA
100
AcDbEntity
  8
치수문자_일반주서
100
AcDbLine
 10
10.2140453559571
 20
30.32107492872411
 30
0.0
 11
3.864045355957095
 21
30.32107492872435
 31
0.0
  0
MTEXT
  5
104
330
FA
100
AcDbEntity
  8
치수문자_일반주서
100
AcDbMText
 10
46.3730136343715
 20
34.83281184330144
 30
0.0
 40
3.5
 41
0.0
 71
     1
 72
     1
  1
4.28
  7
SLDTEXTSTYLE0
 73
     1
 44
1.0
  0
ENDBLK
  5
FC
330
FA
100
AcDbEntity
  8
0
100
AcDbBlockEnd
  0
BLOCK
  5
107
330
106
100
AcDbEntity
  8
0
100
AcDbBlockBegin
  2
_D_4
 70
     0
 10
0.0
 20
0.0
 30
0.0
  3
_D_4
  1
_D_4
  0
SOLID
  5
109
330
106
100
AcDbEntity
  8
치수문자_일반주서
100
AcDbTrace
 10
68.05059833193548
 20
1.501074928723896
 30
0.0
 11
68.55859833193547
 21
4.803074928723896
 31
0.0
 12
67.54259833193548
 22
4.803074928723896
 32
0.0
 13
67.54259833193548
 23
4.803074928723896
 33
0.0
  0
SOLID
  5
10A
330
106
100
AcDbEntity
  8
치수문자_일반주서
100
AcDbTrace
 10
68.05059833193548
 20
-1.480510821134722
 30
0.0
 11
67.54259833193548
 21
-4.782510821134721
 31
0.0
 12
68.55859833193547
 22
-4.782510821134721
 32
0.0
 13
68.55859833193547
 23
-4.782510821134721
 33
0.0
  0
LINE
  5
10B
330
106
100
AcDbEntity
  8
치수문자_일반주서
100
AcDbLine
 10
51.19394916652362
 20
1.501074928723897
 30
0.0
 11
69.05059833193548
 21
1.501074928723896
 31
0.0
  0
LINE
  5
10C
330
106
100
AcDbEntity
  8
치수문자_일반주서
100
AcDbLine
 10
51.19394916652362
 20
-1.480510821134721
 30
0.0
 11
69.05059833193548
 21
-1.480510821134722
 31
0.0
  0
LINE
  5
10D
330
106
100
AcDbEntity
  8
치수문자_일반주서
100
AcDbLine
 10
68.05059833193548
 20
1.501074928723896
 30
0.0
 11
68.05059833193548
 21
7.851074928723896
 31
0.0
  0
LINE
  5
10E
330
106
100
AcDbEntity
  8
치수문자_일반주서
100
AcDbLine
 10
68.05059833193548
 20
1.501074928723896
 30
0.0
 11
68.05059833193548
 21
-1.480510821134722
 31
0.0
  0
LINE
  5
10F
330
106
100
AcDbEntity
  8
치수문자_일반주서
100
AcDbLine
 10
68.05059833193548
 20
-1.480510821134722
 30
0.0
 11
68.05059833193548
 21
-14.32156976103179
 31
0.0
  0
MTEXT
  5
110
330
106
100
AcDbEntity
  8
치수문자_일반주서
100
AcDbMText
 10
63.53886124273361
 20
-14.32156976103178
 30
0.0
 40
3.5
 41
0.0
 71
     1
 72
     1
  1
%%c
  7
SLDTEXTSTYLE0
 11
-7.044195017643634E-15
 21
1.0
 31
0.0
 73
     1
 44
1.0
  0
MTEXT
  5
111
330
106
100
AcDbEntity
  8
치수문자_일반주서
100
AcDbMText
 10
63.48538906607372
 20
-9.043132362657696
 30
0.0
 40
3.5
 41
0.0
 71
     1
 72
     1
  1
2.98
  7
SLDTEXTSTYLE0
 11
-7.044195017643634E-15
 21
1.0
 31
0.0
 73
     1
 44
1.0
  0
ENDBLK
  5
108
330
106
100
AcDbEntity
  8
0
100
AcDbBlockEnd
  0
BLOCK
  5
113
330
112
100
AcDbEntity
  8
0
100
AcDbBlockBegin
  2
SW_DOWELSYMBOL_0
 70
     0
 10
0.0
 20
0.0
 30
0.0
  3
SW_DOWELSYMBOL_0
  1
SW_DOWELSYMBOL_0
  0
CIRCLE
  5
115
330
112
100
AcDbEntity
  8
외형선
 62
     0
100
AcDbCircle
 10
0.0
 20
0.0
 30
0.0
 40
3.000000000000004
  0
HATCH
  5
116
330
112
100
AcDbEntity
  8
0
  6
Continuous
 62
     0
370
    35
100
AcDbHatch
 10
0.0
 20
0.0
 30
0.0
210
0.0
220
0.0
230
1.0
  2
SOLID
 70
     1
 71
     0
 91
        1
 92
        0
 93
        3
 72
     2
 10
0.0000000000000104
 20
0.0
 40
3.000000000000004
 50
0.0
 51
90.0
 73
     1
 72
     1
 10
0.0000000000000104
 20
3.000000000000004
 11
0.0000000000000104
 21
0.0
 72
     1
 10
0.0000000000000104
 20
0.0
 11
3.000000000000015
 21
0.0
 97
        0
 75
     0
 76
     1
 98
        1
 10
0.0
 20
0.0
  0
HATCH
  5
117
330
112
100
AcDbEntity
  8
0
  6
Continuous
 62
     0
370
    35
100
AcDbHatch
 10
0.0
 20
0.0
 30
0.0
210
0.0
220
0.0
230
1.0
  2
SOLID
 70
     1
 71
     0
 91
        1
 92
        0
 93
        3
 72
     2
 10
0.0000000000000104
 20
0.0
 40
3.000000000000004
 50
180.0
 51
270.0000000000008
 73
     1
 72
     1
 10
0.0000000000000104
 20
-3.000000000000004
 11
0.0000000000000104
 21
0.0
 72
     1
 10
0.0000000000000104
 20
0.0
 11
-2.999999999999994
 21
0.0
 97
        0
 75
     0
 76
     1
 98
        1
 10
0.0
 20
0.0
  0
ENDBLK
  5
114
330
112
100
AcDbEntity
  8
0
100
AcDbBlockEnd
  0
BLOCK
  5
1EC
330
1EB
100
AcDbEntity
  8
0
100
AcDbBlockBegin
  2
*D9
 70
     1
 10
0.0
 20
0.0
 30
0.0
  3
*D9
  1
*D9
  0
LINE
  5
1ED
330
1EB
100
AcDbEntity
  8
치수문자_일반주서
 62
     0
370
    -2
100
AcDbLine
 10
116.7562553641009
 20
14.65890317427888
 30
0.0
 11
121.1894625325991
 21
-0.0000000000000062
 31
0.0
  0
MTEXT
  5
1EE
330
1EB
100
AcDbEntity
  8
치수문자_일반주서
 62
     0
100
AcDbMText
 10
122.4989392611106
 20
4.738175783989717
 30
0.0
 40
3.5
 41
0.0
 71
     5
 72
     1
  1
\A1;R0.1
  7
SLDTEXTSTYLE0
 11
0.2894759972042482
 21
-0.9571852731016112
 31
0.0
 73
     1
 44
1.0
  0
LINE
  5
1EF
330
1EB
100
AcDbEntity
  8
치수문자_일반주서
 62
     0
370
    -2
100
AcDbLine
 10
115.7714580216121
 20
17.91524747337056
 30
0.0
 11
115.8004056213325
 21
17.8195289460604
 31
0.0
  0
SOLID
  5
1F0
330
1EB
100
AcDbEntity
  8
치수문자_일반주서
 62
     0
100
AcDbTrace
 10
117.2830263260645
 20
14.81821146474029
 30
0.0
 11
116.2294844021373
 21
14.49959488381748
 31
0.0
 12
115.8004056213325
 22
17.8195289460604
 32
0.0
 13
115.8004056213325
 23
17.8195289460604
 33
0.0
  0
POINT
  5
1F1
330
1EB
100
AcDbEntity
  8
Defpoints
 62
     0
100
AcDbPoint
 10
115.8004056213325
 20
17.8195289460604
 30
0.0
  0
POINT
  5
1F2
330
1EB
100
AcDbEntity
  8
Defpoints
 62
     0
100
AcDbPoint
 10
115.7714580216121
 20
17.91524747337056
 30
0.0
  0
ENDBLK
  5
1F3
330
1EB
100
AcDbEntity
  8
0
100
AcDbBlockEnd
  0
BLOCK
  5
1F7
330
1F6
100
AcDbEntity
  8
0
100
AcDbBlockBegin
  2
*D10
 70
     1
 10
0.0
 20
0.0
 30
0.0
  3
*D10
  1
*D10
  0
LINE
  5
1F9
330
1F6
100
AcDbEntity
  8
치수문자_일반주서
 62
     0
370
    -2
100
AcDbLine
 10
16.80895802161207
 20
22.81032565597886
 30
0.0
 11
4.374999999999989
 21
22.81032565597882
 31
0.0
  0
LINE
  5
1FA
330
1F6
100
AcDbEntity
  8
치수문자_일반주서
 62
     0
370
    -2
100
AcDbLine
 10
16.80895802161207
 20
16.81032565597887
 30
0.0
 11
4.375000000000011
 21
16.81032565597882
 31
0.0
  0
LINE
  5
1FB
330
1F6
100
AcDbEntity
  8
치수문자_일반주서
 62
     0
370
    -2
100
AcDbLine
 10
4.375000000000001
 20
19.50832565597882
 30
0.0
 11
4.374999999999999
 21
20.11232565597882
 31
0.0
  0
SOLID
  5
1FC
330
1F6
100
AcDbEntity
  8
치수문자_일반주서
 62
     0
100
AcDbTrace
 10
4.925333333333334
 20
19.50832565597882
 30
0.0
 11
3.824666666666668
 21
19.50832565597881
 31
0.0
 12
4.374999999999989
 22
22.81032565597882
 32
0.0
 13
4.374999999999989
 23
22.81032565597882
 33
0.0
  0
SOLID
  5
1FD
330
1F6
100
AcDbEntity
  8
치수문자_일반주서
 62
     0
100
AcDbTrace
 10
3.824666666666666
 20
20.11232565597882
 30
0.0
 11
4.925333333333333
 21
20.11232565597883
 31
0.0
 12
4.375000000000011
 22
16.81032565597882
 32
0.0
 13
4.375000000000011
 23
16.81032565597882
 33
0.0
  0
MTEXT
  5
1FE
330
1F6
100
AcDbEntity
  8
치수문자_일반주서
 62
     0
100
AcDbMText
 10
0.0
 20
19.81032565597885
 30
0.0
 40
3.5
 41
0.0
 71
     2
 72
     1
  1
\A1;%%c6
  7
SLDTEXTSTYLE0
 11
-3.552713678800505E-15
 21
1.0
 31
0.0
 73
     1
 44
1.0
  0
POINT
  5
1FF
330
1F6
100
AcDbEntity
  8
Defpoints
 62
     0
100
AcDbPoint
 10
16.87145802161207
 20
22.81032565597886
 30
0.0
  0
POINT
  5
200
330
1F6
100
AcDbEntity
  8
Defpoints
 62
     0
100
AcDbPoint
 10
16.87145802161207
 20
16.81032565597887
 30
0.0
  0
POINT
  5
201
330
1F6
100
AcDbEntity
  8
Defpoints
 62
     0
100
AcDbPoint
 10
4.375000000000014
 20
16.81032565597882
 30
0.0
  0
ENDBLK
  5
1F8
330
1F6
100
AcDbEntity
  8
0
100
AcDbBlockEnd
  0
BLOCK
  5
203
330
202
100
AcDbEntity
  8
0
100
AcDbBlockBegin
  2
*D11
 70
     1
 10
0.0
 20
0.0
 30
0.0
  3
*D11
  1
*D11
  0
LINE
  5
205
330
202
100
AcDbEntity
  8
치수문자_일반주서
 62
     0
370
    -2
100
AcDbLine
 10
115.8714580216121
 20
21.77282565597887
 30
0.0
 11
115.8714580216121
 21
40.21032565597852
 31
0.0
  0
LINE
  5
206
330
202
100
AcDbEntity
  8
치수문자_일반주서
 62
     0
370
    -2
100
AcDbLine
 10
109.8714580216121
 20
21.45433980993509
 30
0.0
 11
109.8714580216121
 21
40.21032565597852
 31
0.0
  0
LINE
  5
207
330
202
100
AcDbEntity
  8
치수문자_일반주서
 62
     0
370
    -2
100
AcDbLine
 10
112.5694580216121
 20
40.21032565597852
 30
0.0
 11
113.1734580216121
 21
40.21032565597852
 31
0.0
  0
SOLID
  5
208
330
202
100
AcDbEntity
  8
치수문자_일반주서
 62
     0
100
AcDbTrace
 10
112.5694580216121
 20
39.65999232264519
 30
0.0
 11
112.5694580216121
 21
40.76065898931186
 31
0.0
 12
115.8714580216121
 22
40.21032565597852
 32
0.0
 13
115.8714580216121
 23
40.21032565597852
 33
0.0
  0
SOLID
  5
209
330
202
100
AcDbEntity
  8
치수문자_일반주서
 62
     0
100
AcDbTrace
 10
113.1734580216121
 20
40.76065898931186
 30
0.0
 11
113.1734580216121
 21
39.65999232264519
 31
0.0
 12
109.8714580216121
 22
40.21032565597852
 32
0.0
 13
109.8714580216121
 23
40.21032565597852
 33
0.0
  0
MTEXT
  5
20A
330
202
100
AcDbEntity
  8
치수문자_일반주서
 62
     0
100
AcDbMText
 10
112.8714580216121
 20
44.58532565597852
 30
0.0
 40
3.5
 41
0.0
 71
     2
 72
     1
  1
\A1;6
  7
SLDTEXTSTYLE0
 73
     1
 44
1.0
  0
POINT
  5
20B
330
202
100
AcDbEntity
  8
Defpoints
 62
     0
100
AcDbPoint
 10
115.8714580216121
 20
21.71032565597887
 30
0.0
  0
POINT
  5
20C
330
202
100
AcDbEntity
  8
Defpoints
 62
     0
100
AcDbPoint
 10
109.8714580216121
 20
21.39183980993509
 30
0.0
  0
POINT
  5
20D
330
202
100
AcDbEntity
  8
Defpoints
 62
     0
100
AcDbPoint
 10
109.8714580216121
 20
40.21032565597852
 30
0.0
  0
ENDBLK
  5
204
330
202
100
AcDbEntity
  8
0
100
AcDbBlockEnd
  0
BLOCK
  5
20F
330
20E
100
AcDbEntity
  8
0
100
AcDbBlockBegin
  2
*D12
 70
     1
 10
0.0
 20
0.0
 30
0.0
  3
*D12
  1
*D12
  0
LINE
  5
211
330
20E
100
AcDbEntity
  8
치수문자_일반주서
 62
     0
370
    -2
100
AcDbLine
 10
115.8714580216121
 20
21.77282565597887
 30
0.0
 11
115.8714580216121
 21
62.26865016102316
 31
0.0
  0
LINE
  5
212
330
20E
100
AcDbEntity
  8
치수문자_일반주서
 62
     0
370
    -2
100
AcDbLine
 10
15.87145802161207
 20
21.87282565597886
 30
0.0
 11
15.87145802161207
 21
62.26865016102316
 31
0.0
  0
LINE
  5
213
330
20E
100
AcDbEntity
  8
치수문자_일반주서
 62
     0
370
    -2
100
AcDbLine
 10
112.5694580216121
 20
62.26865016102316
 30
0.0
 11
19.17345802161207
 21
62.26865016102316
 31
0.0
  0
SOLID
  5
214
330
20E
100
AcDbEntity
  8
치수문자_일반주서
 62
     0
100
AcDbTrace
 10
112.5694580216121
 20
61.71831682768983
 30
0.0
 11
112.5694580216121
 21
62.81898349435649
 31
0.0
 12
115.8714580216121
 22
62.26865016102316
 32
0.0
 13
115.8714580216121
 23
62.26865016102316
 33
0.0
  0
SOLID
  5
215
330
20E
100
AcDbEntity
  8
치수문자_일반주서
 62
     0
100
AcDbTrace
 10
19.17345802161207
 20
62.81898349435649
 30
0.0
 11
19.17345802161207
 21
61.71831682768983
 31
0.0
 12
15.87145802161207
 22
62.26865016102316
 32
0.0
 13
15.87145802161207
 23
62.26865016102316
 33
0.0
  0
MTEXT
  5
216
330
20E
100
AcDbEntity
  8
치수문자_일반주서
 62
     0
100
AcDbMText
 10
65.87145802161207
 20
66.64365016102316
 30
0.0
 40
3.5
 41
0.0
 71
     2
 72
     1
  1
\A1;100
  7
SLDTEXTSTYLE0
 73
     1
 44
1.0
  0
POINT
  5
217
330
20E
100
AcDbEntity
  8
Defpoints
 62
     0
100
AcDbPoint
 10
115.8714580216121
 20
21.71032565597887
 30
0.0
  0
POINT
  5
218
330
20E
100
AcDbEntity
  8
Defpoints
 62
     0
100
AcDbPoint
 10
15.87145802161207
 20
21.81032565597886
 30
0.0
  0
POINT
  5
219
330
20E
100
AcDbEntity
  8
Defpoints
 62
     0
100
AcDbPoint
 10
15.87145802161207
 20
62.26865016102316
 30
0.0
  0
ENDBLK
  5
210
330
20E
100
AcDbEntity
  8
0
100
AcDbBlockEnd
  0
BLOCK
  5
21B
330
21A
100
AcDbEntity
  8
0
100
AcDbBlockBegin
  2
*D13
 70
     1
 10
0.0
 20
0.0
 30
0.0
  3
*D13
  1
*D13
  0
LINE
  5
21D
330
21A
100
AcDbEntity
  8
치수문자_일반주서
 62
     0
370
    -2
100
AcDbLine
 10
115.8714580216121
 20
21.77012646661887
 30
0.0
 11
115.8714580216121
 21
50.13032565597753
 31
0.0
  0
LINE
  5
21E
330
21A
100
AcDbEntity
  8
치수문자_일반주서
 62
     0
370
    -2
100
AcDbLine
 10
65.87145802161207
 20
21.79782565597887
 30
0.0
 11
65.87145802161207
 21
50.13032565597753
 31
0.0
  0
LINE
  5
21F
330
21A
100
AcDbEntity
  8
치수문자_일반주서
 62
     0
370
    -2
100
AcDbLine
 10
112.5694580216121
 20
50.13032565597753
 30
0.0
 11
69.17345802161208
 21
50.13032565597753
 31
0.0
  0
SOLID
  5
220
330
21A
100
AcDbEntity
  8
치수문자_일반주서
 62
     0
100
AcDbTrace
 10
112.5694580216121
 20
49.57999232264419
 30
0.0
 11
112.5694580216121
 21
50.68065898931086
 31
0.0
 12
115.8714580216121
 22
50.13032565597753
 32
0.0
 13
115.8714580216121
 23
50.13032565597753
 33
0.0
  0
SOLID
  5
221
330
21A
100
AcDbEntity
  8
치수문자_일반주서
 62
     0
100
AcDbTrace
 10
69.17345802161208
 20
50.68065898931086
 30
0.0
 11
69.17345802161208
 21
49.57999232264419
 31
0.0
 12
65.87145802161207
 22
50.13032565597753
 32
0.0
 13
65.87145802161207
 23
50.13032565597753
 33
0.0
  0
MTEXT
  5
222
330
21A
100
AcDbEntity
  8
치수문자_일반주서
 62
     0
100
AcDbMText
 10
90.87145802161209
 20
54.50532565597753
 30
0.0
 40
3.5
 41
0.0
 71
     2
 72
     1
  1
\A1;50
  7
SLDTEXTSTYLE0
 73
     1
 44
1.0
  0
POINT
  5
223
330
21A
100
AcDbEntity
  8
Defpoints
 62
     0
100
AcDbPoint
 10
115.8714580216121
 20
21.70762646661887
 30
0.0
  0
POINT
  5
224
330
21A
100
AcDbEntity
  8
Defpoints
 62
     0
100
AcDbPoint
 10
65.87145802161207
 20
21.73532565597887
 30
0.0
  0
POINT
  5
225
330
21A
100
AcDbEntity
  8
Defpoints
 62
     0
100
AcDbPoint
 10
65.87145802161207
 20
50.13032565597753
 30
0.0
  0
ENDBLK
  5
21C
330
21A
100
AcDbEntity
  8
0
100
AcDbBlockEnd
  0
BLOCK
  5
227
330
226
100
AcDbEntity
  8
0
100
AcDbBlockBegin
  2
*D14
 70
     1
 10
0.0
 20
0.0
 30
0.0
  3
*D14
  1
*D14
  0
LINE
  5
229
330
226
100
AcDbEntity
  8
치수문자_일반주서
 62
     0
370
    -2
100
AcDbLine
 10
115.9339580216121
 20
21.81360819253108
 30
0.0
 11
129.8984383253403
 21
21.81360819253113
 31
0.0
  0
LINE
  5
22A
330
226
100
AcDbEntity
  8
치수문자_일반주서
 62
     0
370
    -2
100
AcDbLine
 10
115.8339580216121
 20
17.81524628549674
 30
0.0
 11
129.8984383253403
 21
17.81524628549679
 31
0.0
  0
LINE
  5
22B
330
226
100
AcDbEntity
  8
치수문자_일반주서
 62
     0
370
    -2
100
AcDbLine
 10
129.8984383253403
 20
21.81360819253113
 30
0.0
 11
129.8984383253403
 21
34.54260819253113
 31
0.0
  0
LINE
  5
22C
330
226
100
AcDbEntity
  8
치수문자_일반주서
 62
     0
370
    -2
100
AcDbLine
 10
129.8984383253403
 20
21.81360819253113
 30
0.0
 11
129.8984383253403
 21
17.81524628549679
 31
0.0
  0
LINE
  5
22D
330
226
100
AcDbEntity
  8
치수문자_일반주서
 62
     0
370
    -2
100
AcDbLine
 10
129.8984383253403
 20
25.11560819253113
 30
0.0
 11
129.8984383253403
 21
28.41760819253113
 31
0.0
  0
LINE
  5
22E
330
226
100
AcDbEntity
  8
치수문자_일반주서
 62
     0
370
    -2
100
AcDbLine
 10
129.8984383253403
 20
14.51324628549679
 30
0.0
 11
129.8984383253403
 21
11.2112462854968
 31
0.0
  0
SOLID
  5
22F
330
226
100
AcDbEntity
  8
치수문자_일반주서
 62
     0
100
AcDbTrace
 10
129.348104992007
 20
25.11560819253113
 30
0.0
 11
130.4487716586736
 21
25.11560819253113
 31
0.0
 12
129.8984383253403
 22
21.81360819253113
 32
0.0
 13
129.8984383253403
 23
21.81360819253113
 33
0.0
  0
SOLID
  5
230
330
226
100
AcDbEntity
  8
치수문자_일반주서
 62
     0
100
AcDbTrace
 10
130.4487716586736
 20
14.51324628549679
 30
0.0
 11
129.348104992007
 21
14.51324628549679
 31
0.0
 12
129.8984383253403
 22
17.81524628549679
 32
0.0
 13
129.8984383253403
 23
17.81524628549679
 33
0.0
  0
MTEXT
  5
231
330
226
100
AcDbEntity
  8
치수문자_일반주서
 62
     0
100
AcDbMText
 10
125.5234383253403
 20
31.48010819253113
 30
0.0
 40
3.5
 41
0.0
 71
     2
 72
     1
  1
\A1;%%c4
  7
SLDTEXTSTYLE0
 11
0.0
 21
1.0
 31
0.0
 73
     1
 44
1.0
  0
POINT
  5
232
330
226
100
AcDbEntity
  8
Defpoints
 62
     0
100
AcDbPoint
 10
115.8714580216121
 20
21.81360819253108
 30
0.0
  0
POINT
  5
233
330
226
100
AcDbEntity
  8
Defpoints
 62
     0
100
AcDbPoint
 10
115.7714580216121
 20
17.81524628549674
 30
0.0
  0
POINT
  5
234
330
226
100
AcDbEntity
  8
Defpoints
 62
     0
100
AcDbPoint
 10
129.8984383253404
 20
17.81524628549679
 30
0.0
  0
ENDBLK
  5
228
330
226
100
AcDbEntity
  8
0
100
AcDbBlockEnd
  0
BLOCK
  5
275
330
274
100
AcDbEntity
  8
0
100
AcDbBlockBegin
  2
*D15
 70
     1
 10
0.0
 20
0.0
 30
0.0
  3
*D15
  1
*D15
  0
LINE
  5
277
330
274
100
AcDbEntity
  8
치수문자_일반주서
 62
     0
370
    -2
100
AcDbLine
 10
-43.05054538186349
 20
2.999999999999989
 30
0.0
 11
-55.48450340347556
 21
2.999999999999942
 31
0.0
  0
LINE
  5
278
330
274
100
AcDbEntity
  8
치수문자_일반주서
 62
     0
370
    -2
100
AcDbLine
 10
-43.05054538186349
 20
-3.0
 30
0.0
 11
-55.48450340347554
 21
-3.000000000000048
 31
0.0
  0
LINE
  5
279
330
274
100
AcDbEntity
  8
치수문자_일반주서
 62
     0
370
    -2
100
AcDbLine
 10
-55.48450340347555
 20
-0.3020000000000578
 30
0.0
 11
-55.48450340347556
 21
0.3019999999999521
 31
0.0
  0
SOLID
  5
27A
330
274
100
AcDbEntity
  8
치수문자_일반주서
 62
     0
100
AcDbTrace
 10
-54.93417007014222
 20
-0.3020000000000558
 30
0.0
 11
-56.03483673680888
 21
-0.3020000000000597
 31
0.0
 12
-55.48450340347556
 22
2.999999999999942
 32
0.0
 13
-55.48450340347556
 23
2.999999999999942
 33
0.0
  0
SOLID
  5
27B
330
274
100
AcDbEntity
  8
치수문자_일반주서
 62
     0
100
AcDbTrace
 10
-56.03483673680889
 20
0.3019999999999501
 30
0.0
 11
-54.93417007014222
 21
0.301999999999954
 31
0.0
 12
-55.48450340347554
 22
-3.000000000000048
 32
0.0
 13
-55.48450340347554
 23
-3.000000000000048
 33
0.0
  0
MTEXT
  5
27C
330
274
100
AcDbEntity
  8
치수문자_일반주서
 62
     0
100
AcDbMText
 10
-59.85950340347556
 20
-0.0000000000000225
 30
0.0
 40
3.5
 41
0.0
 71
     2
 72
     1
  1
\A1;%%c6
  7
SLDTEXTSTYLE0
 11
-3.552713678800508E-15
 21
1.0
 31
0.0
 73
     1
 44
1.0
  0
POINT
  5
27D
330
274
100
AcDbEntity
  8
Defpoints
 62
     0
100
AcDbPoint
 10
-42.98804538186349
 20
2.999999999999989
 30
0.0
  0
POINT
  5
27E
330
274
100
AcDbEntity
  8
Defpoints
 62
     0
100
AcDbPoint
 10
-42.98804538186349
 20
-3.0
 30
0.0
  0
POINT
  5
27F
330
274
100
AcDbEntity
  8
Defpoints
 62
     0
100
AcDbPoint
 10
-55.48450340347554
 20
-3.000000000000047
 30
0.0
  0
ENDBLK
  5
276
330
274
100
AcDbEntity
  8
0
100
AcDbBlockEnd
  0
BLOCK
  5
281
330
280
100
AcDbEntity
  8
0
100
AcDbBlockBegin
  2
*D16
 70
     1
 10
0.0
 20
0.0
 30
0.0
  3
*D16
  1
*D16
  0
LINE
  5
283
330
280
100
AcDbEntity
  8
치수문자_일반주서
 62
     0
370
    -2
100
AcDbLine
 10
56.01195461813654
 20
1.962499999999999
 30
0.0
 11
56.01195461813654
 21
20.39999999999965
 31
0.0
  0
LINE
  5
284
330
280
100
AcDbEntity
  8
치수문자_일반주서
 62
     0
370
    -2
100
AcDbLine
 10
50.01195461813651
 20
1.644014153956213
 30
0.0
 11
50.01195461813651
 21
20.39999999999965
 31
0.0
  0
LINE
  5
285
330
280
100
AcDbEntity
  8
치수문자_일반주서
 62
     0
370
    -2
100
AcDbLine
 10
52.70995461813654
 20
20.39999999999965
 30
0.0
 11
53.31395461813651
 21
20.39999999999965
 31
0.0
  0
SOLID
  5
286
330
280
100
AcDbEntity
  8
치수문자_일반주서
 62
     0
100
AcDbTrace
 10
52.70995461813654
 20
19.84966666666632
 30
0.0
 11
52.70995461813654
 21
20.95033333333298
 31
0.0
 12
56.01195461813654
 22
20.39999999999965
 32
0.0
 13
56.01195461813654
 23
20.39999999999965
 33
0.0
  0
SOLID
  5
287
330
280
100
AcDbEntity
  8
치수문자_일반주서
 62
     0
100
AcDbTrace
 10
53.31395461813651
 20
20.95033333333298
 30
0.0
 11
53.31395461813651
 21
19.84966666666632
 31
0.0
 12
50.01195461813651
 22
20.39999999999965
 32
0.0
 13
50.01195461813651
 23
20.39999999999965
 33
0.0
  0
MTEXT
  5
288
330
280
100
AcDbEntity
  8
치수문자_일반주서
 62
     0
100
AcDbMText
 10
53.01195461813654
 20
24.77499999999965
 30
0.0
 40
3.5
 41
0.0
 71
     2
 72
     1
  1
\A1;6
  7
SLDTEXTSTYLE0
 73
     1
 44
1.0
  0
POINT
  5
289
330
280
100
AcDbEntity
  8
Defpoints
 62
     0
100
AcDbPoint
 10
56.01195461813654
 20
1.899999999999999
 30
0.0
  0
POINT
  5
28A
330
280
100
AcDbEntity
  8
Defpoints
 62
     0
100
AcDbPoint
 10
50.01195461813651
 20
1.581514153956213
 30
0.0
  0
POINT
  5
28B
330
280
100
AcDbEntity
  8
Defpoints
 62
     0
100
AcDbPoint
 10
50.01195461813651
 20
20.39999999999965
 30
0.0
  0
ENDBLK
  5
282
330
280
100
AcDbEntity
  8
0
100
AcDbBlockEnd
  0
BLOCK
  5
28D
330
28C
100
AcDbEntity
  8
0
100
AcDbBlockBegin
  2
*D17
 70
     1
 10
0.0
 20
0.0
 30
0.0
  3
*D17
  1
*D17
  0
LINE
  5
28F
330
28C
100
AcDbEntity
  8
치수문자_일반주서
 62
     0
370
    -2
100
AcDbLine
 10
56.01195461813654
 20
1.962499999999999
 30
0.0
 11
56.01195461813654
 21
42.45832450504429
 31
0.0
  0
LINE
  5
290
330
28C
100
AcDbEntity
  8
치수문자_일반주서
 62
     0
370
    -2
100
AcDbLine
 10
-43.98804538186349
 20
2.062499999999989
 30
0.0
 11
-43.98804538186349
 21
42.45832450504429
 31
0.0
  0
LINE
  5
291
330
28C
100
AcDbEntity
  8
치수문자_일반주서
 62
     0
370
    -2
100
AcDbLine
 10
52.70995461813654
 20
42.45832450504429
 30
0.0
 11
-40.68604538186349
 21
42.45832450504429
 31
0.0
  0
SOLID
  5
292
330
28C
100
AcDbEntity
  8
치수문자_일반주서
 62
     0
100
AcDbTrace
 10
52.70995461813654
 20
41.90799117171095
 30
0.0
 11
52.70995461813654
 21
43.00865783837762
 31
0.0
 12
56.01195461813654
 22
42.45832450504429
 32
0.0
 13
56.01195461813654
 23
42.45832450504429
 33
0.0
  0
SOLID
  5
293
330
28C
100
AcDbEntity
  8
치수문자_일반주서
 62
     0
100
AcDbTrace
 10
-40.68604538186349
 20
43.00865783837762
 30
0.0
 11
-40.68604538186349
 21
41.90799117171095
 31
0.0
 12
-43.98804538186349
 22
42.45832450504429
 32
0.0
 13
-43.98804538186349
 23
42.45832450504429
 33
0.0
  0
MTEXT
  5
294
330
28C
100
AcDbEntity
  8
치수문자_일반주서
 62
     0
100
AcDbMText
 10
6.011954618136514
 20
46.83332450504429
 30
0.0
 40
3.5
 41
0.0
 71
     2
 72
     1
  1
\A1;100
  7
SLDTEXTSTYLE0
 73
     1
 44
1.0
  0
POINT
  5
295
330
28C
100
AcDbEntity
  8
Defpoints
 62
     0
100
AcDbPoint
 10
56.01195461813654
 20
1.899999999999999
 30
0.0
  0
POINT
  5
296
330
28C
100
AcDbEntity
  8
Defpoints
 62
     0
100
AcDbPoint
 10
-43.98804538186349
 20
1.999999999999989
 30
0.0
  0
POINT
  5
297
330
28C
100
AcDbEntity
  8
Defpoints
 62
     0
100
AcDbPoint
 10
-43.98804538186349
 20
42.45832450504429
 30
0.0
  0
ENDBLK
  5
28E
330
28C
100
AcDbEntity
  8
0
100
AcDbBlockEnd
  0
BLOCK
  5
299
330
298
100
AcDbEntity
  8
0
100
AcDbBlockBegin
  2
*D18
 70
     1
 10
0.0
 20
0.0
 30
0.0
  3
*D18
  1
*D18
  0
LINE
  5
29B
330
298
100
AcDbEntity
  8
치수문자_일반주서
 62
     0
370
    -2
100
AcDbLine
 10
56.01195461813654
 20
1.959800810639997
 30
0.0
 11
56.01195461813654
 21
30.31999999999866
 31
0.0
  0
LINE
  5
29C
330
298
100
AcDbEntity
  8
치수문자_일반주서
 62
     0
370
    -2
100
AcDbLine
 10
6.011954618136514
 20
1.987499999999997
 30
0.0
 11
6.011954618136514
 21
30.31999999999866
 31
0.0
  0
LINE
  5
29D
330
298
100
AcDbEntity
  8
치수문자_일반주서
 62
     0
370
    -2
100
AcDbLine
 10
52.70995461813654
 20
30.31999999999866
 30
0.0
 11
9.313954618136513
 21
30.31999999999866
 31
0.0
  0
SOLID
  5
29E
330
298
100
AcDbEntity
  8
치수문자_일반주서
 62
     0
100
AcDbTrace
 10
52.70995461813654
 20
29.76966666666532
 30
0.0
 11
52.70995461813654
 21
30.87033333333199
 31
0.0
 12
56.01195461813654
 22
30.31999999999866
 32
0.0
 13
56.01195461813654
 23
30.31999999999866
 33
0.0
  0
SOLID
  5
29F
330
298
100
AcDbEntity
  8
치수문자_일반주서
 62
     0
100
AcDbTrace
 10
9.313954618136513
 20
30.87033333333199
 30
0.0
 11
9.313954618136513
 21
29.76966666666532
 31
0.0
 12
6.011954618136514
 22
30.31999999999866
 32
0.0
 13
6.011954618136514
 23
30.31999999999866
 33
0.0
  0
MTEXT
  5
2A0
330
298
100
AcDbEntity
  8
치수문자_일반주서
 62
     0
100
AcDbMText
 10
31.01195461813654
 20
34.69499999999866
 30
0.0
 40
3.5
 41
0.0
 71
     2
 72
     1
  1
\A1;50
  7
SLDTEXTSTYLE0
 73
     1
 44
1.0
  0
POINT
  5
2A1
330
298
100
AcDbEntity
  8
Defpoints
 62
     0
100
AcDbPoint
 10
56.01195461813654
 20
1.897300810639997
 30
0.0
  0
POINT
  5
2A2
330
298
100
AcDbEntity
  8
Defpoints
 62
     0
100
AcDbPoint
 10
6.011954618136514
 20
1.924999999999997
 30
0.0
  0
POINT
  5
2A3
330
298
100
AcDbEntity
  8
Defpoints
 62
     0
100
AcDbPoint
 10
6.011954618136514
 20
30.31999999999866
 30
0.0
  0
ENDBLK
  5
29A
330
298
100
AcDbEntity
  8
0
100
AcDbBlockEnd
  0
BLOCK
  5
2A5
330
2A4
100
AcDbEntity
  8
0
100
AcDbBlockBegin
  2
*D19
 70
     1
 10
0.0
 20
0.0
 30
0.0
  3
*D19
  1
*D19
  0
LINE
  5
2A7
330
2A4
100
AcDbEntity
  8
치수문자_일반주서
 62
     0
370
    -2
100
AcDbLine
 10
56.07445461813654
 20
2.00328253655221
 30
0.0
 11
70.03893492186475
 21
2.003282536552263
 31
0.0
  0
LINE
  5
2A8
330
2A4
100
AcDbEntity
  8
치수문자_일반주서
 62
     0
370
    -2
100
AcDbLine
 10
55.97445461813652
 20
-1.995079370482131
 30
0.0
 11
70.03893492186477
 21
-1.995079370482078
 31
0.0
  0
LINE
  5
2A9
330
2A4
100
AcDbEntity
  8
치수문자_일반주서
 62
     0
370
    -2
100
AcDbLine
 10
70.03893492186475
 20
2.003282536552263
 30
0.0
 11
70.03893492186471
 21
14.73228253655226
 31
0.0
  0
LINE
  5
2AA
330
2A4
100
AcDbEntity
  8
치수문자_일반주서
 62
     0
370
    -2
100
AcDbLine
 10
70.03893492186475
 20
2.003282536552263
 30
0.0
 11
70.03893492186477
 21
-1.995079370482078
 31
0.0
  0
LINE
  5
2AB
330
2A4
100
AcDbEntity
  8
치수문자_일반주서
 62
     0
370
    -2
100
AcDbLine
 10
70.03893492186474
 20
5.305282536552262
 30
0.0
 11
70.03893492186472
 21
8.607282536552262
 31
0.0
  0
LINE
  5
2AC
330
2A4
100
AcDbEntity
  8
치수문자_일반주서
 62
     0
370
    -2
100
AcDbLine
 10
70.03893492186478
 20
-5.297079370482077
 30
0.0
 11
70.0389349218648
 21
-8.599079370482077
 31
0.0
  0
SOLID
  5
2AD
330
2A4
100
AcDbEntity
  8
치수문자_일반주서
 62
     0
100
AcDbTrace
 10
69.48860158853141
 20
5.30528253655226
 30
0.0
 11
70.58926825519806
 21
5.305282536552264
 31
0.0
 12
70.03893492186475
 22
2.003282536552263
 32
0.0
 13
70.03893492186475
 23
2.003282536552263
 33
0.0
  0
SOLID
  5
2AE
330
2A4
100
AcDbEntity
  8
치수문자_일반주서
 62
     0
100
AcDbTrace
 10
70.5892682551981
 20
-5.297079370482075
 30
0.0
 11
69.48860158853145
 21
-5.297079370482079
 31
0.0
 12
70.03893492186477
 22
-1.995079370482078
 32
0.0
 13
70.03893492186477
 23
-1.995079370482078
 33
0.0
  0
MTEXT
  5
2AF
330
2A4
100
AcDbEntity
  8
치수문자_일반주서
 62
     0
100
AcDbMText
 10
65.66393492186472
 20
11.66978253655225
 30
0.0
 40
3.5
 41
0.0
 71
     2
 72
     1
  1
\A1;%%c4
  7
SLDTEXTSTYLE0
 11
-3.554169193689238E-15
 21
1.0
 31
0.0
 73
     1
 44
1.0
  0
POINT
  5
2B0
330
2A4
100
AcDbEntity
  8
Defpoints
 62
     0
100
AcDbPoint
 10
56.01195461813654
 20
2.003282536552209
 30
0.0
  0
POINT
  5
2B1
330
2A4
100
AcDbEntity
  8
Defpoints
 62
     0
100
AcDbPoint
 10
55.91195461813652
 20
-1.995079370482131
 30
0.0
  0
POINT
  5
2B2
330
2A4
100
AcDbEntity
  8
Defpoints
 62
     0
100
AcDbPoint
 10
70.03893492186472
 20
-1.995079370482078
 30
0.0
  0
ENDBLK
  5
2A6
330
2A4
100
AcDbEntity
  8
0
100
AcDbBlockEnd
  0
BLOCK
  5
2B4
330
2B3
100
AcDbEntity
  8
0
100
AcDbBlockBegin
  2
*D20
 70
     1
 10
0.0
 20
0.0
 30
0.0
  3
*D20
  1
*D20
  0
LINE
  5
2B6
330
2B3
100
AcDbEntity
  8
치수문자_일반주서
 62
     0
370
    -2
100
AcDbLine
 10
56.89675196062537
 20
-5.15142248169999
 30
0.0
 11
61.3299591291235
 21
-19.81032565597888
 31
0.0
  0
MTEXT
  5
2B7
330
2B3
100
AcDbEntity
  8
치수문자_일반주서
 62
     0
100
AcDbMText
 10
62.63943585763507
 20
-15.07214987198916
 30
0.0
 40
3.5
 41
0.0
 71
     5
 72
     1
  1
\A1;R0.1
  7
SLDTEXTSTYLE0
 11
0.2894759972042482
 21
-0.9571852731016112
 31
0.0
 73
     1
 44
1.0
  0
LINE
  5
2B8
330
2B3
100
AcDbEntity
  8
치수문자_일반주서
 62
     0
370
    -2
100
AcDbLine
 10
55.91195461813652
 20
-1.895078182608309
 30
0.0
 11
55.94090221785694
 21
-1.99079670991847
 31
0.0
  0
SOLID
  5
2B9
330
2B3
100
AcDbEntity
  8
치수문자_일반주서
 62
     0
100
AcDbTrace
 10
57.42352292258896
 20
-4.992114191238586
 30
0.0
 11
56.36998099866179
 21
-5.310730772161395
 31
0.0
 12
55.94090221785694
 22
-1.99079670991847
 32
0.0
 13
55.94090221785694
 23
-1.99079670991847
 33
0.0
  0
POINT
  5
2BA
330
2B3
100
AcDbEntity
  8
Defpoints
 62
     0
100
AcDbPoint
 10
55.94090221785694
 20
-1.99079670991847
 30
0.0
  0
POINT
  5
2BB
330
2B3
100
AcDbEntity
  8
Defpoints
 62
     0
100
AcDbPoint
 10
55.91195461813652
 20
-1.895078182608309
 30
0.0
  0
ENDBLK
  5
2B5
330
2B3
100
AcDbEntity
  8
0
100
AcDbBlockEnd
  0
BLOCK
  5
2C6
330
2C5
100
AcDbEntity
  8
0
100
AcDbBlockBegin
  2
*D21
 70
     1
 10
0.0
 20
0.0
 30
0.0
  3
*D21
  1
*D21
  0
LINE
  5
2C8
330
2C5
100
AcDbEntity
  8
치수문자_일반주서
 62
     0
370
    -2
100
AcDbLine
 10
56.74336343419444
 20
-5.170945717026257
 30
0.0
 11
61.23464554201816
 21
-21.44948334653907
 31
0.0
  0
MTEXT
  5
2C9
330
2C5
100
AcDbEntity
  8
치수문자_일반주서
 62
     0
100
AcDbMText
 10
62.5433243061446
 20
-16.32302999604181
 30
0.0
 40
3.5
 41
0.0
 71
     5
 72
     1
  1
\A1;R0.2
  7
SLDTEXTSTYLE0
 11
0.2659648246881486
 21
-0.9639827343000507
 31
0.0
 73
     1
 44
1.0
  0
LINE
  5
2CA
330
2C5
100
AcDbEntity
  8
치수문자_일반주서
 62
     0
370
    -2
100
AcDbLine
 10
55.81195461813654
 20
-1.79507818150748
 30
0.0
 11
55.86514758307417
 21
-1.98787472836749
 31
0.0
  0
SOLID
  5
2CB
330
2C5
100
AcDbEntity
  8
치수문자_일반주서
 62
     0
100
AcDbTrace
 10
57.27387526563756
 20
-5.024576408506213
 30
0.0
 11
56.21285160275131
 21
-5.317315025546301
 31
0.0
 12
55.86514758307417
 22
-1.98787472836749
 32
0.0
 13
55.86514758307417
 23
-1.98787472836749
 33
0.0
  0
POINT
  5
2CC
330
2C5
100
AcDbEntity
  8
Defpoints
 62
     0
100
AcDbPoint
 10
55.86514758307417
 20
-1.98787472836749
 30
0.0
  0
POINT
  5
2CD
330
2C5
100
AcDbEntity
  8
Defpoints
 62
     0
100
AcDbPoint
 10
55.81195461813654
 20
-1.79507818150748
 30
0.0
  0
ENDBLK
  5
2C7
330
2C5
100
AcDbEntity
  8
0
100
AcDbBlockEnd
  0
ENDSEC
  0
SECTION
  2
ENTITIES
  0
INSERT
  5
CD
330
1F
100
AcDbEntity
  8
0
  6
Continuous
 62
     7
100
AcDbBlockReference
 66
     1
  2
블럭10
 10
-22.93944368806589
 20
-52.04609937292004
 30
0.0
  0
ATTRIB
  5
CE
330
CD
100
AcDbEntity
  8
FORMAT
 62
     2
100
AcDbText
 10
-42.21802657207924
 20
-49.97073246008785
 30
0.0
 40
4.233333333333333
  1
SEME610400250E [ 2 FLUTE ]
 41
0.75
  7
SLDTEXTSTYLE0
 11
-42.21802657207924
 21
-52.08739912675452
 31
0.0
100
AcDbAttribute
  2
AUTOATTR0
 70
     0
 74
     1
  0
SEQEND
  5
CF
330
CD
100
AcDbEntity
  8
0
  6
Continuous
 62
     7
  0
HATCH
  5
D0
330
1F
100
AcDbEntity
  8
중심선
100
AcDbHatch
 10
0.0
 20
0.0
 30
0.0
210
0.0
220
0.0
230
1.0
  2
SOLID
 70
     1
 71
     0
 91
        1
 92
        0
 93
        4
 72
     1
 10
-17.22453438368504
 20
-35.7989250712761
 11
-20.67080962752232
 21
-35.7989250712761
 72
     1
 10
-20.67080962752232
 20
-35.7989250712761
 11
-22.79903948672635
 21
-38.3352506518487
 72
     1
 10
-22.79903948672635
 20
-38.3352506518487
 11
-19.35273115777591
 21
-38.33521122254621
 72
     1
 10
-19.35273115777591
 20
-38.33521122254621
 11
-17.22453438368504
 21
-35.7989250712761
 97
        0
 75
     0
 76
     1
 98
        1
 10
0.0
 20
0.0
  0
HATCH
  5
D1
330
1F
100
AcDbEntity
  8
중심선
100
AcDbHatch
 10
0.0
 20
0.0
 30
0.0
210
0.0
220
0.0
230
1.0
  2
SOLID
 70
     1
 71
     0
 91
        1
 92
        0
 93
        4
 72
     1
 10
-12.21177039264909
 20
-35.7989250712761
 11
-15.65804563648637
 21
-35.7989250712761
 72
     1
 10
-15.65804563648637
 20
-35.7989250712761
 11
-20.18918364484376
 21
-41.19892507127612
 72
     1
 10
-20.18918364484376
 20
-41.19892507127612
 11
-16.74290840100648
 21
-41.19892507127612
 72
     1
 10
-16.74290840100648
 20
-41.19892507127612
 11
-12.21177039264909
 21
-35.7989250712761
 97
        0
 75
     0
 76
     1
 98
        1
 10
0.0
 20
0.0
  0
HATCH
  5
D2
330
1F
100
AcDbEntity
  8
중심선
100
AcDbHatch
 10
0.0
 20
0.0
 30
0.0
210
0.0
220
0.0
230
1.0
  2
SOLID
 70
     1
 71
     0
 91
        1
 92
        0
 93
        4
 72
     1
 10
-7.199006401613195
 20
-35.79892507127613
 11
-10.64528164545031
 21
-35.7989250712761
 72
     1
 10
-10.64528164545031
 20
-35.7989250712761
 11
-17.69371854733956
 21
-44.19892507127612
 72
     1
 10
-17.69371854733956
 20
-44.19892507127612
 11
-14.24744330350228
 21
-44.19892507127612
 72
     1
 10
-14.24744330350228
 20
-44.19892507127612
 11
-7.199006401613195
 21
-35.79892507127613
 97
        0
 75
     0
 76
     1
 98
        1
 10
0.0
 20
0.0
  0
HATCH
  5
D3
330
1F
100
AcDbEntity
  8
중심선
100
AcDbHatch
 10
0.0
 20
0.0
 30
0.0
210
0.0
220
0.0
230
1.0
  2
SOLID
 70
     1
 71
     0
 91
        1
 92
        0
 93
        6
 72
     3
 10
-2.399115970600996
 20
-39.99892507132738
 11
3.960054785062284
 21
1.540850780301639E-10
 40
0.3939339440162633
 50
17.09539180608433
 51
320.0019657685079
 73
     0
 72
     1
 10
-0.7161163149004002
 20
-38.58681907591441
 11
1.589185558800638
 21
-36.65249236586649
 72
     3
 10
-2.399115970653842
 20
-39.99892507127625
 11
6.600054785286829
 21
-1.249000902703301E-13
 40
0.6363583540795982
 50
39.99873849337408
 51
368.4976242363725
 73
     1
 72
     1
 10
4.026216521246767
 20
-39.03892507120613
 11
-3.71904866381792
 21
-39.0389250712061
 72
     1
 10
-3.71904866381792
 20
-39.0389250712061
 11
-3.719073708263854
 21
-40.95892507120602
 72
     1
 10
-3.719073708263854
 20
-40.95892507120602
 11
0.7223060612081831
 21
-40.95892507120599
 97
        0
 75
     0
 76
     1
 98
        1
 10
0.0
 20
0.0
  0
LINE
  5
236
330
1F
100
AcDbEntity
  8
0
  6
Continuous
 62
     4
370
    25
100
AcDbLine
 10
2.0
 20
2.999999999999993
 30
0.0
 11
-42.98804538186349
 21
2.999999999999993
 31
0.0
  0
LINE
  5
237
330
1F
100
AcDbEntity
  8
0
  6
Continuous
 62
     4
370
    25
100
AcDbLine
 10
-42.98804538186349
 20
-3.0
 30
0.0
 11
2.0
 21
-3.0
 31
0.0
  0
LINE
  5
238
330
1F
100
AcDbEntity
  8
0
  6
Continuous
 62
     4
370
    25
100
AcDbLine
 10
2.0
 20
-3.0
 30
0.0
 11
6.011954618136514
 21
-1.925000000000004
 31
0.0
  0
LINE
  5
239
330
1F
100
AcDbEntity
  8
0
  6
Continuous
 62
     4
370
    25
100
AcDbLine
 10
6.011954618136514
 20
1.924999999999997
 30
0.0
 11
2.0
 21
2.999999999999996
 31
0.0
  0
LINE
  5
23A
330
1F
100
AcDbEntity
  8
0
  6
Continuous
 62
     4
370
    25
100
AcDbLine
 10
-42.98804538186349
 20
2.999999999999989
 30
0.0
 11
-43.98804538186349
 21
1.999999999999989
 31
0.0
  0
LINE
  5
23B
330
1F
100
AcDbEntity
  8
0
  6
Continuous
 62
     4
370
    25
100
AcDbLine
 10
-43.98804538186349
 20
-2.0
 30
0.0
 11
-42.98804538186349
 21
-3.0
 31
0.0
  0
LINE
  5
23C
330
1F
100
AcDbEntity
  8
0
  6
Continuous
 62
     4
370
    25
100
AcDbLine
 10
46.96205447260945
 20
1.924999999999997
 30
0.0
 11
6.011954618136514
 21
1.924999999999997
 31
0.0
  0
LINE
  5
23D
330
1F
100
AcDbEntity
  8
0
  6
Continuous
 62
     4
370
    25
100
AcDbLine
 10
6.011954618136514
 20
-1.924999999999997
 30
0.0
 11
46.96205447260945
 21
-1.924999999999997
 31
0.0
  0
SPLINE
  5
23E
330
1F
100
AcDbEntity
  8
0
  6
Continuous
 62
     4
370
    25
100
AcDbSpline
210
0.0
220
0.0
230
1.0
 70
     8
 71
     3
 72
     9
 73
     5
 74
     0
 42
0.000000001
 43
0.00000001
 40
0.0
 40
0.0
 40
0.0
 40
0.0
 40
0.6883897072065405
 40
0.9999999999999999
 40
0.9999999999999999
 40
0.9999999999999999
 40
0.9999999999999999
 10
50.01195461813651
 20
1.580702654398447
 30
0.0
 10
49.63921063911539
 20
1.569577367796875
 30
0.0
 10
49.0977383086622
 20
1.55341604742107
 30
0.0
 10
48.56376087043435
 20
1.571597175266401
 30
0.0
 10
48.39736800456302
 20
1.577262601837603
 30
0.0
  0
SPLINE
  5
23F
330
1F
100
AcDbEntity
  8
0
  6
Continuous
 62
     4
370
    25
100
AcDbSpline
210
0.0
220
0.0
230
1.0
 70
     8
 71
     3
 72
    11
 73
     7
 74
     0
 42
0.000000001
 43
0.00000001
 40
0.0
 40
0.0
 40
0.0
 40
0.0
 40
0.2991893529525135
 40
0.4272687617870665
 40
0.5811776575213582
 40
1.0
 40
1.0
 40
1.0
 40
1.0
 10
47.42500319918622
 20
-1.632989557142778
 30
0.0
 10
47.66813409735573
 20
-1.616685933999022
 30
0.0
 10
48.01534644561582
 20
-1.59340292340881
 30
0.0
 10
48.52439644231544
 20
-1.571093774147968
 30
0.0
 10
49.13762879867187
 20
-1.555711780631995
 30
0.0
 10
49.64264811274089
 20
-1.570146758584777
 30
0.0
 10
50.01195461813654
 20
-1.580702654398451
 30
0.0
  0
LINE
  5
240
330
1F
100
AcDbEntity
  8
0
  6
Continuous
 62
     1
370
    25
100
AcDbLine
 10
50.82923279655972
 20
0.5126449810253177
 30
0.0
 11
50.27637720944296
 21
0.7900437741464117
 31
0.0
  0
LINE
  5
241
330
1F
100
AcDbEntity
  8
0
  6
Continuous
 62
     1
370
    25
100
AcDbLine
 10
50.16973613558724
 20
1.589272224656543
 30
0.0
 11
50.01177382770783
 21
1.582600518897241
 31
0.0
  0
SPLINE
  5
242
330
1F
100
AcDbEntity
  8
0
  6
Continuous
 62
     1
370
    25
100
AcDbSpline
210
0.0
220
0.0
230
1.0
 70
     8
 71
     3
 72
    18
 73
    14
 74
     0
 42
0.000000001
 43
0.00000001
 40
0.0
 40
0.0
 40
0.0
 40
0.0
 40
0.1355385977514971
 40
0.2281446029076641
 40
0.2856534023565125
 40
0.3399630644737797
 40
0.3940334836651049
 40
0.4478526504073816
 40
0.6081564392120496
 40
0.6517596426161951
 40
0.7291280267117248
 40
0.8452262443287414
 40
1.0
 40
1.0
 40
1.0
 40
1.0
 10
55.30254079360924
 20
1.370795833430371
 30
0.0
 10
55.14230044416223
 20
1.35812805900698
 30
0.0
 10
54.87257675289749
 20
1.336805097035317
 30
0.0
 10
54.53595253814137
 20
1.323036895332976
 30
0.0
 10
54.29490528932325
 20
1.317398468587811
 30
0.0
 10
54.09968116011459
 20
1.315711071420665
 30
0.0
 10
53.90919815113091
 20
1.316716661443408
 30
0.0
 10
53.59470732743836
 20
1.322867942266207
 30
0.0
 10
53.2917578007291
 20
1.337080663451331
 30
0.0
 10
52.96150242836973
 20
1.360940318430139
 30
0.0
 10
52.68399335011827
 20
1.385475304026599
 30
0.0
 10
52.27537245331416
 20
1.430070247282018
 30
0.0
 10
51.95621370697569
 20
1.477329872532735
 30
0.0
 10
51.77384933303745
 20
1.504333587988697
 30
0.0
  0
SPLINE
  5
243
330
1F
100
AcDbEntity
  8
0
  6
Continuous
 62
     1
370
    25
100
AcDbSpline
210
0.0
220
0.0
230
1.0
 70
     8
 71
     3
 72
    12
 73
     8
 74
     0
 42
0.000000001
 43
0.00000001
 40
0.0
 40
0.0
 40
0.0
 40
0.0
 40
0.3467652465863108
 40
0.5757289244930667
 40
0.7330616366485757
 40
0.8982054789040028
 40
1.0
 40
1.0
 40
1.0
 40
1.0
 10
51.77384933303745
 20
-1.504333587988697
 30
0.0
 10
51.94648420694614
 20
-1.47866681141376
 30
0.0
 10
52.233107192565
 20
-1.436052663029059
 30
0.0
 10
52.5969936598492
 20
-1.394833527967897
 30
0.0
 10
52.87065626858566
 20
-1.368536565557839
 30
0.0
 10
53.08144018008301
 20
-1.351500232540587
 30
0.0
 10
53.21411933507306
 20
-1.34381072058288
 30
0.0
 10
53.26471532611788
 20
-1.340878395017654
 30
0.0
  0
LINE
  5
244
330
1F
100
AcDbEntity
  8
0
  6
Continuous
 62
     1
370
    25
100
AcDbLine
 10
50.01166037872088
 20
-1.582934091177407
 30
0.0
 11
50.16973613558724
 21
-1.58927222465654
 31
0.0
  0
LINE
  5
245
330
1F
100
AcDbEntity
  8
0
  6
Continuous
 62
     4
370
    25
100
AcDbLine
 10
2.0
 20
2.999999999999996
 30
0.0
 11
2.0
 21
-3.0
 31
0.0
  0
LINE
  5
246
330
1F
100
AcDbEntity
  8
0
  6
Continuous
 62
     4
370
    25
100
AcDbLine
 10
-42.98804538186349
 20
2.999999999999989
 30
0.0
 11
-42.98804538186349
 21
-3.0
 31
0.0
  0
LINE
  5
247
330
1F
100
AcDbEntity
  8
0
  6
Continuous
 62
     4
370
    25
100
AcDbLine
 10
6.011954618136514
 20
1.924999999999997
 30
0.0
 11
6.011954618136514
 21
-1.925000000000004
 31
0.0
  0
LINE
  5
248
330
1F
100
AcDbEntity
  8
0
  6
Continuous
 62
     4
370
    25
100
AcDbLine
 10
-43.98804538186349
 20
1.999999999999989
 30
0.0
 11
-43.98804538186349
 21
-2.0
 31
0.0
  0
SPLINE
  5
249
330
1F
100
AcDbEntity
  8
0
  6
Continuous
 62
     4
370
    25
100
AcDbSpline
210
0.0
220
0.0
230
1.0
 70
     8
 71
     3
 72
    18
 73
    14
 74
     0
 42
0.000000001
 43
0.00000001
 40
0.0
 40
0.0
 40
0.0
 40
0.0
 40
0.1249999999999981
 40
0.1249999999999981
 40
0.2499999999999961
 40
0.2499999999999961
 40
0.4999999999999973
 40
0.4999999999999973
 40
0.624999999999998
 40
0.624999999999998
 40
0.7499999999999988
 40
0.7499999999999988
 40
1.0
 40
1.0
 40
1.0
 40
1.0
 10
50.01195461813654
 20
0.9195926915382486
 30
0.0
 10
49.88404583342697
 20
0.9817807690997142
 30
0.0
 10
49.75618362390219
 20
1.042089630919115
 30
0.0
 10
49.50286344269904
 20
1.157894964677951
 30
0.0
 10
49.37773555719951
 20
1.213359940223306
 30
0.0
 10
48.99632815125662
 20
1.372958926438187
 30
0.0
 10
48.73827019425318
 20
1.46951492011253
 30
0.0
 10
48.35941489017574
 20
1.594490292113125
 30
0.0
 10
48.23381774097732
 20
1.632961287243944
 30
0.0
 10
47.9790412313688
 20
1.703508034370213
 30
0.0
 10
47.85087323167505
 20
1.735468311889257
 30
0.0
 10
47.46752419407565
 20
1.820506044586775
 30
0.0
 10
47.21734188243624
 20
1.862569858233655
 30
0.0
 10
46.96215917549665
 20
1.889580777916596
 30
0.0
  0
SPLINE
  5
24A
330
1F
100
AcDbEntity
  8
0
  6
Continuous
 62
     4
370
    25
100
AcDbSpline
210
0.0
220
0.0
230
1.0
 70
     8
 71
     3
 72
    18
 73
    14
 74
     0
 42
0.000000001
 43
0.00000001
 40
0.0
 40
0.0
 40
0.0
 40
0.0
 40
0.1250000000000033
 40
0.1250000000000033
 40
0.2500000000000066
 40
0.2500000000000066
 40
0.5000000000000079
 40
0.5000000000000079
 40
0.6250000000000059
 40
0.6250000000000059
 40
0.750000000000004
 40
0.750000000000004
 40
1.0
 40
1.0
 40
1.0
 40
1.0
 10
50.01195461813649
 20
0.4051148844736332
 30
0.0
 10
49.88404145995872
 20
0.4743194848037859
 30
0.0
 10
49.75617488040609
 20
0.5426905569958507
 30
0.0
 10
49.5028462015668
 20
0.6765454905835924
 30
0.0
 10
49.37771395140456
 20
0.7419820193601581
 30
0.0
 10
48.99629311611636
 20
0.9344443364676209
 30
0.0
 10
48.73822626911499
 20
1.056780298111221
 30
0.0
 10
48.3593591297394
 20
1.224807558639242
 30
0.0
 10
48.23375702756869
 20
1.27837317635985
 30
0.0
 10
47.97897127453376
 20
1.380623495510953
 30
0.0
 10
47.85079879768571
 20
1.429154893640074
 30
0.0
 10
47.46743712713754
 20
1.565617886612916
 30
0.0
 10
47.21724657106756
 20
1.644056332932589
 30
0.0
 10
46.96205447260942
 20
1.709143488656242
 30
0.0
  0
SPLINE
  5
24B
330
1F
100
AcDbEntity
  8
0
  6
Continuous
 62
     4
370
    25
100
AcDbSpline
210
0.0
220
0.0
230
1.0
 70
     8
 71
     3
 72
    10
 73
     6
 74
     0
 42
0.000000001
 43
0.00000001
 40
0.0
 40
0.0
 40
0.0
 40
0.0
 40
0.0642033549571676
 40
0.5333308203351765
 40
1.0
 40
1.0
 40
1.0
 40
1.0
 10
48.39647743131371
 20
-1.577581651769734
 30
0.0
 10
48.36577350384323
 20
-1.588740506452908
 30
0.0
 10
48.11071906258729
 20
-1.681435991387353
 30
0.0
 10
47.63214449836892
 20
-1.793608883895359
 30
0.0
 10
47.18509615941741
 20
-1.857646220749686
 30
0.0
 10
46.96215917549665
 20
-1.889580777916592
 30
0.0
  0
LINE
  5
24C
330
1F
100
AcDbEntity
  8
0
  6
Continuous
 62
     4
370
    25
100
AcDbLine
 10
46.96205447260945
 20
1.889597655509785
 30
0.0
 11
46.96205447260945
 21
1.924999999999997
 31
0.0
  0
LINE
  5
24D
330
1F
100
AcDbEntity
  8
0
  6
Continuous
 62
     4
370
    25
100
AcDbLine
 10
46.96205447260945
 20
-1.924999999999997
 30
0.0
 11
46.96205447260945
 21
1.709389812858262
 31
0.0
  0
SPLINE
  5
24E
330
1F
100
AcDbEntity
  8
0
  6
Continuous
 62
     4
370
    25
100
AcDbSpline
210
0.0
220
0.0
230
1.0
 70
    24
 71
     3
 72
    10
 73
     6
 74
     0
 42
0.000000001
 43
0.00000001
 40
0.0
 40
0.0
 40
0.0
 40
0.0
 40
0.5
 40
0.5
 40
1.0
 40
1.0
 40
1.0
 40
1.0
 10
50.01195461813651
 20
0.405114884473555
 30
0.0
 10
50.01195461813654
 20
0.4044302769278687
 30
0.0
 10
50.01195461813654
 20
0.3875955315120976
 30
0.0
 10
50.01195461813654
 20
0.3248054059878243
 30
0.0
 10
50.01195461813654
 20
0.2790477599600081
 30
0.0
 10
50.01195461813651
 20
0.2247554758747583
 30
0.0
  0
SPLINE
  5
24F
330
1F
100
AcDbEntity
  8
0
  6
Continuous
 62
     4
370
    25
100
AcDbSpline
210
0.0
220
0.0
230
1.0
 70
     8
 71
     3
 72
    16
 73
    12
 74
     0
 42
0.000000001
 43
0.00000001
 40
0.0
 40
0.0
 40
0.0
 40
0.0
 40
0.1249999999999978
 40
0.1249999999999978
 40
0.2499999999999956
 40
0.2499999999999956
 40
0.499999999999997
 40
0.499999999999997
 40
0.7499999999999984
 40
0.7499999999999984
 40
1.0
 40
1.0
 40
1.0
 40
1.0
 10
50.01195461813651
 20
0.2247554758747583
 30
0.0
 10
49.88404251319383
 20
0.2755708893496802
 30
0.0
 10
49.75617698604765
 20
0.3259222079488495
 30
0.0
 10
49.50285035363953
 20
0.4247951852010345
 30
0.0
 10
49.37771915459587
 20
0.4732806309359603
 30
0.0
 10
48.99630155341259
 20
0.6163490977546076
 30
0.0
 10
48.73823684733014
 20
0.7079288630246197
 30
0.0
 10
48.233084461766
 20
0.8769751245762194
 30
0.0
 10
47.978602932581
 20
0.9553040944867064
 30
0.0
 10
47.46745809489596
 20
1.095468304239802
 30
0.0
 10
47.217269524362
 20
1.156785121358411
 30
0.0
 10
46.9620796875771
 20
1.208698484234866
 30
0.0
  0
SPLINE
  5
250
330
1F
100
AcDbEntity
  8
0
  6
Continuous
 62
     4
370
    25
100
AcDbSpline
210
0.0
220
0.0
230
1.0
 70
     8
 71
     3
 72
    18
 73
    14
 74
     0
 42
0.000000001
 43
0.00000001
 40
0.0
 40
0.0
 40
0.0
 40
0.0
 40
0.1250000000000014
 40
0.1250000000000014
 40
0.2500000000000029
 40
0.2500000000000029
 40
0.5000000000000057
 40
0.5000000000000057
 40
0.6250000000000043
 40
0.6250000000000043
 40
0.7500000000000029
 40
0.7500000000000029
 40
1.0
 40
1.0
 40
1.0
 40
1.0
 10
50.01195461813651
 20
-1.579247033629272
 30
0.0
 10
49.8840430564519
 20
-1.569801255834534
 30
0.0
 10
49.75617807213655
 20
-1.557143686893092
 30
0.0
 10
49.50285249527695
 20
-1.525696305029086
 30
0.0
 10
49.37772183839877
 20
-1.506945544902962
 30
0.0
 10
48.99630590536532
 20
-1.441393886175319
 30
0.0
 10
48.73824230356877
 20
-1.38533502578089
 30
0.0
 10
48.35937948453324
 20
-1.285846401562395
 30
0.0
 10
48.23377919044523
 20
-1.250099012892846
 30
0.0
 10
47.9789968116242
 20
-1.17335753066773
 30
0.0
 10
47.85082596911016
 20
-1.132450027220941
 30
0.0
 10
47.46746891006251
 20
-1.003211346220297
 30
0.0
 10
47.21728136364692
 20
-0.9088689549296305
 30
0.0
 10
46.96209269343882
 20
-0.8073574896550042
 30
0.0
  0
SPLINE
  5
251
330
1F
100
AcDbEntity
  8
0
  6
Continuous
 62
     4
370
    25
100
AcDbSpline
210
0.0
220
0.0
230
1.0
 70
    24
 71
     3
 72
    14
 73
    10
 74
     0
 42
0.000000001
 43
0.00000001
 40
0.0
 40
0.0
 40
0.0
 40
0.0
 40
0.25
 40
0.25
 40
0.4999999999999999
 40
0.4999999999999999
 40
0.75
 40
0.75
 40
1.0
 40
1.0
 40
1.0
 40
1.0
 10
50.01195461813651
 20
0.2247554758747583
 30
0.0
 10
50.01195461813651
 20
0.0478379764646704
 30
0.0
 10
50.01195461813651
 20
-0.1336037481305681
 30
0.0
 10
50.01195461813651
 20
-0.4885406909531724
 30
0.0
 10
50.01195461813651
 20
-0.6618479081743871
 30
0.0
 10
50.01195461813651
 20
-0.9824711655082012
 30
0.0
 10
50.01195461813651
 20
-1.129616364144596
 30
0.0
 10
50.01195461813651
 20
-1.384867563041766
 30
0.0
 10
50.01195461813654
 20
-1.492925576302525
 30
0.0
 10
50.01195461813651
 20
-1.579247033629272
 30
0.0
  0
SPLINE
  5
252
330
1F
100
AcDbEntity
  8
0
  6
Continuous
 62
     4
370
    25
100
AcDbSpline
210
0.0
220
0.0
230
1.0
 70
    24
 71
     3
 72
    12
 73
     8
 74
     0
 42
0.000000001
 43
0.00000001
 40
0.0
 40
0.0
 40
0.0
 40
0.0
 40
0.1964675544151106
 40
0.405411725067401
 40
0.6204152908234913
 40
0.8080359605400104
 40
0.9999999999999999
 40
0.9999999999999999
 40
0.9999999999999999
 40
0.9999999999999999
 10
50.01195461813651
 20
1.568261081174121
 30
0.0
 10
50.01195461813651
 20
1.565144782918139
 30
0.0
 10
50.01195461813651
 20
1.558714286770599
 30
0.0
 10
50.01195461813651
 20
1.455240295060776
 30
0.0
 10
50.01195461813654
 20
1.305681983255056
 30
0.0
 10
50.01195461813651
 20
1.11202721436922
 30
0.0
 10
50.01195461813654
 20
0.9563667030268874
 30
0.0
 10
50.01195461813654
 20
0.8776458804560576
 30
0.0
  0
LINE
  5
253
330
1F
100
AcDbEntity
  8
0
  6
Continuous
 62
     4
370
    25
100
AcDbLine
 10
47.42990306570258
 20
-1.611567681488154
 30
0.0
 11
46.96215917549665
 21
-1.681492594814515
 31
0.0
  0
SPLINE
  5
254
330
1F
100
AcDbEntity
  8
0
  6
Continuous
 62
     1
370
    25
100
AcDbSpline
210
0.0
220
0.0
230
1.0
 70
     8
 71
     3
 72
    32
 73
    28
 74
     0
 42
0.000000001
 43
0.00000001
 40
0.0
 40
0.0
 40
0.0
 40
0.0
 40
0.125
 40
0.125
 40
0.1875
 40
0.1875
 40
0.25
 40
0.25
 40
0.3125
 40
0.3125
 40
0.375
 40
0.375
 40
0.4999999999999973
 40
0.4999999999999973
 40
0.5624999999999973
 40
0.5624999999999973
 40
0.6249999999999973
 40
0.6249999999999973
 40
0.6874999999999973
 40
0.6874999999999973
 40
0.7499999999999973
 40
0.7499999999999973
 40
0.875
 40
0.875
 40
0.9375
 40
0.9375
 40
1.0
 40
1.0
 40
1.0
 40
1.0
 10
55.85460593798945
 20
-1.990477426426196
 30
0.0
 10
55.66766912707504
 20
-1.98515136263719
 30
0.0
 10
55.41834821793225
 20
-1.959980558823119
 30
0.0
 10
55.0493860484421
 20
-1.900478609524001
 30
0.0
 10
54.92825518436106
 20
-1.87713350114511
 30
0.0
 10
54.68373308995922
 20
-1.823347403868894
 30
0.0
 10
54.56026631212802
 20
-1.792875136319729
 30
0.0
 10
54.31300258553819
 20
-1.725212551881683
 30
0.0
 10
54.1892096080112
 20
-1.688023256469435
 30
0.0
 10
53.9434010290698
 20
-1.607598229403024
 30
0.0
 10
53.82239150627436
 20
-1.564496753032877
 30
0.0
 10
53.45526763115657
 20
-1.426147207439428
 30
0.0
 10
53.20588233235242
 20
-1.321776374110172
 30
0.0
 10
52.83743318906448
 20
-1.152225017349167
 30
0.0
 10
52.71650699913044
 20
-1.093728757369149
 30
0.0
 10
52.47154007068889
 20
-0.9723522608503572
 30
0.0
 10
52.34794959617341
 20
-0.9095300489239406
 30
0.0
 10
52.10064285490108
 20
-0.7806492652830244
 30
0.0
 10
51.97693056419638
 20
-0.7145927539830623
 30
0.0
 10
51.73148321171087
 20
-0.5803899017401406
 30
0.0
 10
51.61060233535659
 20
-0.5124093517556361
 30
0.0
 10
51.24283968378725
 20
-0.3050148147744309
 30
0.0
 10
50.99343033916023
 20
-0.162589316696014
 30
0.0
 10
50.62555177796108
 20
0.0501057355718828
 30
0.0
 10
50.50467819000079
 20
0.1207059852339967
 30
0.0
 10
50.25930444933965
 20
0.2618834553029288
 30
0.0
 10
50.13560986983398
 20
0.3323033183432074
 30
0.0
 10
50.01195461813651
 20
0.401952387304533
 30
0.0
  0
SPLINE
  5
255
330
1F
100
AcDbEntity
  8
0
  6
Continuous
 62
     1
370
    25
100
AcDbSpline
210
0.0
220
0.0
230
1.0
 70
     8
 71
     3
 72
     9
 73
     5
 74
     0
 42
0.000000001
 43
0.00000001
 40
0.0
 40
0.0
 40
0.0
 40
0.0
 40
0.2822150385063736
 40
1.0
 40
1.0
 40
1.0
 40
1.0
 10
51.03756053314703
 20
-0.1871075207373778
 30
0.0
 10
50.94104216559225
 20
-0.1488220564257858
 30
0.0
 10
50.59903924446672
 20
-0.0131614462959107
 30
0.0
 10
50.25727083952052
 20
0.1253407105536866
 30
0.0
 10
50.01195461813654
 20
0.2247554758747583
 30
0.0
  0
SPLINE
  5
256
330
1F
100
AcDbEntity
  8
0
  6
Continuous
 62
     4
370
    25
100
AcDbSpline
210
0.0
220
0.0
230
1.0
 70
    24
 71
     3
 72
    11
 73
     7
 74
     0
 42
0.000000001
 43
0.00000001
 40
0.0
 40
0.0
 40
0.0
 40
0.0
 40
0.1791324983954228
 40
0.4424110168649274
 40
0.713324630205813
 40
1.0
 40
1.0
 40
1.0
 40
1.0
 10
50.01195461813649
 20
0.4013885290102976
 30
0.0
 10
50.01195461813651
 20
0.3998435151279409
 30
0.0
 10
50.01195461813649
 20
0.3960277297797603
 30
0.0
 10
50.01195461813651
 20
0.3636734739400964
 30
0.0
 10
50.01195461813654
 20
0.3091148524423062
 30
0.0
 10
50.01195461813654
 20
0.2534002426355428
 30
0.0
 10
50.01195461813654
 20
0.2247554758765418
 30
0.0
  0
SPLINE
  5
257
330
1F
100
AcDbEntity
  8
0
  6
Continuous
 62
     1
370
    25
100
AcDbSpline
210
0.0
220
0.0
230
1.0
 70
     8
 71
     3
 72
    12
 73
     8
 74
     0
 42
0.000000001
 43
0.00000001
 40
0.0
 40
0.0
 40
0.0
 40
0.0
 40
0.2165109241298576
 40
0.4330410920914932
 40
0.6495888985932683
 40
0.8661527252273226
 40
0.9999999999999999
 40
0.9999999999999999
 40
0.9999999999999999
 40
0.9999999999999999
 10
56.01195461813654
 20
-1.577944528736424
 30
0.0
 10
55.6349929607324
 20
-1.492776936051328
 30
0.0
 10
54.88103614097867
 20
-1.322434180851403
 30
0.0
 10
53.75003205279339
 20
-0.8821788274878131
 30
0.0
 10
52.61893217656291
 20
-0.3617613388183401
 30
0.0
 10
51.63175264974501
 20
0.1322525767535154
 30
0.0
 10
51.02167160002261
 20
0.42089917867645
 30
0.0
 10
50.78863764200025
 20
0.5311541360241989
 30
0.0
  0
SPLINE
  5
258
330
1F
100
AcDbEntity
  8
0
  6
Continuous
 62
     1
370
    25
100
AcDbSpline
210
0.0
220
0.0
230
1.0
 70
    24
 71
     3
 72
     8
 73
     4
 74
     0
 42
0.000000001
 43
0.00000001
 40
0.0
 40
0.0
 40
0.0
 40
0.0
 40
1.0
 40
1.0
 40
1.0
 40
1.0
 10
56.01195461813654
 20
-1.789970616993983
 30
0.0
 10
56.01195461813654
 20
-1.719157860375773
 30
0.0
 10
56.01195461813654
 20
-1.648284382186688
 30
0.0
 10
56.01195461813654
 20
-1.577944528736424
 30
0.0
  0
SPLINE
  5
259
330
1F
100
AcDbEntity
  8
0
  6
Continuous
 62
     1
370
    25
100
AcDbSpline
210
0.0
220
0.0
230
1.0
 70
     8
 71
     3
 72
    23
 73
    19
 74
     0
 42
0.000000001
 43
0.00000001
 40
0.0000000000000017
 40
0.0000000000000017
 40
0.0000000000000017
 40
0.0000000000000017
 40
0.0000309836703648
 40
0.0000309836703648
 40
0.0000309836703648
 40
0.0000621829899111
 40
0.0000621829899111
 40
0.0000621829899111
 40
0.0000908430932116
 40
0.0000908430932116
 40
0.0000908430932116
 40
0.0001186191166451
 40
0.0001186191166451
 40
0.0001186191166451
 40
0.0001487828091073
 40
0.0001487828091073
 40
0.0001487828091073
 40
0.0001635667189071
 40
0.0001635667189071
 40
0.0001635667189071
 40
0.0001635667189071
 10
56.01195461813654
 20
-1.789970616992278
 30
0.0
 10
56.01195461813654
 20
-1.800293519494176
 30
0.0
 10
56.01052758196266
 20
-1.810786935593015
 30
0.0
 10
56.00757589189482
 20
-1.820623784845139
 30
0.0
 10
56.00461193260097
 20
-1.830501522714826
 30
0.0
 10
55.99999755616022
 20
-1.839985950675761
 30
0.0
 10
55.9940811604759
 20
-1.84807809592332
 30
0.0
 10
55.98863441479105
 20
-1.855527877777064
 30
0.0
 10
55.98193719814944
 20
-1.862005293172089
 30
0.0
 10
55.97461941379368
 20
-1.866989484404812
 30
0.0
 10
55.96751024345144
 20
-1.87183158725577
 30
0.0
 10
55.95964889064223
 20
-1.875402593588326
 30
0.0
 10
55.95164204501015
 20
-1.877614214021321
 30
0.0
 10
55.94294303230078
 20
-1.880017022210595
 30
0.0
 10
55.93387855152719
 20
-1.880888518493315
 30
0.0
 10
55.92500971907475
 20
-1.880411710245973
 30
0.0
 10
55.92062869773304
 20
-1.880176176750588
 30
0.0
 10
55.91626120757377
 20
-1.879615434866288
 30
0.0
 10
55.91195461813643
 20
-1.878759392336789
 30
0.0
  0
SPLINE
  5
25A
330
1F
100
AcDbEntity
  8
0
  6
Continuous
 62
     1
370
    25
100
AcDbSpline
210
0.0
220
0.0
230
1.0
 70
     8
 71
     3
 72
    32
 73
    28
 74
     0
 42
0.000000001
 43
0.00000001
 40
0.0
 40
0.0
 40
0.0
 40
0.0
 40
0.1250000000000026
 40
0.1250000000000026
 40
0.1875000000000027
 40
0.1875000000000027
 40
0.2500000000000027
 40
0.2500000000000027
 40
0.3125000000000028
 40
0.3125000000000028
 40
0.3750000000000028
 40
0.3750000000000028
 40
0.5000000000000002
 40
0.5000000000000002
 40
0.5625000000000002
 40
0.5625000000000002
 40
0.6250000000000002
 40
0.6250000000000002
 40
0.6875000000000002
 40
0.6875000000000002
 40
0.7500000000000001
 40
0.7500000000000001
 40
0.8750000000000001
 40
0.8750000000000001
 40
0.9375000000000001
 40
0.9375000000000001
 40
1.0
 40
1.0
 40
1.0
 40
1.0
 10
55.91195461813652
 20
-1.878759392336733
 30
0.0
 10
55.66766912707504
 20
-1.83020153170736
 30
0.0
 10
55.41834821793225
 20
-1.767023612717097
 30
0.0
 10
55.0493860484421
 20
-1.653375885174995
 30
0.0
 10
54.92825518436109
 20
-1.612503818923685
 30
0.0
 10
54.68373308995922
 20
-1.524614537033109
 30
0.0
 10
54.56026631212796
 20
-1.477566206471188
 30
0.0
 10
54.31300258553819
 20
-1.377996213212128
 30
0.0
 10
54.1892096080112
 20
-1.325476097117729
 30
0.0
 10
53.94340102906986
 20
-1.215887676669936
 30
0.0
 10
53.82239150627439
 20
-1.158987959163781
 30
0.0
 10
53.45526763115657
 20
-0.9814509038959969
 30
0.0
 10
53.20588233235247
 20
-0.8539803129927961
 30
0.0
 10
52.83743318906448
 20
-0.6555011653376113
 30
0.0
 10
52.71650699913044
 20
-0.588326068572627
 30
0.0
 10
52.47154007068889
 20
-0.4514494475053539
 30
0.0
 10
52.34794959617341
 20
-0.3818232480486827
 30
0.0
 10
52.10064285490108
 20
-0.241360763491997
 30
0.0
 10
51.97693056419644
 20
-0.1705267324798427
 30
0.0
 10
51.73148321171087
 20
-0.0288611937289147
 30
0.0
 10
51.61060233535665
 20
0.0418044686203984
 30
0.0
 10
51.24283968378728
 20
0.2541514567572705
 30
0.0
 10
50.99343033916023
 20
0.3956590214485018
 30
0.0
 10
50.62555177796108
 20
0.6006921858368912
 30
0.0
 10
50.50467819000079
 20
0.6677135968214429
 30
0.0
 10
50.25930444933965
 20
0.7996535535534761
 30
0.0
 10
50.13560986983401
 20
0.8644162975288765
 30
0.0
 10
50.01195461813654
 20
0.9274099677879803
 30
0.0
  0
LINE
  5
25B
330
1F
100
AcDbEntity
  8
0
  6
Continuous
 62
     4
370
    25
100
AcDbLine
 10
50.01195461813651
 20
0.401952387304533
 30
0.0
 11
50.01195461813651
 21
0.9274099677879803
 31
0.0
  0
SPLINE
  5
25C
330
1F
100
AcDbEntity
  8
0
  6
Continuous
 62
     1
370
    25
100
AcDbSpline
210
0.0
220
0.0
230
1.0
 70
     8
 71
     3
 72
    13
 73
     9
 74
     0
 42
0.000000001
 43
0.00000001
 40
0.0
 40
0.0
 40
0.0
 40
0.0
 40
0.1935156565289028
 40
0.3870487592663658
 40
0.5805978527021808
 40
0.774161469395481
 40
0.9007355857788383
 40
1.0
 40
1.0
 40
1.0
 40
1.0
 10
56.01195461813654
 20
0.0
 30
0.0
 10
55.63498974136849
 20
0.1741672803341743
 30
0.0
 10
54.88102600294462
 20
0.5225175428777717
 30
0.0
 10
53.75001960142157
 20
0.989527700674472
 30
0.0
 10
52.61888949719838
 20
1.353045029786117
 30
0.0
 10
51.61825191519227
 20
1.544496341719096
 30
0.0
 10
50.8011118719883
 20
1.610800496645894
 30
0.0
 10
50.36149587345597
 20
1.591630243746362
 30
0.0
 10
50.16826832960086
 20
1.583204206260863
 30
0.0
  0
SPLINE
  5
25D
330
1F
100
AcDbEntity
  8
0
  6
Continuous
 62
     1
370
    25
100
AcDbSpline
210
0.0
220
0.0
230
1.0
 70
    24
 71
     3
 72
    10
 73
     6
 74
     0
 42
0.000000001
 43
0.00000001
 40
0.0
 40
0.0
 40
0.0
 40
0.0
 40
0.5
 40
0.5
 40
1.0
 40
1.0
 40
1.0
 40
1.0
 10
56.01195461813654
 20
-1.577944528736424
 30
0.0
 10
56.01195461813654
 20
-1.407185134337965
 30
0.0
 10
56.01195461813654
 20
-1.171452163182281
 30
0.0
 10
56.01195461813654
 20
-0.6198823592321787
 30
0.0
 10
56.01195461813654
 20
-0.3064196984977485
 30
0.0
 10
56.01195461813654
 20
0.0
 30
0.0
  0
SPLINE
  5
25E
330
1F
100
AcDbEntity
  8
0
  6
Continuous
 62
     4
370
    25
100
AcDbSpline
210
0.0
220
0.0
230
1.0
 70
    24
 71
     3
 72
    13
 73
     9
 74
     0
 42
0.000000001
 43
0.00000001
 40
0.0
 40
0.0
 40
0.0
 40
0.0
 40
0.0833222461545982
 40
0.2233839884426067
 40
0.4253290241928844
 40
0.6331304796606485
 40
0.8144663012588784
 40
1.0
 40
1.0
 40
1.0
 40
1.0
 10
50.01195461813651
 20
1.578107643597942
 30
0.0
 10
50.01195461813649
 20
1.578448104022485
 30
0.0
 10
50.01195461813649
 20
1.579360866352484
 30
0.0
 10
50.01195461813651
 20
1.543460262791577
 30
0.0
 10
50.01195461813651
 20
1.457363382861978
 30
0.0
 10
50.01195461813651
 20
1.305190216156383
 30
0.0
 10
50.01195461813649
 20
1.112146259228368
 30
0.0
 10
50.01195461813651
 20
0.9564066861990881
 30
0.0
 10
50.01195461813654
 20
0.8776458804560576
 30
0.0
  0
LINE
  5
25F
330
1F
100
AcDbEntity
  8
0
  6
Continuous
 62
     1
370
    25
100
AcDbLine
 10
56.01195461813654
 20
1.400000000000006
 30
0.0
 11
55.29822212766959
 21
1.353306821203603
 31
0.0
  0
SPLINE
  5
260
330
1F
100
AcDbEntity
  8
0
  6
Continuous
 62
     1
370
    25
100
AcDbSpline
210
0.0
220
0.0
230
1.0
 70
    24
 71
     3
 72
    14
 73
    10
 74
     0
 42
0.000000001
 43
0.00000001
 40
0.0
 40
0.0
 40
0.0
 40
0.0
 40
0.25
 40
0.25
 40
0.5
 40
0.5
 40
0.75
 40
0.75
 40
1.0
 40
1.0
 40
1.0
 40
1.0
 10
56.01195461813654
 20
0.0
 30
0.0
 10
56.01195461813654
 20
0.1665687034027954
 30
0.0
 10
56.01195461813654
 20
0.3310871527509107
 30
0.0
 10
56.01195461813649
 20
0.6387450999155107
 30
0.0
 10
56.01195461813654
 20
0.7816934607495369
 30
0.0
 10
56.01195461813649
 20
1.030513824303654
 30
0.0
 10
56.01195461813654
 20
1.136253245131314
 30
0.0
 10
56.01195461813654
 20
1.302133108422716
 30
0.0
 10
56.01195461813654
 20
1.362281548872787
 30
0.0
 10
56.01195461813654
 20
1.400000000000006
 30
0.0
  0
SPLINE
  5
261
330
1F
100
AcDbEntity
  8
0
  6
Continuous
 62
     1
370
    25
100
AcDbSpline
210
0.0
220
0.0
230
1.0
 70
     8
 71
     3
 72
    10
 73
     6
 74
     0
 42
0.000000001
 43
0.00000001
 40
0.0
 40
0.0
 40
0.0
 40
0.0
 40
0.1663594177375659
 40
0.5840809758701178
 40
0.9999999999999999
 40
0.9999999999999999
 40
0.9999999999999999
 40
0.9999999999999999
 10
51.78230938398622
 20
-1.488139940422329
 30
0.0
 10
51.68411235099592
 20
-1.508318791060674
 30
0.0
 10
51.33934666452893
 20
-1.579165893876166
 30
0.0
 10
50.74897803354617
 20
-1.609089445318553
 30
0.0
 10
50.25727469581017
 20
-1.589180154613658
 30
0.0
 10
50.01195461813651
 20
-1.579247033629272
 30
0.0
  0
SPLINE
  5
262
330
1F
100
AcDbEntity
  8
0
  6
Continuous
 62
     4
370
    25
100
AcDbSpline
210
0.0
220
0.0
230
1.0
 70
    24
 71
     3
 72
    14
 73
    10
 74
     0
 42
0.000000001
 43
0.00000001
 40
0.0
 40
0.0
 40
0.0
 40
0.0
 40
0.2500000000000001
 40
0.2500000000000001
 40
0.5
 40
0.5
 40
0.75
 40
0.75
 40
1.0
 40
1.0
 40
1.0
 40
1.0
 10
50.01195461813651
 20
0.2247554758747583
 30
0.0
 10
50.01195461813654
 20
0.0478379764646775
 30
0.0
 10
50.01195461813651
 20
-0.1336037481305681
 30
0.0
 10
50.01195461813651
 20
-0.4885406909531653
 30
0.0
 10
50.01195461813651
 20
-0.6618479081743871
 30
0.0
 10
50.01195461813654
 20
-0.9824711655082012
 30
0.0
 10
50.01195461813649
 20
-1.129616364144596
 30
0.0
 10
50.01195461813651
 20
-1.384867563041766
 30
0.0
 10
50.01195461813651
 20
-1.492925576302518
 30
0.0
 10
50.01195461813651
 20
-1.579247033629272
 30
0.0
  0
LINE
  5
263
330
1F
100
AcDbEntity
  8
0
  6
Continuous
 62
     1
370
    25
100
AcDbLine
 10
56.01195461813654
 20
-1.789970616993983
 30
0.0
 11
56.01195461813654
 21
-1.79507819564904
 31
0.0
  0
SPLINE
  5
264
330
1F
100
AcDbEntity
  8
0
  6
Continuous
 62
     1
370
    25
100
AcDbSpline
210
0.0
220
0.0
230
1.0
 70
    24
 71
     3
 72
    10
 73
     6
 74
     0
 42
0.000000001
 43
0.00000001
 40
0.0
 40
0.0
 40
0.0
 40
0.0
 40
0.5
 40
0.5
 40
0.8051018515310742
 40
0.8051018515310742
 40
0.8051018515310742
 40
0.8051018515310742
 10
56.01195461813654
 20
1.400000000000006
 30
0.0
 10
56.01195461813654
 20
1.470887229722251
 30
0.0
 10
56.01195461813654
 20
1.551262239179053
 30
0.0
 10
56.01195461813654
 20
1.688069880294168
 30
0.0
 10
56.01195461813654
 20
1.741550664768718
 30
0.0
 10
56.01195461813655
 20
1.795078195649033
 30
0.0
  0
LINE
  5
265
330
1F
100
AcDbEntity
  8
중심선
100
AcDbLine
 10
-46.98804538186347
 20
-0.0000000000000071
 30
0.0
 11
59.01195461813654
 21
0.0
 31
0.0
  0
CIRCLE
  5
266
330
1F
100
AcDbEntity
  8
외형선
100
AcDbCircle
 10
0.0
 20
0.0
 30
0.0
 40
3.000000000000005
  0
DIMENSION
  5
267
330
1F
100
AcDbEntity
  8
치수문자_일반주서
100
AcDbDimension
  2
*D15
 10
-55.48450340347554
 20
-3.000000000000048
 30
0.0
 11
-55.48450340347556
 21
-0.0000000000000071
 31
0.0
 70
   160
  1
%%c<>
 71
     2
 42
5.999999999999989
 52
-270.0
  3
SLDDIMSTYLE0
100
AcDbAlignedDimension
 13
-42.98804538186349
 23
2.999999999999989
 33
0.0
 14
-42.98804538186349
 24
-3.0
 34
0.0
 50
90.0000000000002
100
AcDbRotatedDimension
  0
DIMENSION
  5
268
330
1F
100
AcDbEntity
  8
치수문자_일반주서
100
AcDbDimension
  2
*D16
 10
50.01195461813651
 20
20.39999999999965
 30
0.0
 11
53.01195461813654
 21
20.39999999999965
 31
0.0
 70
   160
  1
<>
 71
     2
 42
6.000000000000028
  3
SLDDIMSTYLE0
100
AcDbAlignedDimension
 13
56.01195461813654
 23
1.899999999999999
 33
0.0
 14
50.01195461813651
 24
1.581514153956213
 34
0.0
 50
0.0000000000000339
100
AcDbRotatedDimension
  0
DIMENSION
  5
269
330
1F
100
AcDbEntity
  8
치수문자_일반주서
100
AcDbDimension
  2
*D17
 10
-43.98804538186349
 20
42.45832450504429
 30
0.0
 11
6.011954618136514
 21
42.45832450504429
 31
0.0
 70
   160
  1
<>
 71
     2
 42
100.0
  3
SLDDIMSTYLE1
100
AcDbAlignedDimension
 13
56.01195461813654
 23
1.899999999999999
 33
0.0
 14
-43.98804538186349
 24
1.999999999999989
 34
0.0
100
AcDbRotatedDimension
  0
DIMENSION
  5
26A
330
1F
100
AcDbEntity
  8
치수문자_일반주서
100
AcDbDimension
  2
*D18
 10
6.011954618136514
 20
30.31999999999866
 30
0.0
 11
31.01195461813654
 21
30.31999999999866
 31
0.0
 70
   160
  1
<>
 71
     2
 42
50.00000000000003
  3
SLDDIMSTYLE0
100
AcDbAlignedDimension
 13
56.01195461813654
 23
1.897300810639997
 33
0.0
 14
6.011954618136514
 24
1.924999999999997
 34
0.0
 50
-0.0000000000022354
100
AcDbRotatedDimension
  0
DIMENSION
  5
26B
330
1F
100
AcDbEntity
  8
치수문자_일반주서
100
AcDbDimension
  2
*D19
 10
70.03893492186477
 20
-1.995079370482078
 30
0.0
 11
70.03893492186472
 21
11.66978253655226
 31
0.0
 70
   160
  1
%%c<>
 71
     2
 42
3.99836190703434
 52
-270.0
  3
SLDDIMSTYLE0
100
AcDbAlignedDimension
 13
56.01195461813654
 23
2.003282536552209
 33
0.0
 14
55.91195461813652
 24
-1.995079370482131
 34
0.0
 50
90.0000000000002
100
AcDbRotatedDimension
  0
INSERT
  5
26C
330
1F
100
AcDbEntity
  8
외형선
100
AcDbBlockReference
  2
SW_DOWELSYMBOL_0
 10
0.0
 20
0.0
 30
0.0
  0
SPLINE
  5
26E
330
1F
100
AcDbEntity
  8
0
  6
Continuous
 62
     1
370
    25
100
AcDbSpline
210
0.0
220
0.0
230
1.0
 70
    24
 71
     3
 72
     8
 73
     4
 74
     0
 42
0.000000001
 43
0.00000001
 40
0.9999943904359837
 40
0.9999943904359837
 40
0.9999943904359837
 40
0.9999943904359837
 40
0.9999999999999999
 40
0.9999999999999999
 40
0.9999999999999999
 40
0.9999999999999999
 10
55.91193977594523
 20
1.995078181507481
 30
0.0
 10
55.91194472334234
 20
1.995078577832363
 30
0.0
 10
55.91194967073943
 20
1.995078974157249
 30
0.0
 10
55.91195461813652
 20
1.995079370482131
 30
0.0
  0
SPLINE
  5
26F
330
1F
100
AcDbEntity
  8
0
  6
Continuous
 62
     1
370
    25
100
AcDbSpline
210
0.0
220
0.0
230
1.0
 70
     8
 71
     3
 72
    11
 73
     7
 74
     0
 42
0.000000001
 43
0.00000001
 40
0.0
 40
0.0
 40
0.0
 40
0.0
 40
0.0183485744302639
 40
0.3451015365545322
 40
0.6722466042231073
 40
0.978325223840389
 40
0.978325223840389
 40
0.978325223840389
 40
0.978325223840389
 10
53.2670812408943
 20
1.342006821085974
 30
0.0
 10
53.28326391178123
 20
1.349766874933778
 30
0.0
 10
53.58762895168476
 20
1.495718622673039
 30
0.0
 10
54.17982314805204
 20
1.693473099368148
 30
0.0
 10
55.02618783833069
 20
1.920526886874532
 30
0.0
 10
55.58465780662149
 20
1.96874135258176
 30
0.0
 10
55.85460593798516
 20
1.990477426425851
 30
0.0
  0
LINE
  5
2BC
330
1F
100
AcDbEntity
  8
0
100
AcDbLine
 10
56.01195461813654
 20
1.400000000000006
 30
0.0
 11
56.01195461813654
 21
1.636225179492099
 31
0.0
  0
ARC
  5
2BE
330
1F
100
AcDbEntity
  8
0
  6
Continuous
 62
     1
370
    25
100
AcDbCircle
 10
55.81195461813654
 20
1.795078181507481
 30
0.0
 40
0.1999999999999999
100
AcDbArc
 50
0.000004051258344
 51
77.68673411231676
  0
SPLINE
  5
2BF
330
1F
100
AcDbEntity
  8
0
  6
Continuous
 62
     1
370
    25
100
AcDbSpline
210
0.0
220
0.0
230
1.0
 70
    24
 71
     3
 72
     8
 73
     4
 74
     0
 42
0.000000001
 43
0.00000001
 40
0.9957311907525938
 40
0.9957311907525938
 40
0.9957311907525938
 40
0.9957311907525938
 40
1.0
 40
1.0
 40
1.0
 40
1.0
 10
56.01195461813654
 20
1.895078182608319
 30
0.0
 10
56.01195461813654
 20
1.895819245313709
 30
0.0
 10
56.01195461813654
 20
1.896560122775312
 30
0.0
 10
56.01195461813654
 20
1.897300810639997
 30
0.0
  0
ARC
  5
2C0
102
{ACAD_REACTORS
102
}
330
1F
100
AcDbEntity
  8
0
  6
Continuous
 62
     1
370
    25
100
AcDbCircle
 10
55.81195461813654
 20
-1.79507818150748
 30
0.0
 40
0.1999999999999999
100
AcDbArc
 50
282.3132658876833
 51
359.9999959487417
  0
LINE
  5
2C1
330
1F
100
AcDbEntity
  8
0
  6
Continuous
 62
     1
370
    25
100
AcDbLine
 10
56.01195461813654
 20
-1.895078182608309
 30
0.0
 11
56.01195461813654
 21
-1.897300810640367
 31
0.0
  0
DIMENSION
  5
2C2
102
{ACAD_REACTORS
102
}
102
{ACAD_XDICTIONARY
360
2C3
102
}
330
1F
100
AcDbEntity
  8
치수문자_일반주서
100
AcDbDimension
  2
*D21
 10
55.81195461813654
 20
-1.79507818150748
 30
0.0
 11
60.01286962860697
 21
-17.02118766084821
 31
0.0
 70
   164
  1
<>
 71
     5
 42
0.199999999999999
  3
SLDDIMSTYLE0
100
AcDbRadialDimension
 15
55.86514758307417
 25
-1.98787472836749
 35
0.0
 40
0.0
1001
ACAD_DSTYLE_DIMRADIAL_EXTENSION
1070
   387
1070
     1
1070
   388
1040
4.927296011798265
1070
   390
1040
6.283185236471789
1001
ACAD
1000
DSTYLE
1002
{
1070
    78
1070
     8
1002
}
  0
ENDSEC
  0
SECTION
  2
OBJECTS
  0
DICTIONARY
  5
C
330
0
100
AcDbDictionary
281
     1
  3
ACAD_GROUP
350
D
  3
ACAD_IMAGE_VARS
350
13C
  3
ACAD_LAYOUT
350
1A
  3
ACAD_MLINESTYLE
350
17
  3
ACAD_PLOTSETTINGS
350
19
  3
ACAD_PLOTSTYLENAME
350
E
  3
ACAD_SCALELIST
350
47
  3
APPDATA
350
13A
  3
DWGPROPS
350
2CF
  0
DICTIONARY
  5
2C3
330
2C2
100
AcDbDictionary
280
     1
281
     1
  0
DICTIONARY
  5
D
102
{ACAD_REACTORS
330
C
102
}
330
C
100
AcDbDictionary
281
     1
  0
RASTERVARIABLES
  5
13C
102
{ACAD_REACTORS
330
C
102
}
330
C
100
AcDbRasterVariables
 90
        0
 70
     1
 71
     1
 72
     1
  0
DICTIONARY
  5
1A
102
{ACAD_REACTORS
330
C
102
}
330
C
100
AcDbDictionary
281
     1
  3
Layout1
350
1E
  3
Layout2
350
26
  3
Model
350
22
  0
DICTIONARY
  5
17
102
{ACAD_REACTORS
330
C
102
}
330
C
100
AcDbDictionary
281
     1
  3
Standard
350
18
  0
DICTIONARY
  5
19
102
{ACAD_REACTORS
330
C
102
}
330
C
100
AcDbDictionary
281
     1
  0
ACDBDICTIONARYWDFLT
  5
E
102
{ACAD_REACTORS
330
C
102
}
330
C
100
AcDbDictionary
281
     1
  3
Normal
350
F
100
AcDbDictionaryWithDefault
340
F
  0
DICTIONARY
  5
47
102
{ACAD_REACTORS
330
C
102
}
330
C
100
AcDbDictionary
281
     1
  3
A0
350
48
  3
A1
350
49
  3
A2
350
4A
  3
A3
350
4B
  3
A4
350
4C
  3
A5
350
4D
  3
A6
350
4E
  3
A7
350
4F
  3
A8
350
50
  3
A9
350
51
  3
B0
350
52
  3
B1
350
53
  3
B2
350
54
  3
B3
350
55
  3
B4
350
56
  3
B5
350
57
  3
B6
350
58
  3
B7
350
59
  3
B8
350
5A
  3
B9
350
5B
  3
C0
350
5C
  3
C1
350
5D
  3
C2
350
5E
  3
C3
350
5F
  3
C4
350
60
  3
C5
350
61
  3
C6
350
62
  3
C7
350
63
  3
C8
350
64
  3
C9
350
65
  3
D0
350
66
  3
D1
350
67
  3
D2
350
68
  0
DICTIONARY
  5
13A
102
{ACAD_REACTORS
330
C
102
}
330
C
100
AcDbDictionary
281
     1
  0
XRECORD
  5
2CF
102
{ACAD_REACTORS
330
C
102
}
330
C
100
AcDbXrecord
280
     1
  1
DWGPROPS COOKIE
  2

  3

  4

  6

  7

  8
12016016
  9

300
=
301
=
302
=
303
=
304
=
305
=
306
=
307
=
308
=
309
=
 40
0.0
 41
2458263.42085228
 42
2458264.428133646
  1

 90
        0
  0
LAYOUT
  5
1E
102
{ACAD_REACTORS
330
1A
102
}
330
1A
100
AcDbPlotSettings
  1

  2
none_device
  4

  6

 40
0.0
 41
0.0
 42
0.0
 43
0.0
 44
0.0
 45
0.0
 46
0.0
 47
0.0
 48
0.0
 49
0.0
140
0.0
141
0.0
142
1.0
143
1.0
 70
   688
 72
     1
 73
     0
 74
     5
  7

 75
    16
147
1.0
148
0.0
149
0.0
100
AcDbLayout
  1
Layout1
 70
     1
 71
     1
 10
0.0
 20
0.0
 11
420.0
 21
297.0
 12
0.0
 22
0.0
 32
0.0
 14
1.000000000000000E+20
 24
1.000000000000000E+20
 34
1.000000000000000E+20
 15
-1.000000000000000E+20
 25
-1.000000000000000E+20
 35
-1.000000000000000E+20
146
0.0
 13
0.0
 23
0.0
 33
0.0
 16
1.0
 26
0.0
 36
0.0
 17
0.0
 27
1.0
 37
0.0
 76
     0
330
1B
  0
LAYOUT
  5
26
102
{ACAD_REACTORS
330
1A
102
}
330
1A
100
AcDbPlotSettings
  1

  2
none_device
  4

  6

 40
0.0
 41
0.0
 42
0.0
 43
0.0
 44
0.0
 45
0.0
 46
0.0
 47
0.0
 48
0.0
 49
0.0
140
0.0
141
0.0
142
1.0
143
1.0
 70
   688
 72
     1
 73
     0
 74
     5
  7

 75
    16
147
1.0
148
0.0
149
0.0
100
AcDbLayout
  1
Layout2
 70
     1
 71
     2
 10
0.0
 20
0.0
 11
0.0
 21
0.0
 12
0.0
 22
0.0
 32
0.0
 14
0.0
 24
0.0
 34
0.0
 15
0.0
 25
0.0
 35
0.0
146
0.0
 13
0.0
 23
0.0
 33
0.0
 16
1.0
 26
0.0
 36
0.0
 17
0.0
 27
1.0
 37
0.0
 76
     0
330
23
  0
LAYOUT
  5
22
102
{ACAD_REACTORS
330
1A
102
}
330
1A
100
AcDbPlotSettings
  1

  2
none_device
  4
ANSI_A_(11.00_x_8.50_Inches)
  6

 40
6.35
 41
19.05
 42
6.35000508
 43
19.05000254
 44
279.4
 45
215.9
 46
118.5843077849856
 47
93.10925080596945
 48
0.0
 49
0.0
140
0.0
141
0.0
142
0.0862317777894976
143
1.0
 70
  1696
 72
     0
 73
     0
 74
     0
  7

 75
     0
147
0.0235690232323232
148
0.0
149
0.0
100
AcDbLayout
  1
Model
 70
     1
 71
     0
 10
0.0
 20
0.0
 11
420.0
 21
297.0
 12
0.0
 22
0.0
 32
0.0
 14
1.000000000000000E+20
 24
1.000000000000000E+20
 34
1.000000000000000E+20
 15
-1.000000000000000E+20
 25
-1.000000000000000E+20
 35
-1.000000000000000E+20
146
0.0
 13
0.0
 23
0.0
 33
0.0
 16
1.0
 26
0.0
 36
0.0
 17
0.0
 27
1.0
 37
0.0
 76
     0
330
1F
331
29
  0
MLINESTYLE
  5
18
102
{ACAD_REACTORS
330
17
102
}
330
17
100
AcDbMlineStyle
  2
Standard
 70
     0
  3

 62
   256
 51
90.0
 52
90.0
 71
     2
 49
0.5
 62
   256
  6
BYLAYER
 49
-0.5
 62
   256
  6
BYLAYER
  0
ACDBPLACEHOLDER
  5
F
102
{ACAD_REACTORS
330
E
102
}
330
E
  0
SCALE
  5
48
102
{ACAD_REACTORS
330
47
102
}
330
47
100
AcDbScale
 70
     0
300
1:1
140
1.0
141
1.0
290
     1
  0
SCALE
  5
49
102
{ACAD_REACTORS
330
47
102
}
330
47
100
AcDbScale
 70
     0
300
1:2
140
1.0
141
2.0
290
     0
  0
SCALE
  5
4A
102
{ACAD_REACTORS
330
47
102
}
330
47
100
AcDbScale
 70
     0
300
1:4
140
1.0
141
4.0
290
     0
  0
SCALE
  5
4B
102
{ACAD_REACTORS
330
47
102
}
330
47
100
AcDbScale
 70
     0
300
1:5
140
1.0
141
5.0
290
     0
  0
SCALE
  5
4C
102
{ACAD_REACTORS
330
47
102
}
330
47
100
AcDbScale
 70
     0
300
1:8
140
1.0
141
8.0
290
     0
  0
SCALE
  5
4D
102
{ACAD_REACTORS
330
47
102
}
330
47
100
AcDbScale
 70
     0
300
1:10
140
1.0
141
10.0
290
     0
  0
SCALE
  5
4E
102
{ACAD_REACTORS
330
47
102
}
330
47
100
AcDbScale
 70
     0
300
1:16
140
1.0
141
16.0
290
     0
  0
SCALE
  5
4F
102
{ACAD_REACTORS
330
47
102
}
330
47
100
AcDbScale
 70
     0
300
1:20
140
1.0
141
20.0
290
     0
  0
SCALE
  5
50
102
{ACAD_REACTORS
330
47
102
}
330
47
100
AcDbScale
 70
     0
300
1:30
140
1.0
141
30.0
290
     0
  0
SCALE
  5
51
102
{ACAD_REACTORS
330
47
102
}
330
47
100
AcDbScale
 70
     0
300
1:40
140
1.0
141
40.0
290
     0
  0
SCALE
  5
52
102
{ACAD_REACTORS
330
47
102
}
330
47
100
AcDbScale
 70
     0
300
1:50
140
1.0
141
50.0
290
     0
  0
SCALE
  5
53
102
{ACAD_REACTORS
330
47
102
}
330
47
100
AcDbScale
 70
     0
300
1:100
140
1.0
141
100.0
290
     0
  0
SCALE
  5
54
102
{ACAD_REACTORS
330
47
102
}
330
47
100
AcDbScale
 70
     0
300
2:1
140
2.0
141
1.0
290
     0
  0
SCALE
  5
55
102
{ACAD_REACTORS
330
47
102
}
330
47
100
AcDbScale
 70
     0
300
4:1
140
4.0
141
1.0
290
     0
  0
SCALE
  5
56
102
{ACAD_REACTORS
330
47
102
}
330
47
100
AcDbScale
 70
     0
300
8:1
140
8.0
141
1.0
290
     0
  0
SCALE
  5
57
102
{ACAD_REACTORS
330
47
102
}
330
47
100
AcDbScale
 70
     0
300
10:1
140
10.0
141
1.0
290
     0
  0
SCALE
  5
58
102
{ACAD_REACTORS
330
47
102
}
330
47
100
AcDbScale
 70
     0
300
100:1
140
100.0
141
1.0
290
     0
  0
SCALE
  5
59
102
{ACAD_REACTORS
330
47
102
}
330
47
100
AcDbScale
 70
     0
300
1/128" = 1'-0"
140
0.0078125
141
12.0
290
     0
  0
SCALE
  5
5A
102
{ACAD_REACTORS
330
47
102
}
330
47
100
AcDbScale
 70
     0
300
1/64" = 1'-0"
140
0.015625
141
12.0
290
     0
  0
SCALE
  5
5B
102
{ACAD_REACTORS
330
47
102
}
330
47
100
AcDbScale
 70
     0
300
1/32" = 1'-0"
140
0.03125
141
12.0
290
     0
  0
SCALE
  5
5C
102
{ACAD_REACTORS
330
47
102
}
330
47
100
AcDbScale
 70
     0
300
1/16" = 1'-0"
140
0.0625
141
12.0
290
     0
  0
SCALE
  5
5D
102
{ACAD_REACTORS
330
47
102
}
330
47
100
AcDbScale
 70
     0
300
3/32" = 1'-0"
140
0.09375
141
12.0
290
     0
  0
SCALE
  5
5E
102
{ACAD_REACTORS
330
47
102
}
330
47
100
AcDbScale
 70
     0
300
1/8" = 1'-0"
140
0.125
141
12.0
290
     0
  0
SCALE
  5
5F
102
{ACAD_REACTORS
330
47
102
}
330
47
100
AcDbScale
 70
     0
300
3/16" = 1'-0"
140
0.1875
141
12.0
290
     0
  0
SCALE
  5
60
102
{ACAD_REACTORS
330
47
102
}
330
47
100
AcDbScale
 70
     0
300
1/4" = 1'-0"
140
0.25
141
12.0
290
     0
  0
SCALE
  5
61
102
{ACAD_REACTORS
330
47
102
}
330
47
100
AcDbScale
 70
     0
300
3/8" = 1'-0"
140
0.375
141
12.0
290
     0
  0
SCALE
  5
62
102
{ACAD_REACTORS
330
47
102
}
330
47
100
AcDbScale
 70
     0
300
1/2" = 1'-0"
140
0.5
141
12.0
290
     0
  0
SCALE
  5
63
102
{ACAD_REACTORS
330
47
102
}
330
47
100
AcDbScale
 70
     0
300
3/4" = 1'-0"
140
0.75
141
12.0
290
     0
  0
SCALE
  5
64
102
{ACAD_REACTORS
330
47
102
}
330
47
100
AcDbScale
 70
     0
300
1" = 1'-0"
140
1.0
141
12.0
290
     0
  0
SCALE
  5
65
102
{ACAD_REACTORS
330
47
102
}
330
47
100
AcDbScale
 70
     0
300
1-1/2" = 1'-0"
140
1.5
141
12.0
290
     0
  0
SCALE
  5
66
102
{ACAD_REACTORS
330
47
102
}
330
47
100
AcDbScale
 70
     0
300
3" = 1'-0"
140
3.0
141
12.0
290
     0
  0
SCALE
  5
67
102
{ACAD_REACTORS
330
47
102
}
330
47
100
AcDbScale
 70
     0
300
6" = 1'-0"
140
6.0
141
12.0
290
     0
  0
SCALE
  5
68
102
{ACAD_REACTORS
330
47
102
}
330
47
100
AcDbScale
 70
     0
300
1'-0" = 1'-0"
140
12.0
141
12.0
290
     0
  0
ENDSEC
  0
EOF
