  0
SECTION
  2
HEADER
  9
$ACADVER
  1
AC1015
  9
$ACADMAINTVER
 70
     6
  9
$DWGCODEPAGE
  3
ANSI_949
  9
$INSBASE
 10
0.0
 20
0.0
 30
0.0
  9
$EXTMIN
 10
1.000000000000000E+20
 20
1.000000000000000E+20
 30
1.000000000000000E+20
  9
$EXTMAX
 10
-1.000000000000000E+20
 20
-1.000000000000000E+20
 30
-1.000000000000000E+20
  9
$LIMMIN
 10
0.0
 20
0.0
  9
$LIMMAX
 10
420.0
 20
297.0
  9
$ORTHOMODE
 70
     1
  9
$REGENMODE
 70
     1
  9
$FILLMODE
 70
     1
  9
$QTEXTMODE
 70
     0
  9
$MIRRTEXT
 70
     1
  9
$LTSCALE
 40
1.0
  9
$ATTMODE
 70
     1
  9
$TEXTSIZE
 40
3.5
  9
$TRACEWID
 40
1.0
  9
$TEXTSTYLE
  7
Standard
  9
$CLAYER
  8
0
  9
$CELTYPE
  6
ByLayer
  9
$CECOLOR
 62
   256
  9
$CELTSCALE
 40
1.0
  9
$DISPSILH
 70
     0
  9
$DIMSCALE
 40
1.0
  9
$DIMASZ
 40
3.302
  9
$DIMEXO
 40
1.0
  9
$DIMDLI
 40
3.75
  9
$DIMRND
 40
0.0
  9
$DIMDLE
 40
0.0
  9
$DIMEXE
 40
1.0
  9
$DIMTP
 40
0.0
  9
$DIMTM
 40
0.0
  9
$DIMTXT
 40
3.5
  9
$DIMCEN
 40
2.5
  9
$DIMTSZ
 40
0.0
  9
$DIMTOL
 70
     0
  9
$DIMLIM
 70
     0
  9
$DIMTIH
 70
     1
  9
$DIMTOH
 70
     1
  9
$DIMSE1
 70
     0
  9
$DIMSE2
 70
     0
  9
$DIMTAD
 70
     1
  9
$DIMZIN
 70
     0
  9
$DIMBLK
  1

  9
$DIMASO
 70
     1
  9
$DIMSHO
 70
     1
  9
$DIMPOST
  1

  9
$DIMAPOST
  1

  9
$DIMALT
 70
     0
  9
$DIMALTD
 70
     3
  9
$DIMALTF
 40
0.0393700787401575
  9
$DIMLFAC
 40
1.0
  9
$DIMTOFL
 70
     1
  9
$DIMTVP
 40
0.0
  9
$DIMTIX
 70
     0
  9
$DIMSOXD
 70
     0
  9
$DIMSAH
 70
     0
  9
$DIMBLK1
  1

  9
$DIMBLK2
  1

  9
$DIMSTYLE
  2
ISO-25
  9
$DIMCLRD
 70
     0
  9
$DIMCLRE
 70
     0
  9
$DIMCLRT
 70
     0
  9
$DIMTFAC
 40
1.0
  9
$DIMGAP
 40
1.524
  9
$DIMJUST
 70
     0
  9
$DIMSD1
 70
     0
  9
$DIMSD2
 70
     0
  9
$DIMTOLJ
 70
     0
  9
$DIMTZIN
 70
     0
  9
$DIMALTZ
 70
     0
  9
$DIMALTTZ
 70
     0
  9
$DIMUPT
 70
     0
  9
$DIMDEC
 70
     2
  9
$DIMTDEC
 70
     2
  9
$DIMALTU
 70
     2
  9
$DIMALTTD
 70
     3
  9
$DIMTXSTY
  7
Standard
  9
$DIMAUNIT
 70
     0
  9
$DIMADEC
 70
     2
  9
$DIMALTRND
 40
0.0
  9
$DIMAZIN
 70
     0
  9
$DIMDSEP
 70
    44
  9
$DIMATFIT
 70
     3
  9
$DIMFRAC
 70
     0
  9
$DIMLDRBLK
  1

  9
$DIMLUNIT
 70
     2
  9
$DIMLWD
 70
    -2
  9
$DIMLWE
 70
    -2
  9
$DIMTMOVE
 70
     0
  9
$LUNITS
 70
     2
  9
$LUPREC
 70
     2
  9
$SKETCHINC
 40
1.0
  9
$FILLETRAD
 40
10.0
  9
$AUNITS
 70
     0
  9
$AUPREC
 70
     2
  9
$MENU
  1
.
  9
$ELEVATION
 40
0.0
  9
$PELEVATION
 40
0.0
  9
$THICKNESS
 40
0.0
  9
$LIMCHECK
 70
     0
  9
$CHAMFERA
 40
0.0
  9
$CHAMFERB
 40
0.0
  9
$CHAMFERC
 40
0.0
  9
$CHAMFERD
 40
0.0
  9
$SKPOLY
 70
     0
  9
$TDCREATE
 40
2458263.794528993
  9
$TDUCREATE
 40
2458263.419528993
  9
$TDUPDATE
 40
2458268.840240533
  9
$TDUUPDATE
 40
2458268.465240533
  9
$TDINDWG
 40
0.0019176042
  9
$TDUSRTIMER
 40
2458268.463323102
  9
$USRTIMER
 70
     1
  9
$ANGBASE
 50
0.0
  9
$ANGDIR
 70
     0
  9
$PDMODE
 70
     0
  9
$PDSIZE
 40
-1.0
  9
$PLINEWID
 40
0.0
  9
$SPLFRAME
 70
     0
  9
$SPLINETYPE
 70
     6
  9
$SPLINESEGS
 70
     8
  9
$HANDSEED
  5
37B
  9
$SURFTAB1
 70
     6
  9
$SURFTAB2
 70
     6
  9
$SURFTYPE
 70
     6
  9
$SURFU
 70
     6
  9
$SURFV
 70
     6
  9
$UCSBASE
  2

  9
$UCSNAME
  2

  9
$UCSORG
 10
0.0
 20
0.0
 30
0.0
  9
$UCSXDIR
 10
1.0
 20
0.0
 30
0.0
  9
$UCSYDIR
 10
0.0
 20
1.0
 30
0.0
  9
$UCSORTHOREF
  2

  9
$UCSORTHOVIEW
 70
     0
  9
$UCSORGTOP
 10
0.0
 20
0.0
 30
0.0
  9
$UCSORGBOTTOM
 10
0.0
 20
0.0
 30
0.0
  9
$UCSORGLEFT
 10
0.0
 20
0.0
 30
0.0
  9
$UCSORGRIGHT
 10
0.0
 20
0.0
 30
0.0
  9
$UCSORGFRONT
 10
0.0
 20
0.0
 30
0.0
  9
$UCSORGBACK
 10
0.0
 20
0.0
 30
0.0
  9
$PUCSBASE
  2

  9
$PUCSNAME
  2

  9
$PUCSORG
 10
0.0
 20
0.0
 30
0.0
  9
$PUCSXDIR
 10
1.0
 20
0.0
 30
0.0
  9
$PUCSYDIR
 10
0.0
 20
1.0
 30
0.0
  9
$PUCSORTHOREF
  2

  9
$PUCSORTHOVIEW
 70
     0
  9
$PUCSORGTOP
 10
0.0
 20
0.0
 30
0.0
  9
$PUCSORGBOTTOM
 10
0.0
 20
0.0
 30
0.0
  9
$PUCSORGLEFT
 10
0.0
 20
0.0
 30
0.0
  9
$PUCSORGRIGHT
 10
0.0
 20
0.0
 30
0.0
  9
$PUCSORGFRONT
 10
0.0
 20
0.0
 30
0.0
  9
$PUCSORGBACK
 10
0.0
 20
0.0
 30
0.0
  9
$USERI1
 70
     0
  9
$USERI2
 70
     0
  9
$USERI3
 70
     0
  9
$USERI4
 70
     0
  9
$USERI5
 70
     0
  9
$USERR1
 40
0.0
  9
$USERR2
 40
0.0
  9
$USERR3
 40
0.0
  9
$USERR4
 40
0.0
  9
$USERR5
 40
0.0
  9
$WORLDVIEW
 70
     1
  9
$SHADEDGE
 70
     3
  9
$SHADEDIF
 70
    70
  9
$TILEMODE
 70
     1
  9
$MAXACTVP
 70
    64
  9
$PINSBASE
 10
0.0
 20
0.0
 30
0.0
  9
$PLIMCHECK
 70
     0
  9
$PEXTMIN
 10
1.000000000000000E+20
 20
1.000000000000000E+20
 30
1.000000000000000E+20
  9
$PEXTMAX
 10
-1.000000000000000E+20
 20
-1.000000000000000E+20
 30
-1.000000000000000E+20
  9
$PLIMMIN
 10
0.0
 20
0.0
  9
$PLIMMAX
 10
0.0
 20
0.0
  9
$UNITMODE
 70
     0
  9
$VISRETAIN
 70
     1
  9
$PLINEGEN
 70
     0
  9
$PSLTSCALE
 70
     1
  9
$TREEDEPTH
 70
  3020
  9
$CMLSTYLE
  2
Standard
  9
$CMLJUST
 70
     0
  9
$CMLSCALE
 40
20.0
  9
$PROXYGRAPHICS
 70
     1
  9
$MEASUREMENT
 70
     1
  9
$CELWEIGHT
370
    -1
  9
$ENDCAPS
280
     0
  9
$JOINSTYLE
280
     0
  9
$LWDISPLAY
290
     1
  9
$INSUNITS
 70
     4
  9
$HYPERLINKBASE
  1

  9
$STYLESHEET
  1

  9
$XEDIT
290
     1
  9
$CEPSNTYPE
380
     0
  9
$PSTYLEMODE
290
     1
  9
$FINGERPRINTGUID
  2
{30D6A092-6091-4B35-A14C-B430C7AAF3EE}
  9
$VERSIONGUID
  2
{FAEB1C32-E019-11D5-929B-00C0DF256EC4}
  9
$EXTNAMES
290
     1
  9
$PSVPSCALE
 40
0.0
  9
$OLESTARTUP
290
     0
  0
ENDSEC
  0
SECTION
  2
CLASSES
  0
CLASS
  1
ACDBDICTIONARYWDFLT
  2
AcDbDictionaryWithDefault
  3
ObjectDBX Classes
 90
        0
280
     0
281
     0
  0
CLASS
  1
VISUALSTYLE
  2
AcDbVisualStyle
  3
ObjectDBX Classes
 90
     4095
280
     0
281
     0
  0
CLASS
  1
MATERIAL
  2
AcDbMaterial
  3
ObjectDBX Classes
 90
     1153
280
     0
281
     0
  0
CLASS
  1
SCALE
  2
AcDbScale
  3
ObjectDBX Classes
 90
     1153
280
     0
281
     0
  0
CLASS
  1
TABLESTYLE
  2
AcDbTableStyle
  3
ObjectDBX Classes
 90
     4095
280
     0
281
     0
  0
CLASS
  1
MLEADERSTYLE
  2
AcDbMLeaderStyle
  3
ACDB_MLEADERSTYLE_CLASS
 90
     4095
280
     0
281
     0
  0
CLASS
  1
SUN
  2
AcDbSun
  3
SCENEOE
 90
     1153
280
     0
281
     0
  0
CLASS
  1
ACDBPLACEHOLDER
  2
AcDbPlaceHolder
  3
ObjectDBX Classes
 90
        0
280
     0
281
     0
  0
CLASS
  1
LAYOUT
  2
AcDbLayout
  3
ObjectDBX Classes
 90
        0
280
     0
281
     0
  0
CLASS
  1
RASTERVARIABLES
  2
AcDbRasterVariables
  3
ISM
 90
        0
280
     0
281
     0
  0
CLASS
  1
DIMASSOC
  2
AcDbDimAssoc
  3
"AcDbDimAssoc|Product Desc:     AcDim ARX App For Dimension|Company:          Autodesk, Inc.|WEB Address:      www.autodesk.com"
 90
        0
280
     0
281
     0
  0
ENDSEC
  0
SECTION
  2
TABLES
  0
TABLE
  2
VPORT
  5
8
330
0
100
AcDbSymbolTable
 70
     1
  0
VPORT
  5
29
330
8
100
AcDbSymbolTableRecord
100
AcDbViewportTableRecord
  2
*Active
 70
     0
 10
0.0
 20
0.0
 11
1.0
 21
1.0
 12
31.36695251213227
 22
-5.028159799509212
 13
0.0
 23
0.0
 14
10.0
 24
10.0
 15
10.0
 25
10.0
 16
0.0
 26
0.0
 36
1.0
 17
0.0
 27
0.0
 37
0.0
 40
33.07496333756029
 41
1.742632612966601
 42
50.0
 43
0.0
 44
0.0
 50
0.0
 51
0.0
 71
    16
 72
  2000
 73
     1
 74
     3
 75
     0
 76
     0
 77
     0
 78
     0
281
     0
 65
     1
110
0.0
120
0.0
130
0.0
111
1.0
121
0.0
131
0.0
112
0.0
122
1.0
132
0.0
 79
     0
146
0.0
  0
ENDTAB
  0
TABLE
  2
LTYPE
  5
5
330
0
100
AcDbSymbolTable
 70
     6
  0
LTYPE
  5
14
330
5
100
AcDbSymbolTableRecord
100
AcDbLinetypeTableRecord
  2
ByBlock
 70
     0
  3

 72
    65
 73
     0
 40
0.0
  0
LTYPE
  5
15
330
5
100
AcDbSymbolTableRecord
100
AcDbLinetypeTableRecord
  2
ByLayer
 70
     0
  3

 72
    65
 73
     0
 40
0.0
  0
LTYPE
  5
16
330
5
100
AcDbSymbolTableRecord
100
AcDbLinetypeTableRecord
  2
Continuous
 70
     0
  3
Solid line
 72
    65
 73
     0
 40
0.0
  0
LTYPE
  5
6E
330
5
100
AcDbSymbolTableRecord
100
AcDbLinetypeTableRecord
  2
HIDDEN
 70
     0
  3
Hidden __ __ __ __ __ __ __ __ __ __ __ __ __ __
 72
    65
 73
     2
 40
1.905
 49
1.27
 74
     0
 49
-0.635
 74
     0
  0
LTYPE
  5
6F
330
5
100
AcDbSymbolTableRecord
100
AcDbLinetypeTableRecord
  2
PHANTOM
 70
     0
  3
Phantom ______  __  __  ______  __  __  ______
 72
    65
 73
     6
 40
12.7
 49
6.35
 74
     0
 49
-1.27
 74
     0
 49
1.27
 74
     0
 49
-1.27
 74
     0
 49
1.27
 74
     0
 49
-1.27
 74
     0
  0
LTYPE
  5
70
330
5
100
AcDbSymbolTableRecord
100
AcDbLinetypeTableRecord
  2
CENTER
 70
     0
  3
Center ____ _ ____ _ ____ _ ____ _ ____ _ ____
 72
    65
 73
     4
 40
10.16
 49
6.35
 74
     0
 49
-1.27
 74
     0
 49
1.27
 74
     0
 49
-1.27
 74
     0
  0
LTYPE
  5
71
330
5
100
AcDbSymbolTableRecord
100
AcDbLinetypeTableRecord
  2
CENTERX2
 70
     0
  3
Center (2x) ________  __  ________  __  _____
 72
    65
 73
     4
 40
20.32
 49
12.7
 74
     0
 49
-2.54
 74
     0
 49
2.54
 74
     0
 49
-2.54
 74
     0
  0
LTYPE
  5
72
330
5
100
AcDbSymbolTableRecord
100
AcDbLinetypeTableRecord
  2
DOT2
 70
     0
  3
Dot (.5x) ........................................
 72
    65
 73
     2
 40
0.635
 49
0.0
 74
     0
 49
-0.635
 74
     0
  0
ENDTAB
  0
TABLE
  2
LAYER
  5
2
330
0
100
AcDbSymbolTable
 70
    17
  0
LAYER
  5
10
330
2
100
AcDbSymbolTableRecord
100
AcDbLayerTableRecord
  2
0
 70
     0
 62
     7
  6
Continuous
370
    -3
390
F
  0
LAYER
  5
73
330
2
100
AcDbSymbolTableRecord
100
AcDbLayerTableRecord
  2
FORMAT
 70
     0
 62
     2
  6
Continuous
370
    -3
390
F
  0
LAYER
  5
74
330
2
100
AcDbSymbolTableRecord
100
AcDbLayerTableRecord
  2
외형선
 70
     0
 62
   100
  6
Continuous
370
    35
390
F
  0
LAYER
  5
75
330
2
100
AcDbSymbolTableRecord
100
AcDbLayerTableRecord
  2
숨은선
 70
     0
 62
     2
  6
HIDDEN
370
    25
390
F
  0
LAYER
  5
76
330
2
100
AcDbSymbolTableRecord
100
AcDbLayerTableRecord
  2
중심선
 70
     0
 62
     1
  6
CENTERX2
370
    -3
390
F
  0
LAYER
  5
77
330
2
100
AcDbSymbolTableRecord
100
AcDbLayerTableRecord
  2
파단선
 70
     0
 62
     4
  6
Continuous
370
    -3
390
F
  0
LAYER
  5
78
330
2
100
AcDbSymbolTableRecord
100
AcDbLayerTableRecord
  2
해칭선
 70
     0
 62
     4
  6
Continuous
370
    -3
390
F
  0
LAYER
  5
79
330
2
100
AcDbSymbolTableRecord
100
AcDbLayerTableRecord
  2
가는실선
 70
     0
 62
     4
  6
Continuous
370
    -3
390
F
  0
LAYER
  5
7A
330
2
100
AcDbSymbolTableRecord
100
AcDbLayerTableRecord
  2
치수_보조선
 70
     0
 62
     4
  6
Continuous
370
    -3
390
F
  0
LAYER
  5
7B
330
2
100
AcDbSymbolTableRecord
100
AcDbLayerTableRecord
  2
치수문자_일반주서
 70
     0
 62
     7
  6
Continuous
370
    25
390
F
  0
LAYER
  5
7C
330
2
100
AcDbSymbolTableRecord
100
AcDbLayerTableRecord
  2
개별주서
 70
     0
 62
   100
  6
Continuous
370
    35
390
F
  0
LAYER
  5
7D
330
2
100
AcDbSymbolTableRecord
100
AcDbLayerTableRecord
  2
중간선
 70
     0
 62
     2
  6
Continuous
370
    25
390
F
  0
LAYER
  5
7E
330
2
100
AcDbSymbolTableRecord
100
AcDbLayerTableRecord
  2
윤곽선
 70
     0
 62
     3
  6
Continuous
370
    50
390
F
  0
LAYER
  5
7F
330
2
100
AcDbSymbolTableRecord
100
AcDbLayerTableRecord
  2
중심마크
 70
     0
 62
   100
  6
Continuous
370
    35
390
F
  0
LAYER
  5
80
330
2
100
AcDbSymbolTableRecord
100
AcDbLayerTableRecord
  2
가상선
 70
     0
 62
     4
  6
PHANTOM
370
    -3
390
F
  0
LAYER
  5
81
330
2
100
AcDbSymbolTableRecord
100
AcDbLayerTableRecord
  2
특수지정선
 70
     0
 62
     5
  6
CENTERX2
370
    70
390
F
  0
LAYER
  5
13D
330
2
100
AcDbSymbolTableRecord
100
AcDbLayerTableRecord
  2
Defpoints
 70
     0
 62
     7
  6
Continuous
290
     0
370
    -3
390
F
  0
ENDTAB
  0
TABLE
  2
STYLE
  5
3
330
0
100
AcDbSymbolTable
 70
     2
  0
STYLE
  5
11
330
3
100
AcDbSymbolTableRecord
100
AcDbTextStyleTableRecord
  2
Standard
 70
     0
 40
0.0
 41
1.0
 50
0.0
 71
     0
 42
3.5
  3
txt
  4

  0
STYLE
  5
97
330
3
100
AcDbSymbolTableRecord
100
AcDbTextStyleTableRecord
  2
SLDTEXTSTYLE0
 70
     0
 40
0.0
 41
0.75
 50
0.0
 71
     0
 42
3.5
  3
TXT
  4

  0
ENDTAB
  0
TABLE
  2
VIEW
  5
6
330
0
100
AcDbSymbolTable
 70
     0
  0
ENDTAB
  0
TABLE
  2
UCS
  5
7
330
0
100
AcDbSymbolTable
 70
     0
  0
ENDTAB
  0
TABLE
  2
APPID
  5
9
330
0
100
AcDbSymbolTable
 70
     2
  0
APPID
  5
12
330
9
100
AcDbSymbolTableRecord
100
AcDbRegAppTableRecord
  2
ACAD
 70
     0
  0
APPID
  5
149
330
9
100
AcDbSymbolTableRecord
100
AcDbRegAppTableRecord
  2
ACAD_DSTYLE_DIMRADIAL_EXTENSION
 70
     0
  0
ENDTAB
  0
TABLE
  2
DIMSTYLE
  5
A
330
0
100
AcDbSymbolTable
 70
     3
100
AcDbDimStyleTable
  0
DIMSTYLE
105
27
330
A
100
AcDbSymbolTableRecord
100
AcDbDimStyleTableRecord
  2
ISO-25
 70
     0
 41
2.5
 42
0.625
 43
3.75
 44
1.25
 73
     0
 74
     0
 77
     1
 78
     8
140
2.5
141
2.5
143
0.03937007874016
147
0.625
171
     3
172
     1
178
     0
271
     2
272
     2
274
     3
278
    44
283
     0
284
     8
340
11
  0
DIMSTYLE
105
D5
102
{ACAD_REACTORS
330
19A
330
1A7
330
1C1
330
1CE
330
1E7
330
267
330
268
330
26A
330
26B
330
317
330
324
330
33E
330
34B
330
36D
102
}
330
A
100
AcDbSymbolTableRecord
100
AcDbDimStyleTableRecord
  2
SLDDIMSTYLE0
 70
     0
 41
3.302
 44
0.0
 45
0.000000001
 73
     0
 74
     0
 77
     1
 78
    12
 79
     3
140
3.5
147
0.875
172
     1
173
     1
178
     0
271
     2
272
     2
276
     2
284
    12
289
     0
340
97
  0
DIMSTYLE
105
EF
102
{ACAD_REACTORS
330
1B4
330
269
330
331
102
}
330
A
100
AcDbSymbolTableRecord
100
AcDbDimStyleTableRecord
  2
SLDDIMSTYLE1
 70
     0
 41
3.302
 44
0.0
 45
0.000000001
 73
     0
 74
     0
 77
     1
 78
    12
 79
     3
140
3.5
147
0.875
173
     1
178
     0
271
     2
272
     2
276
     2
284
    12
340
97
  0
ENDTAB
  0
TABLE
  2
BLOCK_RECORD
  5
1
330
0
100
AcDbSymbolTable
 70
    28
  0
BLOCK_RECORD
  5
1F
330
1
100
AcDbSymbolTableRecord
100
AcDbBlockTableRecord
  2
*Model_Space
340
22
  0
BLOCK_RECORD
  5
1B
330
1
100
AcDbSymbolTableRecord
100
AcDbBlockTableRecord
  2
*Paper_Space
340
1E
  0
BLOCK_RECORD
  5
23
330
1
100
AcDbSymbolTableRecord
100
AcDbBlockTableRecord
  2
*Paper_Space0
340
26
  0
BLOCK_RECORD
  5
82
330
1
100
AcDbSymbolTableRecord
100
AcDbBlockTableRecord
  2
블럭10
340
0
102
{BLKREFS
331
CD
102
}
  0
BLOCK_RECORD
  5
D6
330
1
100
AcDbSymbolTableRecord
100
AcDbBlockTableRecord
  2
_D
340
0
  0
BLOCK_RECORD
  5
E3
330
1
100
AcDbSymbolTableRecord
100
AcDbBlockTableRecord
  2
_D_1
340
0
  0
BLOCK_RECORD
  5
F0
330
1
100
AcDbSymbolTableRecord
100
AcDbBlockTableRecord
  2
_D_2
340
0
  0
BLOCK_RECORD
  5
FA
330
1
100
AcDbSymbolTableRecord
100
AcDbBlockTableRecord
  2
_D_3
340
0
  0
BLOCK_RECORD
  5
106
330
1
100
AcDbSymbolTableRecord
100
AcDbBlockTableRecord
  2
_D_4
340
0
  0
BLOCK_RECORD
  5
112
330
1
100
AcDbSymbolTableRecord
100
AcDbBlockTableRecord
  2
SW_DOWELSYMBOL_0
340
0
102
{BLKREFS
331
0
331
1DE
331
26C
331
35B
102
}
  0
BLOCK_RECORD
  5
1EA
330
1
100
AcDbSymbolTableRecord
100
AcDbBlockTableRecord
  2
*D9
340
0
  0
BLOCK_RECORD
  5
1F5
330
1
100
AcDbSymbolTableRecord
100
AcDbBlockTableRecord
  2
*D10
340
0
  0
BLOCK_RECORD
  5
201
330
1
100
AcDbSymbolTableRecord
100
AcDbBlockTableRecord
  2
*D11
340
0
  0
BLOCK_RECORD
  5
20D
330
1
100
AcDbSymbolTableRecord
100
AcDbBlockTableRecord
  2
*D12
340
0
  0
BLOCK_RECORD
  5
219
330
1
100
AcDbSymbolTableRecord
100
AcDbBlockTableRecord
  2
*D13
340
0
  0
BLOCK_RECORD
  5
225
330
1
100
AcDbSymbolTableRecord
100
AcDbBlockTableRecord
  2
*D14
340
0
  0
BLOCK_RECORD
  5
272
330
1
100
AcDbSymbolTableRecord
100
AcDbBlockTableRecord
  2
*D15
340
0
  0
BLOCK_RECORD
  5
27E
330
1
100
AcDbSymbolTableRecord
100
AcDbBlockTableRecord
  2
*D16
340
0
  0
BLOCK_RECORD
  5
28A
330
1
100
AcDbSymbolTableRecord
100
AcDbBlockTableRecord
  2
*D17
340
0
  0
BLOCK_RECORD
  5
296
330
1
100
AcDbSymbolTableRecord
100
AcDbBlockTableRecord
  2
*D18
340
0
  0
BLOCK_RECORD
  5
2A2
330
1
100
AcDbSymbolTableRecord
100
AcDbBlockTableRecord
  2
*D19
340
0
  0
BLOCK_RECORD
  5
2B1
330
1
100
AcDbSymbolTableRecord
100
AcDbBlockTableRecord
  2
*D20
340
0
  0
BLOCK_RECORD
  5
318
330
1
100
AcDbSymbolTableRecord
100
AcDbBlockTableRecord
  2
*D22
340
0
  0
BLOCK_RECORD
  5
325
330
1
100
AcDbSymbolTableRecord
100
AcDbBlockTableRecord
  2
*D23
340
0
  0
BLOCK_RECORD
  5
332
330
1
100
AcDbSymbolTableRecord
100
AcDbBlockTableRecord
  2
*D24
340
0
  0
BLOCK_RECORD
  5
33F
330
1
100
AcDbSymbolTableRecord
100
AcDbBlockTableRecord
  2
*D25
340
0
  0
BLOCK_RECORD
  5
34C
330
1
100
AcDbSymbolTableRecord
100
AcDbBlockTableRecord
  2
*D26
340
0
  0
BLOCK_RECORD
  5
370
330
1
100
AcDbSymbolTableRecord
100
AcDbBlockTableRecord
  2
*D27
340
0
  0
ENDTAB
  0
ENDSEC
  0
SECTION
  2
BLOCKS
  0
BLOCK
  5
20
330
1F
100
AcDbEntity
  8
0
100
AcDbBlockBegin
  2
*Model_Space
 70
     0
 10
0.0
 20
0.0
 30
0.0
  3
*Model_Space
  1
*Model_Space
  0
ENDBLK
  5
21
330
1F
100
AcDbEntity
  8
0
100
AcDbBlockEnd
  0
BLOCK
  5
1C
330
1B
100
AcDbEntity
 67
     1
  8
0
100
AcDbBlockBegin
  2
*Paper_Space
 70
     0
 10
0.0
 20
0.0
 30
0.0
  3
*Paper_Space
  1
*Paper_Space
  0
ENDBLK
  5
1D
330
1B
100
AcDbEntity
 67
     1
  8
0
100
AcDbBlockEnd
  0
BLOCK
  5
24
330
23
100
AcDbEntity
  8
0
100
AcDbBlockBegin
  2
*Paper_Space0
 70
     0
 10
0.0
 20
0.0
 30
0.0
  3
*Paper_Space0
  1
*Paper_Space0
  0
ENDBLK
  5
25
330
23
100
AcDbEntity
  8
0
100
AcDbBlockEnd
  0
BLOCK
  5
83
330
82
100
AcDbEntity
  8
0
100
AcDbBlockBegin
  2
블럭10
 70
     2
 10
0.0
 20
0.0
 30
0.0
  3
블럭10
  1
블럭10
  0
ELLIPSE
  5
85
330
82
100
AcDbEntity
  8
중심선
100
AcDbEllipse
 10
20.54032771741204
 20
12.0471743016438
 30
0.0
 11
6.600054785286829
 21
-1.261213355974178E-13
 31
0.0
210
0.0
220
0.0
230
1.0
 40
0.636358354079598
 41
0.9219305317359503
 42
6.513795318482858
  0
ELLIPSE
  5
86
330
82
100
AcDbEntity
  8
중심선
100
AcDbEllipse
 10
20.54032771746488
 20
12.04717430159265
 30
0.0
 11
3.960054785062283
 21
1.540847449632565E-10
 31
0.0
210
0.0
220
0.0
230
1.0
 40
0.3939339440162632
 41
1.131841032648279
 42
5.62031148352944
  0
LINE
  5
87
330
82
100
AcDbEntity
  8
중심선
100
AcDbLine
 10
2.268634060543552
 20
16.24717430164393
 30
0.0
 11
5.714909304380834
 21
16.24717430164393
 31
0.0
  0
LINE
  5
88
330
82
100
AcDbEntity
  8
중심선
100
AcDbLine
 10
5.245725140726316
 20
7.84717430164391
 30
0.0
 11
8.692000384563599
 21
7.84717430164391
 31
0.0
  0
LINE
  5
89
330
82
100
AcDbEntity
  8
중심선
100
AcDbLine
 10
15.74043728645272
 20
16.24717430164393
 30
0.0
 11
8.692000384563599
 21
7.84717430164391
 31
0.0
  0
LINE
  5
8A
330
82
100
AcDbEntity
  8
중심선
100
AcDbLine
 10
0.1404042013395286
 20
13.71084872107135
 30
0.0
 11
3.58671253028996
 21
13.71088815037384
 31
0.0
  0
LINE
  5
8B
330
82
100
AcDbEntity
  8
중심선
100
AcDbLine
 10
2.750260043222114
 20
10.84717430164391
 30
0.0
 11
6.196535287059397
 21
10.84717430164391
 31
0.0
  0
LINE
  5
8C
330
82
100
AcDbEntity
  8
중심선
100
AcDbLine
 10
12.29416204261559
 20
16.24717430164393
 30
0.0
 11
5.245725140726316
 21
7.84717430164391
 31
0.0
  0
LINE
  5
8D
330
82
100
AcDbEntity
  8
중심선
100
AcDbLine
 10
10.72767329541681
 20
16.24717430164393
 30
0.0
 11
6.196535287059397
 21
10.84717430164391
 31
0.0
  0
LINE
  5
8E
330
82
100
AcDbEntity
  8
중심선
100
AcDbLine
 10
7.28139805157953
 20
16.24717430164393
 30
0.0
 11
2.750260043222114
 21
10.84717430164391
 31
0.0
  0
LINE
  5
8F
330
82
100
AcDbEntity
  8
중심선
100
AcDbLine
 10
5.714909304380834
 20
16.24717430164393
 30
0.0
 11
3.58671253028996
 21
13.71088815037384
 31
0.0
  0
LINE
  5
90
330
82
100
AcDbEntity
  8
중심선
100
AcDbLine
 10
2.268634060543552
 20
16.24717430164393
 30
0.0
 11
0.1404042013395286
 21
13.71084872107135
 31
0.0
  0
LINE
  5
91
330
82
100
AcDbEntity
  8
중심선
100
AcDbLine
 10
7.28139805157953
 20
16.24717430164393
 30
0.0
 11
10.72767329541681
 21
16.24717430164393
 31
0.0
  0
LINE
  5
92
330
82
100
AcDbEntity
  8
중심선
100
AcDbLine
 10
12.29416204261559
 20
16.24717430164393
 30
0.0
 11
15.74043728645272
 21
16.24717430164393
 31
0.0
  0
LINE
  5
93
330
82
100
AcDbEntity
  8
중심선
100
AcDbLine
 10
19.22036997980202
 20
11.08717430171403
 30
0.0
 11
23.66174974927406
 21
11.08717430171406
 31
0.0
  0
LINE
  5
94
330
82
100
AcDbEntity
  8
중심선
100
AcDbLine
 10
19.22039502424796
 20
13.00717430171391
 30
0.0
 11
19.22036997980202
 21
11.08717430171403
 31
0.0
  0
LINE
  5
95
330
82
100
AcDbEntity
  8
중심선
100
AcDbLine
 10
19.22039502424796
 20
13.00717430171391
 30
0.0
 11
26.96566020931264
 21
13.00717430171391
 31
0.0
  0
LINE
  5
96
330
82
100
AcDbEntity
  8
중심선
100
AcDbLine
 10
22.22332737316547
 20
13.45928029700563
 30
0.0
 11
24.52862924686651
 21
15.39360700705356
 31
0.0
  0
ATTDEF
  5
98
330
82
100
AcDbEntity
  8
FORMAT
 62
     2
100
AcDbText
 10
-19.27858288401334
 20
2.075366912832191
 30
0.0
 40
4.233333333333333
  1
SEME610400216E [ 2 FLUTE ]
 41
0.75
  7
SLDTEXTSTYLE0
 11
-19.27858288401334
 21
-0.0412997538344756
 31
0.0
100
AcDbAttributeDefinition
  3

  2
AUTOATTR0
 70
     0
 74
     1
  0
ENDBLK
  5
84
330
82
100
AcDbEntity
  8
0
100
AcDbBlockEnd
  0
BLOCK
  5
D7
330
D6
100
AcDbEntity
  8
0
100
AcDbBlockBegin
  2
_D
 70
     0
 10
0.0
 20
0.0
 30
0.0
  3
_D
  1
_D
  0
SOLID
  5
D9
330
D6
100
AcDbEntity
  8
치수문자_일반주서
100
AcDbTrace
 10
-45.00250885508846
 20
3.001074928723889
 30
0.0
 11
-44.49450885508846
 21
6.303074928723889
 31
0.0
 12
-45.51050885508847
 22
6.303074928723889
 32
0.0
 13
-45.51050885508847
 23
6.303074928723889
 33
0.0
  0
SOLID
  5
DA
330
D6
100
AcDbEntity
  8
치수문자_일반주서
100
AcDbTrace
 10
-45.00250885508846
 20
-2.998925071276107
 30
0.0
 11
-45.51050885508847
 21
-6.300925071276106
 31
0.0
 12
-44.49450885508846
 22
-6.300925071276106
 32
0.0
 13
-44.49450885508846
 23
-6.300925071276106
 33
0.0
  0
LINE
  5
DB
330
D6
100
AcDbEntity
  8
치수문자_일반주서
100
AcDbLine
 10
-33.50605083347638
 20
3.001074928723889
 30
0.0
 11
-46.00250885508846
 21
3.001074928723889
 31
0.0
  0
LINE
  5
DC
330
D6
100
AcDbEntity
  8
치수문자_일반주서
100
AcDbLine
 10
-33.50605083347638
 20
-2.998925071276107
 30
0.0
 11
-46.00250885508846
 21
-2.998925071276107
 31
0.0
  0
LINE
  5
DD
330
D6
100
AcDbEntity
  8
치수문자_일반주서
100
AcDbLine
 10
-45.00250885508846
 20
3.001074928723889
 30
0.0
 11
-45.00250885508846
 21
9.35107492872389
 31
0.0
  0
LINE
  5
DE
330
D6
100
AcDbEntity
  8
치수문자_일반주서
100
AcDbLine
 10
-45.00250885508846
 20
3.001074928723889
 30
0.0
 11
-45.00250885508846
 21
-2.998925071276107
 31
0.0
  0
LINE
  5
DF
330
D6
100
AcDbEntity
  8
치수문자_일반주서
100
AcDbLine
 10
-45.00250885508846
 20
-2.998925071276107
 30
0.0
 11
-45.00250885508846
 21
-9.348925071276108
 31
0.0
  0
MTEXT
  5
E0
330
D6
100
AcDbEntity
  8
치수문자_일반주서
100
AcDbMText
 10
-49.5142459442903
 20
-3.931199483639909
 30
0.0
 40
3.5
 41
0.0
 71
     1
 72
     1
  1
%%c
  7
SLDTEXTSTYLE0
 11
-7.044195017643634E-15
 21
1.0
 31
0.0
 73
     1
 44
1.0
  0
MTEXT
  5
E1
330
D6
100
AcDbEntity
  8
치수문자_일반주서
100
AcDbMText
 10
-49.56771812095019
 20
1.347237914734172
 30
0.0
 40
3.5
 41
0.0
 71
     1
 72
     1
  1
6
  7
SLDTEXTSTYLE0
 11
-7.044195017643634E-15
 21
1.0
 31
0.0
 73
     1
 44
1.0
  0
ENDBLK
  5
D8
330
D6
100
AcDbEntity
  8
0
100
AcDbBlockEnd
  0
BLOCK
  5
E4
330
E3
100
AcDbEntity
  8
0
100
AcDbBlockBegin
  2
_D_1
 70
     0
 10
0.0
 20
0.0
 30
0.0
  3
_D_1
  1
_D_1
  0
SOLID
  5
E6
330
E3
100
AcDbEntity
  8
치수문자_일반주서
100
AcDbTrace
 10
26.49394916652362
 20
20.30107492872356
 30
0.0
 11
29.79594916652362
 21
19.79307492872356
 31
0.0
 12
29.79594916652362
 22
20.80907492872356
 32
0.0
 13
29.79594916652362
 23
20.80907492872356
 33
0.0
  0
SOLID
  5
E7
330
E3
100
AcDbEntity
  8
치수문자_일반주서
100
AcDbTrace
 10
20.49394916652362
 20
20.30107492872356
 30
0.0
 11
17.19194916652362
 21
20.80907492872356
 31
0.0
 12
17.19194916652362
 22
19.79307492872356
 32
0.0
 13
17.19194916652362
 23
19.79307492872356
 33
0.0
  0
LINE
  5
E8
330
E3
100
AcDbEntity
  8
치수문자_일반주서
100
AcDbLine
 10
26.49394916652362
 20
2.801074928723894
 30
0.0
 11
26.49394916652362
 21
21.30107492872356
 31
0.0
  0
LINE
  5
E9
330
E3
100
AcDbEntity
  8
치수문자_일반주서
100
AcDbLine
 10
20.49394916652362
 20
2.582589082680106
 30
0.0
 11
20.49394916652362
 21
21.30107492872356
 31
0.0
  0
LINE
  5
EA
330
E3
100
AcDbEntity
  8
치수문자_일반주서
100
AcDbLine
 10
26.49394916652362
 20
20.30107492872356
 30
0.0
 11
34.34975570836896
 21
20.30107492872356
 31
0.0
  0
LINE
  5
EB
330
E3
100
AcDbEntity
  8
치수문자_일반주서
100
AcDbLine
 10
26.49394916652362
 20
20.30107492872356
 30
0.0
 11
20.49394916652362
 21
20.30107492872356
 31
0.0
  0
LINE
  5
EC
330
E3
100
AcDbEntity
  8
치수문자_일반주서
100
AcDbLine
 10
20.49394916652362
 20
20.30107492872356
 30
0.0
 11
14.14394916652362
 21
20.30107492872356
 31
0.0
  0
MTEXT
  5
ED
330
E3
100
AcDbEntity
  8
치수문자_일반주서
100
AcDbMText
 10
31.76364451484615
 20
24.81281184330245
 30
0.0
 40
3.5
 41
0.0
 71
     1
 72
     1
  1
6
  7
SLDTEXTSTYLE0
 73
     1
 44
1.0
  0
ENDBLK
  5
E5
330
E3
100
AcDbEntity
  8
0
100
AcDbBlockEnd
  0
BLOCK
  5
F1
330
F0
100
AcDbEntity
  8
0
100
AcDbBlockBegin
  2
_D_2
 70
     0
 10
0.0
 20
0.0
 30
0.0
  3
_D_2
  1
_D_2
  0
SOLID
  5
F3
330
F0
100
AcDbEntity
  8
치수문자_일반주서
100
AcDbTrace
 10
26.49394916652361
 20
42.3593994337682
 30
0.0
 11
23.19194916652361
 21
42.8673994337682
 31
0.0
 12
23.19194916652361
 22
41.85139943376819
 32
0.0
 13
23.19194916652361
 23
41.85139943376819
 33
0.0
  0
SOLID
  5
F4
330
F0
100
AcDbEntity
  8
치수문자_일반주서
100
AcDbTrace
 10
-33.50605083347638
 20
42.3593994337682
 30
0.0
 11
-30.20405083347638
 21
41.85139943376819
 31
0.0
 12
-30.20405083347638
 22
42.8673994337682
 32
0.0
 13
-30.20405083347638
 23
42.8673994337682
 33
0.0
  0
LINE
  5
F5
330
F0
100
AcDbEntity
  8
치수문자_일반주서
100
AcDbLine
 10
26.49394916652362
 20
2.801074928723894
 30
0.0
 11
26.49394916652361
 21
43.3593994337682
 31
0.0
  0
LINE
  5
F6
330
F0
100
AcDbEntity
  8
치수문자_일반주서
100
AcDbLine
 10
-33.50605083347638
 20
3.001074928723888
 30
0.0
 11
-33.50605083347638
 21
43.3593994337682
 31
0.0
  0
LINE
  5
F7
330
F0
100
AcDbEntity
  8
치수문자_일반주서
100
AcDbLine
 10
26.49394916652361
 20
42.3593994337682
 30
0.0
 11
-33.50605083347638
 21
42.3593994337682
 31
0.0
  0
MTEXT
  5
F8
330
F0
100
AcDbEntity
  8
치수문자_일반주서
100
AcDbMText
 10
-6.092162026999207
 20
46.87113634834708
 30
0.0
 40
3.5
 41
0.0
 71
     1
 72
     1
  1
60
  7
SLDTEXTSTYLE0
 73
     1
 44
1.0
  0
ENDBLK
  5
F2
330
F0
100
AcDbEntity
  8
0
100
AcDbBlockEnd
  0
BLOCK
  5
FB
330
FA
100
AcDbEntity
  8
0
100
AcDbBlockBegin
  2
_D_3
 70
     0
 10
0.0
 20
0.0
 30
0.0
  3
_D_3
  1
_D_3
  0
SOLID
  5
FD
330
FA
100
AcDbEntity
  8
치수문자_일반주서
100
AcDbTrace
 10
14.49394916652476
 20
30.32107492872395
 30
0.0
 11
17.79594916652475
 21
29.81307492872382
 31
0.0
 12
17.79594916652478
 22
30.82907492872382
 32
0.0
 13
17.79594916652478
 23
30.82907492872382
 33
0.0
  0
SOLID
  5
FE
330
FA
100
AcDbEntity
  8
치수문자_일반주서
100
AcDbTrace
 10
10.2140453559571
 20
30.32107492872411
 30
0.0
 11
6.912045355957115
 21
30.82907492872424
 31
0.0
 12
6.912045355957076
 22
29.81307492872424
 32
0.0
 13
6.912045355957076
 23
29.81307492872424
 33
0.0
  0
LINE
  5
FF
330
FA
100
AcDbEntity
  8
치수문자_일반주서
100
AcDbLine
 10
14.49394916652365
 20
1.401074928723893
 30
0.0
 11
14.4939491665248
 21
31.32107492872394
 31
0.0
  0
LINE
  5
100
330
FA
100
AcDbEntity
  8
치수문자_일반주서
100
AcDbLine
 10
10.21404535595599
 20
1.551074928723894
 30
0.0
 11
10.21404535595713
 21
31.32107492872411
 31
0.0
  0
LINE
  5
101
330
FA
100
AcDbEntity
  8
치수문자_일반주서
100
AcDbLine
 10
14.49394916652476
 20
30.32107492872395
 30
0.0
 11
55.42440269528608
 21
30.32107492872239
 31
0.0
  0
LINE
  5
102
330
FA
100
AcDbEntity
  8
치수문자_일반주서
100
AcDbLine
 10
14.49394916652476
 20
30.32107492872395
 30
0.0
 11
10.2140453559571
 21
30.32107492872411
 31
0.0
  0
LINE
  5
103
330
FA
100
AcDbEntity
  8
치수문자_일반주서
100
AcDbLine
 10
10.2140453559571
 20
30.32107492872411
 30
0.0
 11
3.864045355957095
 21
30.32107492872435
 31
0.0
  0
MTEXT
  5
104
330
FA
100
AcDbEntity
  8
치수문자_일반주서
100
AcDbMText
 10
46.3730136343715
 20
34.83281184330144
 30
0.0
 40
3.5
 41
0.0
 71
     1
 72
     1
  1
4.28
  7
SLDTEXTSTYLE0
 73
     1
 44
1.0
  0
ENDBLK
  5
FC
330
FA
100
AcDbEntity
  8
0
100
AcDbBlockEnd
  0
BLOCK
  5
107
330
106
100
AcDbEntity
  8
0
100
AcDbBlockBegin
  2
_D_4
 70
     0
 10
0.0
 20
0.0
 30
0.0
  3
_D_4
  1
_D_4
  0
SOLID
  5
109
330
106
100
AcDbEntity
  8
치수문자_일반주서
100
AcDbTrace
 10
68.05059833193548
 20
1.501074928723896
 30
0.0
 11
68.55859833193547
 21
4.803074928723896
 31
0.0
 12
67.54259833193548
 22
4.803074928723896
 32
0.0
 13
67.54259833193548
 23
4.803074928723896
 33
0.0
  0
SOLID
  5
10A
330
106
100
AcDbEntity
  8
치수문자_일반주서
100
AcDbTrace
 10
68.05059833193548
 20
-1.480510821134722
 30
0.0
 11
67.54259833193548
 21
-4.782510821134721
 31
0.0
 12
68.55859833193547
 22
-4.782510821134721
 32
0.0
 13
68.55859833193547
 23
-4.782510821134721
 33
0.0
  0
LINE
  5
10B
330
106
100
AcDbEntity
  8
치수문자_일반주서
100
AcDbLine
 10
51.19394916652362
 20
1.501074928723897
 30
0.0
 11
69.05059833193548
 21
1.501074928723896
 31
0.0
  0
LINE
  5
10C
330
106
100
AcDbEntity
  8
치수문자_일반주서
100
AcDbLine
 10
51.19394916652362
 20
-1.480510821134721
 30
0.0
 11
69.05059833193548
 21
-1.480510821134722
 31
0.0
  0
LINE
  5
10D
330
106
100
AcDbEntity
  8
치수문자_일반주서
100
AcDbLine
 10
68.05059833193548
 20
1.501074928723896
 30
0.0
 11
68.05059833193548
 21
7.851074928723896
 31
0.0
  0
LINE
  5
10E
330
106
100
AcDbEntity
  8
치수문자_일반주서
100
AcDbLine
 10
68.05059833193548
 20
1.501074928723896
 30
0.0
 11
68.05059833193548
 21
-1.480510821134722
 31
0.0
  0
LINE
  5
10F
330
106
100
AcDbEntity
  8
치수문자_일반주서
100
AcDbLine
 10
68.05059833193548
 20
-1.480510821134722
 30
0.0
 11
68.05059833193548
 21
-14.32156976103179
 31
0.0
  0
MTEXT
  5
110
330
106
100
AcDbEntity
  8
치수문자_일반주서
100
AcDbMText
 10
63.53886124273361
 20
-14.32156976103178
 30
0.0
 40
3.5
 41
0.0
 71
     1
 72
     1
  1
%%c
  7
SLDTEXTSTYLE0
 11
-7.044195017643634E-15
 21
1.0
 31
0.0
 73
     1
 44
1.0
  0
MTEXT
  5
111
330
106
100
AcDbEntity
  8
치수문자_일반주서
100
AcDbMText
 10
63.48538906607372
 20
-9.043132362657696
 30
0.0
 40
3.5
 41
0.0
 71
     1
 72
     1
  1
2.98
  7
SLDTEXTSTYLE0
 11
-7.044195017643634E-15
 21
1.0
 31
0.0
 73
     1
 44
1.0
  0
ENDBLK
  5
108
330
106
100
AcDbEntity
  8
0
100
AcDbBlockEnd
  0
BLOCK
  5
113
330
112
100
AcDbEntity
  8
0
100
AcDbBlockBegin
  2
SW_DOWELSYMBOL_0
 70
     0
 10
0.0
 20
0.0
 30
0.0
  3
SW_DOWELSYMBOL_0
  1
SW_DOWELSYMBOL_0
  0
CIRCLE
  5
115
330
112
100
AcDbEntity
  8
외형선
 62
     0
100
AcDbCircle
 10
0.0
 20
0.0
 30
0.0
 40
3.000000000000004
  0
HATCH
  5
116
330
112
100
AcDbEntity
  8
0
  6
Continuous
 62
     0
370
    35
100
AcDbHatch
 10
0.0
 20
0.0
 30
0.0
210
0.0
220
0.0
230
1.0
  2
SOLID
 70
     1
 71
     0
 91
        1
 92
        0
 93
        3
 72
     2
 10
0.0000000000000104
 20
0.0
 40
3.000000000000004
 50
0.0
 51
90.0
 73
     1
 72
     1
 10
0.0000000000000104
 20
3.000000000000004
 11
0.0000000000000104
 21
0.0
 72
     1
 10
0.0000000000000104
 20
0.0
 11
3.000000000000015
 21
0.0
 97
        0
 75
     0
 76
     1
 98
        1
 10
0.0
 20
0.0
  0
HATCH
  5
117
330
112
100
AcDbEntity
  8
0
  6
Continuous
 62
     0
370
    35
100
AcDbHatch
 10
0.0
 20
0.0
 30
0.0
210
0.0
220
0.0
230
1.0
  2
SOLID
 70
     1
 71
     0
 91
        1
 92
        0
 93
        3
 72
     2
 10
0.0000000000000104
 20
0.0
 40
3.000000000000004
 50
180.0
 51
270.0000000000008
 73
     1
 72
     1
 10
0.0000000000000104
 20
-3.000000000000004
 11
0.0000000000000104
 21
0.0
 72
     1
 10
0.0000000000000104
 20
0.0
 11
-2.999999999999994
 21
0.0
 97
        0
 75
     0
 76
     1
 98
        1
 10
0.0
 20
0.0
  0
ENDBLK
  5
114
330
112
100
AcDbEntity
  8
0
100
AcDbBlockEnd
  0
BLOCK
  5
1EB
330
1EA
100
AcDbEntity
  8
0
100
AcDbBlockBegin
  2
*D9
 70
     1
 10
0.0
 20
0.0
 30
0.0
  3
*D9
  1
*D9
  0
LINE
  5
1EC
330
1EA
100
AcDbEntity
  8
치수문자_일반주서
 62
     0
370
    -2
100
AcDbLine
 10
76.7390437286911
 20
21.42774841939471
 30
0.0
 11
83.09599097600422
 21
-0.0000000000007083
 31
0.0
  0
MTEXT
  5
1ED
330
1EA
100
AcDbEntity
  8
치수문자_일반주서
 62
     0
100
AcDbMText
 10
84.43047341688792
 20
4.731193895568683
 30
0.0
 40
3.5
 41
0.0
 71
     5
 72
     1
  1
\A1;R0.1
  7
SLDTEXTSTYLE0
 11
0.2844167275364509
 21
-0.9587007484598395
 31
0.0
 73
     1
 44
1.0
  0
LINE
  5
1EE
330
1EA
100
AcDbEntity
  8
치수문자_일반주서
 62
     0
370
    -2
100
AcDbLine
 10
75.77145802161209
 20
24.68924836565508
 30
0.0
 11
75.79989969436573
 21
24.5933782908091
 31
0.0
  0
SOLID
  5
1EF
330
1EA
100
AcDbEntity
  8
치수문자_일반주서
 62
     0
100
AcDbTrace
 10
77.26664870726016
 20
21.58427242511561
 30
0.0
 11
76.21143875012204
 21
21.27122441367382
 31
0.0
 12
75.79989969436573
 22
24.5933782908091
 32
0.0
 13
75.79989969436573
 23
24.5933782908091
 33
0.0
  0
POINT
  5
1F0
330
1EA
100
AcDbEntity
  8
Defpoints
 62
     0
100
AcDbPoint
 10
75.79989969436573
 20
24.5933782908091
 30
0.0
  0
POINT
  5
1F1
330
1EA
100
AcDbEntity
  8
Defpoints
 62
     0
100
AcDbPoint
 10
75.77145802161209
 20
24.68924836565508
 30
0.0
  0
ENDBLK
  5
1F2
330
1EA
100
AcDbEntity
  8
0
100
AcDbBlockEnd
  0
BLOCK
  5
1F6
330
1F5
100
AcDbEntity
  8
0
100
AcDbBlockBegin
  2
*D10
 70
     1
 10
0.0
 20
0.0
 30
0.0
  3
*D10
  1
*D10
  0
LINE
  5
1F8
330
1F5
100
AcDbEntity
  8
치수문자_일반주서
 62
     0
370
    -2
100
AcDbLine
 10
16.80895802161209
 20
29.5843277361372
 30
0.0
 11
4.374999999999996
 21
29.58432773613715
 31
0.0
  0
LINE
  5
1F9
330
1F5
100
AcDbEntity
  8
치수문자_일반주서
 62
     0
370
    -2
100
AcDbLine
 10
16.80895802161209
 20
23.5843277361372
 30
0.0
 11
4.375000000000018
 21
23.58432773613716
 31
0.0
  0
LINE
  5
1FA
330
1F5
100
AcDbEntity
  8
치수문자_일반주서
 62
     0
370
    -2
100
AcDbLine
 10
4.375000000000008
 20
26.28232773613716
 30
0.0
 11
4.375000000000006
 21
26.88632773613716
 31
0.0
  0
SOLID
  5
1FB
330
1F5
100
AcDbEntity
  8
치수문자_일반주서
 62
     0
100
AcDbTrace
 10
4.925333333333342
 20
26.28232773613716
 30
0.0
 11
3.824666666666675
 21
26.28232773613715
 31
0.0
 12
4.374999999999996
 22
29.58432773613715
 32
0.0
 13
4.374999999999996
 23
29.58432773613715
 33
0.0
  0
SOLID
  5
1FC
330
1F5
100
AcDbEntity
  8
치수문자_일반주서
 62
     0
100
AcDbTrace
 10
3.824666666666673
 20
26.88632773613715
 30
0.0
 11
4.92533333333334
 21
26.88632773613716
 31
0.0
 12
4.375000000000018
 22
23.58432773613716
 32
0.0
 13
4.375000000000018
 23
23.58432773613716
 33
0.0
  0
MTEXT
  5
1FD
330
1F5
100
AcDbEntity
  8
치수문자_일반주서
 62
     0
100
AcDbMText
 10
0.0000000000000071
 20
26.58432773613718
 30
0.0
 40
3.5
 41
0.0
 71
     2
 72
     1
  1
\A1;%%c6
  7
SLDTEXTSTYLE0
 11
-3.552713678800503E-15
 21
1.0
 31
0.0
 73
     1
 44
1.0
  0
POINT
  5
1FE
330
1F5
100
AcDbEntity
  8
Defpoints
 62
     0
100
AcDbPoint
 10
16.87145802161209
 20
29.5843277361372
 30
0.0
  0
POINT
  5
1FF
330
1F5
100
AcDbEntity
  8
Defpoints
 62
     0
100
AcDbPoint
 10
16.87145802161209
 20
23.5843277361372
 30
0.0
  0
POINT
  5
200
330
1F5
100
AcDbEntity
  8
Defpoints
 62
     0
100
AcDbPoint
 10
4.375000000000021
 20
23.58432773613716
 30
0.0
  0
ENDBLK
  5
1F7
330
1F5
100
AcDbEntity
  8
0
100
AcDbBlockEnd
  0
BLOCK
  5
202
330
201
100
AcDbEntity
  8
0
100
AcDbBlockBegin
  2
*D11
 70
     1
 10
0.0
 20
0.0
 30
0.0
  3
*D11
  1
*D11
  0
LINE
  5
204
330
201
100
AcDbEntity
  8
치수문자_일반주서
 62
     0
370
    -2
100
AcDbLine
 10
75.87145802161209
 20
28.54682773613721
 30
0.0
 11
75.87145802161209
 21
46.98432773613686
 31
0.0
  0
LINE
  5
205
330
201
100
AcDbEntity
  8
치수문자_일반주서
 62
     0
370
    -2
100
AcDbLine
 10
69.87145802161209
 20
28.22834189009342
 30
0.0
 11
69.87145802161209
 21
46.98432773613686
 31
0.0
  0
LINE
  5
206
330
201
100
AcDbEntity
  8
치수문자_일반주서
 62
     0
370
    -2
100
AcDbLine
 10
72.56945802161209
 20
46.98432773613686
 30
0.0
 11
73.17345802161208
 21
46.98432773613686
 31
0.0
  0
SOLID
  5
207
330
201
100
AcDbEntity
  8
치수문자_일반주서
 62
     0
100
AcDbTrace
 10
72.56945802161209
 20
46.43399440280353
 30
0.0
 11
72.56945802161209
 21
47.5346610694702
 31
0.0
 12
75.87145802161209
 22
46.98432773613686
 32
0.0
 13
75.87145802161209
 23
46.98432773613686
 33
0.0
  0
SOLID
  5
208
330
201
100
AcDbEntity
  8
치수문자_일반주서
 62
     0
100
AcDbTrace
 10
73.17345802161208
 20
47.5346610694702
 30
0.0
 11
73.17345802161208
 21
46.43399440280353
 31
0.0
 12
69.87145802161209
 22
46.98432773613686
 32
0.0
 13
69.87145802161209
 23
46.98432773613686
 33
0.0
  0
MTEXT
  5
209
330
201
100
AcDbEntity
  8
치수문자_일반주서
 62
     0
100
AcDbMText
 10
72.87145802161209
 20
51.35932773613686
 30
0.0
 40
3.5
 41
0.0
 71
     2
 72
     1
  1
\A1;6
  7
SLDTEXTSTYLE0
 73
     1
 44
1.0
  0
POINT
  5
20A
330
201
100
AcDbEntity
  8
Defpoints
 62
     0
100
AcDbPoint
 10
75.87145802161209
 20
28.48432773613721
 30
0.0
  0
POINT
  5
20B
330
201
100
AcDbEntity
  8
Defpoints
 62
     0
100
AcDbPoint
 10
69.87145802161209
 20
28.16584189009342
 30
0.0
  0
POINT
  5
20C
330
201
100
AcDbEntity
  8
Defpoints
 62
     0
100
AcDbPoint
 10
69.87145802161209
 20
46.98432773613686
 30
0.0
  0
ENDBLK
  5
203
330
201
100
AcDbEntity
  8
0
100
AcDbBlockEnd
  0
BLOCK
  5
20E
330
20D
100
AcDbEntity
  8
0
100
AcDbBlockBegin
  2
*D12
 70
     1
 10
0.0
 20
0.0
 30
0.0
  3
*D12
  1
*D12
  0
LINE
  5
210
330
20D
100
AcDbEntity
  8
치수문자_일반주서
 62
     0
370
    -2
100
AcDbLine
 10
75.87145802161209
 20
28.54682773613721
 30
0.0
 11
75.87145802161209
 21
69.04265224118149
 31
0.0
  0
LINE
  5
211
330
20D
100
AcDbEntity
  8
치수문자_일반주서
 62
     0
370
    -2
100
AcDbLine
 10
15.87145802161209
 20
28.6468277361372
 30
0.0
 11
15.87145802161209
 21
69.04265224118149
 31
0.0
  0
LINE
  5
212
330
20D
100
AcDbEntity
  8
치수문자_일반주서
 62
     0
370
    -2
100
AcDbLine
 10
72.56945802161209
 20
69.04265224118149
 30
0.0
 11
19.17345802161208
 21
69.04265224118149
 31
0.0
  0
SOLID
  5
213
330
20D
100
AcDbEntity
  8
치수문자_일반주서
 62
     0
100
AcDbTrace
 10
72.56945802161209
 20
68.49231890784816
 30
0.0
 11
72.56945802161209
 21
69.59298557451481
 31
0.0
 12
75.87145802161209
 22
69.04265224118149
 32
0.0
 13
75.87145802161209
 23
69.04265224118149
 33
0.0
  0
SOLID
  5
214
330
20D
100
AcDbEntity
  8
치수문자_일반주서
 62
     0
100
AcDbTrace
 10
19.17345802161208
 20
69.59298557451481
 30
0.0
 11
19.17345802161208
 21
68.49231890784816
 31
0.0
 12
15.87145802161209
 22
69.04265224118149
 32
0.0
 13
15.87145802161209
 23
69.04265224118149
 33
0.0
  0
MTEXT
  5
215
330
20D
100
AcDbEntity
  8
치수문자_일반주서
 62
     0
100
AcDbMText
 10
45.87145802161209
 20
73.41765224118149
 30
0.0
 40
3.5
 41
0.0
 71
     2
 72
     1
  1
\A1;60
  7
SLDTEXTSTYLE0
 73
     1
 44
1.0
  0
POINT
  5
216
330
20D
100
AcDbEntity
  8
Defpoints
 62
     0
100
AcDbPoint
 10
75.87145802161209
 20
28.48432773613721
 30
0.0
  0
POINT
  5
217
330
20D
100
AcDbEntity
  8
Defpoints
 62
     0
100
AcDbPoint
 10
15.87145802161209
 20
28.5843277361372
 30
0.0
  0
POINT
  5
218
330
20D
100
AcDbEntity
  8
Defpoints
 62
     0
100
AcDbPoint
 10
15.87145802161209
 20
69.04265224118149
 30
0.0
  0
ENDBLK
  5
20F
330
20D
100
AcDbEntity
  8
0
100
AcDbBlockEnd
  0
BLOCK
  5
21A
330
219
100
AcDbEntity
  8
0
100
AcDbBlockBegin
  2
*D13
 70
     1
 10
0.0
 20
0.0
 30
0.0
  3
*D13
  1
*D13
  0
LINE
  5
21C
330
219
100
AcDbEntity
  8
치수문자_일반주서
 62
     0
370
    -2
100
AcDbLine
 10
75.87145802161209
 20
28.5441285467772
 30
0.0
 11
75.87145802161209
 21
56.90432773613586
 31
0.0
  0
LINE
  5
21D
330
219
100
AcDbEntity
  8
치수문자_일반주서
 62
     0
370
    -2
100
AcDbLine
 10
59.87145802161209
 20
28.57182773613721
 30
0.0
 11
59.87145802161209
 21
56.90432773613586
 31
0.0
  0
LINE
  5
21E
330
219
100
AcDbEntity
  8
치수문자_일반주서
 62
     0
370
    -2
100
AcDbLine
 10
72.56945802161209
 20
56.90432773613586
 30
0.0
 11
63.17345802161208
 21
56.90432773613586
 31
0.0
  0
SOLID
  5
21F
330
219
100
AcDbEntity
  8
치수문자_일반주서
 62
     0
100
AcDbTrace
 10
72.56945802161209
 20
56.35399440280253
 30
0.0
 11
72.56945802161209
 21
57.4546610694692
 31
0.0
 12
75.87145802161209
 22
56.90432773613586
 32
0.0
 13
75.87145802161209
 23
56.90432773613586
 33
0.0
  0
SOLID
  5
220
330
219
100
AcDbEntity
  8
치수문자_일반주서
 62
     0
100
AcDbTrace
 10
63.17345802161208
 20
57.4546610694692
 30
0.0
 11
63.17345802161208
 21
56.35399440280253
 31
0.0
 12
59.87145802161209
 22
56.90432773613586
 32
0.0
 13
59.87145802161209
 23
56.90432773613586
 33
0.0
  0
MTEXT
  5
221
330
219
100
AcDbEntity
  8
치수문자_일반주서
 62
     0
100
AcDbMText
 10
67.91275611632825
 20
61.27932773613586
 30
0.0
 40
3.5
 41
0.0
 71
     2
 72
     1
  1
\A1;16
  7
SLDTEXTSTYLE0
 73
     1
 44
1.0
  0
POINT
  5
222
330
219
100
AcDbEntity
  8
Defpoints
 62
     0
100
AcDbPoint
 10
75.87145802161209
 20
28.4816285467772
 30
0.0
  0
POINT
  5
223
330
219
100
AcDbEntity
  8
Defpoints
 62
     0
100
AcDbPoint
 10
59.87145802161209
 20
28.50932773613721
 30
0.0
  0
POINT
  5
224
330
219
100
AcDbEntity
  8
Defpoints
 62
     0
100
AcDbPoint
 10
59.87145802161209
 20
56.90432773613586
 30
0.0
  0
ENDBLK
  5
21B
330
219
100
AcDbEntity
  8
0
100
AcDbBlockEnd
  0
BLOCK
  5
226
330
225
100
AcDbEntity
  8
0
100
AcDbBlockBegin
  2
*D14
 70
     1
 10
0.0
 20
0.0
 30
0.0
  3
*D14
  1
*D14
  0
LINE
  5
228
330
225
100
AcDbEntity
  8
치수문자_일반주서
 62
     0
370
    -2
100
AcDbLine
 10
75.93395802161209
 20
28.59252982382305
 30
0.0
 11
96.631032604318
 21
28.59252982382313
 31
0.0
  0
LINE
  5
229
330
225
100
AcDbEntity
  8
치수문자_일반주서
 62
     0
370
    -2
100
AcDbLine
 10
75.83395802161209
 20
24.58924836565508
 30
0.0
 11
96.63103260431801
 21
24.58924836565516
 31
0.0
  0
LINE
  5
22A
330
225
100
AcDbEntity
  8
치수문자_일반주서
 62
     0
370
    -2
100
AcDbLine
 10
96.631032604318
 20
28.59252982382313
 30
0.0
 11
96.63103260431794
 21
44.37090710661941
 31
0.0
  0
LINE
  5
22B
330
225
100
AcDbEntity
  8
치수문자_일반주서
 62
     0
370
    -2
100
AcDbLine
 10
96.631032604318
 20
28.59252982382313
 30
0.0
 11
96.63103260431801
 21
24.58924836565516
 31
0.0
  0
LINE
  5
22C
330
225
100
AcDbEntity
  8
치수문자_일반주서
 62
     0
370
    -2
100
AcDbLine
 10
96.63103260431798
 20
31.89452982382313
 30
0.0
 11
96.63103260431797
 21
35.19652982382313
 31
0.0
  0
LINE
  5
22D
330
225
100
AcDbEntity
  8
치수문자_일반주서
 62
     0
370
    -2
100
AcDbLine
 10
96.63103260431802
 20
21.28724836565516
 30
0.0
 11
96.63103260431804
 21
17.98524836565516
 31
0.0
  0
SOLID
  5
22E
330
225
100
AcDbEntity
  8
치수문자_일반주서
 62
     0
100
AcDbTrace
 10
96.08069927098465
 20
31.89452982382313
 30
0.0
 11
97.18136593765131
 21
31.89452982382313
 31
0.0
 12
96.631032604318
 22
28.59252982382313
 32
0.0
 13
96.631032604318
 23
28.59252982382313
 33
0.0
  0
SOLID
  5
22F
330
225
100
AcDbEntity
  8
치수문자_일반주서
 62
     0
100
AcDbTrace
 10
97.18136593765135
 20
21.28724836565516
 30
0.0
 11
96.0806992709847
 21
21.28724836565515
 31
0.0
 12
96.63103260431801
 22
24.58924836565516
 32
0.0
 13
96.63103260431801
 23
24.58924836565516
 33
0.0
  0
MTEXT
  5
230
330
225
100
AcDbEntity
  8
치수문자_일반주서
 62
     0
100
AcDbMText
 10
92.25603260431795
 20
41.30840710661939
 30
0.0
 40
3.5
 41
0.0
 71
     2
 72
     1
  1
\A1;%%c4
  7
SLDTEXTSTYLE0
 11
-3.549801547479833E-15
 21
1.0
 31
0.0
 73
     1
 44
1.0
  0
POINT
  5
231
330
225
100
AcDbEntity
  8
Defpoints
 62
     0
100
AcDbPoint
 10
75.87145802161209
 20
28.59252982382305
 30
0.0
  0
POINT
  5
232
330
225
100
AcDbEntity
  8
Defpoints
 62
     0
100
AcDbPoint
 10
75.77145802161209
 20
24.58924836565508
 30
0.0
  0
POINT
  5
233
330
225
100
AcDbEntity
  8
Defpoints
 62
     0
100
AcDbPoint
 10
96.63103260431801
 20
24.58924836565516
 30
0.0
  0
ENDBLK
  5
227
330
225
100
AcDbEntity
  8
0
100
AcDbBlockEnd
  0
BLOCK
  5
273
330
272
100
AcDbEntity
  8
0
100
AcDbBlockBegin
  2
*D15
 70
     1
 10
0.0
 20
0.0
 30
0.0
  3
*D15
  1
*D15
  0
LINE
  5
275
330
272
100
AcDbEntity
  8
치수문자_일반주서
 62
     0
370
    -2
100
AcDbLine
 10
-39.05054538186347
 20
2.999999999999996
 30
0.0
 11
-51.48450340347556
 21
2.999999999999949
 31
0.0
  0
LINE
  5
276
330
272
100
AcDbEntity
  8
치수문자_일반주서
 62
     0
370
    -2
100
AcDbLine
 10
-39.05054538186347
 20
-3.0
 30
0.0
 11
-51.48450340347554
 21
-3.000000000000048
 31
0.0
  0
LINE
  5
277
330
272
100
AcDbEntity
  8
치수문자_일반주서
 62
     0
370
    -2
100
AcDbLine
 10
-51.48450340347554
 20
-0.3020000000000507
 30
0.0
 11
-51.48450340347555
 21
0.3019999999999521
 31
0.0
  0
SOLID
  5
278
330
272
100
AcDbEntity
  8
치수문자_일반주서
 62
     0
100
AcDbTrace
 10
-50.93417007014221
 20
-0.3020000000000487
 30
0.0
 11
-52.03483673680888
 21
-0.3020000000000526
 31
0.0
 12
-51.48450340347556
 22
2.999999999999949
 32
0.0
 13
-51.48450340347556
 23
2.999999999999949
 33
0.0
  0
SOLID
  5
279
330
272
100
AcDbEntity
  8
치수문자_일반주서
 62
     0
100
AcDbTrace
 10
-52.03483673680888
 20
0.3019999999999501
 30
0.0
 11
-50.93417007014222
 21
0.301999999999954
 31
0.0
 12
-51.48450340347554
 22
-3.000000000000048
 32
0.0
 13
-51.48450340347554
 23
-3.000000000000048
 33
0.0
  0
MTEXT
  5
27A
330
272
100
AcDbEntity
  8
치수문자_일반주서
 62
     0
100
AcDbMText
 10
-55.85950340347555
 20
-0.000000000000019
 30
0.0
 40
3.5
 41
0.0
 71
     2
 72
     1
  1
\A1;%%c6
  7
SLDTEXTSTYLE0
 11
-3.552713678800503E-15
 21
1.0
 31
0.0
 73
     1
 44
1.0
  0
POINT
  5
27B
330
272
100
AcDbEntity
  8
Defpoints
 62
     0
100
AcDbPoint
 10
-38.98804538186347
 20
2.999999999999996
 30
0.0
  0
POINT
  5
27C
330
272
100
AcDbEntity
  8
Defpoints
 62
     0
100
AcDbPoint
 10
-38.98804538186347
 20
-3.0
 30
0.0
  0
POINT
  5
27D
330
272
100
AcDbEntity
  8
Defpoints
 62
     0
100
AcDbPoint
 10
-51.48450340347554
 20
-3.000000000000047
 30
0.0
  0
ENDBLK
  5
274
330
272
100
AcDbEntity
  8
0
100
AcDbBlockEnd
  0
BLOCK
  5
27F
330
27E
100
AcDbEntity
  8
0
100
AcDbBlockBegin
  2
*D16
 70
     1
 10
0.0
 20
0.0
 30
0.0
  3
*D16
  1
*D16
  0
LINE
  5
281
330
27E
100
AcDbEntity
  8
치수문자_일반주서
 62
     0
370
    -2
100
AcDbLine
 10
20.01195461813653
 20
1.962500000000002
 30
0.0
 11
20.01195461813653
 21
20.39999999999966
 31
0.0
  0
LINE
  5
282
330
27E
100
AcDbEntity
  8
치수문자_일반주서
 62
     0
370
    -2
100
AcDbLine
 10
14.01195461813653
 20
1.644014153956213
 30
0.0
 11
14.01195461813653
 21
20.39999999999966
 31
0.0
  0
LINE
  5
283
330
27E
100
AcDbEntity
  8
치수문자_일반주서
 62
     0
370
    -2
100
AcDbLine
 10
16.70995461813653
 20
20.39999999999966
 30
0.0
 11
17.31395461813653
 21
20.39999999999966
 31
0.0
  0
SOLID
  5
284
330
27E
100
AcDbEntity
  8
치수문자_일반주서
 62
     0
100
AcDbTrace
 10
16.70995461813653
 20
19.84966666666632
 30
0.0
 11
16.70995461813653
 21
20.95033333333299
 31
0.0
 12
20.01195461813653
 22
20.39999999999966
 32
0.0
 13
20.01195461813653
 23
20.39999999999966
 33
0.0
  0
SOLID
  5
285
330
27E
100
AcDbEntity
  8
치수문자_일반주서
 62
     0
100
AcDbTrace
 10
17.31395461813653
 20
20.95033333333299
 30
0.0
 11
17.31395461813653
 21
19.84966666666632
 31
0.0
 12
14.01195461813653
 22
20.39999999999966
 32
0.0
 13
14.01195461813653
 23
20.39999999999966
 33
0.0
  0
MTEXT
  5
286
330
27E
100
AcDbEntity
  8
치수문자_일반주서
 62
     0
100
AcDbMText
 10
17.01195461813653
 20
24.77499999999966
 30
0.0
 40
3.5
 41
0.0
 71
     2
 72
     1
  1
\A1;6
  7
SLDTEXTSTYLE0
 73
     1
 44
1.0
  0
POINT
  5
287
330
27E
100
AcDbEntity
  8
Defpoints
 62
     0
100
AcDbPoint
 10
20.01195461813653
 20
1.900000000000002
 30
0.0
  0
POINT
  5
288
330
27E
100
AcDbEntity
  8
Defpoints
 62
     0
100
AcDbPoint
 10
14.01195461813653
 20
1.581514153956213
 30
0.0
  0
POINT
  5
289
330
27E
100
AcDbEntity
  8
Defpoints
 62
     0
100
AcDbPoint
 10
14.01195461813653
 20
20.39999999999966
 30
0.0
  0
ENDBLK
  5
280
330
27E
100
AcDbEntity
  8
0
100
AcDbBlockEnd
  0
BLOCK
  5
28B
330
28A
100
AcDbEntity
  8
0
100
AcDbBlockBegin
  2
*D17
 70
     1
 10
0.0
 20
0.0
 30
0.0
  3
*D17
  1
*D17
  0
LINE
  5
28D
330
28A
100
AcDbEntity
  8
치수문자_일반주서
 62
     0
370
    -2
100
AcDbLine
 10
20.01195461813653
 20
1.962500000000002
 30
0.0
 11
20.01195461813653
 21
42.45832450504428
 31
0.0
  0
LINE
  5
28E
330
28A
100
AcDbEntity
  8
치수문자_일반주서
 62
     0
370
    -2
100
AcDbLine
 10
-39.98804538186347
 20
2.062499999999996
 30
0.0
 11
-39.98804538186347
 21
42.45832450504428
 31
0.0
  0
LINE
  5
28F
330
28A
100
AcDbEntity
  8
치수문자_일반주서
 62
     0
370
    -2
100
AcDbLine
 10
16.70995461813653
 20
42.45832450504428
 30
0.0
 11
-36.68604538186347
 21
42.45832450504428
 31
0.0
  0
SOLID
  5
290
330
28A
100
AcDbEntity
  8
치수문자_일반주서
 62
     0
100
AcDbTrace
 10
16.70995461813653
 20
41.90799117171095
 30
0.0
 11
16.70995461813653
 21
43.00865783837762
 31
0.0
 12
20.01195461813653
 22
42.45832450504428
 32
0.0
 13
20.01195461813653
 23
42.45832450504428
 33
0.0
  0
SOLID
  5
291
330
28A
100
AcDbEntity
  8
치수문자_일반주서
 62
     0
100
AcDbTrace
 10
-36.68604538186347
 20
43.00865783837762
 30
0.0
 11
-36.68604538186347
 21
41.90799117171095
 31
0.0
 12
-39.98804538186347
 22
42.45832450504428
 32
0.0
 13
-39.98804538186347
 23
42.45832450504428
 33
0.0
  0
MTEXT
  5
292
330
28A
100
AcDbEntity
  8
치수문자_일반주서
 62
     0
100
AcDbMText
 10
-9.988045381863472
 20
46.83332450504428
 30
0.0
 40
3.5
 41
0.0
 71
     2
 72
     1
  1
\A1;60
  7
SLDTEXTSTYLE0
 73
     1
 44
1.0
  0
POINT
  5
293
330
28A
100
AcDbEntity
  8
Defpoints
 62
     0
100
AcDbPoint
 10
20.01195461813653
 20
1.900000000000002
 30
0.0
  0
POINT
  5
294
330
28A
100
AcDbEntity
  8
Defpoints
 62
     0
100
AcDbPoint
 10
-39.98804538186347
 20
1.999999999999996
 30
0.0
  0
POINT
  5
295
330
28A
100
AcDbEntity
  8
Defpoints
 62
     0
100
AcDbPoint
 10
-39.98804538186347
 20
42.45832450504428
 30
0.0
  0
ENDBLK
  5
28C
330
28A
100
AcDbEntity
  8
0
100
AcDbBlockEnd
  0
BLOCK
  5
297
330
296
100
AcDbEntity
  8
0
100
AcDbBlockBegin
  2
*D18
 70
     1
 10
0.0
 20
0.0
 30
0.0
  3
*D18
  1
*D18
  0
LINE
  5
299
330
296
100
AcDbEntity
  8
치수문자_일반주서
 62
     0
370
    -2
100
AcDbLine
 10
20.01195461813653
 20
1.959800810639997
 30
0.0
 11
20.01195461813653
 21
30.31999999999866
 31
0.0
  0
LINE
  5
29A
330
296
100
AcDbEntity
  8
치수문자_일반주서
 62
     0
370
    -2
100
AcDbLine
 10
4.011954618136528
 20
1.987500000000001
 30
0.0
 11
4.011954618136528
 21
30.31999999999866
 31
0.0
  0
LINE
  5
29B
330
296
100
AcDbEntity
  8
치수문자_일반주서
 62
     0
370
    -2
100
AcDbLine
 10
16.70995461813653
 20
30.31999999999866
 30
0.0
 11
7.313954618136528
 21
30.31999999999866
 31
0.0
  0
SOLID
  5
29C
330
296
100
AcDbEntity
  8
치수문자_일반주서
 62
     0
100
AcDbTrace
 10
16.70995461813653
 20
29.76966666666532
 30
0.0
 11
16.70995461813653
 21
30.87033333333199
 31
0.0
 12
20.01195461813653
 22
30.31999999999866
 32
0.0
 13
20.01195461813653
 23
30.31999999999866
 33
0.0
  0
SOLID
  5
29D
330
296
100
AcDbEntity
  8
치수문자_일반주서
 62
     0
100
AcDbTrace
 10
7.313954618136528
 20
30.87033333333199
 30
0.0
 11
7.313954618136528
 21
29.76966666666532
 31
0.0
 12
4.011954618136528
 22
30.31999999999866
 32
0.0
 13
4.011954618136528
 23
30.31999999999866
 33
0.0
  0
MTEXT
  5
29E
330
296
100
AcDbEntity
  8
치수문자_일반주서
 62
     0
100
AcDbMText
 10
12.0532527128527
 20
34.69499999999866
 30
0.0
 40
3.5
 41
0.0
 71
     2
 72
     1
  1
\A1;16
  7
SLDTEXTSTYLE0
 73
     1
 44
1.0
  0
POINT
  5
29F
330
296
100
AcDbEntity
  8
Defpoints
 62
     0
100
AcDbPoint
 10
20.01195461813653
 20
1.897300810639997
 30
0.0
  0
POINT
  5
2A0
330
296
100
AcDbEntity
  8
Defpoints
 62
     0
100
AcDbPoint
 10
4.011954618136528
 20
1.925000000000001
 30
0.0
  0
POINT
  5
2A1
330
296
100
AcDbEntity
  8
Defpoints
 62
     0
100
AcDbPoint
 10
4.011954618136528
 20
30.31999999999866
 30
0.0
  0
ENDBLK
  5
298
330
296
100
AcDbEntity
  8
0
100
AcDbBlockEnd
  0
BLOCK
  5
2A3
330
2A2
100
AcDbEntity
  8
0
100
AcDbBlockBegin
  2
*D19
 70
     1
 10
0.0
 20
0.0
 30
0.0
  3
*D19
  1
*D19
  0
LINE
  5
2A5
330
2A2
100
AcDbEntity
  8
치수문자_일반주서
 62
     0
370
    -2
100
AcDbLine
 10
20.07445461813653
 20
2.008202087685849
 30
0.0
 11
40.77152920084244
 21
2.008202087685925
 31
0.0
  0
LINE
  5
2A6
330
2A2
100
AcDbEntity
  8
치수문자_일반주서
 62
     0
370
    -2
100
AcDbLine
 10
19.97445461813653
 20
-1.995079370482127
 30
0.0
 11
40.77152920084245
 21
-1.995079370482049
 31
0.0
  0
LINE
  5
2A7
330
2A2
100
AcDbEntity
  8
치수문자_일반주서
 62
     0
370
    -2
100
AcDbLine
 10
40.77152920084244
 20
2.008202087685925
 30
0.0
 11
40.77152920084238
 21
17.7865793704822
 31
0.0
  0
LINE
  5
2A8
330
2A2
100
AcDbEntity
  8
치수문자_일반주서
 62
     0
370
    -2
100
AcDbLine
 10
40.77152920084244
 20
2.008202087685925
 30
0.0
 11
40.77152920084245
 21
-1.995079370482049
 31
0.0
  0
LINE
  5
2A9
330
2A2
100
AcDbEntity
  8
치수문자_일반주서
 62
     0
370
    -2
100
AcDbLine
 10
40.77152920084242
 20
5.310202087685925
 30
0.0
 11
40.77152920084241
 21
8.612202087685924
 31
0.0
  0
LINE
  5
2AA
330
2A2
100
AcDbEntity
  8
치수문자_일반주서
 62
     0
370
    -2
100
AcDbLine
 10
40.77152920084247
 20
-5.297079370482049
 30
0.0
 11
40.77152920084248
 21
-8.599079370482048
 31
0.0
  0
SOLID
  5
2AB
330
2A2
100
AcDbEntity
  8
치수문자_일반주서
 62
     0
100
AcDbTrace
 10
40.22119586750909
 20
5.310202087685923
 30
0.0
 11
41.32186253417576
 21
5.310202087685926
 31
0.0
 12
40.77152920084244
 22
2.008202087685925
 32
0.0
 13
40.77152920084244
 23
2.008202087685925
 33
0.0
  0
SOLID
  5
2AC
330
2A2
100
AcDbEntity
  8
치수문자_일반주서
 62
     0
100
AcDbTrace
 10
41.3218625341758
 20
-5.297079370482047
 30
0.0
 11
40.22119586750913
 21
-5.29707937048205
 31
0.0
 12
40.77152920084245
 22
-1.995079370482049
 32
0.0
 13
40.77152920084245
 23
-1.995079370482049
 33
0.0
  0
MTEXT
  5
2AD
330
2A2
100
AcDbEntity
  8
치수문자_일반주서
 62
     0
100
AcDbMText
 10
36.39652920084239
 20
14.72407937048219
 30
0.0
 40
3.5
 41
0.0
 71
     2
 72
     1
  1
\A1;%%c4
  7
SLDTEXTSTYLE0
 11
-3.549801547479834E-15
 21
1.0
 31
0.0
 73
     1
 44
1.0
  0
POINT
  5
2AE
330
2A2
100
AcDbEntity
  8
Defpoints
 62
     0
100
AcDbPoint
 10
20.01195461813653
 20
2.008202087685849
 30
0.0
  0
POINT
  5
2AF
330
2A2
100
AcDbEntity
  8
Defpoints
 62
     0
100
AcDbPoint
 10
19.91195461813653
 20
-1.995079370482127
 30
0.0
  0
POINT
  5
2B0
330
2A2
100
AcDbEntity
  8
Defpoints
 62
     0
100
AcDbPoint
 10
40.77152920084245
 20
-1.995079370482049
 30
0.0
  0
ENDBLK
  5
2A4
330
2A2
100
AcDbEntity
  8
0
100
AcDbBlockEnd
  0
BLOCK
  5
2B2
330
2B1
100
AcDbEntity
  8
0
100
AcDbBlockBegin
  2
*D20
 70
     1
 10
0.0
 20
0.0
 30
0.0
  3
*D20
  1
*D20
  0
LINE
  5
2B4
330
2B1
100
AcDbEntity
  8
치수문자_일반주서
 62
     0
370
    -2
100
AcDbLine
 10
20.87954032521554
 20
-5.156579316742492
 30
0.0
 11
27.23648757252866
 21
-26.58432773613791
 31
0.0
  0
MTEXT
  5
2B5
330
2B1
100
AcDbEntity
  8
치수문자_일반주서
 62
     0
100
AcDbMText
 10
28.57097001341236
 20
-21.85313384056852
 30
0.0
 40
3.5
 41
0.0
 71
     5
 72
     1
  1
\A1;R0.1
  7
SLDTEXTSTYLE0
 11
0.2844167275364509
 21
-0.9587007484598395
 31
0.0
 73
     1
 44
1.0
  0
LINE
  5
2B6
330
2B1
100
AcDbEntity
  8
치수문자_일반주서
 62
     0
370
    -2
100
AcDbLine
 10
19.91195461813653
 20
-1.895079370482122
 30
0.0
 11
19.94039629089018
 21
-1.990949445328102
 31
0.0
  0
SOLID
  5
2B7
330
2B1
100
AcDbEntity
  8
치수문자_일반주서
 62
     0
100
AcDbTrace
 10
21.4071453037846
 20
-5.000055311021599
 30
0.0
 11
20.35193534664647
 21
-5.313103322463386
 31
0.0
 12
19.94039629089018
 22
-1.990949445328102
 32
0.0
 13
19.94039629089018
 23
-1.990949445328102
 33
0.0
  0
POINT
  5
2B8
330
2B1
100
AcDbEntity
  8
Defpoints
 62
     0
100
AcDbPoint
 10
19.94039629089018
 20
-1.990949445328102
 30
0.0
  0
POINT
  5
2B9
330
2B1
100
AcDbEntity
  8
Defpoints
 62
     0
100
AcDbPoint
 10
19.91195461813653
 20
-1.895079370482122
 30
0.0
  0
ENDBLK
  5
2B3
330
2B1
100
AcDbEntity
  8
0
100
AcDbBlockEnd
  0
BLOCK
  5
319
330
318
100
AcDbEntity
  8
0
100
AcDbBlockBegin
  2
*D22
 70
     1
 10
0.0
 20
0.0
 30
0.0
  3
*D22
  1
*D22
  0
LINE
  5
31A
330
318
100
AcDbEntity
  8
치수문자_일반주서
 62
     0
370
    -2
100
AcDbLine
 10
16.80895802161209
 20
11.59907937048204
 30
0.0
 11
4.374999999999996
 21
11.599079370482
 31
0.0
  0
LINE
  5
31B
330
318
100
AcDbEntity
  8
치수문자_일반주서
 62
     0
370
    -2
100
AcDbLine
 10
16.80895802161209
 20
5.599079370482048
 30
0.0
 11
4.375000000000018
 21
5.599079370482002
 31
0.0
  0
LINE
  5
31C
330
318
100
AcDbEntity
  8
치수문자_일반주서
 62
     0
370
    -2
100
AcDbLine
 10
4.375000000000008
 20
8.297079370481999
 30
0.0
 11
4.375000000000006
 21
8.901079370482002
 31
0.0
  0
SOLID
  5
31D
330
318
100
AcDbEntity
  8
치수문자_일반주서
 62
     0
100
AcDbTrace
 10
4.925333333333342
 20
8.297079370482
 30
0.0
 11
3.824666666666675
 21
8.297079370481997
 31
0.0
 12
4.374999999999996
 22
11.599079370482
 32
0.0
 13
4.374999999999996
 23
11.599079370482
 33
0.0
  0
SOLID
  5
31E
330
318
100
AcDbEntity
  8
치수문자_일반주서
 62
     0
100
AcDbTrace
 10
3.824666666666673
 20
8.901079370482
 30
0.0
 11
4.92533333333334
 21
8.901079370482003
 31
0.0
 12
4.375000000000018
 22
5.599079370482002
 32
0.0
 13
4.375000000000018
 23
5.599079370482002
 33
0.0
  0
MTEXT
  5
31F
330
318
100
AcDbEntity
  8
치수문자_일반주서
 62
     0
100
AcDbMText
 10
0.0000000000000071
 20
8.59907937048203
 30
0.0
 40
3.5
 41
0.0
 71
     2
 72
     1
  1
\A1;%%c6
  7
SLDTEXTSTYLE0
 11
-3.552713678800503E-15
 21
1.0
 31
0.0
 73
     1
 44
1.0
  0
POINT
  5
320
330
318
100
AcDbEntity
  8
Defpoints
 62
     0
100
AcDbPoint
 10
16.87145802161209
 20
11.59907937048204
 30
0.0
  0
POINT
  5
321
330
318
100
AcDbEntity
  8
Defpoints
 62
     0
100
AcDbPoint
 10
16.87145802161209
 20
5.599079370482048
 30
0.0
  0
POINT
  5
322
330
318
100
AcDbEntity
  8
Defpoints
 62
     0
100
AcDbPoint
 10
4.375000000000021
 20
5.599079370482001
 30
0.0
  0
ENDBLK
  5
323
330
318
100
AcDbEntity
  8
0
100
AcDbBlockEnd
  0
BLOCK
  5
326
330
325
100
AcDbEntity
  8
0
100
AcDbBlockBegin
  2
*D23
 70
     1
 10
0.0
 20
0.0
 30
0.0
  3
*D23
  1
*D23
  0
LINE
  5
327
330
325
100
AcDbEntity
  8
치수문자_일반주서
 62
     0
370
    -2
100
AcDbLine
 10
75.87145802161209
 20
10.56157937048205
 30
0.0
 11
75.87145802161209
 21
28.99907937048171
 31
0.0
  0
LINE
  5
328
330
325
100
AcDbEntity
  8
치수문자_일반주서
 62
     0
370
    -2
100
AcDbLine
 10
69.87145802161209
 20
10.24309352443826
 30
0.0
 11
69.87145802161209
 21
28.99907937048171
 31
0.0
  0
LINE
  5
329
330
325
100
AcDbEntity
  8
치수문자_일반주서
 62
     0
370
    -2
100
AcDbLine
 10
72.56945802161209
 20
28.99907937048171
 30
0.0
 11
73.17345802161208
 21
28.99907937048171
 31
0.0
  0
SOLID
  5
32A
330
325
100
AcDbEntity
  8
치수문자_일반주서
 62
     0
100
AcDbTrace
 10
72.56945802161209
 20
28.44874603714837
 30
0.0
 11
72.56945802161209
 21
29.54941270381504
 31
0.0
 12
75.87145802161209
 22
28.99907937048171
 32
0.0
 13
75.87145802161209
 23
28.99907937048171
 33
0.0
  0
SOLID
  5
32B
330
325
100
AcDbEntity
  8
치수문자_일반주서
 62
     0
100
AcDbTrace
 10
73.17345802161208
 20
29.54941270381504
 30
0.0
 11
73.17345802161208
 21
28.44874603714837
 31
0.0
 12
69.87145802161209
 22
28.99907937048171
 32
0.0
 13
69.87145802161209
 23
28.99907937048171
 33
0.0
  0
MTEXT
  5
32C
330
325
100
AcDbEntity
  8
치수문자_일반주서
 62
     0
100
AcDbMText
 10
72.87145802161209
 20
33.37407937048171
 30
0.0
 40
3.5
 41
0.0
 71
     2
 72
     1
  1
\A1;6
  7
SLDTEXTSTYLE0
 73
     1
 44
1.0
  0
POINT
  5
32D
330
325
100
AcDbEntity
  8
Defpoints
 62
     0
100
AcDbPoint
 10
75.87145802161209
 20
10.49907937048205
 30
0.0
  0
POINT
  5
32E
330
325
100
AcDbEntity
  8
Defpoints
 62
     0
100
AcDbPoint
 10
69.87145802161209
 20
10.18059352443826
 30
0.0
  0
POINT
  5
32F
330
325
100
AcDbEntity
  8
Defpoints
 62
     0
100
AcDbPoint
 10
69.87145802161209
 20
28.99907937048171
 30
0.0
  0
ENDBLK
  5
330
330
325
100
AcDbEntity
  8
0
100
AcDbBlockEnd
  0
BLOCK
  5
333
330
332
100
AcDbEntity
  8
0
100
AcDbBlockBegin
  2
*D24
 70
     1
 10
0.0
 20
0.0
 30
0.0
  3
*D24
  1
*D24
  0
LINE
  5
334
330
332
100
AcDbEntity
  8
치수문자_일반주서
 62
     0
370
    -2
100
AcDbLine
 10
75.87145802161209
 20
10.56157937048205
 30
0.0
 11
75.87145802161209
 21
51.05740387552633
 31
0.0
  0
LINE
  5
335
330
332
100
AcDbEntity
  8
치수문자_일반주서
 62
     0
370
    -2
100
AcDbLine
 10
15.87145802161209
 20
10.66157937048204
 30
0.0
 11
15.87145802161209
 21
51.05740387552633
 31
0.0
  0
LINE
  5
336
330
332
100
AcDbEntity
  8
치수문자_일반주서
 62
     0
370
    -2
100
AcDbLine
 10
72.56945802161209
 20
51.05740387552633
 30
0.0
 11
19.17345802161208
 21
51.05740387552633
 31
0.0
  0
SOLID
  5
337
330
332
100
AcDbEntity
  8
치수문자_일반주서
 62
     0
100
AcDbTrace
 10
72.56945802161209
 20
50.507070542193
 30
0.0
 11
72.56945802161209
 21
51.60773720885967
 31
0.0
 12
75.87145802161209
 22
51.05740387552633
 32
0.0
 13
75.87145802161209
 23
51.05740387552633
 33
0.0
  0
SOLID
  5
338
330
332
100
AcDbEntity
  8
치수문자_일반주서
 62
     0
100
AcDbTrace
 10
19.17345802161208
 20
51.60773720885967
 30
0.0
 11
19.17345802161208
 21
50.507070542193
 31
0.0
 12
15.87145802161209
 22
51.05740387552633
 32
0.0
 13
15.87145802161209
 23
51.05740387552633
 33
0.0
  0
MTEXT
  5
339
330
332
100
AcDbEntity
  8
치수문자_일반주서
 62
     0
100
AcDbMText
 10
45.87145802161209
 20
55.43240387552633
 30
0.0
 40
3.5
 41
0.0
 71
     2
 72
     1
  1
\A1;60
  7
SLDTEXTSTYLE0
 73
     1
 44
1.0
  0
POINT
  5
33A
330
332
100
AcDbEntity
  8
Defpoints
 62
     0
100
AcDbPoint
 10
75.87145802161209
 20
10.49907937048205
 30
0.0
  0
POINT
  5
33B
330
332
100
AcDbEntity
  8
Defpoints
 62
     0
100
AcDbPoint
 10
15.87145802161209
 20
10.59907937048204
 30
0.0
  0
POINT
  5
33C
330
332
100
AcDbEntity
  8
Defpoints
 62
     0
100
AcDbPoint
 10
15.87145802161209
 20
51.05740387552633
 30
0.0
  0
ENDBLK
  5
33D
330
332
100
AcDbEntity
  8
0
100
AcDbBlockEnd
  0
BLOCK
  5
340
330
33F
100
AcDbEntity
  8
0
100
AcDbBlockBegin
  2
*D25
 70
     1
 10
0.0
 20
0.0
 30
0.0
  3
*D25
  1
*D25
  0
LINE
  5
341
330
33F
100
AcDbEntity
  8
치수문자_일반주서
 62
     0
370
    -2
100
AcDbLine
 10
75.87145802161209
 20
10.55888018112205
 30
0.0
 11
75.87145802161209
 21
38.9190793704807
 31
0.0
  0
LINE
  5
342
330
33F
100
AcDbEntity
  8
치수문자_일반주서
 62
     0
370
    -2
100
AcDbLine
 10
59.87145802161209
 20
10.58657937048205
 30
0.0
 11
59.87145802161209
 21
38.9190793704807
 31
0.0
  0
LINE
  5
343
330
33F
100
AcDbEntity
  8
치수문자_일반주서
 62
     0
370
    -2
100
AcDbLine
 10
72.56945802161209
 20
38.9190793704807
 30
0.0
 11
63.17345802161208
 21
38.9190793704807
 31
0.0
  0
SOLID
  5
344
330
33F
100
AcDbEntity
  8
치수문자_일반주서
 62
     0
100
AcDbTrace
 10
72.56945802161209
 20
38.36874603714737
 30
0.0
 11
72.56945802161209
 21
39.46941270381404
 31
0.0
 12
75.87145802161209
 22
38.9190793704807
 32
0.0
 13
75.87145802161209
 23
38.9190793704807
 33
0.0
  0
SOLID
  5
345
330
33F
100
AcDbEntity
  8
치수문자_일반주서
 62
     0
100
AcDbTrace
 10
63.17345802161208
 20
39.46941270381404
 30
0.0
 11
63.17345802161208
 21
38.36874603714737
 31
0.0
 12
59.87145802161209
 22
38.9190793704807
 32
0.0
 13
59.87145802161209
 23
38.9190793704807
 33
0.0
  0
MTEXT
  5
346
330
33F
100
AcDbEntity
  8
치수문자_일반주서
 62
     0
100
AcDbMText
 10
67.91275611632825
 20
43.2940793704807
 30
0.0
 40
3.5
 41
0.0
 71
     2
 72
     1
  1
\A1;16
  7
SLDTEXTSTYLE0
 73
     1
 44
1.0
  0
POINT
  5
347
330
33F
100
AcDbEntity
  8
Defpoints
 62
     0
100
AcDbPoint
 10
75.87145802161209
 20
10.49638018112205
 30
0.0
  0
POINT
  5
348
330
33F
100
AcDbEntity
  8
Defpoints
 62
     0
100
AcDbPoint
 10
59.87145802161209
 20
10.52407937048205
 30
0.0
  0
POINT
  5
349
330
33F
100
AcDbEntity
  8
Defpoints
 62
     0
100
AcDbPoint
 10
59.87145802161209
 20
38.9190793704807
 30
0.0
  0
ENDBLK
  5
34A
330
33F
100
AcDbEntity
  8
0
100
AcDbBlockEnd
  0
BLOCK
  5
34D
330
34C
100
AcDbEntity
  8
0
100
AcDbBlockBegin
  2
*D26
 70
     1
 10
0.0
 20
0.0
 30
0.0
  3
*D26
  1
*D26
  0
LINE
  5
34E
330
34C
100
AcDbEntity
  8
치수문자_일반주서
 62
     0
370
    -2
100
AcDbLine
 10
75.93395802161209
 20
10.6072814581679
 30
0.0
 11
96.631032604318
 21
10.60728145816798
 31
0.0
  0
LINE
  5
34F
330
34C
100
AcDbEntity
  8
치수문자_일반주서
 62
     0
370
    -2
100
AcDbLine
 10
75.83395802161209
 20
6.603999999999921
 30
0.0
 11
96.63103260431801
 21
6.603999999999999
 31
0.0
  0
LINE
  5
350
330
34C
100
AcDbEntity
  8
치수문자_일반주서
 62
     0
370
    -2
100
AcDbLine
 10
96.631032604318
 20
10.60728145816798
 30
0.0
 11
96.63103260431794
 21
26.38565874096425
 31
0.0
  0
LINE
  5
351
330
34C
100
AcDbEntity
  8
치수문자_일반주서
 62
     0
370
    -2
100
AcDbLine
 10
96.631032604318
 20
10.60728145816798
 30
0.0
 11
96.63103260431801
 21
6.603999999999999
 31
0.0
  0
LINE
  5
352
330
34C
100
AcDbEntity
  8
치수문자_일반주서
 62
     0
370
    -2
100
AcDbLine
 10
96.63103260431798
 20
13.90928145816797
 30
0.0
 11
96.63103260431797
 21
17.21128145816797
 31
0.0
  0
LINE
  5
353
330
34C
100
AcDbEntity
  8
치수문자_일반주서
 62
     0
370
    -2
100
AcDbLine
 10
96.63103260431802
 20
3.302
 30
0.0
 11
96.63103260431804
 21
0.0
 31
0.0
  0
SOLID
  5
354
330
34C
100
AcDbEntity
  8
치수문자_일반주서
 62
     0
100
AcDbTrace
 10
96.08069927098465
 20
13.90928145816797
 30
0.0
 11
97.18136593765131
 21
13.90928145816798
 31
0.0
 12
96.631032604318
 22
10.60728145816798
 32
0.0
 13
96.631032604318
 23
10.60728145816798
 33
0.0
  0
SOLID
  5
355
330
34C
100
AcDbEntity
  8
치수문자_일반주서
 62
     0
100
AcDbTrace
 10
97.18136593765135
 20
3.302000000000001
 30
0.0
 11
96.0806992709847
 21
3.301999999999998
 31
0.0
 12
96.63103260431801
 22
6.603999999999999
 32
0.0
 13
96.63103260431801
 23
6.603999999999999
 33
0.0
  0
MTEXT
  5
356
330
34C
100
AcDbEntity
  8
치수문자_일반주서
 62
     0
100
AcDbMText
 10
92.25603260431795
 20
23.32315874096423
 30
0.0
 40
3.5
 41
0.0
 71
     2
 72
     1
  1
\A1;%%c4
  7
SLDTEXTSTYLE0
 11
-3.549801547479833E-15
 21
1.0
 31
0.0
 73
     1
 44
1.0
  0
POINT
  5
357
330
34C
100
AcDbEntity
  8
Defpoints
 62
     0
100
AcDbPoint
 10
75.87145802161209
 20
10.6072814581679
 30
0.0
  0
POINT
  5
358
330
34C
100
AcDbEntity
  8
Defpoints
 62
     0
100
AcDbPoint
 10
75.77145802161209
 20
6.603999999999921
 30
0.0
  0
POINT
  5
359
330
34C
100
AcDbEntity
  8
Defpoints
 62
     0
100
AcDbPoint
 10
96.63103260431801
 20
6.603999999999999
 30
0.0
  0
ENDBLK
  5
35A
330
34C
100
AcDbEntity
  8
0
100
AcDbBlockEnd
  0
BLOCK
  5
371
330
370
100
AcDbEntity
  8
0
100
AcDbBlockBegin
  2
*D27
 70
     1
 10
0.0
 20
0.0
 30
0.0
  3
*D27
  1
*D27
  0
LINE
  5
373
330
370
100
AcDbEntity
  8
치수문자_일반주서
 62
     0
370
    -2
100
AcDbLine
 10
20.66887579390932
 20
-5.190619106446374
 30
0.0
 11
24.95886988338591
 21
-22.18966850528145
 31
0.0
  0
MTEXT
  5
374
330
370
100
AcDbEntity
  8
치수문자_일반주서
 62
     0
100
AcDbMText
 10
26.38000356576737
 20
-17.0932439625946
 30
0.0
 40
3.5
 41
0.0
 71
     5
 72
     1
  1
\A1;R0.2
  7
SLDTEXTSTYLE0
 11
0.2446947960516254
 21
-0.9696001530451888
 31
0.0
 73
     1
 44
1.0
  0
LINE
  5
375
330
370
100
AcDbEntity
  8
치수문자_일반주서
 62
     0
370
    -2
100
AcDbLine
 10
19.81195461813653
 20
-1.795079370482124
 30
0.0
 11
19.86089357734685
 21
-1.988999401091162
 31
0.0
  0
SOLID
  5
376
330
370
100
AcDbEntity
  8
치수문자_일반주서
 62
     0
100
AcDbTrace
 10
21.20247907813519
 20
-5.055955403685963
 30
0.0
 11
20.13527250968345
 21
-5.325282809206786
 31
0.0
 12
19.86089357734685
 22
-1.988999401091162
 32
0.0
 13
19.86089357734685
 23
-1.988999401091162
 33
0.0
  0
POINT
  5
377
330
370
100
AcDbEntity
  8
Defpoints
 62
     0
100
AcDbPoint
 10
19.86089357734685
 20
-1.988999401091162
 30
0.0
  0
POINT
  5
378
330
370
100
AcDbEntity
  8
Defpoints
 62
     0
100
AcDbPoint
 10
19.81195461813653
 20
-1.795079370482124
 30
0.0
  0
ENDBLK
  5
372
330
370
100
AcDbEntity
  8
0
100
AcDbBlockEnd
  0
ENDSEC
  0
SECTION
  2
ENTITIES
  0
INSERT
  5
CD
330
1F
100
AcDbEntity
  8
0
  6
Continuous
 62
     7
100
AcDbBlockReference
 66
     1
  2
블럭10
 10
-22.93944368806589
 20
-52.04609937292004
 30
0.0
  0
ATTRIB
  5
CE
330
CD
100
AcDbEntity
  8
FORMAT
 62
     2
100
AcDbText
 10
-42.21802657207924
 20
-49.97073246008785
 30
0.0
 40
4.233333333333333
  1
SEME610400216E [ 2 FLUTE ]
 41
0.75
  7
SLDTEXTSTYLE0
 11
-42.21802657207924
 21
-52.08739912675452
 31
0.0
100
AcDbAttribute
  2
AUTOATTR0
 70
     0
 74
     1
  0
SEQEND
  5
CF
330
CD
100
AcDbEntity
  8
0
  6
Continuous
 62
     7
  0
HATCH
  5
D0
330
1F
100
AcDbEntity
  8
중심선
100
AcDbHatch
 10
0.0
 20
0.0
 30
0.0
210
0.0
220
0.0
230
1.0
  2
SOLID
 70
     1
 71
     0
 91
        1
 92
        0
 93
        4
 72
     1
 10
-17.22453438368504
 20
-35.7989250712761
 11
-20.67080962752232
 21
-35.7989250712761
 72
     1
 10
-20.67080962752232
 20
-35.7989250712761
 11
-22.79903948672635
 21
-38.3352506518487
 72
     1
 10
-22.79903948672635
 20
-38.3352506518487
 11
-19.35273115777591
 21
-38.33521122254621
 72
     1
 10
-19.35273115777591
 20
-38.33521122254621
 11
-17.22453438368504
 21
-35.7989250712761
 97
        0
 75
     0
 76
     1
 98
        1
 10
0.0
 20
0.0
  0
HATCH
  5
D1
330
1F
100
AcDbEntity
  8
중심선
100
AcDbHatch
 10
0.0
 20
0.0
 30
0.0
210
0.0
220
0.0
230
1.0
  2
SOLID
 70
     1
 71
     0
 91
        1
 92
        0
 93
        4
 72
     1
 10
-12.21177039264909
 20
-35.7989250712761
 11
-15.65804563648637
 21
-35.7989250712761
 72
     1
 10
-15.65804563648637
 20
-35.7989250712761
 11
-20.18918364484376
 21
-41.19892507127612
 72
     1
 10
-20.18918364484376
 20
-41.19892507127612
 11
-16.74290840100648
 21
-41.19892507127612
 72
     1
 10
-16.74290840100648
 20
-41.19892507127612
 11
-12.21177039264909
 21
-35.7989250712761
 97
        0
 75
     0
 76
     1
 98
        1
 10
0.0
 20
0.0
  0
HATCH
  5
D2
330
1F
100
AcDbEntity
  8
중심선
100
AcDbHatch
 10
0.0
 20
0.0
 30
0.0
210
0.0
220
0.0
230
1.0
  2
SOLID
 70
     1
 71
     0
 91
        1
 92
        0
 93
        4
 72
     1
 10
-7.199006401613195
 20
-35.79892507127613
 11
-10.64528164545031
 21
-35.7989250712761
 72
     1
 10
-10.64528164545031
 20
-35.7989250712761
 11
-17.69371854733956
 21
-44.19892507127612
 72
     1
 10
-17.69371854733956
 20
-44.19892507127612
 11
-14.24744330350228
 21
-44.19892507127612
 72
     1
 10
-14.24744330350228
 20
-44.19892507127612
 11
-7.199006401613195
 21
-35.79892507127613
 97
        0
 75
     0
 76
     1
 98
        1
 10
0.0
 20
0.0
  0
HATCH
  5
D3
330
1F
100
AcDbEntity
  8
중심선
100
AcDbHatch
 10
0.0
 20
0.0
 30
0.0
210
0.0
220
0.0
230
1.0
  2
SOLID
 70
     1
 71
     0
 91
        1
 92
        0
 93
        6
 72
     3
 10
-2.399115970600996
 20
-39.99892507132738
 11
3.960054785062284
 21
1.540850780301639E-10
 40
0.3939339440162633
 50
17.09539180608433
 51
320.0019657685079
 73
     0
 72
     1
 10
-0.7161163149004002
 20
-38.58681907591441
 11
1.589185558800638
 21
-36.65249236586649
 72
     3
 10
-2.399115970653842
 20
-39.99892507127625
 11
6.600054785286829
 21
-1.249000902703301E-13
 40
0.6363583540795982
 50
39.99873849337408
 51
368.4976242363725
 73
     1
 72
     1
 10
4.026216521246767
 20
-39.03892507120613
 11
-3.71904866381792
 21
-39.0389250712061
 72
     1
 10
-3.71904866381792
 20
-39.0389250712061
 11
-3.719073708263854
 21
-40.95892507120602
 72
     1
 10
-3.719073708263854
 20
-40.95892507120602
 11
0.7223060612081831
 21
-40.95892507120599
 97
        0
 75
     0
 76
     1
 98
        1
 10
0.0
 20
0.0
  0
LINE
  5
235
330
1F
100
AcDbEntity
  8
0
  6
Continuous
 62
     4
370
    25
100
AcDbLine
 10
0.0
 20
3.0
 30
0.0
 11
-38.98804538186347
 21
2.999999999999996
 31
0.0
  0
LINE
  5
236
330
1F
100
AcDbEntity
  8
0
  6
Continuous
 62
     4
370
    25
100
AcDbLine
 10
-38.98804538186347
 20
-3.0
 30
0.0
 11
0.0
 21
-3.0
 31
0.0
  0
LINE
  5
237
330
1F
100
AcDbEntity
  8
0
  6
Continuous
 62
     4
370
    25
100
AcDbLine
 10
0.0
 20
-3.0
 30
0.0
 11
4.011954618136528
 21
-1.925000000000001
 31
0.0
  0
LINE
  5
238
330
1F
100
AcDbEntity
  8
0
  6
Continuous
 62
     4
370
    25
100
AcDbLine
 10
4.011954618136528
 20
1.925000000000001
 30
0.0
 11
0.0
 21
3.0
 31
0.0
  0
LINE
  5
239
330
1F
100
AcDbEntity
  8
0
  6
Continuous
 62
     4
370
    25
100
AcDbLine
 10
-38.98804538186347
 20
2.999999999999996
 30
0.0
 11
-39.98804538186347
 21
1.999999999999996
 31
0.0
  0
LINE
  5
23A
330
1F
100
AcDbEntity
  8
0
  6
Continuous
 62
     4
370
    25
100
AcDbLine
 10
-39.98804538186347
 20
-2.0
 30
0.0
 11
-38.98804538186347
 21
-3.0
 31
0.0
  0
LINE
  5
23B
330
1F
100
AcDbEntity
  8
0
  6
Continuous
 62
     4
370
    25
100
AcDbLine
 10
10.96205447260913
 20
1.925000000000001
 30
0.0
 11
4.011954618136528
 21
1.925000000000001
 31
0.0
  0
LINE
  5
23C
330
1F
100
AcDbEntity
  8
0
  6
Continuous
 62
     4
370
    25
100
AcDbLine
 10
4.011954618136528
 20
-1.924999999999997
 30
0.0
 11
10.96205447260913
 21
-1.924999999999997
 31
0.0
  0
SPLINE
  5
23D
330
1F
100
AcDbEntity
  8
0
  6
Continuous
 62
     4
370
    25
100
AcDbSpline
210
0.0
220
0.0
230
1.0
 70
     8
 71
     3
 72
    14
 73
    10
 74
     0
 42
0.000000001
 43
0.00000001
 40
0.0
 40
0.0
 40
0.0
 40
0.0
 40
0.2308603510812939
 40
0.398955202634236
 40
0.5108277283421684
 40
0.6129537200187779
 40
0.720522655971679
 40
0.829895855673207
 40
1.0
 40
1.0
 40
1.0
 40
1.0
 10
14.01195461813653
 20
1.580702654398447
 30
0.0
 10
13.88636178612576
 20
1.575996054277777
 30
0.0
 10
13.66932185913272
 20
1.567862467908071
 30
0.0
 10
13.39195356809181
 20
1.562994242643615
 30
0.0
 10
13.18622324692841
 20
1.561664363422093
 30
0.0
 10
13.0136802741978
 20
1.562128266608539
 30
0.0
 10
12.84230416723551
 20
1.564230592443238
 30
0.0
 10
12.63448633712355
 20
1.56810772400101
 30
0.0
 10
12.48450351534542
 20
1.5747233445801
 30
0.0
 10
12.39321633193889
 20
1.578749948173709
 30
0.0
  0
SPLINE
  5
23E
330
1F
100
AcDbEntity
  8
0
  6
Continuous
 62
     4
370
    25
100
AcDbSpline
210
0.0
220
0.0
230
1.0
 70
     8
 71
     3
 72
    18
 73
    14
 74
     0
 42
0.000000001
 43
0.00000001
 40
0.0
 40
0.0
 40
0.0
 40
0.0
 40
0.1336765522095952
 40
0.2270940694569885
 40
0.2903901250544808
 40
0.3529551187308989
 40
0.4158847768760358
 40
0.4788282821493359
 40
0.5539247532304596
 40
0.6220031413037547
 40
0.6963760221208367
 40
0.8208689971580783
 40
0.9999999999999999
 40
0.9999999999999999
 40
0.9999999999999999
 40
0.9999999999999999
 10
11.24056273693309
 20
-1.655951866679395
 30
0.0
 10
11.36179496870129
 20
-1.644963979837105
 30
0.0
 10
11.5677482223312
 20
-1.626297400721295
 30
0.0
 10
11.83242005751414
 20
-1.607189833908546
 30
0.0
 10
12.03542905547471
 20
-1.594467276374942
 30
0.0
 10
12.20981300265881
 20
-1.585086863165579
 30
0.0
 10
12.38392010958724
 20
-1.577204741832897
 30
0.0
 10
12.56949041864898
 20
-1.570501530877824
 30
0.0
 10
12.76001991511238
 20
-1.565594123859452
 30
0.0
 10
12.96093308820087
 20
-1.562503334384346
 30
0.0
 10
13.20832005868154
 20
-1.561334586072377
 30
0.0
 10
13.56084166031445
 20
-1.56432383880054
 30
0.0
 10
13.84456470035887
 20
-1.574625133128684
 30
0.0
 10
14.01195461813653
 20
-1.580702654398443
 30
0.0
  0
LINE
  5
23F
330
1F
100
AcDbEntity
  8
0
  6
Continuous
 62
     1
370
    25
100
AcDbLine
 10
14.82932293642961
 20
0.5126028352727694
 30
0.0
 11
14.27646359016337
 21
0.7899980278362619
 31
0.0
  0
LINE
  5
240
330
1F
100
AcDbEntity
  8
0
  6
Continuous
 62
     1
370
    25
100
AcDbLine
 10
14.16991308442506
 20
1.589281640184932
 30
0.0
 11
14.01178505587527
 21
1.582360539310177
 31
0.0
  0
SPLINE
  5
241
330
1F
100
AcDbEntity
  8
0
  6
Continuous
 62
     1
370
    25
100
AcDbSpline
210
0.0
220
0.0
230
1.0
 70
     8
 71
     3
 72
    24
 73
    20
 74
     0
 42
0.000000001
 43
0.00000001
 40
0.0
 40
0.0
 40
0.0
 40
0.0
 40
0.0696733751333698
 40
0.1251634060417312
 40
0.1898099577255584
 40
0.2293605199970527
 40
0.26858996495459
 40
0.3104580765986797
 40
0.358152349124791
 40
0.4096802595486949
 40
0.4609246854344826
 40
0.5118920556300405
 40
0.611759985042133
 40
0.7004427314145967
 40
0.7293166627362933
 40
0.757908737744257
 40
0.7937714264551317
 40
0.8786387525101766
 40
1.0
 40
1.0
 40
1.0
 40
1.0
 10
19.26805507298793
 20
1.367904182809699
 30
0.0
 10
19.18625929800025
 20
1.361266414499628
 30
0.0
 10
19.03931883792228
 20
1.349342122205563
 30
0.0
 10
18.81765204857143
 20
1.335662271672501
 30
0.0
 10
18.63174394588488
 20
1.326970652296435
 30
0.0
 10
18.46711703714938
 20
1.321494130337484
 30
0.0
 10
18.32680076541658
 20
1.318185095749222
 30
0.0
 10
18.17661632739083
 20
1.316204913725283
 30
0.0
 10
18.0122619543009
 20
1.315914939772195
 30
0.0
 10
17.83715294331731
 20
1.317856843334123
 30
0.0
 10
17.65830570469676
 20
1.32223406603098
 30
0.0
 10
17.42296710506479
 20
1.331022074131212
 30
0.0
 10
17.14386154254338
 20
1.34670235407631
 30
0.0
 10
16.89052512841002
 20
1.366864423389131
 30
0.0
 10
16.72054509425372
 20
1.382971650113596
 30
0.0
 10
16.61195460125511
 20
1.39397551090989
 30
0.0
 10
16.43827801568538
 20
1.41286152960819
 30
0.0
 10
16.15651801391907
 20
1.446806294522467
 30
0.0
 10
15.91587252711045
 20
1.482981031966354
 30
0.0
 10
15.77425763844647
 20
1.504269116291155
 30
0.0
  0
SPLINE
  5
242
330
1F
100
AcDbEntity
  8
0
  6
Continuous
 62
     1
370
    25
100
AcDbSpline
210
0.0
220
0.0
230
1.0
 70
     8
 71
     3
 72
    14
 73
    10
 74
     0
 42
0.000000001
 43
0.00000001
 40
0.0
 40
0.0
 40
0.0
 40
0.0
 40
0.2178536990656157
 40
0.3604180476555793
 40
0.4551079744437235
 40
0.5603316704049164
 40
0.6768500656639688
 40
0.9328662806170575
 40
1.0
 40
1.0
 40
1.0
 40
1.0
 10
15.77425763844647
 20
-1.504269116291152
 30
0.0
 10
15.88246915228974
 20
-1.48780911508323
 30
0.0
 10
16.06149472183721
 20
-1.460577621997672
 30
0.0
 10
16.28594875092449
 20
-1.431442137482311
 30
0.0
 10
16.45335185170795
 20
-1.411268958465733
 30
0.0
 10
16.61153323379965
 20
-1.393796469722005
 30
0.0
 10
16.8517179955807
 20
-1.370032989674026
 30
0.0
 10
17.07022714346546
 20
-1.351324303604944
 30
0.0
 10
17.23070342644699
 20
-1.342915125699193
 30
0.0
 10
17.26404203680889
 20
-1.341168136670941
 30
0.0
  0
LINE
  5
243
330
1F
100
AcDbEntity
  8
0
  6
Continuous
 62
     1
370
    25
100
AcDbLine
 10
14.01164460962258
 20
-1.582446890153179
 30
0.0
 11
14.16991308442506
 21
-1.589281640184929
 31
0.0
  0
LINE
  5
244
330
1F
100
AcDbEntity
  8
0
  6
Continuous
 62
     4
370
    25
100
AcDbLine
 10
0.0
 20
3.0
 30
0.0
 11
0.0
 21
-3.0
 31
0.0
  0
LINE
  5
245
330
1F
100
AcDbEntity
  8
0
  6
Continuous
 62
     4
370
    25
100
AcDbLine
 10
-38.98804538186347
 20
2.999999999999996
 30
0.0
 11
-38.98804538186347
 21
-3.0
 31
0.0
  0
LINE
  5
246
330
1F
100
AcDbEntity
  8
0
  6
Continuous
 62
     4
370
    25
100
AcDbLine
 10
4.011954618136528
 20
1.925000000000001
 30
0.0
 11
4.011954618136528
 21
-1.925000000000001
 31
0.0
  0
LINE
  5
247
330
1F
100
AcDbEntity
  8
0
  6
Continuous
 62
     4
370
    25
100
AcDbLine
 10
-39.98804538186347
 20
1.999999999999996
 30
0.0
 11
-39.98804538186347
 21
-2.0
 31
0.0
  0
SPLINE
  5
248
330
1F
100
AcDbEntity
  8
0
  6
Continuous
 62
     4
370
    25
100
AcDbSpline
210
0.0
220
0.0
230
1.0
 70
     8
 71
     3
 72
    18
 73
    14
 74
     0
 42
0.000000001
 43
0.00000001
 40
0.0
 40
0.0
 40
0.0
 40
0.0
 40
0.1250000000000002
 40
0.1250000000000002
 40
0.2500000000000005
 40
0.2500000000000005
 40
0.5000000000000012
 40
0.5000000000000012
 40
0.6250000000000009
 40
0.6250000000000009
 40
0.7500000000000006
 40
0.7500000000000006
 40
1.0
 40
1.0
 40
1.0
 40
1.0
 10
14.01195461813653
 20
0.9195926915382522
 30
0.0
 10
13.88404583340875
 20
0.981780769108596
 30
0.0
 10
13.7561836238657
 20
1.042089630936328
 30
0.0
 10
13.50286344262709
 20
1.157894964710316
 30
0.0
 10
13.37773555710933
 20
1.213359940262652
 30
0.0
 10
12.99632815111042
 20
1.37295892649615
 30
0.0
 10
12.73827019406984
 20
1.469514920179449
 30
0.0
 10
12.35941488994304
 20
1.594490292186677
 30
0.0
 10
12.23381774072389
 20
1.63296128731913
 30
0.0
 10
11.97904123107682
 20
1.703508034446038
 30
0.0
 10
11.85087323136439
 20
1.735468311964194
 30
0.0
 10
11.46752419371228
 20
1.820506044655335
 30
0.0
 10
11.21734188203847
 20
1.86256985829343
 30
0.0
 10
10.96215917505965
 20
1.889580777962848
 30
0.0
  0
SPLINE
  5
249
330
1F
100
AcDbEntity
  8
0
  6
Continuous
 62
     4
370
    25
100
AcDbSpline
210
0.0
220
0.0
230
1.0
 70
     8
 71
     3
 72
    18
 73
    14
 74
     0
 42
0.000000001
 43
0.00000001
 40
0.0
 40
0.0
 40
0.0
 40
0.0
 40
0.1250000000000004
 40
0.1250000000000004
 40
0.2500000000000008
 40
0.2500000000000008
 40
0.5000000000000016
 40
0.5000000000000016
 40
0.6250000000000012
 40
0.6250000000000012
 40
0.750000000000001
 40
0.750000000000001
 40
1.0
 40
1.0
 40
1.0
 40
1.0
 10
14.01195461813653
 20
0.4051148844736261
 30
0.0
 10
13.88404145995874
 20
0.4743194848037824
 30
0.0
 10
13.75617488040609
 20
0.5426905569958578
 30
0.0
 10
13.50284620156678
 20
0.6765454905836101
 30
0.0
 10
13.37771395140452
 20
0.7419820193601829
 30
0.0
 10
12.99629311611631
 20
0.93444433646766
 30
0.0
 10
12.73822626911492
 20
1.056780298111274
 30
0.0
 10
12.35935912973926
 20
1.224807558639302
 30
0.0
 10
12.23375702756857
 20
1.278373176359917
 30
0.0
 10
11.97897127453358
 20
1.380623495511028
 30
0.0
 10
11.85079879768554
 20
1.429154893640149
 30
0.0
 10
11.46743712713734
 20
1.565617886612998
 30
0.0
 10
11.21724657106732
 20
1.644056332932667
 30
0.0
 10
10.96205447260915
 20
1.709143488656316
 30
0.0
  0
SPLINE
  5
24A
330
1F
100
AcDbEntity
  8
0
  6
Continuous
 62
     4
370
    25
100
AcDbSpline
210
0.0
220
0.0
230
1.0
 70
     8
 71
     3
 72
    10
 73
     6
 74
     0
 42
0.000000001
 43
0.00000001
 40
0.0
 40
0.0
 40
0.0
 40
0.0
 40
0.0653433290075827
 40
0.5338993100366486
 40
1.0
 40
1.0
 40
1.0
 40
1.0
 10
12.39822732974775
 20
-1.576954746586416
 30
0.0
 10
12.36694013446477
 20
-1.588328237110304
 30
0.0
 10
12.11130253184686
 20
-1.681257367530147
 30
0.0
 10
11.63214458877621
 20
-1.79362508444882
 30
0.0
 10
11.18509618920864
 20
-1.857651611499438
 30
0.0
 10
10.96215917505967
 20
-1.889580777962848
 30
0.0
  0
LINE
  5
24B
330
1F
100
AcDbEntity
  8
0
  6
Continuous
 62
     4
370
    25
100
AcDbLine
 10
10.96205447260913
 20
1.889597655556031
 30
0.0
 11
10.96205447260911
 21
1.925000000000001
 31
0.0
  0
LINE
  5
24C
330
1F
100
AcDbEntity
  8
0
  6
Continuous
 62
     4
370
    25
100
AcDbLine
 10
10.96205447260911
 20
-1.924999999999997
 30
0.0
 11
10.96205447260915
 21
1.709389812858333
 31
0.0
  0
SPLINE
  5
24D
330
1F
100
AcDbEntity
  8
0
  6
Continuous
 62
     4
370
    25
100
AcDbSpline
210
0.0
220
0.0
230
1.0
 70
    24
 71
     3
 72
    10
 73
     6
 74
     0
 42
0.000000001
 43
0.00000001
 40
0.0
 40
0.0
 40
0.0
 40
0.0
 40
0.5
 40
0.5
 40
1.0
 40
1.0
 40
1.0
 40
1.0
 10
14.01195461813653
 20
0.4051148844735586
 30
0.0
 10
14.01195461813653
 20
0.4044302769278758
 30
0.0
 10
14.01195461813653
 20
0.3875955315121047
 30
0.0
 10
14.01195461813653
 20
0.3248054059878314
 30
0.0
 10
14.01195461813653
 20
0.2790477599600152
 30
0.0
 10
14.01195461813653
 20
0.2247554758747619
 30
0.0
  0
SPLINE
  5
24E
330
1F
100
AcDbEntity
  8
0
  6
Continuous
 62
     4
370
    25
100
AcDbSpline
210
0.0
220
0.0
230
1.0
 70
     8
 71
     3
 72
    16
 73
    12
 74
     0
 42
0.000000001
 43
0.00000001
 40
0.0
 40
0.0
 40
0.0
 40
0.0
 40
0.1250000000000006
 40
0.1250000000000006
 40
0.2500000000000011
 40
0.2500000000000011
 40
0.5000000000000008
 40
0.5000000000000008
 40
0.7500000000000004
 40
0.7500000000000004
 40
1.0
 40
1.0
 40
1.0
 40
1.0
 10
14.01195461813653
 20
0.2247554758747619
 30
0.0
 10
13.8840425131938
 20
0.2755708893496873
 30
0.0
 10
13.75617698604766
 20
0.3259222079488531
 30
0.0
 10
13.50285035363954
 20
0.4247951852010452
 30
0.0
 10
13.37771915459588
 20
0.4732806309359638
 30
0.0
 10
12.99630155341259
 20
0.6163490977546147
 30
0.0
 10
12.73823684733016
 20
0.7079288630246268
 30
0.0
 10
12.233084461766
 20
0.8769751245762301
 30
0.0
 10
11.978602932581
 20
0.955304094486717
 30
0.0
 10
11.46745809489593
 20
1.095468304239812
 30
0.0
 10
11.21726952436197
 20
1.156785121358418
 30
0.0
 10
10.96207968757709
 20
1.208698484234873
 30
0.0
  0
SPLINE
  5
24F
330
1F
100
AcDbEntity
  8
0
  6
Continuous
 62
     4
370
    25
100
AcDbSpline
210
0.0
220
0.0
230
1.0
 70
     8
 71
     3
 72
    18
 73
    14
 74
     0
 42
0.000000001
 43
0.00000001
 40
0.0
 40
0.0
 40
0.0
 40
0.0
 40
0.1250000000000004
 40
0.1250000000000004
 40
0.2500000000000008
 40
0.2500000000000008
 40
0.5000000000000002
 40
0.5000000000000002
 40
0.6250000000000001
 40
0.6250000000000001
 40
0.7499999999999998
 40
0.7499999999999998
 40
1.0
 40
1.0
 40
1.0
 40
1.0
 10
14.01195461813653
 20
-1.579247033629272
 30
0.0
 10
13.88404305642671
 20
-1.569801255832672
 30
0.0
 10
13.75617807208614
 20
-1.557143686888093
 30
0.0
 10
13.50285249517756
 20
-1.525696305015479
 30
0.0
 10
13.37772183827417
 20
-1.506945544883827
 30
0.0
 10
12.99630590516325
 20
-1.441393886136026
 30
0.0
 10
12.73824230331543
 20
-1.385335025723489
 30
0.0
 10
12.35937948421169
 20
-1.285846401473385
 30
0.0
 10
12.23377919009511
 20
-1.250099012791907
 30
0.0
 10
11.97899681122077
 20
-1.173357530541686
 30
0.0
 10
11.85082596868091
 20
-1.132450027081656
 30
0.0
 10
11.46746890956042
 20
-1.003211346040157
 30
0.0
 10
11.21728136309726
 20
-0.9088689547202762
 30
0.0
 10
10.96209269283501
 20
-0.8073574894148123
 30
0.0
  0
SPLINE
  5
250
330
1F
100
AcDbEntity
  8
0
  6
Continuous
 62
     4
370
    25
100
AcDbSpline
210
0.0
220
0.0
230
1.0
 70
    24
 71
     3
 72
    14
 73
    10
 74
     0
 42
0.000000001
 43
0.00000001
 40
0.0
 40
0.0
 40
0.0
 40
0.0
 40
0.25
 40
0.25
 40
0.5
 40
0.5
 40
0.75
 40
0.75
 40
1.0
 40
1.0
 40
1.0
 40
1.0
 10
14.01195461813653
 20
0.2247554758747619
 30
0.0
 10
14.01195461813653
 20
0.0478379764646739
 30
0.0
 10
14.01195461813653
 20
-0.133603748130561
 30
0.0
 10
14.01195461813653
 20
-0.4885406909531618
 30
0.0
 10
14.01195461813653
 20
-0.6618479081743835
 30
0.0
 10
14.01195461813653
 20
-0.9824711655081977
 30
0.0
 10
14.01195461813653
 20
-1.129616364144596
 30
0.0
 10
14.01195461813653
 20
-1.384867563041759
 30
0.0
 10
14.01195461813653
 20
-1.492925576302515
 30
0.0
 10
14.01195461813653
 20
-1.579247033629272
 30
0.0
  0
SPLINE
  5
251
330
1F
100
AcDbEntity
  8
0
  6
Continuous
 62
     4
370
    25
100
AcDbSpline
210
0.0
220
0.0
230
1.0
 70
    24
 71
     3
 72
    12
 73
     8
 74
     0
 42
0.000000001
 43
0.00000001
 40
0.0
 40
0.0
 40
0.0
 40
0.0
 40
0.205051605710802
 40
0.4231367884804033
 40
0.6475464563244626
 40
0.8433752651337475
 40
1.0
 40
1.0
 40
1.0
 40
1.0
 10
14.01195461813653
 20
1.568259794254026
 30
0.0
 10
14.01195461813653
 20
1.565136854048191
 30
0.0
 10
14.01195461813653
 20
1.558692471987719
 30
0.0
 10
14.01195461813651
 20
1.455329286393123
 30
0.0
 10
14.01195461813653
 20
1.305356274438665
 30
0.0
 10
14.01195461813651
 20
1.126632020999612
 30
0.0
 10
14.01195461813653
 20
0.9887032945297172
 30
0.0
 10
14.01195461813653
 20
0.9274099677879839
 30
0.0
  0
LINE
  5
252
330
1F
100
AcDbEntity
  8
0
  6
Continuous
 62
     4
370
    25
100
AcDbLine
 10
11.24262615761785
 20
-1.646589994186623
 30
0.0
 11
10.96215917505965
 21
-1.681492594845988
 31
0.0
  0
SPLINE
  5
253
330
1F
100
AcDbEntity
  8
0
  6
Continuous
 62
     1
370
    25
100
AcDbSpline
210
0.0
220
0.0
230
1.0
 70
     8
 71
     3
 72
    32
 73
    28
 74
     0
 42
0.000000001
 43
0.00000001
 40
0.0
 40
0.0
 40
0.0
 40
0.0
 40
0.1250000000000003
 40
0.1250000000000003
 40
0.1875000000000005
 40
0.1875000000000005
 40
0.2500000000000007
 40
0.2500000000000007
 40
0.3125000000000008
 40
0.3125000000000008
 40
0.375000000000001
 40
0.375000000000001
 40
0.5000000000000013
 40
0.5000000000000013
 40
0.5625000000000011
 40
0.5625000000000011
 40
0.625000000000001
 40
0.625000000000001
 40
0.6875000000000008
 40
0.6875000000000008
 40
0.7500000000000007
 40
0.7500000000000007
 40
0.8750000000000003
 40
0.8750000000000003
 40
0.9375000000000001
 40
0.9375000000000001
 40
1.0
 40
1.0
 40
1.0
 40
1.0
 10
19.85469508142104
 20
-1.990459136062455
 30
0.0
 10
19.66766912707503
 20
-1.985151362637186
 30
0.0
 10
19.41834821793225
 20
-1.959980558823112
 30
0.0
 10
19.04938604844212
 20
-1.900478609523994
 30
0.0
 10
18.92825518436106
 20
-1.87713350114511
 30
0.0
 10
18.68373308995923
 20
-1.823347403868887
 30
0.0
 10
18.56026631212801
 20
-1.792875136319722
 30
0.0
 10
18.31300258553819
 20
-1.725212551881675
 30
0.0
 10
18.18920960801118
 20
-1.688023256469435
 30
0.0
 10
17.94340102906985
 20
-1.607598229403024
 30
0.0
 10
17.82239150627437
 20
-1.564496753032877
 30
0.0
 10
17.45526763115657
 20
-1.426147207439421
 30
0.0
 10
17.20588233235245
 20
-1.321776374110165
 30
0.0
 10
16.83743318906453
 20
-1.15222501734916
 30
0.0
 10
16.71650699913046
 20
-1.093728757369149
 30
0.0
 10
16.47154007068889
 20
-0.9723522608503536
 30
0.0
 10
16.34794959617341
 20
-0.9095300489239371
 30
0.0
 10
16.1006428549011
 20
-0.7806492652830244
 30
0.0
 10
15.97693056419641
 20
-0.7145927539830623
 30
0.0
 10
15.73148321171088
 20
-0.5803899017401406
 30
0.0
 10
15.61060233535663
 20
-0.5124093517556396
 30
0.0
 10
15.24283968378725
 20
-0.3050148147744309
 30
0.0
 10
14.99343033916024
 20
-0.162589316696014
 30
0.0
 10
14.62555177796106
 20
0.0501057355718828
 30
0.0
 10
14.50467819000077
 20
0.1207059852339967
 30
0.0
 10
14.25930444933964
 20
0.2618834553029288
 30
0.0
 10
14.135609869834
 20
0.3323033183432074
 30
0.0
 10
14.01195461813653
 20
0.4019523873045294
 30
0.0
  0
SPLINE
  5
254
330
1F
100
AcDbEntity
  8
0
  6
Continuous
 62
     1
370
    25
100
AcDbSpline
210
0.0
220
0.0
230
1.0
 70
     8
 71
     3
 72
     9
 73
     5
 74
     0
 42
0.000000001
 43
0.00000001
 40
0.0
 40
0.0
 40
0.0
 40
0.0
 40
0.2863663946142813
 40
1.0
 40
1.0
 40
1.0
 40
1.0
 10
15.04352865595001
 20
-0.1894796842398634
 30
0.0
 10
14.94502069231999
 20
-0.1504061863225559
 30
0.0
 10
14.60102794218352
 20
-0.0139603649826086
 30
0.0
 10
14.25727107245616
 20
0.1253435329493193
 30
0.0
 10
14.01195461813653
 20
0.2247554758747619
 30
0.0
  0
SPLINE
  5
255
330
1F
100
AcDbEntity
  8
0
  6
Continuous
 62
     4
370
    25
100
AcDbSpline
210
0.0
220
0.0
230
1.0
 70
    24
 71
     3
 72
    11
 73
     7
 74
     0
 42
0.000000001
 43
0.00000001
 40
0.0
 40
0.0
 40
0.0
 40
0.0
 40
0.2386370911921052
 40
0.4828305794916839
 40
0.7341056954948049
 40
1.0
 40
1.0
 40
1.0
 40
1.0
 10
14.01195461813653
 20
0.4045731839372664
 30
0.0
 10
14.01195461813653
 20
0.4026159760105728
 30
0.0
 10
14.01195461813653
 20
0.3986559887650429
 30
0.0
 10
14.01195461813651
 20
0.363927808217273
 30
0.0
 10
14.01195461813653
 20
0.3090461332078185
 30
0.0
 10
14.01195461813653
 20
0.2533769085792308
 30
0.0
 10
14.01195461813653
 20
0.2247554758765489
 30
0.0
  0
SPLINE
  5
256
330
1F
100
AcDbEntity
  8
0
  6
Continuous
 62
     1
370
    25
100
AcDbSpline
210
0.0
220
0.0
230
1.0
 70
     8
 71
     3
 72
    14
 73
    10
 74
     0
 42
0.000000001
 43
0.00000001
 40
0.0
 40
0.0
 40
0.0
 40
0.0
 40
0.1447044498564586
 40
0.2889183932473822
 40
0.4334222404618985
 40
0.5782945642134404
 40
0.7225606003485857
 40
0.8669150974862037
 40
1.0
 40
1.0
 40
1.0
 40
1.0
 10
20.01195461813653
 20
-1.577944528736428
 30
0.0
 10
19.76013606527646
 20
-1.524834928679901
 30
0.0
 10
19.25735255202316
 20
-1.418795754835806
 30
0.0
 10
18.50376136690855
 20
-1.172034562797968
 30
0.0
 10
17.74951389133246
 20
-0.8755447126139053
 30
0.0
 10
16.99461859545082
 20
-0.5372013424312101
 30
0.0
 10
16.24086737434259
 20
-0.1728673301160448
 30
0.0
 10
15.50745359299138
 20
0.1912653259165644
 30
0.0
 10
15.0245454288814
 20
0.4195953992238621
 30
0.0
 10
14.79289921704398
 20
0.5291230495332613
 30
0.0
  0
SPLINE
  5
257
330
1F
100
AcDbEntity
  8
0
  6
Continuous
 62
     1
370
    25
100
AcDbSpline
210
0.0
220
0.0
230
1.0
 70
    24
 71
     3
 72
     8
 73
     4
 74
     0
 42
0.000000001
 43
0.00000001
 40
0.0
 40
0.0
 40
0.0
 40
0.0
 40
1.0
 40
1.0
 40
1.0
 40
1.0
 10
20.01195461813653
 20
-1.78997061699398
 30
0.0
 10
20.01195461813653
 20
-1.71915786037577
 30
0.0
 10
20.01195461813653
 20
-1.648284382186688
 30
0.0
 10
20.01195461813653
 20
-1.577944528736428
 30
0.0
  0
SPLINE
  5
258
330
1F
100
AcDbEntity
  8
0
  6
Continuous
 62
     1
370
    25
100
AcDbSpline
210
0.0
220
0.0
230
1.0
 70
     8
 71
     3
 72
    23
 73
    19
 74
     0
 42
0.000000001
 43
0.00000001
 40
0.0000000000000017
 40
0.0000000000000017
 40
0.0000000000000017
 40
0.0000000000000017
 40
0.0000309836703648
 40
0.0000309836703648
 40
0.0000309836703648
 40
0.0000621829899111
 40
0.0000621829899111
 40
0.0000621829899111
 40
0.0000908430932116
 40
0.0000908430932116
 40
0.0000908430932116
 40
0.0001186191166451
 40
0.0001186191166451
 40
0.0001186191166451
 40
0.0001487828091073
 40
0.0001487828091073
 40
0.0001487828091073
 40
0.000163566718907
 40
0.000163566718907
 40
0.000163566718907
 40
0.000163566718907
 10
20.01195461813653
 20
-1.789970616992271
 30
0.0
 10
20.01195461813653
 20
-1.800293519494168
 30
0.0
 10
20.01052758196266
 20
-1.810786935593008
 30
0.0
 10
20.0075758918948
 20
-1.820623784845139
 30
0.0
 10
20.00461193260095
 20
-1.830501522714819
 30
0.0
 10
19.99999755616021
 20
-1.839985950675754
 30
0.0
 10
19.9940811604759
 20
-1.848078095923313
 30
0.0
 10
19.98863441479104
 20
-1.855527877777057
 30
0.0
 10
19.98193719814942
 20
-1.862005293172089
 30
0.0
 10
19.97461941379369
 20
-1.866989484404812
 30
0.0
 10
19.96751024345146
 20
-1.871831587255762
 30
0.0
 10
19.95964889064224
 20
-1.875402593588326
 30
0.0
 10
19.95164204501016
 20
-1.877614214021325
 30
0.0
 10
19.94294303230079
 20
-1.880017022210591
 30
0.0
 10
19.93387855152723
 20
-1.880888518493315
 30
0.0
 10
19.92500971907474
 20
-1.880411710245969
 30
0.0
 10
19.92062869773302
 20
-1.880176176750584
 30
0.0
 10
19.9162612075738
 20
-1.879615434866288
 30
0.0
 10
19.91195461813645
 20
-1.878759392336793
 30
0.0
  0
SPLINE
  5
259
330
1F
100
AcDbEntity
  8
0
  6
Continuous
 62
     1
370
    25
100
AcDbSpline
210
0.0
220
0.0
230
1.0
 70
     8
 71
     3
 72
    32
 73
    28
 74
     0
 42
0.000000001
 43
0.00000001
 40
0.0
 40
0.0
 40
0.0
 40
0.0
 40
0.125
 40
0.125
 40
0.1875000000000001
 40
0.1875000000000001
 40
0.2500000000000001
 40
0.2500000000000001
 40
0.3125000000000001
 40
0.3125000000000001
 40
0.3750000000000001
 40
0.3750000000000001
 40
0.5000000000000001
 40
0.5000000000000001
 40
0.5625000000000001
 40
0.5625000000000001
 40
0.6250000000000001
 40
0.6250000000000001
 40
0.6875000000000001
 40
0.6875000000000001
 40
0.7500000000000003
 40
0.7500000000000003
 40
0.8750000000000004
 40
0.8750000000000004
 40
0.9375000000000002
 40
0.9375000000000002
 40
1.0
 40
1.0
 40
1.0
 40
1.0
 10
19.91195461813655
 20
-1.878759392336736
 30
0.0
 10
19.66766912707506
 20
-1.830201531707356
 30
0.0
 10
19.41834821793226
 20
-1.767023612717097
 30
0.0
 10
19.04938604844213
 20
-1.653375885174992
 30
0.0
 10
18.92825518436108
 20
-1.612503818923678
 30
0.0
 10
18.68373308995925
 20
-1.524614537033106
 30
0.0
 10
18.56026631212804
 20
-1.477566206471188
 30
0.0
 10
18.3130025855382
 20
-1.377996213212121
 30
0.0
 10
18.18920960801121
 20
-1.325476097117726
 30
0.0
 10
17.94340102906985
 20
-1.215887676669936
 30
0.0
 10
17.8223915062744
 20
-1.158987959163774
 30
0.0
 10
17.45526763115659
 20
-0.9814509038959933
 30
0.0
 10
17.20588233235246
 20
-0.8539803129927961
 30
0.0
 10
16.83743318906453
 20
-0.6555011653376077
 30
0.0
 10
16.71650699913046
 20
-0.5883260685726235
 30
0.0
 10
16.47154007068889
 20
-0.4514494475053503
 30
0.0
 10
16.34794959617342
 20
-0.3818232480486827
 30
0.0
 10
16.1006428549011
 20
-0.2413607634919934
 30
0.0
 10
15.97693056419641
 20
-0.1705267324798392
 30
0.0
 10
15.73148321171088
 20
-0.0288611937289147
 30
0.0
 10
15.61060233535663
 20
0.0418044686204055
 30
0.0
 10
15.24283968378724
 20
0.2541514567572705
 30
0.0
 10
14.99343033916026
 20
0.3956590214485018
 30
0.0
 10
14.62555177796108
 20
0.6006921858368948
 30
0.0
 10
14.50467819000077
 20
0.66771359682145
 30
0.0
 10
14.25930444933964
 20
0.7996535535534797
 30
0.0
 10
14.135609869834
 20
0.864416297528873
 30
0.0
 10
14.01195461813653
 20
0.9274099677879839
 30
0.0
  0
LINE
  5
25A
330
1F
100
AcDbEntity
  8
0
  6
Continuous
 62
     4
370
    25
100
AcDbLine
 10
14.01195461813653
 20
0.4019523873045294
 30
0.0
 11
14.01195461813653
 21
0.9274099677879839
 31
0.0
  0
SPLINE
  5
25B
330
1F
100
AcDbEntity
  8
0
  6
Continuous
 62
     1
370
    25
100
AcDbSpline
210
0.0
220
0.0
230
1.0
 70
     8
 71
     3
 72
    15
 73
    11
 74
     0
 42
0.000000001
 43
0.00000001
 40
0.0
 40
0.0
 40
0.0
 40
0.0
 40
0.12923824114849
 40
0.2580322866988912
 40
0.3870888378777521
 40
0.516479116315546
 40
0.6453203551894435
 40
0.7742416438805224
 40
0.9007741242745954
 40
0.9999999999999999
 40
0.9999999999999999
 40
0.9999999999999999
 40
0.9999999999999999
 10
20.01195461813653
 20
0.0000000000000036
 30
0.0
 10
19.76013767470162
 20
0.1161101971622642
 30
0.0
 10
19.25736928999898
 20
0.3479315173581554
 30
0.0
 10
18.50373774136655
 20
0.6805103165313895
 30
0.0
 10
17.74947890732516
 20
0.9803674823599913
 30
0.0
 10
16.99462798592823
 20
1.233101710111576
 30
0.0
 10
16.24082434427268
 20
1.429310479448635
 30
0.0
 10
15.49250223861661
 20
1.554385540692856
 30
0.0
 10
14.80110220853855
 20
1.610860366838114
 30
0.0
 10
14.36151234917851
 20
1.591648933788491
 30
0.0
 10
14.16830271785075
 20
1.583205076820999
 30
0.0
  0
SPLINE
  5
25C
330
1F
100
AcDbEntity
  8
0
  6
Continuous
 62
     1
370
    25
100
AcDbSpline
210
0.0
220
0.0
230
1.0
 70
    24
 71
     3
 72
    10
 73
     6
 74
     0
 42
0.000000001
 43
0.00000001
 40
0.0
 40
0.0
 40
0.0
 40
0.0
 40
0.5
 40
0.5
 40
1.0
 40
1.0
 40
1.0
 40
1.0
 10
20.01195461813653
 20
-1.577944528736428
 30
0.0
 10
20.01195461813653
 20
-1.407185134337968
 30
0.0
 10
20.01195461813653
 20
-1.171452163182277
 30
0.0
 10
20.01195461813653
 20
-0.6198823592321787
 30
0.0
 10
20.01195461813653
 20
-0.3064196984977485
 30
0.0
 10
20.01195461813653
 20
0.0000000000000036
 30
0.0
  0
SPLINE
  5
25D
330
1F
100
AcDbEntity
  8
0
  6
Continuous
 62
     4
370
    25
100
AcDbSpline
210
0.0
220
0.0
230
1.0
 70
    24
 71
     3
 72
    13
 73
     9
 74
     0
 42
0.000000001
 43
0.00000001
 40
0.0
 40
0.0
 40
0.0
 40
0.0
 40
0.0897819337820375
 40
0.2352852897614771
 40
0.4450762001489252
 40
0.6609510611498548
 40
0.8493320577790119
 40
0.9999999999999999
 40
0.9999999999999999
 40
0.9999999999999999
 40
0.9999999999999999
 10
14.01195461813653
 20
1.578172008286845
 30
0.0
 10
14.01195461813653
 20
1.578546579504607
 30
0.0
 10
14.01195461813653
 20
1.579528192327981
 30
0.0
 10
14.01195461813653
 20
1.543489802611642
 30
0.0
 10
14.01195461813651
 20
1.457440694116162
 30
0.0
 10
14.01195461813653
 20
1.304862772871644
 30
0.0
 10
14.01195461813653
 20
1.126721477503455
 30
0.0
 10
14.01195461813653
 20
0.988730817018471
 30
0.0
 10
14.01195461813653
 20
0.9274099677879803
 30
0.0
  0
LINE
  5
25E
330
1F
100
AcDbEntity
  8
0
  6
Continuous
 62
     1
370
    25
100
AcDbLine
 10
20.01195461813653
 20
1.400000000000002
 30
0.0
 11
19.2635777358029
 21
1.35104034629132
 31
0.0
  0
SPLINE
  5
25F
330
1F
100
AcDbEntity
  8
0
  6
Continuous
 62
     1
370
    25
100
AcDbSpline
210
0.0
220
0.0
230
1.0
 70
    24
 71
     3
 72
    14
 73
    10
 74
     0
 42
0.000000001
 43
0.00000001
 40
0.0
 40
0.0
 40
0.0
 40
0.0
 40
0.2499999999999999
 40
0.2499999999999999
 40
0.4999999999999999
 40
0.4999999999999999
 40
0.7499999999999999
 40
0.7499999999999999
 40
1.0
 40
1.0
 40
1.0
 40
1.0
 10
20.01195461813653
 20
0.0000000000000036
 30
0.0
 10
20.01195461813653
 20
0.1665687034027954
 30
0.0
 10
20.01195461813653
 20
0.3310871527509107
 30
0.0
 10
20.01195461813653
 20
0.6387450999155142
 30
0.0
 10
20.01195461813653
 20
0.7816934607495369
 30
0.0
 10
20.01195461813653
 20
1.030513824303657
 30
0.0
 10
20.01195461813653
 20
1.136253245131314
 30
0.0
 10
20.01195461813653
 20
1.302133108422716
 30
0.0
 10
20.01195461813653
 20
1.362281548872783
 30
0.0
 10
20.01195461813653
 20
1.400000000000002
 30
0.0
  0
SPLINE
  5
260
330
1F
100
AcDbEntity
  8
0
  6
Continuous
 62
     1
370
    25
100
AcDbSpline
210
0.0
220
0.0
230
1.0
 70
     8
 71
     3
 72
    10
 73
     6
 74
     0
 42
0.000000001
 43
0.00000001
 40
0.0
 40
0.0
 40
0.0
 40
0.0
 40
0.1649796165946697
 40
0.5833925670319611
 40
1.0
 40
1.0
 40
1.0
 40
1.0
 10
15.77921678376229
 20
-1.495293725512532
 30
0.0
 10
15.68205921037988
 20
-1.512722317195465
 30
0.0
 10
15.33849551862137
 20
-1.574352420668415
 30
0.0
 10
14.74893664193939
 20
-1.610707621432255
 30
0.0
 10
14.25726091851082
 20
-1.589718768559422
 30
0.0
 10
14.01195461813653
 20
-1.579247033629272
 30
0.0
  0
SPLINE
  5
261
330
1F
100
AcDbEntity
  8
0
  6
Continuous
 62
     4
370
    25
100
AcDbSpline
210
0.0
220
0.0
230
1.0
 70
    24
 71
     3
 72
    14
 73
    10
 74
     0
 42
0.000000001
 43
0.00000001
 40
0.0
 40
0.0
 40
0.0
 40
0.0
 40
0.25
 40
0.25
 40
0.5
 40
0.5
 40
0.75
 40
0.75
 40
1.0
 40
1.0
 40
1.0
 40
1.0
 10
14.01195461813653
 20
0.2247554758747619
 30
0.0
 10
14.01195461813653
 20
0.0478379764646739
 30
0.0
 10
14.01195461813653
 20
-0.133603748130561
 30
0.0
 10
14.01195461813653
 20
-0.4885406909531618
 30
0.0
 10
14.01195461813653
 20
-0.6618479081743835
 30
0.0
 10
14.01195461813653
 20
-0.9824711655081977
 30
0.0
 10
14.01195461813653
 20
-1.129616364144596
 30
0.0
 10
14.01195461813653
 20
-1.384867563041759
 30
0.0
 10
14.01195461813653
 20
-1.492925576302515
 30
0.0
 10
14.01195461813653
 20
-1.579247033629272
 30
0.0
  0
LINE
  5
262
330
1F
100
AcDbEntity
  8
0
  6
Continuous
 62
     1
370
    25
100
AcDbLine
 10
20.01195461813653
 20
-1.78997061699398
 30
0.0
 11
20.01195461813653
 21
-1.795079370482124
 31
0.0
  0
SPLINE
  5
263
330
1F
100
AcDbEntity
  8
0
  6
Continuous
 62
     1
370
    25
100
AcDbSpline
210
0.0
220
0.0
230
1.0
 70
     8
 71
     3
 72
    11
 73
     7
 74
     0
 42
0.000000001
 43
0.00000001
 40
0.0
 40
0.0
 40
0.0
 40
0.0
 40
0.0193261445241458
 40
0.3457537122003019
 40
0.6725729949454452
 40
0.9783810106698395
 40
0.9783810106698395
 40
0.9783810106698395
 40
0.9783810106698395
 10
17.26447957325168
 20
1.341371639063848
 30
0.0
 10
17.28152912192644
 20
1.349341303458271
 30
0.0
 10
17.58655347576355
 20
1.491922305370984
 30
0.0
 10
18.17991055752624
 20
1.695024701506004
 30
0.0
 10
19.0261985220226
 20
1.920188827311705
 30
0.0
 10
19.58471001820881
 20
1.968601406020862
 30
0.0
 10
19.85469508142132
 20
1.990459136062485
 30
0.0
  0
SPLINE
  5
264
330
1F
100
AcDbEntity
  8
0
  6
Continuous
 62
     1
370
    25
100
AcDbSpline
210
0.0
220
0.0
230
1.0
 70
    24
 71
     3
 72
    10
 73
     6
 74
     0
 42
0.000000001
 43
0.00000001
 40
0.0
 40
0.0
 40
0.0
 40
0.0
 40
0.5
 40
0.5
 40
0.8051040538693702
 40
0.8051040538693702
 40
0.8051040538693702
 40
0.8051040538693702
 10
20.01195461813653
 20
1.400000000000002
 30
0.0
 10
20.01195461813653
 20
1.470887229722255
 30
0.0
 10
20.01195461813653
 20
1.551262239179049
 30
0.0
 10
20.01195461813653
 20
1.688070254528442
 30
0.0
 10
20.01195461813653
 20
1.741551436857069
 30
0.0
 10
20.01195461813653
 20
1.795079354793738
 30
0.0
  0
LINE
  5
265
330
1F
100
AcDbEntity
  8
중심선
100
AcDbLine
 10
-42.98804538186346
 20
-0.0000000000000036
 30
0.0
 11
23.01195461813653
 21
0.0000000000000036
 31
0.0
  0
CIRCLE
  5
266
330
1F
100
AcDbEntity
  8
외형선
100
AcDbCircle
 10
0.0
 20
0.0
 30
0.0
 40
3.000000000000005
  0
DIMENSION
  5
267
330
1F
100
AcDbEntity
  8
치수문자_일반주서
100
AcDbDimension
  2
*D15
 10
-51.48450340347554
 20
-3.000000000000048
 30
0.0
 11
-51.48450340347555
 21
-0.0000000000000036
 31
0.0
 70
   160
  1
%%c<>
 71
     2
 42
5.999999999999996
 52
-270.0
  3
SLDDIMSTYLE0
100
AcDbAlignedDimension
 13
-38.98804538186347
 23
2.999999999999996
 33
0.0
 14
-38.98804538186347
 24
-3.0
 34
0.0
 50
90.0000000000002
100
AcDbRotatedDimension
  0
DIMENSION
  5
268
330
1F
100
AcDbEntity
  8
치수문자_일반주서
100
AcDbDimension
  2
*D16
 10
14.01195461813653
 20
20.39999999999966
 30
0.0
 11
17.01195461813653
 21
20.39999999999966
 31
0.0
 70
   160
  1
<>
 71
     2
 42
6.0
  3
SLDDIMSTYLE0
100
AcDbAlignedDimension
 13
20.01195461813653
 23
1.900000000000002
 33
0.0
 14
14.01195461813653
 24
1.581514153956213
 34
0.0
100
AcDbRotatedDimension
  0
DIMENSION
  5
269
330
1F
100
AcDbEntity
  8
치수문자_일반주서
100
AcDbDimension
  2
*D17
 10
-39.98804538186347
 20
42.45832450504428
 30
0.0
 11
-9.988045381863472
 21
42.45832450504428
 31
0.0
 70
   160
  1
<>
 71
     2
 42
60.0
  3
SLDDIMSTYLE1
100
AcDbAlignedDimension
 13
20.01195461813653
 23
1.900000000000002
 33
0.0
 14
-39.98804538186347
 24
1.999999999999996
 34
0.0
100
AcDbRotatedDimension
  0
DIMENSION
  5
26A
330
1F
100
AcDbEntity
  8
치수문자_일반주서
100
AcDbDimension
  2
*D18
 10
4.011954618136528
 20
30.31999999999866
 30
0.0
 11
12.0532527128527
 21
30.31999999999866
 31
0.0
 70
   160
  1
<>
 71
     2
 42
16.0
  3
SLDDIMSTYLE0
100
AcDbAlignedDimension
 13
20.01195461813653
 23
1.897300810639997
 33
0.0
 14
4.011954618136528
 24
1.925000000000001
 34
0.0
 50
-0.0000000000022354
100
AcDbRotatedDimension
  0
DIMENSION
  5
26B
330
1F
100
AcDbEntity
  8
치수문자_일반주서
100
AcDbDimension
  2
*D19
 10
40.77152920084245
 20
-1.995079370482049
 30
0.0
 11
40.77152920084239
 21
14.7240793704822
 31
0.0
 70
   160
  1
%%c<>
 71
     2
 42
4.003281458167976
 52
-270.0
  3
SLDDIMSTYLE0
100
AcDbAlignedDimension
 13
20.01195461813653
 23
2.008202087685849
 33
0.0
 14
19.91195461813653
 24
-1.995079370482127
 34
0.0
 50
90.0000000000002
100
AcDbRotatedDimension
  0
INSERT
  5
26C
330
1F
100
AcDbEntity
  8
외형선
100
AcDbBlockReference
  2
SW_DOWELSYMBOL_0
 10
0.0
 20
0.0
 30
0.0
  0
LINE
  5
2BA
330
1F
100
AcDbEntity
  8
0
100
AcDbLine
 10
20.01195461813653
 20
1.636225179492097
 30
0.0
 11
20.01195461813653
 21
1.795079370482131
 31
0.0
  0
ARC
  5
368
330
1F
100
AcDbEntity
  8
0
  6
Continuous
 62
     1
370
    25
100
AcDbCircle
 10
19.81195461813653
 20
1.795079370482131
 30
0.0
 40
0.1999999999999999
100
AcDbArc
 50
359.999995505607
 51
77.66059380193126
  0
LINE
  5
369
330
1F
100
AcDbEntity
  8
0
100
AcDbLine
 10
20.01195461813653
 20
1.895079370482129
 30
0.0
 11
20.01195461813653
 21
1.897300810639997
 31
0.0
  0
SPLINE
  5
36A
330
1F
100
AcDbEntity
  8
0
  6
Continuous
 62
     1
370
    25
100
AcDbSpline
210
0.0
220
0.0
230
1.0
 70
    24
 71
     3
 72
     8
 73
     4
 74
     0
 42
0.000000001
 43
0.00000001
 40
0.9957334716245283
 40
0.9957334716245283
 40
0.9957334716245283
 40
0.9957334716245283
 40
1.0
 40
1.0
 40
1.0
 40
1.0
 10
20.01195461813653
 20
1.895079370482129
 30
0.0
 10
20.01195461813653
 20
1.895820037031678
 30
0.0
 10
20.01195461813653
 20
1.89656051853302
 30
0.0
 10
20.01195461813653
 20
1.897300810639997
 30
0.0
  0
ARC
  5
36B
102
{ACAD_REACTORS
102
}
330
1F
100
AcDbEntity
  8
0
  6
Continuous
 62
     1
370
    25
100
AcDbCircle
 10
19.81195461813653
 20
-1.795079370482124
 30
0.0
 40
0.1999999999999999
100
AcDbArc
 50
282.3394061980688
 51
0.0000044943930307
  0
LINE
  5
36C
330
1F
100
AcDbEntity
  8
0
  6
Continuous
 62
     1
370
    25
100
AcDbLine
 10
20.01195461813653
 20
-1.895079370482122
 30
0.0
 11
20.01195461813653
 21
-1.897300810640363
 31
0.0
  0
DIMENSION
  5
36D
102
{ACAD_REACTORS
102
}
102
{ACAD_XDICTIONARY
360
36E
102
}
330
1F
100
AcDbEntity
  8
치수문자_일반주서
100
AcDbDimension
  2
*D27
 10
19.81195461813653
 20
-1.795079370482124
 30
0.0
 11
23.83480316402375
 21
-17.73556780223011
 31
0.0
 70
   164
  1
<>
 71
     5
 42
0.2000000000000001
  3
SLDDIMSTYLE0
100
AcDbRadialDimension
 15
19.86089357734685
 25
-1.988999401091162
 35
0.0
 40
0.0
1001
ACAD_DSTYLE_DIMRADIAL_EXTENSION
1070
   387
1070
     1
1070
   388
1040
4.927752246281985
1070
   390
1040
0.0000000784419563
1001
ACAD
1000
DSTYLE
1002
{
1070
    78
1070
     8
1002
}
  0
ENDSEC
  0
SECTION
  2
OBJECTS
  0
DICTIONARY
  5
C
330
0
100
AcDbDictionary
281
     1
  3
ACAD_GROUP
350
D
  3
ACAD_IMAGE_VARS
350
13C
  3
ACAD_LAYOUT
350
1A
  3
ACAD_MLINESTYLE
350
17
  3
ACAD_PLOTSETTINGS
350
19
  3
ACAD_PLOTSTYLENAME
350
E
  3
ACAD_SCALELIST
350
47
  3
APPDATA
350
13A
  3
DWGPROPS
350
37A
  0
DICTIONARY
  5
36E
330
36D
100
AcDbDictionary
280
     1
281
     1
  0
DICTIONARY
  5
D
102
{ACAD_REACTORS
330
C
102
}
330
C
100
AcDbDictionary
281
     1
  0
RASTERVARIABLES
  5
13C
102
{ACAD_REACTORS
330
C
102
}
330
C
100
AcDbRasterVariables
 90
        0
 70
     1
 71
     1
 72
     1
  0
DICTIONARY
  5
1A
102
{ACAD_REACTORS
330
C
102
}
330
C
100
AcDbDictionary
281
     1
  3
Layout1
350
1E
  3
Layout2
350
26
  3
Model
350
22
  0
DICTIONARY
  5
17
102
{ACAD_REACTORS
330
C
102
}
330
C
100
AcDbDictionary
281
     1
  3
Standard
350
18
  0
DICTIONARY
  5
19
102
{ACAD_REACTORS
330
C
102
}
330
C
100
AcDbDictionary
281
     1
  0
ACDBDICTIONARYWDFLT
  5
E
102
{ACAD_REACTORS
330
C
102
}
330
C
100
AcDbDictionary
281
     1
  3
Normal
350
F
100
AcDbDictionaryWithDefault
340
F
  0
DICTIONARY
  5
47
102
{ACAD_REACTORS
330
C
102
}
330
C
100
AcDbDictionary
281
     1
  3
A0
350
48
  3
A1
350
49
  3
A2
350
4A
  3
A3
350
4B
  3
A4
350
4C
  3
A5
350
4D
  3
A6
350
4E
  3
A7
350
4F
  3
A8
350
50
  3
A9
350
51
  3
B0
350
52
  3
B1
350
53
  3
B2
350
54
  3
B3
350
55
  3
B4
350
56
  3
B5
350
57
  3
B6
350
58
  3
B7
350
59
  3
B8
350
5A
  3
B9
350
5B
  3
C0
350
5C
  3
C1
350
5D
  3
C2
350
5E
  3
C3
350
5F
  3
C4
350
60
  3
C5
350
61
  3
C6
350
62
  3
C7
350
63
  3
C8
350
64
  3
C9
350
65
  3
D0
350
66
  3
D1
350
67
  3
D2
350
68
  0
DICTIONARY
  5
13A
102
{ACAD_REACTORS
330
C
102
}
330
C
100
AcDbDictionary
281
     1
  0
XRECORD
  5
37A
102
{ACAD_REACTORS
330
C
102
}
330
C
100
AcDbXrecord
280
     1
  1
DWGPROPS COOKIE
  2

  3

  4

  6

  7

  8
12016016
  9

300
=
301
=
302
=
303
=
304
=
305
=
306
=
307
=
308
=
309
=
 40
0.0
 41
2458263.419528993
 42
2458268.465240533
  1

 90
        0
  0
LAYOUT
  5
1E
102
{ACAD_REACTORS
330
1A
102
}
330
1A
100
AcDbPlotSettings
  1

  2
none_device
  4

  6

 40
0.0
 41
0.0
 42
0.0
 43
0.0
 44
0.0
 45
0.0
 46
0.0
 47
0.0
 48
0.0
 49
0.0
140
0.0
141
0.0
142
1.0
143
1.0
 70
   688
 72
     1
 73
     0
 74
     5
  7

 75
    16
147
1.0
148
0.0
149
0.0
100
AcDbLayout
  1
Layout1
 70
     1
 71
     1
 10
0.0
 20
0.0
 11
420.0
 21
297.0
 12
0.0
 22
0.0
 32
0.0
 14
1.000000000000000E+20
 24
1.000000000000000E+20
 34
1.000000000000000E+20
 15
-1.000000000000000E+20
 25
-1.000000000000000E+20
 35
-1.000000000000000E+20
146
0.0
 13
0.0
 23
0.0
 33
0.0
 16
1.0
 26
0.0
 36
0.0
 17
0.0
 27
1.0
 37
0.0
 76
     0
330
1B
  0
LAYOUT
  5
26
102
{ACAD_REACTORS
330
1A
102
}
330
1A
100
AcDbPlotSettings
  1

  2
none_device
  4

  6

 40
0.0
 41
0.0
 42
0.0
 43
0.0
 44
0.0
 45
0.0
 46
0.0
 47
0.0
 48
0.0
 49
0.0
140
0.0
141
0.0
142
1.0
143
1.0
 70
   688
 72
     1
 73
     0
 74
     5
  7

 75
    16
147
1.0
148
0.0
149
0.0
100
AcDbLayout
  1
Layout2
 70
     1
 71
     2
 10
0.0
 20
0.0
 11
0.0
 21
0.0
 12
0.0
 22
0.0
 32
0.0
 14
0.0
 24
0.0
 34
0.0
 15
0.0
 25
0.0
 35
0.0
146
0.0
 13
0.0
 23
0.0
 33
0.0
 16
1.0
 26
0.0
 36
0.0
 17
0.0
 27
1.0
 37
0.0
 76
     0
330
23
  0
LAYOUT
  5
22
102
{ACAD_REACTORS
330
1A
102
}
330
1A
100
AcDbPlotSettings
  1

  2
none_device
  4
ANSI_A_(11.00_x_8.50_Inches)
  6

 40
6.35
 41
19.05
 42
6.35000508
 43
19.05000254
 44
279.4
 45
215.9
 46
112.0134463174258
 47
93.10925080596945
 48
0.0
 49
0.0
140
0.0
141
0.0
142
0.0862317777894976
143
1.0
 70
  1696
 72
     0
 73
     0
 74
     0
  7

 75
     0
147
0.0235690232323232
148
0.0
149
0.0
100
AcDbLayout
  1
Model
 70
     1
 71
     0
 10
0.0
 20
0.0
 11
420.0
 21
297.0
 12
0.0
 22
0.0
 32
0.0
 14
1.000000000000000E+20
 24
1.000000000000000E+20
 34
1.000000000000000E+20
 15
-1.000000000000000E+20
 25
-1.000000000000000E+20
 35
-1.000000000000000E+20
146
0.0
 13
0.0
 23
0.0
 33
0.0
 16
1.0
 26
0.0
 36
0.0
 17
0.0
 27
1.0
 37
0.0
 76
     0
330
1F
331
29
  0
MLINESTYLE
  5
18
102
{ACAD_REACTORS
330
17
102
}
330
17
100
AcDbMlineStyle
  2
Standard
 70
     0
  3

 62
   256
 51
90.0
 52
90.0
 71
     2
 49
0.5
 62
   256
  6
BYLAYER
 49
-0.5
 62
   256
  6
BYLAYER
  0
ACDBPLACEHOLDER
  5
F
102
{ACAD_REACTORS
330
E
102
}
330
E
  0
SCALE
  5
48
102
{ACAD_REACTORS
330
47
102
}
330
47
100
AcDbScale
 70
     0
300
1:1
140
1.0
141
1.0
290
     1
  0
SCALE
  5
49
102
{ACAD_REACTORS
330
47
102
}
330
47
100
AcDbScale
 70
     0
300
1:2
140
1.0
141
2.0
290
     0
  0
SCALE
  5
4A
102
{ACAD_REACTORS
330
47
102
}
330
47
100
AcDbScale
 70
     0
300
1:4
140
1.0
141
4.0
290
     0
  0
SCALE
  5
4B
102
{ACAD_REACTORS
330
47
102
}
330
47
100
AcDbScale
 70
     0
300
1:5
140
1.0
141
5.0
290
     0
  0
SCALE
  5
4C
102
{ACAD_REACTORS
330
47
102
}
330
47
100
AcDbScale
 70
     0
300
1:8
140
1.0
141
8.0
290
     0
  0
SCALE
  5
4D
102
{ACAD_REACTORS
330
47
102
}
330
47
100
AcDbScale
 70
     0
300
1:10
140
1.0
141
10.0
290
     0
  0
SCALE
  5
4E
102
{ACAD_REACTORS
330
47
102
}
330
47
100
AcDbScale
 70
     0
300
1:16
140
1.0
141
16.0
290
     0
  0
SCALE
  5
4F
102
{ACAD_REACTORS
330
47
102
}
330
47
100
AcDbScale
 70
     0
300
1:20
140
1.0
141
20.0
290
     0
  0
SCALE
  5
50
102
{ACAD_REACTORS
330
47
102
}
330
47
100
AcDbScale
 70
     0
300
1:30
140
1.0
141
30.0
290
     0
  0
SCALE
  5
51
102
{ACAD_REACTORS
330
47
102
}
330
47
100
AcDbScale
 70
     0
300
1:40
140
1.0
141
40.0
290
     0
  0
SCALE
  5
52
102
{ACAD_REACTORS
330
47
102
}
330
47
100
AcDbScale
 70
     0
300
1:50
140
1.0
141
50.0
290
     0
  0
SCALE
  5
53
102
{ACAD_REACTORS
330
47
102
}
330
47
100
AcDbScale
 70
     0
300
1:100
140
1.0
141
100.0
290
     0
  0
SCALE
  5
54
102
{ACAD_REACTORS
330
47
102
}
330
47
100
AcDbScale
 70
     0
300
2:1
140
2.0
141
1.0
290
     0
  0
SCALE
  5
55
102
{ACAD_REACTORS
330
47
102
}
330
47
100
AcDbScale
 70
     0
300
4:1
140
4.0
141
1.0
290
     0
  0
SCALE
  5
56
102
{ACAD_REACTORS
330
47
102
}
330
47
100
AcDbScale
 70
     0
300
8:1
140
8.0
141
1.0
290
     0
  0
SCALE
  5
57
102
{ACAD_REACTORS
330
47
102
}
330
47
100
AcDbScale
 70
     0
300
10:1
140
10.0
141
1.0
290
     0
  0
SCALE
  5
58
102
{ACAD_REACTORS
330
47
102
}
330
47
100
AcDbScale
 70
     0
300
100:1
140
100.0
141
1.0
290
     0
  0
SCALE
  5
59
102
{ACAD_REACTORS
330
47
102
}
330
47
100
AcDbScale
 70
     0
300
1/128" = 1'-0"
140
0.0078125
141
12.0
290
     0
  0
SCALE
  5
5A
102
{ACAD_REACTORS
330
47
102
}
330
47
100
AcDbScale
 70
     0
300
1/64" = 1'-0"
140
0.015625
141
12.0
290
     0
  0
SCALE
  5
5B
102
{ACAD_REACTORS
330
47
102
}
330
47
100
AcDbScale
 70
     0
300
1/32" = 1'-0"
140
0.03125
141
12.0
290
     0
  0
SCALE
  5
5C
102
{ACAD_REACTORS
330
47
102
}
330
47
100
AcDbScale
 70
     0
300
1/16" = 1'-0"
140
0.0625
141
12.0
290
     0
  0
SCALE
  5
5D
102
{ACAD_REACTORS
330
47
102
}
330
47
100
AcDbScale
 70
     0
300
3/32" = 1'-0"
140
0.09375
141
12.0
290
     0
  0
SCALE
  5
5E
102
{ACAD_REACTORS
330
47
102
}
330
47
100
AcDbScale
 70
     0
300
1/8" = 1'-0"
140
0.125
141
12.0
290
     0
  0
SCALE
  5
5F
102
{ACAD_REACTORS
330
47
102
}
330
47
100
AcDbScale
 70
     0
300
3/16" = 1'-0"
140
0.1875
141
12.0
290
     0
  0
SCALE
  5
60
102
{ACAD_REACTORS
330
47
102
}
330
47
100
AcDbScale
 70
     0
300
1/4" = 1'-0"
140
0.25
141
12.0
290
     0
  0
SCALE
  5
61
102
{ACAD_REACTORS
330
47
102
}
330
47
100
AcDbScale
 70
     0
300
3/8" = 1'-0"
140
0.375
141
12.0
290
     0
  0
SCALE
  5
62
102
{ACAD_REACTORS
330
47
102
}
330
47
100
AcDbScale
 70
     0
300
1/2" = 1'-0"
140
0.5
141
12.0
290
     0
  0
SCALE
  5
63
102
{ACAD_REACTORS
330
47
102
}
330
47
100
AcDbScale
 70
     0
300
3/4" = 1'-0"
140
0.75
141
12.0
290
     0
  0
SCALE
  5
64
102
{ACAD_REACTORS
330
47
102
}
330
47
100
AcDbScale
 70
     0
300
1" = 1'-0"
140
1.0
141
12.0
290
     0
  0
SCALE
  5
65
102
{ACAD_REACTORS
330
47
102
}
330
47
100
AcDbScale
 70
     0
300
1-1/2" = 1'-0"
140
1.5
141
12.0
290
     0
  0
SCALE
  5
66
102
{ACAD_REACTORS
330
47
102
}
330
47
100
AcDbScale
 70
     0
300
3" = 1'-0"
140
3.0
141
12.0
290
     0
  0
SCALE
  5
67
102
{ACAD_REACTORS
330
47
102
}
330
47
100
AcDbScale
 70
     0
300
6" = 1'-0"
140
6.0
141
12.0
290
     0
  0
SCALE
  5
68
102
{ACAD_REACTORS
330
47
102
}
330
47
100
AcDbScale
 70
     0
300
1'-0" = 1'-0"
140
12.0
141
12.0
290
     0
  0
ENDSEC
  0
EOF
