  0
SECTION
  2
HEADER
  9
$ACADVER
  1
AC1015
  9
$ACADMAINTVER
 70
     6
  9
$DWGCODEPAGE
  3
ANSI_949
  9
$INSBASE
 10
0.0
 20
0.0
 30
0.0
  9
$EXTMIN
 10
-49.85950340347556
 20
-49.97073246008785
 30
0.0
  9
$EXTMAX
 10
67.79590529218262
 20
46.83332450504429
 30
0.0
  9
$LIMMIN
 10
0.0
 20
0.0
  9
$LIMMAX
 10
420.0
 20
297.0
  9
$ORTHOMODE
 70
     1
  9
$REGENMODE
 70
     1
  9
$FILLMODE
 70
     1
  9
$QTEXTMODE
 70
     0
  9
$MIRRTEXT
 70
     1
  9
$LTSCALE
 40
1.0
  9
$ATTMODE
 70
     1
  9
$TEXTSIZE
 40
3.5
  9
$TRACEWID
 40
1.0
  9
$TEXTSTYLE
  7
Standard
  9
$CLAYER
  8
0
  9
$CELTYPE
  6
ByLayer
  9
$CECOLOR
 62
   256
  9
$CELTSCALE
 40
1.0
  9
$DISPSILH
 70
     0
  9
$DIMSCALE
 40
1.0
  9
$DIMASZ
 40
3.302
  9
$DIMEXO
 40
1.0
  9
$DIMDLI
 40
3.75
  9
$DIMRND
 40
0.0
  9
$DIMDLE
 40
0.0
  9
$DIMEXE
 40
1.0
  9
$DIMTP
 40
0.0
  9
$DIMTM
 40
0.0
  9
$DIMTXT
 40
3.5
  9
$DIMCEN
 40
2.5
  9
$DIMTSZ
 40
0.0
  9
$DIMTOL
 70
     0
  9
$DIMLIM
 70
     0
  9
$DIMTIH
 70
     1
  9
$DIMTOH
 70
     1
  9
$DIMSE1
 70
     0
  9
$DIMSE2
 70
     0
  9
$DIMTAD
 70
     1
  9
$DIMZIN
 70
     0
  9
$DIMBLK
  1

  9
$DIMASO
 70
     1
  9
$DIMSHO
 70
     1
  9
$DIMPOST
  1

  9
$DIMAPOST
  1

  9
$DIMALT
 70
     0
  9
$DIMALTD
 70
     3
  9
$DIMALTF
 40
0.0393700787401575
  9
$DIMLFAC
 40
1.0
  9
$DIMTOFL
 70
     1
  9
$DIMTVP
 40
0.0
  9
$DIMTIX
 70
     0
  9
$DIMSOXD
 70
     0
  9
$DIMSAH
 70
     0
  9
$DIMBLK1
  1

  9
$DIMBLK2
  1

  9
$DIMSTYLE
  2
ISO-25
  9
$DIMCLRD
 70
     0
  9
$DIMCLRE
 70
     0
  9
$DIMCLRT
 70
     0
  9
$DIMTFAC
 40
1.0
  9
$DIMGAP
 40
1.524
  9
$DIMJUST
 70
     0
  9
$DIMSD1
 70
     0
  9
$DIMSD2
 70
     0
  9
$DIMTOLJ
 70
     0
  9
$DIMTZIN
 70
     0
  9
$DIMALTZ
 70
     0
  9
$DIMALTTZ
 70
     0
  9
$DIMUPT
 70
     0
  9
$DIMDEC
 70
     2
  9
$DIMTDEC
 70
     2
  9
$DIMALTU
 70
     2
  9
$DIMALTTD
 70
     3
  9
$DIMTXSTY
  7
Standard
  9
$DIMAUNIT
 70
     0
  9
$DIMADEC
 70
     2
  9
$DIMALTRND
 40
0.0
  9
$DIMAZIN
 70
     0
  9
$DIMDSEP
 70
    44
  9
$DIMATFIT
 70
     3
  9
$DIMFRAC
 70
     0
  9
$DIMLDRBLK
  1

  9
$DIMLUNIT
 70
     2
  9
$DIMLWD
 70
    -2
  9
$DIMLWE
 70
    -2
  9
$DIMTMOVE
 70
     0
  9
$LUNITS
 70
     2
  9
$LUPREC
 70
     2
  9
$SKETCHINC
 40
1.0
  9
$FILLETRAD
 40
10.0
  9
$AUNITS
 70
     0
  9
$AUPREC
 70
     2
  9
$MENU
  1
.
  9
$ELEVATION
 40
0.0
  9
$PELEVATION
 40
0.0
  9
$THICKNESS
 40
0.0
  9
$LIMCHECK
 70
     0
  9
$CHAMFERA
 40
0.0
  9
$CHAMFERB
 40
0.0
  9
$CHAMFERC
 40
0.0
  9
$CHAMFERD
 40
0.0
  9
$SKPOLY
 70
     0
  9
$TDCREATE
 40
2458263.793394734
  9
$TDUCREATE
 40
2458263.418394734
  9
$TDUPDATE
 40
2458268.685140961
  9
$TDUUPDATE
 40
2458268.310140961
  9
$TDINDWG
 40
0.0006135301
  9
$TDUSRTIMER
 40
2458268.302767384
  9
$USRTIMER
 70
     1
  9
$ANGBASE
 50
0.0
  9
$ANGDIR
 70
     0
  9
$PDMODE
 70
     0
  9
$PDSIZE
 40
-1.0
  9
$PLINEWID
 40
0.0
  9
$SPLFRAME
 70
     0
  9
$SPLINETYPE
 70
     6
  9
$SPLINESEGS
 70
     8
  9
$HANDSEED
  5
163
  9
$SURFTAB1
 70
     6
  9
$SURFTAB2
 70
     6
  9
$SURFTYPE
 70
     6
  9
$SURFU
 70
     6
  9
$SURFV
 70
     6
  9
$UCSBASE
  2

  9
$UCSNAME
  2

  9
$UCSORG
 10
0.0
 20
0.0
 30
0.0
  9
$UCSXDIR
 10
1.0
 20
0.0
 30
0.0
  9
$UCSYDIR
 10
0.0
 20
1.0
 30
0.0
  9
$UCSORTHOREF
  2

  9
$UCSORTHOVIEW
 70
     0
  9
$UCSORGTOP
 10
0.0
 20
0.0
 30
0.0
  9
$UCSORGBOTTOM
 10
0.0
 20
0.0
 30
0.0
  9
$UCSORGLEFT
 10
0.0
 20
0.0
 30
0.0
  9
$UCSORGRIGHT
 10
0.0
 20
0.0
 30
0.0
  9
$UCSORGFRONT
 10
0.0
 20
0.0
 30
0.0
  9
$UCSORGBACK
 10
0.0
 20
0.0
 30
0.0
  9
$PUCSBASE
  2

  9
$PUCSNAME
  2

  9
$PUCSORG
 10
0.0
 20
0.0
 30
0.0
  9
$PUCSXDIR
 10
1.0
 20
0.0
 30
0.0
  9
$PUCSYDIR
 10
0.0
 20
1.0
 30
0.0
  9
$PUCSORTHOREF
  2

  9
$PUCSORTHOVIEW
 70
     0
  9
$PUCSORGTOP
 10
0.0
 20
0.0
 30
0.0
  9
$PUCSORGBOTTOM
 10
0.0
 20
0.0
 30
0.0
  9
$PUCSORGLEFT
 10
0.0
 20
0.0
 30
0.0
  9
$PUCSORGRIGHT
 10
0.0
 20
0.0
 30
0.0
  9
$PUCSORGFRONT
 10
0.0
 20
0.0
 30
0.0
  9
$PUCSORGBACK
 10
0.0
 20
0.0
 30
0.0
  9
$USERI1
 70
     0
  9
$USERI2
 70
     0
  9
$USERI3
 70
     0
  9
$USERI4
 70
     0
  9
$USERI5
 70
     0
  9
$USERR1
 40
0.0
  9
$USERR2
 40
0.0
  9
$USERR3
 40
0.0
  9
$USERR4
 40
0.0
  9
$USERR5
 40
0.0
  9
$WORLDVIEW
 70
     1
  9
$SHADEDGE
 70
     3
  9
$SHADEDIF
 70
    70
  9
$TILEMODE
 70
     1
  9
$MAXACTVP
 70
    64
  9
$PINSBASE
 10
0.0
 20
0.0
 30
0.0
  9
$PLIMCHECK
 70
     0
  9
$PEXTMIN
 10
1.000000000000000E+20
 20
1.000000000000000E+20
 30
1.000000000000000E+20
  9
$PEXTMAX
 10
-1.000000000000000E+20
 20
-1.000000000000000E+20
 30
-1.000000000000000E+20
  9
$PLIMMIN
 10
0.0
 20
0.0
  9
$PLIMMAX
 10
0.0
 20
0.0
  9
$UNITMODE
 70
     0
  9
$VISRETAIN
 70
     1
  9
$PLINEGEN
 70
     0
  9
$PSLTSCALE
 70
     1
  9
$TREEDEPTH
 70
  3020
  9
$CMLSTYLE
  2
Standard
  9
$CMLJUST
 70
     0
  9
$CMLSCALE
 40
20.0
  9
$PROXYGRAPHICS
 70
     1
  9
$MEASUREMENT
 70
     1
  9
$CELWEIGHT
370
    -1
  9
$ENDCAPS
280
     0
  9
$JOINSTYLE
280
     0
  9
$LWDISPLAY
290
     1
  9
$INSUNITS
 70
     4
  9
$HYPERLINKBASE
  1

  9
$STYLESHEET
  1

  9
$XEDIT
290
     1
  9
$CEPSNTYPE
380
     0
  9
$PSTYLEMODE
290
     1
  9
$FINGERPRINTGUID
  2
{FF018F9B-5287-42BE-AC4F-4B7C1566943F}
  9
$VERSIONGUID
  2
{FAEB1C32-E019-11D5-929B-00C0DF256EC4}
  9
$EXTNAMES
290
     1
  9
$PSVPSCALE
 40
0.0
  9
$OLESTARTUP
290
     0
  0
ENDSEC
  0
SECTION
  2
CLASSES
  0
CLASS
  1
ACDBDICTIONARYWDFLT
  2
AcDbDictionaryWithDefault
  3
ObjectDBX Classes
 90
        0
280
     0
281
     0
  0
CLASS
  1
VISUALSTYLE
  2
AcDbVisualStyle
  3
ObjectDBX Classes
 90
     4095
280
     0
281
     0
  0
CLASS
  1
MATERIAL
  2
AcDbMaterial
  3
ObjectDBX Classes
 90
     1153
280
     0
281
     0
  0
CLASS
  1
SCALE
  2
AcDbScale
  3
ObjectDBX Classes
 90
     1153
280
     0
281
     0
  0
CLASS
  1
TABLESTYLE
  2
AcDbTableStyle
  3
ObjectDBX Classes
 90
     4095
280
     0
281
     0
  0
CLASS
  1
MLEADERSTYLE
  2
AcDbMLeaderStyle
  3
ACDB_MLEADERSTYLE_CLASS
 90
     4095
280
     0
281
     0
  0
CLASS
  1
SUN
  2
AcDbSun
  3
SCENEOE
 90
     1153
280
     0
281
     0
  0
CLASS
  1
ACDBPLACEHOLDER
  2
AcDbPlaceHolder
  3
ObjectDBX Classes
 90
        0
280
     0
281
     0
  0
CLASS
  1
LAYOUT
  2
AcDbLayout
  3
ObjectDBX Classes
 90
        0
280
     0
281
     0
  0
CLASS
  1
RASTERVARIABLES
  2
AcDbRasterVariables
  3
ISM
 90
        0
280
     0
281
     0
  0
CLASS
  1
DIMASSOC
  2
AcDbDimAssoc
  3
"AcDbDimAssoc|Product Desc:     AcDim ARX App For Dimension|Company:          Autodesk, Inc.|WEB Address:      www.autodesk.com"
 90
        0
280
     0
281
     0
  0
ENDSEC
  0
SECTION
  2
TABLES
  0
TABLE
  2
VPORT
  5
8
330
0
100
AcDbSymbolTable
 70
     1
  0
VPORT
  5
29
330
8
100
AcDbSymbolTableRecord
100
AcDbViewportTableRecord
  2
*Active
 70
     0
 10
0.0
 20
0.0
 11
1.0
 21
1.0
 12
48.48800294582088
 22
6.817513742612832
 13
0.0
 23
0.0
 14
10.0
 24
10.0
 15
10.0
 25
10.0
 16
0.0
 26
0.0
 36
1.0
 17
0.0
 27
0.0
 37
0.0
 40
157.873090255548
 41
2.538461538461538
 42
50.0
 43
0.0
 44
0.0
 50
0.0
 51
0.0
 71
    16
 72
  2000
 73
     1
 74
     3
 75
     0
 76
     0
 77
     0
 78
     0
281
     0
 65
     1
110
0.0
120
0.0
130
0.0
111
1.0
121
0.0
131
0.0
112
0.0
122
1.0
132
0.0
 79
     0
146
0.0
  0
ENDTAB
  0
TABLE
  2
LTYPE
  5
5
330
0
100
AcDbSymbolTable
 70
     6
  0
LTYPE
  5
14
330
5
100
AcDbSymbolTableRecord
100
AcDbLinetypeTableRecord
  2
ByBlock
 70
     0
  3

 72
    65
 73
     0
 40
0.0
  0
LTYPE
  5
15
330
5
100
AcDbSymbolTableRecord
100
AcDbLinetypeTableRecord
  2
ByLayer
 70
     0
  3

 72
    65
 73
     0
 40
0.0
  0
LTYPE
  5
16
330
5
100
AcDbSymbolTableRecord
100
AcDbLinetypeTableRecord
  2
Continuous
 70
     0
  3
Solid line
 72
    65
 73
     0
 40
0.0
  0
LTYPE
  5
6E
330
5
100
AcDbSymbolTableRecord
100
AcDbLinetypeTableRecord
  2
HIDDEN
 70
     0
  3
Hidden __ __ __ __ __ __ __ __ __ __ __ __ __ __
 72
    65
 73
     2
 40
1.905
 49
1.27
 74
     0
 49
-0.635
 74
     0
  0
LTYPE
  5
6F
330
5
100
AcDbSymbolTableRecord
100
AcDbLinetypeTableRecord
  2
PHANTOM
 70
     0
  3
Phantom ______  __  __  ______  __  __  ______
 72
    65
 73
     6
 40
12.7
 49
6.35
 74
     0
 49
-1.27
 74
     0
 49
1.27
 74
     0
 49
-1.27
 74
     0
 49
1.27
 74
     0
 49
-1.27
 74
     0
  0
LTYPE
  5
70
330
5
100
AcDbSymbolTableRecord
100
AcDbLinetypeTableRecord
  2
CENTER
 70
     0
  3
Center ____ _ ____ _ ____ _ ____ _ ____ _ ____
 72
    65
 73
     4
 40
10.16
 49
6.35
 74
     0
 49
-1.27
 74
     0
 49
1.27
 74
     0
 49
-1.27
 74
     0
  0
LTYPE
  5
71
330
5
100
AcDbSymbolTableRecord
100
AcDbLinetypeTableRecord
  2
CENTERX2
 70
     0
  3
Center (2x) ________  __  ________  __  _____
 72
    65
 73
     4
 40
20.32
 49
12.7
 74
     0
 49
-2.54
 74
     0
 49
2.54
 74
     0
 49
-2.54
 74
     0
  0
LTYPE
  5
72
330
5
100
AcDbSymbolTableRecord
100
AcDbLinetypeTableRecord
  2
DOT2
 70
     0
  3
Dot (.5x) ........................................
 72
    65
 73
     2
 40
0.635
 49
0.0
 74
     0
 49
-0.635
 74
     0
  0
ENDTAB
  0
TABLE
  2
LAYER
  5
2
330
0
100
AcDbSymbolTable
 70
    17
  0
LAYER
  5
10
330
2
100
AcDbSymbolTableRecord
100
AcDbLayerTableRecord
  2
0
 70
     0
 62
     7
  6
Continuous
370
    -3
390
F
  0
LAYER
  5
73
330
2
100
AcDbSymbolTableRecord
100
AcDbLayerTableRecord
  2
FORMAT
 70
     0
 62
     2
  6
Continuous
370
    -3
390
F
  0
LAYER
  5
74
330
2
100
AcDbSymbolTableRecord
100
AcDbLayerTableRecord
  2
외형선
 70
     0
 62
   100
  6
Continuous
370
    35
390
F
  0
LAYER
  5
75
330
2
100
AcDbSymbolTableRecord
100
AcDbLayerTableRecord
  2
숨은선
 70
     0
 62
     2
  6
HIDDEN
370
    25
390
F
  0
LAYER
  5
76
330
2
100
AcDbSymbolTableRecord
100
AcDbLayerTableRecord
  2
중심선
 70
     0
 62
     1
  6
CENTERX2
370
    -3
390
F
  0
LAYER
  5
77
330
2
100
AcDbSymbolTableRecord
100
AcDbLayerTableRecord
  2
파단선
 70
     0
 62
     4
  6
Continuous
370
    -3
390
F
  0
LAYER
  5
78
330
2
100
AcDbSymbolTableRecord
100
AcDbLayerTableRecord
  2
해칭선
 70
     0
 62
     4
  6
Continuous
370
    -3
390
F
  0
LAYER
  5
79
330
2
100
AcDbSymbolTableRecord
100
AcDbLayerTableRecord
  2
가는실선
 70
     0
 62
     4
  6
Continuous
370
    -3
390
F
  0
LAYER
  5
7A
330
2
100
AcDbSymbolTableRecord
100
AcDbLayerTableRecord
  2
치수_보조선
 70
     0
 62
     4
  6
Continuous
370
    -3
390
F
  0
LAYER
  5
7B
330
2
100
AcDbSymbolTableRecord
100
AcDbLayerTableRecord
  2
치수문자_일반주서
 70
     0
 62
     7
  6
Continuous
370
    25
390
F
  0
LAYER
  5
7C
330
2
100
AcDbSymbolTableRecord
100
AcDbLayerTableRecord
  2
개별주서
 70
     0
 62
   100
  6
Continuous
370
    35
390
F
  0
LAYER
  5
7D
330
2
100
AcDbSymbolTableRecord
100
AcDbLayerTableRecord
  2
중간선
 70
     0
 62
     2
  6
Continuous
370
    25
390
F
  0
LAYER
  5
7E
330
2
100
AcDbSymbolTableRecord
100
AcDbLayerTableRecord
  2
윤곽선
 70
     0
 62
     3
  6
Continuous
370
    50
390
F
  0
LAYER
  5
7F
330
2
100
AcDbSymbolTableRecord
100
AcDbLayerTableRecord
  2
중심마크
 70
     0
 62
   100
  6
Continuous
370
    35
390
F
  0
LAYER
  5
80
330
2
100
AcDbSymbolTableRecord
100
AcDbLayerTableRecord
  2
가상선
 70
     0
 62
     4
  6
PHANTOM
370
    -3
390
F
  0
LAYER
  5
81
330
2
100
AcDbSymbolTableRecord
100
AcDbLayerTableRecord
  2
특수지정선
 70
     0
 62
     5
  6
CENTERX2
370
    70
390
F
  0
LAYER
  5
13D
330
2
100
AcDbSymbolTableRecord
100
AcDbLayerTableRecord
  2
Defpoints
 70
     0
 62
     7
  6
Continuous
290
     0
370
    -3
390
F
  0
ENDTAB
  0
TABLE
  2
STYLE
  5
3
330
0
100
AcDbSymbolTable
 70
     2
  0
STYLE
  5
11
330
3
100
AcDbSymbolTableRecord
100
AcDbTextStyleTableRecord
  2
Standard
 70
     0
 40
0.0
 41
1.0
 50
0.0
 71
     0
 42
3.5
  3
txt
  4

  0
STYLE
  5
97
330
3
100
AcDbSymbolTableRecord
100
AcDbTextStyleTableRecord
  2
SLDTEXTSTYLE0
 70
     0
 40
0.0
 41
0.75
 50
0.0
 71
     0
 42
3.5
  3
TXT
  4

  0
ENDTAB
  0
TABLE
  2
VIEW
  5
6
330
0
100
AcDbSymbolTable
 70
     0
  0
ENDTAB
  0
TABLE
  2
UCS
  5
7
330
0
100
AcDbSymbolTable
 70
     0
  0
ENDTAB
  0
TABLE
  2
APPID
  5
9
330
0
100
AcDbSymbolTable
 70
     4
  0
APPID
  5
12
330
9
100
AcDbSymbolTableRecord
100
AcDbRegAppTableRecord
  2
ACAD
 70
     0
  0
APPID
  5
152
330
9
100
AcDbSymbolTableRecord
100
AcDbRegAppTableRecord
  2
ACAD_DSTYLE_DIMRADIAL_EXTENSION
 70
     0
  0
APPID
  5
161
330
9
100
AcDbSymbolTableRecord
100
AcDbRegAppTableRecord
  2
ACAD_DSTYLE_DIMFLIPARROW_SYMBOL
 70
     0
  0
APPID
  5
162
330
9
100
AcDbSymbolTableRecord
100
AcDbRegAppTableRecord
  2
ACAD_DSTYLE_DIMFLIPARROW_WHICH_SYMBOL
 70
     0
  0
ENDTAB
  0
TABLE
  2
DIMSTYLE
  5
A
330
0
100
AcDbSymbolTable
 70
     3
100
AcDbDimStyleTable
  0
DIMSTYLE
105
27
330
A
100
AcDbSymbolTableRecord
100
AcDbDimStyleTableRecord
  2
ISO-25
 70
     0
 41
2.5
 42
0.625
 43
3.75
 44
1.25
 73
     0
 74
     0
 77
     1
 78
     8
140
2.5
141
2.5
143
0.03937007874016
147
0.625
171
     3
172
     1
178
     0
271
     2
272
     2
274
     3
278
    44
283
     0
284
     8
340
11
  0
DIMSTYLE
105
D5
102
{ACAD_REACTORS
330
D4
330
E2
330
F9
330
105
330
153
102
}
330
A
100
AcDbSymbolTableRecord
100
AcDbDimStyleTableRecord
  2
SLDDIMSTYLE0
 70
     0
 41
3.302
 44
0.0
 45
0.000000001
 73
     0
 74
     0
 77
     1
 78
    12
 79
     3
140
3.5
147
0.875
172
     1
173
     1
178
     0
271
     2
272
     2
276
     2
284
    12
289
     0
340
97
  0
DIMSTYLE
105
EF
102
{ACAD_REACTORS
330
EE
102
}
330
A
100
AcDbSymbolTableRecord
100
AcDbDimStyleTableRecord
  2
SLDDIMSTYLE1
 70
     0
 41
3.302
 44
0.0
 45
0.000000001
 73
     0
 74
     0
 77
     1
 78
    12
 79
     3
140
3.5
147
0.875
173
     1
178
     0
271
     2
272
     2
276
     2
284
    12
340
97
  0
ENDTAB
  0
TABLE
  2
BLOCK_RECORD
  5
1
330
0
100
AcDbSymbolTable
 70
     9
  0
BLOCK_RECORD
  5
1F
330
1
100
AcDbSymbolTableRecord
100
AcDbBlockTableRecord
  2
*Model_Space
340
22
  0
BLOCK_RECORD
  5
1B
330
1
100
AcDbSymbolTableRecord
100
AcDbBlockTableRecord
  2
*Paper_Space
340
1E
  0
BLOCK_RECORD
  5
23
330
1
100
AcDbSymbolTableRecord
100
AcDbBlockTableRecord
  2
*Paper_Space0
340
26
  0
BLOCK_RECORD
  5
82
330
1
100
AcDbSymbolTableRecord
100
AcDbBlockTableRecord
  2
블럭10
340
0
102
{BLKREFS
331
CD
102
}
  0
BLOCK_RECORD
  5
D6
330
1
100
AcDbSymbolTableRecord
100
AcDbBlockTableRecord
  2
_D
340
0
  0
BLOCK_RECORD
  5
E3
330
1
100
AcDbSymbolTableRecord
100
AcDbBlockTableRecord
  2
_D_1
340
0
  0
BLOCK_RECORD
  5
F0
330
1
100
AcDbSymbolTableRecord
100
AcDbBlockTableRecord
  2
_D_2
340
0
  0
BLOCK_RECORD
  5
FA
330
1
100
AcDbSymbolTableRecord
100
AcDbBlockTableRecord
  2
_D_3
340
0
  0
BLOCK_RECORD
  5
106
330
1
100
AcDbSymbolTableRecord
100
AcDbBlockTableRecord
  2
_D_4
340
0
  0
BLOCK_RECORD
  5
112
330
1
100
AcDbSymbolTableRecord
100
AcDbBlockTableRecord
  2
SW_DOWELSYMBOL_0
340
0
102
{BLKREFS
331
118
102
}
  0
BLOCK_RECORD
  5
156
330
1
100
AcDbSymbolTableRecord
100
AcDbBlockTableRecord
  2
*D8
340
0
  0
ENDTAB
  0
ENDSEC
  0
SECTION
  2
BLOCKS
  0
BLOCK
  5
20
330
1F
100
AcDbEntity
  8
0
100
AcDbBlockBegin
  2
*Model_Space
 70
     0
 10
0.0
 20
0.0
 30
0.0
  3
*Model_Space
  1
*Model_Space
  0
ENDBLK
  5
21
330
1F
100
AcDbEntity
  8
0
100
AcDbBlockEnd
  0
BLOCK
  5
1C
330
1B
100
AcDbEntity
 67
     1
  8
0
100
AcDbBlockBegin
  2
*Paper_Space
 70
     0
 10
0.0
 20
0.0
 30
0.0
  3
*Paper_Space
  1
*Paper_Space
  0
ENDBLK
  5
1D
330
1B
100
AcDbEntity
 67
     1
  8
0
100
AcDbBlockEnd
  0
BLOCK
  5
24
330
23
100
AcDbEntity
  8
0
100
AcDbBlockBegin
  2
*Paper_Space0
 70
     0
 10
0.0
 20
0.0
 30
0.0
  3
*Paper_Space0
  1
*Paper_Space0
  0
ENDBLK
  5
25
330
23
100
AcDbEntity
  8
0
100
AcDbBlockEnd
  0
BLOCK
  5
83
330
82
100
AcDbEntity
  8
0
100
AcDbBlockBegin
  2
블럭10
 70
     2
 10
0.0
 20
0.0
 30
0.0
  3
블럭10
  1
블럭10
  0
ELLIPSE
  5
85
330
82
100
AcDbEntity
  8
중심선
100
AcDbEllipse
 10
20.54032771741204
 20
12.0471743016438
 30
0.0
 11
6.600054785286829
 21
-1.261213355974178E-13
 31
0.0
210
0.0
220
0.0
230
1.0
 40
0.636358354079598
 41
0.9219305317359503
 42
6.513795318482858
  0
ELLIPSE
  5
86
330
82
100
AcDbEntity
  8
중심선
100
AcDbEllipse
 10
20.54032771746488
 20
12.04717430159265
 30
0.0
 11
3.960054785062283
 21
1.540847449632565E-10
 31
0.0
210
0.0
220
0.0
230
1.0
 40
0.3939339440162632
 41
1.131841032648279
 42
5.62031148352944
  0
LINE
  5
87
330
82
100
AcDbEntity
  8
중심선
100
AcDbLine
 10
2.268634060543552
 20
16.24717430164393
 30
0.0
 11
5.714909304380834
 21
16.24717430164393
 31
0.0
  0
LINE
  5
88
330
82
100
AcDbEntity
  8
중심선
100
AcDbLine
 10
5.245725140726316
 20
7.84717430164391
 30
0.0
 11
8.692000384563599
 21
7.84717430164391
 31
0.0
  0
LINE
  5
89
330
82
100
AcDbEntity
  8
중심선
100
AcDbLine
 10
15.74043728645272
 20
16.24717430164393
 30
0.0
 11
8.692000384563599
 21
7.84717430164391
 31
0.0
  0
LINE
  5
8A
330
82
100
AcDbEntity
  8
중심선
100
AcDbLine
 10
0.1404042013395286
 20
13.71084872107135
 30
0.0
 11
3.58671253028996
 21
13.71088815037384
 31
0.0
  0
LINE
  5
8B
330
82
100
AcDbEntity
  8
중심선
100
AcDbLine
 10
2.750260043222114
 20
10.84717430164391
 30
0.0
 11
6.196535287059397
 21
10.84717430164391
 31
0.0
  0
LINE
  5
8C
330
82
100
AcDbEntity
  8
중심선
100
AcDbLine
 10
12.29416204261559
 20
16.24717430164393
 30
0.0
 11
5.245725140726316
 21
7.84717430164391
 31
0.0
  0
LINE
  5
8D
330
82
100
AcDbEntity
  8
중심선
100
AcDbLine
 10
10.72767329541681
 20
16.24717430164393
 30
0.0
 11
6.196535287059397
 21
10.84717430164391
 31
0.0
  0
LINE
  5
8E
330
82
100
AcDbEntity
  8
중심선
100
AcDbLine
 10
7.28139805157953
 20
16.24717430164393
 30
0.0
 11
2.750260043222114
 21
10.84717430164391
 31
0.0
  0
LINE
  5
8F
330
82
100
AcDbEntity
  8
중심선
100
AcDbLine
 10
5.714909304380834
 20
16.24717430164393
 30
0.0
 11
3.58671253028996
 21
13.71088815037384
 31
0.0
  0
LINE
  5
90
330
82
100
AcDbEntity
  8
중심선
100
AcDbLine
 10
2.268634060543552
 20
16.24717430164393
 30
0.0
 11
0.1404042013395286
 21
13.71084872107135
 31
0.0
  0
LINE
  5
91
330
82
100
AcDbEntity
  8
중심선
100
AcDbLine
 10
7.28139805157953
 20
16.24717430164393
 30
0.0
 11
10.72767329541681
 21
16.24717430164393
 31
0.0
  0
LINE
  5
92
330
82
100
AcDbEntity
  8
중심선
100
AcDbLine
 10
12.29416204261559
 20
16.24717430164393
 30
0.0
 11
15.74043728645272
 21
16.24717430164393
 31
0.0
  0
LINE
  5
93
330
82
100
AcDbEntity
  8
중심선
100
AcDbLine
 10
19.22036997980202
 20
11.08717430171403
 30
0.0
 11
23.66174974927406
 21
11.08717430171406
 31
0.0
  0
LINE
  5
94
330
82
100
AcDbEntity
  8
중심선
100
AcDbLine
 10
19.22039502424796
 20
13.00717430171391
 30
0.0
 11
19.22036997980202
 21
11.08717430171403
 31
0.0
  0
LINE
  5
95
330
82
100
AcDbEntity
  8
중심선
100
AcDbLine
 10
19.22039502424796
 20
13.00717430171391
 30
0.0
 11
26.96566020931264
 21
13.00717430171391
 31
0.0
  0
LINE
  5
96
330
82
100
AcDbEntity
  8
중심선
100
AcDbLine
 10
22.22332737316547
 20
13.45928029700563
 30
0.0
 11
24.52862924686651
 21
15.39360700705356
 31
0.0
  0
ATTDEF
  5
98
330
82
100
AcDbEntity
  8
FORMAT
 62
     2
100
AcDbText
 10
-19.27858288401334
 20
2.075366912832191
 30
0.0
 40
4.233333333333333
  1
SEME610400140E [ 2 FLUTE ]
 41
0.75
  7
SLDTEXTSTYLE0
 11
-19.27858288401334
 21
-0.0412997538344756
 31
0.0
100
AcDbAttributeDefinition
  3

  2
AUTOATTR0
 70
     0
 74
     1
  0
ENDBLK
  5
84
330
82
100
AcDbEntity
  8
0
100
AcDbBlockEnd
  0
BLOCK
  5
D7
330
D6
100
AcDbEntity
  8
0
100
AcDbBlockBegin
  2
_D
 70
     0
 10
0.0
 20
0.0
 30
0.0
  3
_D
  1
_D
  0
LINE
  5
D9
330
D6
100
AcDbEntity
  8
치수문자_일반주서
 62
     0
370
    -2
100
AcDbLine
 10
-33.05054538186348
 20
2.999999999999997
 30
0.0
 11
-45.48450340347556
 21
2.999999999999951
 31
0.0
  0
LINE
  5
DA
330
D6
100
AcDbEntity
  8
치수문자_일반주서
 62
     0
370
    -2
100
AcDbLine
 10
-33.05054538186348
 20
-3.0
 30
0.0
 11
-45.48450340347554
 21
-3.000000000000046
 31
0.0
  0
LINE
  5
DB
330
D6
100
AcDbEntity
  8
치수문자_일반주서
 62
     0
370
    -2
100
AcDbLine
 10
-45.48450340347554
 20
-0.3020000000000489
 30
0.0
 11
-45.48450340347555
 21
0.3019999999999534
 31
0.0
  0
SOLID
  5
DC
330
D6
100
AcDbEntity
  8
치수문자_일반주서
 62
     0
100
AcDbTrace
 10
-44.93417007014221
 20
-0.302000000000047
 30
0.0
 11
-46.03483673680888
 21
-0.3020000000000508
 31
0.0
 12
-45.48450340347556
 22
2.999999999999951
 32
0.0
 13
-45.48450340347556
 23
2.999999999999951
 33
0.0
  0
SOLID
  5
DD
330
D6
100
AcDbEntity
  8
치수문자_일반주서
 62
     0
100
AcDbTrace
 10
-46.03483673680888
 20
0.3019999999999515
 30
0.0
 11
-44.93417007014222
 21
0.3019999999999554
 31
0.0
 12
-45.48450340347554
 22
-3.000000000000046
 32
0.0
 13
-45.48450340347554
 23
-3.000000000000046
 33
0.0
  0
MTEXT
  5
DE
330
D6
100
AcDbEntity
  8
치수문자_일반주서
 62
     0
100
AcDbMText
 10
-49.85950340347555
 20
-0.0000000000000161
 30
0.0
 40
3.5
 41
0.0
 71
     2
 72
     1
  1
\A1;%%c6
  7
SLDTEXTSTYLE0
 11
-3.552713678800503E-15
 21
1.0
 31
0.0
 73
     1
 44
1.0
  0
POINT
  5
DF
330
D6
100
AcDbEntity
  8
Defpoints
 62
     0
100
AcDbPoint
 10
-32.98804538186348
 20
2.999999999999998
 30
0.0
  0
POINT
  5
E0
330
D6
100
AcDbEntity
  8
Defpoints
 62
     0
100
AcDbPoint
 10
-32.98804538186348
 20
-2.999999999999999
 30
0.0
  0
POINT
  5
E1
330
D6
100
AcDbEntity
  8
Defpoints
 62
     0
100
AcDbPoint
 10
-45.48450340347555
 20
-3.000000000000046
 30
0.0
  0
ENDBLK
  5
D8
330
D6
100
AcDbEntity
  8
0
100
AcDbBlockEnd
  0
BLOCK
  5
E4
330
E3
100
AcDbEntity
  8
0
100
AcDbBlockBegin
  2
_D_1
 70
     0
 10
0.0
 20
0.0
 30
0.0
  3
_D_1
  1
_D_1
  0
LINE
  5
E6
330
E3
100
AcDbEntity
  8
치수문자_일반주서
 62
     0
370
    -2
100
AcDbLine
 10
46.01195461813654
 20
1.962500000000003
 30
0.0
 11
46.01195461813654
 21
20.39999999999966
 31
0.0
  0
LINE
  5
E7
330
E3
100
AcDbEntity
  8
치수문자_일반주서
 62
     0
370
    -2
100
AcDbLine
 10
40.01195461813653
 20
1.644014153956217
 30
0.0
 11
40.01195461813653
 21
20.39999999999966
 31
0.0
  0
LINE
  5
E8
330
E3
100
AcDbEntity
  8
치수문자_일반주서
 62
     0
370
    -2
100
AcDbLine
 10
42.70995461813654
 20
20.39999999999966
 30
0.0
 11
43.31395461813653
 21
20.39999999999966
 31
0.0
  0
SOLID
  5
E9
330
E3
100
AcDbEntity
  8
치수문자_일반주서
 62
     0
100
AcDbTrace
 10
42.70995461813654
 20
19.84966666666632
 30
0.0
 11
42.70995461813654
 21
20.95033333333299
 31
0.0
 12
46.01195461813654
 22
20.39999999999966
 32
0.0
 13
46.01195461813654
 23
20.39999999999966
 33
0.0
  0
SOLID
  5
EA
330
E3
100
AcDbEntity
  8
치수문자_일반주서
 62
     0
100
AcDbTrace
 10
43.31395461813653
 20
20.95033333333299
 30
0.0
 11
43.31395461813653
 21
19.84966666666632
 31
0.0
 12
40.01195461813653
 22
20.39999999999966
 32
0.0
 13
40.01195461813653
 23
20.39999999999966
 33
0.0
  0
MTEXT
  5
EB
330
E3
100
AcDbEntity
  8
치수문자_일반주서
 62
     0
100
AcDbMText
 10
43.01195461813653
 20
24.77499999999966
 30
0.0
 40
3.5
 41
0.0
 71
     2
 72
     1
  1
\A1;6
  7
SLDTEXTSTYLE0
 73
     1
 44
1.0
  0
POINT
  5
EC
330
E3
100
AcDbEntity
  8
Defpoints
 62
     0
100
AcDbPoint
 10
46.01195461813654
 20
1.900000000000003
 30
0.0
  0
POINT
  5
ED
330
E3
100
AcDbEntity
  8
Defpoints
 62
     0
100
AcDbPoint
 10
40.01195461813653
 20
1.581514153956217
 30
0.0
  0
POINT
  5
13E
330
E3
100
AcDbEntity
  8
Defpoints
 62
     0
100
AcDbPoint
 10
40.01195461813653
 20
20.39999999999966
 30
0.0
  0
ENDBLK
  5
E5
330
E3
100
AcDbEntity
  8
0
100
AcDbBlockEnd
  0
BLOCK
  5
F1
330
F0
100
AcDbEntity
  8
0
100
AcDbBlockBegin
  2
_D_2
 70
     0
 10
0.0
 20
0.0
 30
0.0
  3
_D_2
  1
_D_2
  0
LINE
  5
F3
330
F0
100
AcDbEntity
  8
치수문자_일반주서
 62
     0
370
    -2
100
AcDbLine
 10
46.01195461813654
 20
1.962500000000003
 30
0.0
 11
46.01195461813654
 21
42.45832450504429
 31
0.0
  0
LINE
  5
F4
330
F0
100
AcDbEntity
  8
치수문자_일반주서
 62
     0
370
    -2
100
AcDbLine
 10
-33.98804538186348
 20
2.062499999999997
 30
0.0
 11
-33.98804538186348
 21
42.45832450504429
 31
0.0
  0
LINE
  5
F5
330
F0
100
AcDbEntity
  8
치수문자_일반주서
 62
     0
370
    -2
100
AcDbLine
 10
42.70995461813654
 20
42.45832450504429
 30
0.0
 11
-30.68604538186348
 21
42.45832450504429
 31
0.0
  0
SOLID
  5
F6
330
F0
100
AcDbEntity
  8
치수문자_일반주서
 62
     0
100
AcDbTrace
 10
42.70995461813654
 20
41.90799117171095
 30
0.0
 11
42.70995461813654
 21
43.00865783837762
 31
0.0
 12
46.01195461813654
 22
42.45832450504429
 32
0.0
 13
46.01195461813654
 23
42.45832450504429
 33
0.0
  0
SOLID
  5
F7
330
F0
100
AcDbEntity
  8
치수문자_일반주서
 62
     0
100
AcDbTrace
 10
-30.68604538186348
 20
43.00865783837762
 30
0.0
 11
-30.68604538186348
 21
41.90799117171095
 31
0.0
 12
-33.98804538186348
 22
42.45832450504429
 32
0.0
 13
-33.98804538186348
 23
42.45832450504429
 33
0.0
  0
MTEXT
  5
F8
330
F0
100
AcDbEntity
  8
치수문자_일반주서
 62
     0
100
AcDbMText
 10
6.011954618136521
 20
46.83332450504429
 30
0.0
 40
3.5
 41
0.0
 71
     2
 72
     1
  1
\A1;80
  7
SLDTEXTSTYLE0
 73
     1
 44
1.0
  0
POINT
  5
149
330
F0
100
AcDbEntity
  8
Defpoints
 62
     0
100
AcDbPoint
 10
46.01195461813654
 20
1.900000000000003
 30
0.0
  0
POINT
  5
14A
330
F0
100
AcDbEntity
  8
Defpoints
 62
     0
100
AcDbPoint
 10
-33.98804538186348
 20
1.999999999999997
 30
0.0
  0
POINT
  5
14B
330
F0
100
AcDbEntity
  8
Defpoints
 62
     0
100
AcDbPoint
 10
-33.98804538186348
 20
42.45832450504429
 30
0.0
  0
ENDBLK
  5
F2
330
F0
100
AcDbEntity
  8
0
100
AcDbBlockEnd
  0
BLOCK
  5
FB
330
FA
100
AcDbEntity
  8
0
100
AcDbBlockBegin
  2
_D_3
 70
     0
 10
0.0
 20
0.0
 30
0.0
  3
_D_3
  1
_D_3
  0
LINE
  5
FD
330
FA
100
AcDbEntity
  8
치수문자_일반주서
 62
     0
370
    -2
100
AcDbLine
 10
46.01195461813654
 20
1.894355556492052
 30
0.0
 11
46.01195461813654
 21
30.31999999999866
 31
0.0
  0
LINE
  5
FE
330
FA
100
AcDbEntity
  8
치수문자_일반주서
 62
     0
370
    -2
100
AcDbLine
 10
6.011954618136523
 20
1.987500000000001
 30
0.0
 11
6.011954618136521
 21
30.31999999999866
 31
0.0
  0
LINE
  5
FF
330
FA
100
AcDbEntity
  8
치수문자_일반주서
 62
     0
370
    -2
100
AcDbLine
 10
42.70995461813654
 20
30.31999999999866
 30
0.0
 11
9.31395461813652
 21
30.31999999999866
 31
0.0
  0
SOLID
  5
100
330
FA
100
AcDbEntity
  8
치수문자_일반주서
 62
     0
100
AcDbTrace
 10
42.70995461813654
 20
29.76966666666532
 30
0.0
 11
42.70995461813654
 21
30.87033333333199
 31
0.0
 12
46.01195461813654
 22
30.31999999999866
 32
0.0
 13
46.01195461813654
 23
30.31999999999866
 33
0.0
  0
SOLID
  5
101
330
FA
100
AcDbEntity
  8
치수문자_일반주서
 62
     0
100
AcDbTrace
 10
9.31395461813652
 20
30.87033333333199
 30
0.0
 11
9.31395461813652
 21
29.76966666666532
 31
0.0
 12
6.011954618136521
 22
30.31999999999866
 32
0.0
 13
6.011954618136521
 23
30.31999999999866
 33
0.0
  0
MTEXT
  5
102
330
FA
100
AcDbEntity
  8
치수문자_일반주서
 62
     0
100
AcDbMText
 10
26.01195461813654
 20
34.69499999999866
 30
0.0
 40
3.5
 41
0.0
 71
     2
 72
     1
  1
\A1;40
  7
SLDTEXTSTYLE0
 73
     1
 44
1.0
  0
POINT
  5
103
330
FA
100
AcDbEntity
  8
Defpoints
 62
     0
100
AcDbPoint
 10
46.01195461813654
 20
1.831855556492052
 30
0.0
  0
POINT
  5
104
330
FA
100
AcDbEntity
  8
Defpoints
 62
     0
100
AcDbPoint
 10
6.011954618136523
 20
1.925000000000001
 30
0.0
  0
POINT
  5
13F
330
FA
100
AcDbEntity
  8
Defpoints
 62
     0
100
AcDbPoint
 10
6.011954618136523
 20
30.31999999999866
 30
0.0
  0
ENDBLK
  5
FC
330
FA
100
AcDbEntity
  8
0
100
AcDbBlockEnd
  0
BLOCK
  5
107
330
106
100
AcDbEntity
  8
0
100
AcDbBlockBegin
  2
_D_4
 70
     0
 10
0.0
 20
0.0
 30
0.0
  3
_D_4
  1
_D_4
  0
LINE
  5
109
330
106
100
AcDbEntity
  8
치수문자_일반주서
 62
     0
370
    -2
100
AcDbLine
 10
46.07445461813654
 20
2.000440277045268
 30
0.0
 11
63.29343711688171
 21
2.000440277045332
 31
0.0
  0
LINE
  5
10A
330
106
100
AcDbEntity
  8
치수문자_일반주서
 62
     0
370
    -2
100
AcDbLine
 10
45.97445461813653
 20
-1.995079370482126
 30
0.0
 11
63.29343711688173
 21
-1.995079370482062
 31
0.0
  0
LINE
  5
10B
330
106
100
AcDbEntity
  8
치수문자_일반주서
 62
     0
370
    -2
100
AcDbLine
 10
63.29343711688171
 20
2.000440277045332
 30
0.0
 11
63.29343711688166
 21
14.72944027704533
 31
0.0
  0
LINE
  5
10C
330
106
100
AcDbEntity
  8
치수문자_일반주서
 62
     0
370
    -2
100
AcDbLine
 10
63.29343711688173
 20
-1.301559722954668
 30
0.0
 11
63.29343711688171
 21
1.306920629517938
 31
0.0
  0
SOLID
  5
10D
330
106
100
AcDbEntity
  8
치수문자_일반주서
 62
     0
100
AcDbTrace
 10
63.84377045021506
 20
-1.301559722954666
 30
0.0
 11
62.74310378354839
 21
-1.30155972295467
 31
0.0
 12
63.29343711688171
 22
2.000440277045332
 32
0.0
 13
63.29343711688171
 23
2.000440277045332
 33
0.0
  0
SOLID
  5
10E
330
106
100
AcDbEntity
  8
치수문자_일반주서
 62
     0
100
AcDbTrace
 10
62.74310378354838
 20
1.306920629517936
 30
0.0
 11
63.84377045021505
 21
1.30692062951794
 31
0.0
 12
63.29343711688173
 22
-1.995079370482062
 32
0.0
 13
63.29343711688173
 23
-1.995079370482062
 33
0.0
  0
MTEXT
  5
10F
330
106
100
AcDbEntity
  8
치수문자_일반주서
 62
     0
100
AcDbMText
 10
58.91843711688168
 20
11.66694027704532
 30
0.0
 40
3.5
 41
0.0
 71
     2
 72
     1
  1
\A1;%%c4
  7
SLDTEXTSTYLE0
 11
-3.556697493402721E-15
 21
1.0
 31
0.0
 73
     1
 44
1.0
  0
POINT
  5
110
330
106
100
AcDbEntity
  8
Defpoints
 62
     0
100
AcDbPoint
 10
46.01195461813654
 20
2.000440277045268
 30
0.0
  0
POINT
  5
111
330
106
100
AcDbEntity
  8
Defpoints
 62
     0
100
AcDbPoint
 10
45.91195461813653
 20
-1.995079370482126
 30
0.0
  0
POINT
  5
147
330
106
100
AcDbEntity
  8
Defpoints
 62
     0
100
AcDbPoint
 10
63.29343711688172
 20
-1.995079370482061
 30
0.0
  0
ENDBLK
  5
108
330
106
100
AcDbEntity
  8
0
100
AcDbBlockEnd
  0
BLOCK
  5
113
330
112
100
AcDbEntity
  8
0
100
AcDbBlockBegin
  2
SW_DOWELSYMBOL_0
 70
     0
 10
0.0
 20
0.0
 30
0.0
  3
SW_DOWELSYMBOL_0
  1
SW_DOWELSYMBOL_0
  0
CIRCLE
  5
115
330
112
100
AcDbEntity
  8
외형선
 62
     0
100
AcDbCircle
 10
0.0
 20
0.0
 30
0.0
 40
3.000000000000004
  0
HATCH
  5
116
330
112
100
AcDbEntity
  8
0
  6
Continuous
 62
     0
370
    35
100
AcDbHatch
 10
0.0
 20
0.0
 30
0.0
210
0.0
220
0.0
230
1.0
  2
SOLID
 70
     1
 71
     0
 91
        1
 92
        0
 93
        3
 72
     2
 10
0.0000000000000104
 20
0.0
 40
3.000000000000004
 50
0.0
 51
90.0
 73
     1
 72
     1
 10
0.0000000000000104
 20
3.000000000000004
 11
0.0000000000000104
 21
0.0
 72
     1
 10
0.0000000000000104
 20
0.0
 11
3.000000000000015
 21
0.0
 97
        0
 75
     0
 76
     1
 98
        1
 10
0.0
 20
0.0
  0
HATCH
  5
117
330
112
100
AcDbEntity
  8
0
  6
Continuous
 62
     0
370
    35
100
AcDbHatch
 10
0.0
 20
0.0
 30
0.0
210
0.0
220
0.0
230
1.0
  2
SOLID
 70
     1
 71
     0
 91
        1
 92
        0
 93
        3
 72
     2
 10
0.0000000000000104
 20
0.0
 40
3.000000000000004
 50
180.0
 51
270.0000000000008
 73
     1
 72
     1
 10
0.0000000000000104
 20
-3.000000000000004
 11
0.0000000000000104
 21
0.0
 72
     1
 10
0.0000000000000104
 20
0.0
 11
-2.999999999999994
 21
0.0
 97
        0
 75
     0
 76
     1
 98
        1
 10
0.0
 20
0.0
  0
ENDBLK
  5
114
330
112
100
AcDbEntity
  8
0
100
AcDbBlockEnd
  0
BLOCK
  5
157
330
156
100
AcDbEntity
  8
0
100
AcDbBlockBegin
  2
*D8
 70
     1
 10
0.0
 20
0.0
 30
0.0
  3
*D8
  1
*D8
  0
LINE
  5
159
330
156
100
AcDbEntity
  8
치수문자_일반주서
 62
     0
370
    -2
100
AcDbLine
 10
48.46711604863196
 20
-4.141132367209634
 30
0.0
 11
65.5646543783086
 21
-19.17031085421749
 31
0.0
  0
MTEXT
  5
15A
330
156
100
AcDbEntity
  8
치수문자_일반주서
 62
     0
100
AcDbMText
 10
64.17605926393858
 20
-14.45471516853284
 30
0.0
 40
3.5
 41
0.0
 71
     5
 72
     1
  1
\A1;R0.1
  7
SLDTEXTSTYLE0
 11
0.7510762582291031
 21
-0.6602154605313101
 31
0.0
 73
     1
 44
1.0
  0
LINE
  5
15B
330
156
100
AcDbEntity
  8
치수문자_일반주서
 62
     0
370
    -2
100
AcDbLine
 10
45.91195461813655
 20
-1.895079370482118
 30
0.0
 11
45.98706224395946
 21
-1.961100916535248
 31
0.0
  0
SOLID
  5
15C
330
156
100
AcDbEntity
  8
치수문자_일반주서
 62
     0
100
AcDbTrace
 10
48.83045462374436
 20
-3.727790066430885
 30
0.0
 11
48.10377747351956
 21
-4.554474667988384
 31
0.0
 12
45.98706224395946
 22
-1.961100916535248
 32
0.0
 13
45.98706224395946
 23
-1.961100916535248
 33
0.0
  0
POINT
  5
15D
330
156
100
AcDbEntity
  8
Defpoints
 62
     0
100
AcDbPoint
 10
45.98706224395946
 20
-1.961100916535248
 30
0.0
  0
POINT
  5
15E
330
156
100
AcDbEntity
  8
Defpoints
 62
     0
100
AcDbPoint
 10
45.91195461813655
 20
-1.895079370482118
 30
0.0
  0
ENDBLK
  5
158
330
156
100
AcDbEntity
  8
0
100
AcDbBlockEnd
  0
ENDSEC
  0
SECTION
  2
ENTITIES
  0
LINE
  5
99
330
1F
100
AcDbEntity
  8
0
  6
Continuous
 62
     4
370
    25
100
AcDbLine
 10
1.999999999999989
 20
3.000000000000001
 30
0.0
 11
-32.98804538186348
 21
2.999999999999999
 31
0.0
  0
LINE
  5
9A
330
1F
100
AcDbEntity
  8
0
  6
Continuous
 62
     4
370
    25
100
AcDbLine
 10
-32.98804538186348
 20
-3.0
 30
0.0
 11
1.999999999999989
 21
-2.999999999999998
 31
0.0
  0
LINE
  5
9B
330
1F
100
AcDbEntity
  8
0
  6
Continuous
 62
     4
370
    25
100
AcDbLine
 10
1.999999999999989
 20
-2.999999999999999
 30
0.0
 11
6.011954618136523
 21
-1.924999999999998
 31
0.0
  0
LINE
  5
9C
330
1F
100
AcDbEntity
  8
0
  6
Continuous
 62
     4
370
    25
100
AcDbLine
 10
6.011954618136523
 20
1.925000000000002
 30
0.0
 11
1.999999999999989
 21
3.000000000000002
 31
0.0
  0
LINE
  5
9D
330
1F
100
AcDbEntity
  8
0
  6
Continuous
 62
     4
370
    25
100
AcDbLine
 10
-32.98804538186348
 20
2.999999999999998
 30
0.0
 11
-33.98804538186348
 21
1.999999999999996
 31
0.0
  0
LINE
  5
9E
330
1F
100
AcDbEntity
  8
0
  6
Continuous
 62
     4
370
    25
100
AcDbLine
 10
-33.98804538186348
 20
-1.999999999999998
 30
0.0
 11
-32.98804538186348
 21
-2.999999999999999
 31
0.0
  0
LINE
  5
9F
330
1F
100
AcDbEntity
  8
0
  6
Continuous
 62
     4
370
    25
100
AcDbLine
 10
36.96205447237261
 20
1.925000000000003
 30
0.0
 11
6.011954618136523
 21
1.925000000000001
 31
0.0
  0
LINE
  5
A0
330
1F
100
AcDbEntity
  8
0
  6
Continuous
 62
     4
370
    25
100
AcDbLine
 10
6.011954618136523
 20
-1.924999999999997
 30
0.0
 11
36.96205447237261
 21
-1.924999999999995
 31
0.0
  0
SPLINE
  5
A1
330
1F
100
AcDbEntity
  8
0
  6
Continuous
 62
     4
370
    25
100
AcDbSpline
210
0.0
220
0.0
230
1.0
 70
     8
 71
     3
 72
    13
 73
     9
 74
     0
 42
0.000000001
 43
0.00000001
 40
0.0
 40
0.0
 40
0.0
 40
0.0
 40
0.2694101355825509
 40
0.449572363884199
 40
0.5714238487852502
 40
0.6986245796496952
 40
0.8298948124500796
 40
1.0
 40
1.0
 40
1.0
 40
1.0
 10
40.01195461813654
 20
1.580702654398451
 30
0.0
 10
39.8653922033881
 20
1.575312148127369
 30
0.0
 10
39.62081932897657
 20
1.566316856834475
 30
0.0
 10
39.31081158822353
 20
1.562076196094054
 30
0.0
 10
39.08066136647163
 20
1.561641376452674
 30
0.0
 10
38.87635485896691
 20
1.563622345020216
 30
0.0
 10
38.64623934167759
 20
1.567634720408763
 30
0.0
 10
38.48450434212739
 20
1.574739692242789
 30
0.0
 10
38.39321633197748
 20
1.578749948171951
 30
0.0
  0
SPLINE
  5
A2
330
1F
100
AcDbEntity
  8
0
  6
Continuous
 62
     4
370
    25
100
AcDbSpline
210
0.0
220
0.0
230
1.0
 70
     8
 71
     3
 72
    17
 73
    13
 74
     0
 42
0.000000001
 43
0.00000001
 40
0.0
 40
0.0
 40
0.0
 40
0.0
 40
0.1556618534073042
 40
0.2531932895394993
 40
0.3278430796589952
 40
0.403320815222668
 40
0.4788208311952813
 40
0.5539183758962632
 40
0.6219977372552326
 40
0.6963716813471902
 40
0.8208664362035862
 40
0.9999999999999999
 40
0.9999999999999999
 40
0.9999999999999999
 40
0.9999999999999999
 10
37.24056273700673
 20
-1.655951866671174
 30
0.0
 10
37.38159584134596
 20
-1.643264919932869
 30
0.0
 10
37.61099459794551
 20
-1.622628844307592
 30
0.0
 10
37.91144973891265
 20
-1.60188024559928
 30
0.0
 10
38.14074917399875
 20
-1.588508025518883
 30
0.0
 10
38.34912774901076
 20
-1.578547668502981
 30
0.0
 10
38.55789204432625
 20
-1.570797669351269
 30
0.0
 10
38.76001813012594
 20
-1.565594789478541
 30
0.0
 10
38.96093358567666
 20
-1.562503148875351
 30
0.0
 10
39.20831981701634
 20
-1.561334676188392
 30
0.0
 10
39.56084177023446
 20
-1.564323797810956
 30
0.0
 10
39.84456474114568
 20
-1.574625117919088
 30
0.0
 10
40.01195461813654
 20
-1.580702654398443
 30
0.0
  0
LINE
  5
A3
330
1F
100
AcDbEntity
  8
0
  6
Continuous
 62
     1
370
    25
100
AcDbLine
 10
40.82923279655964
 20
0.5126449810253741
 30
0.0
 11
40.27637720944296
 21
0.790043774146404
 31
0.0
  0
LINE
  5
A4
330
1F
100
AcDbEntity
  8
0
  6
Continuous
 62
     1
370
    25
100
AcDbLine
 10
40.16973613558661
 20
1.589272224656513
 30
0.0
 11
40.01177382770782
 21
1.582600518897232
 31
0.0
  0
SPLINE
  5
A5
330
1F
100
AcDbEntity
  8
0
  6
Continuous
 62
     1
370
    25
100
AcDbSpline
210
0.0
220
0.0
230
1.0
 70
     8
 71
     3
 72
    18
 73
    14
 74
     0
 42
0.000000001
 43
0.00000001
 40
0.0
 40
0.0
 40
0.0
 40
0.0
 40
0.1355385977489577
 40
0.2281446029049149
 40
0.2856534023553124
 40
0.3399630644734567
 40
0.3940334836648047
 40
0.4478526504068716
 40
0.6081564392114137
 40
0.6517596426152502
 40
0.7291280267104312
 40
0.8452262443277562
 40
0.9999999999999999
 40
0.9999999999999999
 40
0.9999999999999999
 40
0.9999999999999999
 10
45.30254079361113
 20
1.370795833430527
 30
0.0
 10
45.14230044416749
 20
1.358128059007347
 30
0.0
 10
44.87257675290667
 20
1.336805097035892
 30
0.0
 10
44.53595253815243
 20
1.32303689533331
 30
0.0
 10
44.2949052893301
 20
1.3173984685879
 30
0.0
 10
44.09968116011783
 20
1.315711071420663
 30
0.0
 10
43.90919815113315
 20
1.316716661443383
 30
0.0
 10
43.59470732744087
 20
1.322867942266125
 30
0.0
 10
43.29175780073228
 20
1.337080663451159
 30
0.0
 10
42.96150242837339
 20
1.360940318429853
 30
0.0
 10
42.68399335012227
 20
1.3854753040262
 30
0.0
 10
42.27537245331701
 20
1.430070247281631
 30
0.0
 10
41.95621370697701
 20
1.477329872532562
 30
0.0
 10
41.77384933303757
 20
1.504333587988683
 30
0.0
  0
SPLINE
  5
A6
330
1F
100
AcDbEntity
  8
0
  6
Continuous
 62
     1
370
    25
100
AcDbSpline
210
0.0
220
0.0
230
1.0
 70
     8
 71
     3
 72
    13
 73
     9
 74
     0
 42
0.000000001
 43
0.00000001
 40
0.0
 40
0.0
 40
0.0
 40
0.0
 40
0.3043391523679538
 40
0.5226859093220954
 40
0.6652405843010951
 40
0.8029053643450236
 40
0.9471199387529113
 40
1.0
 40
1.0
 40
1.0
 40
1.0
 10
41.77384933303757
 20
-1.504333587988674
 30
0.0
 10
41.92534083876102
 20
-1.481636247211335
 30
0.0
 10
42.18551924435734
 20
-1.442654801310962
 30
0.0
 10
42.51579235888236
 20
-1.403829380743366
 30
0.0
 10
42.76318252677677
 20
-1.378400211734937
 30
0.0
 10
42.97384997018804
 20
-1.360123661627857
 30
0.0
 10
43.14020193559877
 20
-1.347591650062622
 30
0.0
 10
43.23813750846433
 20
-1.342184990389833
 30
0.0
 10
43.26441340924767
 20
-1.340734395381556
 30
0.0
  0
LINE
  5
A7
330
1F
100
AcDbEntity
  8
0
  6
Continuous
 62
     4
370
    25
100
AcDbLine
 10
40.01164732171701
 20
-1.582595175782409
 30
0.0
 11
40.16973613558661
 21
-1.589272224656505
 31
0.0
  0
LINE
  5
A8
330
1F
100
AcDbEntity
  8
0
  6
Continuous
 62
     4
370
    25
100
AcDbLine
 10
1.999999999999989
 20
3.000000000000002
 30
0.0
 11
1.999999999999989
 21
-3.000000000000002
 31
0.0
  0
LINE
  5
A9
330
1F
100
AcDbEntity
  8
0
  6
Continuous
 62
     4
370
    25
100
AcDbLine
 10
-32.98804538186348
 20
2.999999999999998
 30
0.0
 11
-32.98804538186348
 21
-3.000000000000002
 31
0.0
  0
LINE
  5
AA
330
1F
100
AcDbEntity
  8
0
  6
Continuous
 62
     4
370
    25
100
AcDbLine
 10
6.011954618136523
 20
1.925000000000002
 30
0.0
 11
6.011954618136523
 21
-1.924999999999998
 31
0.0
  0
LINE
  5
AB
330
1F
100
AcDbEntity
  8
0
  6
Continuous
 62
     4
370
    25
100
AcDbLine
 10
-33.98804538186348
 20
1.999999999999997
 30
0.0
 11
-33.98804538186348
 21
-1.999999999999998
 31
0.0
  0
SPLINE
  5
AC
330
1F
100
AcDbEntity
  8
0
  6
Continuous
 62
     4
370
    25
100
AcDbSpline
210
0.0
220
0.0
230
1.0
 70
     8
 71
     3
 72
    18
 73
    14
 74
     0
 42
0.000000001
 43
0.00000001
 40
0.0
 40
0.0
 40
0.0
 40
0.0
 40
0.1250000000000013
 40
0.1250000000000013
 40
0.2500000000000026
 40
0.2500000000000026
 40
0.5
 40
0.5
 40
0.6250000000000013
 40
0.6250000000000013
 40
0.7500000000000026
 40
0.7500000000000026
 40
1.0
 40
1.0
 40
1.0
 40
1.0
 10
40.01195461813653
 20
0.919592691538262
 30
0.0
 10
39.8840458334292
 20
0.9817807690986637
 30
0.0
 10
39.75618362390659
 20
1.042089630917056
 30
0.0
 10
39.50286344270772
 20
1.157894964674063
 30
0.0
 10
39.37773555721037
 20
1.213359940218582
 30
0.0
 10
38.99632815127423
 20
1.372958926431217
 30
0.0
 10
38.73827019427524
 20
1.469514920104481
 30
0.0
 10
38.35941489020377
 20
1.594490292104283
 30
0.0
 10
38.23381774100779
 20
1.632961287234903
 30
0.0
 10
37.97904123140393
 20
1.703508034361094
 30
0.0
 10
37.85087323171246
 20
1.735468311880242
 30
0.0
 10
37.46752419411939
 20
1.820506044578529
 30
0.0
 10
37.21734188248414
 20
1.862569858226465
 30
0.0
 10
36.96215917554925
 20
1.889580777911031
 30
0.0
  0
SPLINE
  5
AD
330
1F
100
AcDbEntity
  8
0
  6
Continuous
 62
     4
370
    25
100
AcDbSpline
210
0.0
220
0.0
230
1.0
 70
     8
 71
     3
 72
    18
 73
    14
 74
     0
 42
0.000000001
 43
0.00000001
 40
0.0
 40
0.0
 40
0.0
 40
0.0
 40
0.125
 40
0.125
 40
0.2500000000000001
 40
0.2500000000000001
 40
0.5000000000000052
 40
0.5000000000000052
 40
0.6250000000000052
 40
0.6250000000000052
 40
0.7500000000000053
 40
0.7500000000000053
 40
1.0
 40
1.0
 40
1.0
 40
1.0
 10
40.01195461813653
 20
0.4051148844736294
 30
0.0
 10
39.88404145994885
 20
0.4743194848091315
 30
0.0
 10
39.75617488038633
 20
0.542690557006424
 30
0.0
 10
39.50284620152782
 20
0.676545490604073
 30
0.0
 10
39.37771395135571
 20
0.7419820193854206
 30
0.0
 10
38.99629311603714
 20
0.9344443365064065
 30
0.0
 10
38.73822626901568
 20
1.056780298157701
 30
0.0
 10
38.35935912961326
 20
1.224807558693981
 30
0.0
 10
38.23375702743137
 20
1.278373176417213
 30
0.0
 10
37.97897127437549
 20
1.380623495572229
 30
0.0
 10
37.85079879751735
 20
1.429154893702708
 30
0.0
 10
37.4674371269406
 20
1.565617886677656
 30
0.0
 10
37.21724657085196
 20
1.644056332996413
 30
0.0
 10
36.96205447237258
 20
1.70914348871666
 30
0.0
  0
SPLINE
  5
AE
330
1F
100
AcDbEntity
  8
0
  6
Continuous
 62
     4
370
    25
100
AcDbSpline
210
0.0
220
0.0
230
1.0
 70
     8
 71
     3
 72
    10
 73
     6
 74
     0
 42
0.000000001
 43
0.00000001
 40
0.0
 40
0.0
 40
0.0
 40
0.0
 40
0.0650423578593402
 40
0.5337492197792326
 40
1.0
 40
1.0
 40
1.0
 40
1.0
 10
38.39776491454229
 20
-1.577120407918232
 30
0.0
 10
38.36663184931607
 20
-1.588437172045806
 30
0.0
 10
38.11114834870615
 20
-1.681304562194567
 30
0.0
 10
37.63214456522238
 20
-1.793620811425456
 30
0.0
 10
37.18509618169796
 20
-1.857650189620345
 30
0.0
 10
36.96215917554925
 20
-1.889580777911024
 30
0.0
  0
LINE
  5
AF
330
1F
100
AcDbEntity
  8
0
  6
Continuous
 62
     4
370
    25
100
AcDbLine
 10
36.96205447237261
 20
1.889597655504225
 30
0.0
 11
36.96205447237261
 21
1.925000000000003
 31
0.0
  0
LINE
  5
B0
330
1F
100
AcDbEntity
  8
0
  6
Continuous
 62
     4
370
    25
100
AcDbLine
 10
36.96205447237261
 20
-1.924999999999995
 30
0.0
 11
36.96205447237256
 21
1.709389812918648
 31
0.0
  0
SPLINE
  5
B1
330
1F
100
AcDbEntity
  8
0
  6
Continuous
 62
     4
370
    25
100
AcDbSpline
210
0.0
220
0.0
230
1.0
 70
    24
 71
     3
 72
    10
 73
     6
 74
     0
 42
0.000000001
 43
0.00000001
 40
0.0
 40
0.0
 40
0.0
 40
0.0
 40
0.5
 40
0.5
 40
1.0
 40
1.0
 40
1.0
 40
1.0
 10
40.01195461813652
 20
0.4051148844735648
 30
0.0
 10
40.01195461813652
 20
0.4044302769278788
 30
0.0
 10
40.01195461813652
 20
0.3875955315121083
 30
0.0
 10
40.01195461813654
 20
0.3248054059878338
 30
0.0
 10
40.01195461813653
 20
0.279047759960018
 30
0.0
 10
40.01195461813653
 20
0.2247554758747664
 30
0.0
  0
SPLINE
  5
B2
330
1F
100
AcDbEntity
  8
0
  6
Continuous
 62
     4
370
    25
100
AcDbSpline
210
0.0
220
0.0
230
1.0
 70
     8
 71
     3
 72
    16
 73
    12
 74
     0
 42
0.000000001
 43
0.00000001
 40
0.0
 40
0.0
 40
0.0
 40
0.0
 40
0.1249999999999978
 40
0.1249999999999978
 40
0.2499999999999957
 40
0.2499999999999957
 40
0.4999999999999971
 40
0.4999999999999971
 40
0.7499999999999986
 40
0.7499999999999986
 40
1.0
 40
1.0
 40
1.0
 40
1.0
 10
40.01195461813652
 20
0.2247554758747685
 30
0.0
 10
39.88404251317587
 20
0.275570889356813
 30
0.0
 10
39.75617698601182
 20
0.3259222079629702
 30
0.0
 10
39.50285035356887
 20
0.4247951852285067
 30
0.0
 10
39.37771915450732
 20
0.4732806309699102
 30
0.0
 10
38.99630155326898
 20
0.6163490978070375
 30
0.0
 10
38.73823684715012
 20
0.7079288630877711
 30
0.0
 10
38.23308446152128
 20
0.8769751246552386
 30
0.0
 10
37.97860293229317
 20
0.9553040945724021
 30
0.0
 10
37.46745809453906
 20
1.095468304330923
 30
0.0
 10
37.2172695239713
 20
1.15678512144924
 30
0.0
 10
36.96207968714793
 20
1.20869848432218
 30
0.0
  0
SPLINE
  5
B3
330
1F
100
AcDbEntity
  8
0
  6
Continuous
 62
     4
370
    25
100
AcDbSpline
210
0.0
220
0.0
230
1.0
 70
     8
 71
     3
 72
    18
 73
    14
 74
     0
 42
0.000000001
 43
0.00000001
 40
0.0
 40
0.0
 40
0.0
 40
0.0
 40
0.1250000000000007
 40
0.1250000000000007
 40
0.2500000000000014
 40
0.2500000000000014
 40
0.5000000000000028
 40
0.5000000000000028
 40
0.6250000000000034
 40
0.6250000000000034
 40
0.7500000000000042
 40
0.7500000000000042
 40
1.0
 40
1.0
 40
1.0
 40
1.0
 10
40.01195461813652
 20
-1.579247033629269
 30
0.0
 10
39.8840430564336
 20
-1.56980125583318
 30
0.0
 10
39.75617807209993
 20
-1.557143686889458
 30
0.0
 10
39.50285249520477
 20
-1.525696305019202
 30
0.0
 10
39.37772183830829
 20
-1.506945544889066
 30
0.0
 10
38.99630590521859
 20
-1.441393886146784
 30
0.0
 10
38.7382423033848
 20
-1.385335025739207
 30
0.0
 10
38.35937948429977
 20
-1.28584640149776
 30
0.0
 10
38.23377919019102
 20
-1.250099012819549
 30
0.0
 10
37.97899681133127
 20
-1.173357530576205
 30
0.0
 10
37.85082596879849
 20
-1.132450027119803
 30
0.0
 10
37.46746890969796
 20
-1.003211346089492
 30
0.0
 10
37.21728136324783
 20
-0.9088689547776171
 30
0.0
 10
36.96209269300041
 20
-0.8073574894806006
 30
0.0
  0
SPLINE
  5
B4
330
1F
100
AcDbEntity
  8
0
  6
Continuous
 62
     4
370
    25
100
AcDbSpline
210
0.0
220
0.0
230
1.0
 70
    24
 71
     3
 72
    14
 73
    10
 74
     0
 42
0.000000001
 43
0.00000001
 40
0.0
 40
0.0
 40
0.0
 40
0.0
 40
0.25
 40
0.25
 40
0.5
 40
0.5
 40
0.75
 40
0.75
 40
1.0
 40
1.0
 40
1.0
 40
1.0
 10
40.01195461813653
 20
0.2247554758747665
 30
0.0
 10
40.01195461813653
 20
0.0478379764646795
 30
0.0
 10
40.01195461813652
 20
-0.1336037481305563
 30
0.0
 10
40.01195461813652
 20
-0.4885406909531591
 30
0.0
 10
40.01195461813654
 20
-0.6618479081743802
 30
0.0
 10
40.01195461813654
 20
-0.9824711655081941
 30
0.0
 10
40.01195461813651
 20
-1.129616364144591
 30
0.0
 10
40.01195461813654
 20
-1.384867563041756
 30
0.0
 10
40.01195461813653
 20
-1.492925576302513
 30
0.0
 10
40.01195461813653
 20
-1.579247033629269
 30
0.0
  0
SPLINE
  5
B5
330
1F
100
AcDbEntity
  8
0
  6
Continuous
 62
     4
370
    25
100
AcDbSpline
210
0.0
220
0.0
230
1.0
 70
    24
 71
     3
 72
    12
 73
     8
 74
     0
 42
0.000000001
 43
0.00000001
 40
0.0
 40
0.0
 40
0.0
 40
0.0
 40
0.1964593587445073
 40
0.4054056605336391
 40
0.6204114192296838
 40
0.808034002592895
 40
1.0
 40
1.0
 40
1.0
 40
1.0
 10
40.01195461813654
 20
1.568259849869068
 30
0.0
 10
40.01195461813654
 20
1.565143594092284
 30
0.0
 10
40.01195461813655
 20
1.558713013540396
 30
0.0
 10
40.0119546181365
 20
1.45524017315859
 30
0.0
 10
40.01195461813654
 20
1.30568201149105
 30
0.0
 10
40.01195461813654
 20
1.112027207533985
 30
0.0
 10
40.01195461813653
 20
0.9563667007311636
 30
0.0
 10
40.01195461813652
 20
0.8776458804560666
 30
0.0
  0
LINE
  5
B6
330
1F
100
AcDbEntity
  8
0
  6
Continuous
 62
     4
370
    25
100
AcDbLine
 10
37.24467304109241
 20
-1.639258462038234
 30
0.0
 11
36.96215917554925
 21
-1.681492594810717
 31
0.0
  0
SPLINE
  5
B7
330
1F
100
AcDbEntity
  8
0
  6
Continuous
 62
     1
370
    25
100
AcDbSpline
210
0.0
220
0.0
230
1.0
 70
     8
 71
     3
 72
    32
 73
    28
 74
     0
 42
0.000000001
 43
0.00000001
 40
0.0
 40
0.0
 40
0.0
 40
0.0
 40
0.125
 40
0.125
 40
0.1875000000000014
 40
0.1875000000000014
 40
0.2500000000000027
 40
0.2500000000000027
 40
0.3125000000000039
 40
0.3125000000000039
 40
0.3750000000000053
 40
0.3750000000000053
 40
0.5000000000000052
 40
0.5000000000000052
 40
0.5625000000000039
 40
0.5625000000000039
 40
0.6250000000000026
 40
0.6250000000000026
 40
0.6875000000000012
 40
0.6875000000000012
 40
0.7499999999999999
 40
0.7499999999999999
 40
0.875
 40
0.875
 40
0.9375
 40
0.9375
 40
1.0
 40
1.0
 40
1.0
 40
1.0
 10
45.91195461813653
 20
-1.995079370482126
 30
0.0
 10
45.66766912707505
 20
-1.985151362637186
 30
0.0
 10
45.41834821793226
 20
-1.959980558823114
 30
0.0
 10
45.04938604844212
 20
-1.900478609523994
 30
0.0
 10
44.92825518436108
 20
-1.877133501145109
 30
0.0
 10
44.68373308995924
 20
-1.823347403868884
 30
0.0
 10
44.56026631212801
 20
-1.792875136319722
 30
0.0
 10
44.31300258553819
 20
-1.725212551881672
 30
0.0
 10
44.18920960801119
 20
-1.688023256469432
 30
0.0
 10
43.94340102906983
 20
-1.607598229403019
 30
0.0
 10
43.82239150627439
 20
-1.564496753032872
 30
0.0
 10
43.45526763115657
 20
-1.426147207439417
 30
0.0
 10
43.20588233235245
 20
-1.321776374110162
 30
0.0
 10
42.83743318906453
 20
-1.152225017349155
 30
0.0
 10
42.71650699913044
 20
-1.093728757369144
 30
0.0
 10
42.47154007068887
 20
-0.9723522608503445
 30
0.0
 10
42.34794959617341
 20
-0.9095300489239287
 30
0.0
 10
42.10064285490107
 20
-0.7806492652830145
 30
0.0
 10
41.9769305641964
 20
-0.7145927539830521
 30
0.0
 10
41.73148321171087
 20
-0.5803899017401317
 30
0.0
 10
41.61060233535661
 20
-0.5124093517556292
 30
0.0
 10
41.24283968378725
 20
-0.3050148147744186
 30
0.0
 10
40.99343033916021
 20
-0.1625893166960024
 30
0.0
 10
40.62555177796106
 20
0.0501057355718955
 30
0.0
 10
40.50467819000075
 20
0.1207059852340097
 30
0.0
 10
40.25930444933962
 20
0.2618834553029412
 30
0.0
 10
40.13560986983399
 20
0.3323033183432197
 30
0.0
 10
40.01195461813652
 20
0.4019523873045426
 30
0.0
  0
SPLINE
  5
B9
330
1F
100
AcDbEntity
  8
0
  6
Continuous
 62
     1
370
    25
100
AcDbSpline
210
0.0
220
0.0
230
1.0
 70
     8
 71
     3
 72
     9
 73
     5
 74
     0
 42
0.000000001
 43
0.00000001
 40
0.0
 40
0.0
 40
0.0
 40
0.0
 40
0.2822150386108234
 40
1.0
 40
1.0
 40
1.0
 40
1.0
 10
41.03756053314773
 20
-0.1871075207377739
 30
0.0
 10
40.94104216555719
 20
-0.1488220564116829
 30
0.0
 10
40.59903924443137
 20
-0.0131614462806723
 30
0.0
 10
40.257270839485
 20
0.125340710568482
 30
0.0
 10
40.01195461813652
 20
0.2247554758747699
 30
0.0
  0
SPLINE
  5
BA
330
1F
100
AcDbEntity
  8
0
  6
Continuous
 62
     4
370
    25
100
AcDbSpline
210
0.0
220
0.0
230
1.0
 70
    24
 71
     3
 72
    11
 73
     7
 74
     0
 42
0.000000001
 43
0.00000001
 40
0.0
 40
0.0
 40
0.0
 40
0.0
 40
0.2375120440764383
 40
0.482066371046372
 40
0.7337127900657309
 40
1.0
 40
1.0
 40
1.0
 40
1.0
 10
40.01195461813654
 20
0.4045083618996755
 30
0.0
 10
40.01195461813654
 20
0.4025587949961221
 30
0.0
 10
40.01195461813654
 20
0.3986018561134538
 30
0.0
 10
40.01195461813649
 20
0.3639234496159318
 30
0.0
 10
40.01195461813657
 20
0.3090473108695706
 30
0.0
 10
40.01195461813654
 20
0.2533773084618239
 30
0.0
 10
40.01195461813653
 20
0.2247554758765523
 30
0.0
  0
SPLINE
  5
BB
330
1F
100
AcDbEntity
  8
0
  6
Continuous
 62
     1
370
    25
100
AcDbSpline
210
0.0
220
0.0
230
1.0
 70
     8
 71
     3
 72
    12
 73
     8
 74
     0
 42
0.000000001
 43
0.00000001
 40
0.0
 40
0.0
 40
0.0
 40
0.0
 40
0.216510924128883
 40
0.4330410920895404
 40
0.6495888985903305
 40
0.8661527252233953
 40
1.0
 40
1.0
 40
1.0
 40
1.0
 10
46.01195461813654
 20
-1.577944528736425
 30
0.0
 10
45.6349929607346
 20
-1.492776936051909
 30
0.0
 10
44.88103614098518
 20
-1.322434180853165
 30
0.0
 10
43.75003205280643
 20
-0.8821788274932735
 30
0.0
 10
42.61893217658245
 20
-0.3617613388278285
 30
0.0
 10
41.63175264976243
 20
0.1322525767448349
 30
0.0
 10
41.02167160003569
 20
0.4208991786702342
 30
0.0
 10
40.78863764200675
 20
0.5311541360212404
 30
0.0
  0
SPLINE
  5
BC
330
1F
100
AcDbEntity
  8
0
  6
Continuous
 62
     1
370
    25
100
AcDbSpline
210
0.0
220
0.0
230
1.0
 70
    24
 71
     3
 72
     8
 73
     4
 74
     0
 42
0.000000001
 43
0.00000001
 40
0.0
 40
0.0
 40
0.0
 40
0.0
 40
1.0
 40
1.0
 40
1.0
 40
1.0
 10
46.01195461813653
 20
-1.789970616993975
 30
0.0
 10
46.01195461813653
 20
-1.719157860375767
 30
0.0
 10
46.01195461813654
 20
-1.648284382186683
 30
0.0
 10
46.01195461813654
 20
-1.577944528736425
 30
0.0
  0
SPLINE
  5
BD
330
1F
100
AcDbEntity
  8
0
  6
Continuous
 62
     1
370
    25
100
AcDbSpline
210
0.0
220
0.0
230
1.0
 70
     8
 71
     3
 72
    23
 73
    19
 74
     0
 42
0.000000001
 43
0.00000001
 40
0.0000000000000017
 40
0.0000000000000017
 40
0.0000000000000017
 40
0.0000000000000017
 40
0.0000309836703648
 40
0.0000309836703648
 40
0.0000309836703648
 40
0.0000621829899111
 40
0.0000621829899111
 40
0.0000621829899111
 40
0.0000908430932116
 40
0.0000908430932116
 40
0.0000908430932116
 40
0.0001186191166451
 40
0.0001186191166451
 40
0.0001186191166451
 40
0.0001487828091073
 40
0.0001487828091073
 40
0.0001487828091073
 40
0.000163566718907
 40
0.000163566718907
 40
0.000163566718907
 40
0.000163566718907
 10
46.01195461813654
 20
-1.789970616992268
 30
0.0
 10
46.01195461813654
 20
-1.800293519494166
 30
0.0
 10
46.01052758196265
 20
-1.810786935593004
 30
0.0
 10
46.00757589189479
 20
-1.820623784845133
 30
0.0
 10
46.00461193260095
 20
-1.830501522714812
 30
0.0
 10
45.99999755616019
 20
-1.839985950675748
 30
0.0
 10
45.99408116047589
 20
-1.848078095923307
 30
0.0
 10
45.98863441479102
 20
-1.855527877777046
 30
0.0
 10
45.98193719814945
 20
-1.862005293172095
 30
0.0
 10
45.97461941379371
 20
-1.866989484404814
 30
0.0
 10
45.96751024345149
 20
-1.87183158725577
 30
0.0
 10
45.95964889064225
 20
-1.875402593588327
 30
0.0
 10
45.95164204501016
 20
-1.877614214021327
 30
0.0
 10
45.94294303230079
 20
-1.880017022210591
 30
0.0
 10
45.93387855152723
 20
-1.88088851849331
 30
0.0
 10
45.92500971907474
 20
-1.880411710245967
 30
0.0
 10
45.92062869773302
 20
-1.880176176750582
 30
0.0
 10
45.9162612075738
 20
-1.879615434866285
 30
0.0
 10
45.91195461813644
 20
-1.878759392336786
 30
0.0
  0
SPLINE
  5
BE
330
1F
100
AcDbEntity
  8
0
  6
Continuous
 62
     1
370
    25
100
AcDbSpline
210
0.0
220
0.0
230
1.0
 70
     8
 71
     3
 72
    32
 73
    28
 74
     0
 42
0.000000001
 43
0.00000001
 40
0.0
 40
0.0
 40
0.0
 40
0.0
 40
0.1250000000000003
 40
0.1250000000000003
 40
0.1875000000000018
 40
0.1875000000000018
 40
0.2500000000000033
 40
0.2500000000000033
 40
0.3125000000000048
 40
0.3125000000000048
 40
0.3750000000000063
 40
0.3750000000000063
 40
0.5000000000000067
 40
0.5000000000000067
 40
0.5625000000000056
 40
0.5625000000000056
 40
0.6250000000000043
 40
0.6250000000000043
 40
0.6875000000000032
 40
0.6875000000000032
 40
0.750000000000002
 40
0.750000000000002
 40
0.8749999999999998
 40
0.8749999999999998
 40
0.9374999999999999
 40
0.9374999999999999
 40
1.0
 40
1.0
 40
1.0
 40
1.0
 10
45.91195461813655
 20
-1.878759392336734
 30
0.0
 10
45.66766912707506
 20
-1.830201531707353
 30
0.0
 10
45.41834821793228
 20
-1.767023612717097
 30
0.0
 10
45.04938604844215
 20
-1.653375885174992
 30
0.0
 10
44.92825518436109
 20
-1.612503818923678
 30
0.0
 10
44.68373308995925
 20
-1.524614537033104
 30
0.0
 10
44.56026631212804
 20
-1.477566206471186
 30
0.0
 10
44.31300258553822
 20
-1.37799621321212
 30
0.0
 10
44.1892096080112
 20
-1.325476097117722
 30
0.0
 10
43.94340102906985
 20
-1.215887676669935
 30
0.0
 10
43.82239150627439
 20
-1.158987959163771
 30
0.0
 10
43.45526763115659
 20
-0.9814509038959889
 30
0.0
 10
43.20588233235245
 20
-0.8539803129927908
 30
0.0
 10
42.83743318906454
 20
-0.655501165337602
 30
0.0
 10
42.71650699913047
 20
-0.5883260685726169
 30
0.0
 10
42.47154007068891
 20
-0.4514494475053462
 30
0.0
 10
42.34794959617344
 20
-0.3818232480486757
 30
0.0
 10
42.10064285490109
 20
-0.2413607634919858
 30
0.0
 10
41.9769305641964
 20
-0.170526732479832
 30
0.0
 10
41.73148321171089
 20
-0.0288611937289058
 30
0.0
 10
41.61060233535664
 20
0.0418044686204117
 30
0.0
 10
41.24283968378725
 20
0.2541514567572789
 30
0.0
 10
40.99343033916023
 20
0.3956590214485119
 30
0.0
 10
40.62555177796107
 20
0.6006921858369049
 30
0.0
 10
40.50467819000076
 20
0.6677135968214589
 30
0.0
 10
40.25930444933962
 20
0.7996535535534902
 30
0.0
 10
40.13560986983399
 20
0.864416297528884
 30
0.0
 10
40.01195461813651
 20
0.9274099677879947
 30
0.0
  0
LINE
  5
BF
330
1F
100
AcDbEntity
  8
0
  6
Continuous
 62
     4
370
    25
100
AcDbLine
 10
40.01195461813652
 20
0.401952387304542
 30
0.0
 11
40.01195461813652
 21
0.9274099677879919
 31
0.0
  0
SPLINE
  5
C0
330
1F
100
AcDbEntity
  8
0
  6
Continuous
 62
     1
370
    25
100
AcDbSpline
210
0.0
220
0.0
230
1.0
 70
     8
 71
     3
 72
    13
 73
     9
 74
     0
 42
0.000000001
 43
0.00000001
 40
0.0
 40
0.0
 40
0.0
 40
0.0
 40
0.1935156565381477
 40
0.3870487592848976
 40
0.5805978527300392
 40
0.7741614694326925
 40
0.9007355857974121
 40
1.0
 40
1.0
 40
1.0
 40
1.0
 10
46.01195461813654
 20
0.0000000000000078
 30
0.0
 10
45.63498974135047
 20
0.1741672803425639
 30
0.0
 10
44.88102600289051
 20
0.5225175429029605
 30
0.0
 10
43.75001960131305
 20
0.9895277007168884
 30
0.0
 10
42.61888949703528
 20
1.353045029831344
 30
0.0
 10
41.61825191502898
 20
1.544496341741101
 30
0.0
 10
40.80111187187922
 20
1.610800496644902
 30
0.0
 10
40.36149587341937
 20
1.591630243746712
 30
0.0
 10
40.16826832960042
 20
1.583204206261992
 30
0.0
  0
SPLINE
  5
C1
330
1F
100
AcDbEntity
  8
0
  6
Continuous
 62
     1
370
    25
100
AcDbSpline
210
0.0
220
0.0
230
1.0
 70
    24
 71
     3
 72
    10
 73
     6
 74
     0
 42
0.000000001
 43
0.00000001
 40
0.0
 40
0.0
 40
0.0
 40
0.0
 40
0.5
 40
0.5
 40
1.0
 40
1.0
 40
1.0
 40
1.0
 10
46.01195461813654
 20
-1.577944528736424
 30
0.0
 10
46.01195461813653
 20
-1.407185134337964
 30
0.0
 10
46.01195461813654
 20
-1.171452163182273
 30
0.0
 10
46.01195461813653
 20
-0.6198823592321753
 30
0.0
 10
46.01195461813654
 20
-0.3064196984977425
 30
0.0
 10
46.01195461813654
 20
0.000000000000008
 30
0.0
  0
SPLINE
  5
C2
330
1F
100
AcDbEntity
  8
0
  6
Continuous
 62
     4
370
    25
100
AcDbSpline
210
0.0
220
0.0
230
1.0
 70
    24
 71
     3
 72
    13
 73
     9
 74
     0
 42
0.000000001
 43
0.00000001
 40
0.0
 40
0.0
 40
0.0
 40
0.0
 40
0.083322246154696
 40
0.2233839884426893
 40
0.4253290241929473
 40
0.633130479660691
 40
0.8144663012588997
 40
1.0
 40
1.0
 40
1.0
 40
1.0
 10
40.01195461813653
 20
1.578107643597948
 30
0.0
 10
40.01195461813652
 20
1.578448104022492
 30
0.0
 10
40.01195461813649
 20
1.579360866352495
 30
0.0
 10
40.01195461813656
 20
1.543460262791582
 30
0.0
 10
40.0119546181365
 20
1.457363382861982
 30
0.0
 10
40.01195461813654
 20
1.305190216156385
 30
0.0
 10
40.01195461813651
 20
1.112146259228376
 30
0.0
 10
40.01195461813655
 20
0.9564066861990921
 30
0.0
 10
40.01195461813656
 20
0.8776458804560625
 30
0.0
  0
LINE
  5
C3
330
1F
100
AcDbEntity
  8
0
  6
Continuous
 62
     1
370
    25
100
AcDbLine
 10
46.01195461813654
 20
1.400000000000007
 30
0.0
 11
45.29822212767105
 21
1.353306821201529
 31
0.0
  0
SPLINE
  5
C4
330
1F
100
AcDbEntity
  8
0
  6
Continuous
 62
     1
370
    25
100
AcDbSpline
210
0.0
220
0.0
230
1.0
 70
    24
 71
     3
 72
    14
 73
    10
 74
     0
 42
0.000000001
 43
0.00000001
 40
0.0
 40
0.0
 40
0.0
 40
0.0
 40
0.2499999999999999
 40
0.2499999999999999
 40
0.4999999999999999
 40
0.4999999999999999
 40
0.7499999999999999
 40
0.7499999999999999
 40
1.0
 40
1.0
 40
1.0
 40
1.0
 10
46.01195461813654
 20
0.0000000000000081
 30
0.0
 10
46.01195461813654
 20
0.1665687034027995
 30
0.0
 10
46.01195461813653
 20
0.3310871527509154
 30
0.0
 10
46.01195461813653
 20
0.6387450999155181
 30
0.0
 10
46.01195461813654
 20
0.7816934607495407
 30
0.0
 10
46.01195461813655
 20
1.030513824303661
 30
0.0
 10
46.01195461813654
 20
1.13625324513132
 30
0.0
 10
46.01195461813652
 20
1.30213310842272
 30
0.0
 10
46.01195461813654
 20
1.362281548872788
 30
0.0
 10
46.01195461813654
 20
1.400000000000007
 30
0.0
  0
SPLINE
  5
C5
330
1F
100
AcDbEntity
  8
0
  6
Continuous
 62
     1
370
    25
100
AcDbSpline
210
0.0
220
0.0
230
1.0
 70
     8
 71
     3
 72
    10
 73
     6
 74
     0
 42
0.000000001
 43
0.00000001
 40
0.0
 40
0.0
 40
0.0
 40
0.0
 40
0.166407457087076
 40
0.5841049436086337
 40
1.0
 40
1.0
 40
1.0
 40
1.0
 10
41.78241143592945
 20
-1.488120469542126
 30
0.0
 10
41.68418038645935
 20
-1.508306654031954
 30
0.0
 10
41.33938068447651
 20
-1.579161953184409
 30
0.0
 10
40.74897803422859
 20
-1.609090181107843
 30
0.0
 10
40.25727469603729
 20
-1.589180399522943
 30
0.0
 10
40.01195461813652
 20
-1.579247033629269
 30
0.0
  0
SPLINE
  5
C6
330
1F
100
AcDbEntity
  8
0
  6
Continuous
 62
     4
370
    25
100
AcDbSpline
210
0.0
220
0.0
230
1.0
 70
    24
 71
     3
 72
    14
 73
    10
 74
     0
 42
0.000000001
 43
0.00000001
 40
0.0
 40
0.0
 40
0.0
 40
0.0
 40
0.25
 40
0.25
 40
0.5
 40
0.5
 40
0.75
 40
0.75
 40
1.0
 40
1.0
 40
1.0
 40
1.0
 10
40.01195461813653
 20
0.2247554758747675
 30
0.0
 10
40.01195461813653
 20
0.0478379764646805
 30
0.0
 10
40.01195461813652
 20
-0.1336037481305553
 30
0.0
 10
40.01195461813652
 20
-0.4885406909531584
 30
0.0
 10
40.01195461813654
 20
-0.6618479081743793
 30
0.0
 10
40.01195461813654
 20
-0.9824711655081935
 30
0.0
 10
40.01195461813651
 20
-1.12961636414459
 30
0.0
 10
40.01195461813654
 20
-1.384867563041756
 30
0.0
 10
40.01195461813653
 20
-1.492925576302513
 30
0.0
 10
40.01195461813653
 20
-1.579247033629269
 30
0.0
  0
LINE
  5
C7
330
1F
100
AcDbEntity
  8
0
  6
Continuous
 62
     1
370
    25
100
AcDbLine
 10
46.01195461813653
 20
-1.789970616993976
 30
0.0
 11
46.01195461813655
 21
-1.897300810640362
 31
0.0
  0
SPLINE
  5
C8
330
1F
100
AcDbEntity
  8
0
  6
Continuous
 62
     1
370
    25
100
AcDbSpline
210
0.0
220
0.0
230
1.0
 70
     8
 71
     3
 72
    11
 73
     7
 74
     0
 42
0.000000001
 43
0.00000001
 40
0.0
 40
0.0
 40
0.0
 40
0.0
 40
0.0183485744302829
 40
0.3451015365545415
 40
0.6722466042231071
 40
1.0
 40
1.0
 40
1.0
 40
1.0
 10
43.26708124089426
 20
1.342006821085949
 30
0.0
 10
43.28326391178121
 20
1.349766874933756
 30
0.0
 10
43.58762895168474
 20
1.49571862267306
 30
0.0
 10
44.17982314805211
 20
1.693473099368141
 30
0.0
 10
45.04529743357182
 20
1.925653407424199
 30
0.0
 10
45.6228900501009
 20
1.971923056337137
 30
0.0
 10
45.91195461813655
 20
1.995079370482135
 30
0.0
  0
SPLINE
  5
CA
330
1F
100
AcDbEntity
  8
0
  6
Continuous
 62
     1
370
    25
100
AcDbSpline
210
0.0
220
0.0
230
1.0
 70
    24
 71
     3
 72
    10
 73
     6
 74
     0
 42
0.000000001
 43
0.00000001
 40
0.0
 40
0.0
 40
0.0
 40
0.0
 40
0.5
 40
0.5
 40
1.0
 40
1.0
 40
1.0
 40
1.0
 10
46.01195461813654
 20
1.400000000000007
 30
0.0
 10
46.01195461813653
 20
1.47088722972226
 30
0.0
 10
46.01195461813655
 20
1.551262239179057
 30
0.0
 10
46.01195461813654
 20
1.72118811980515
 30
0.0
 10
46.01195461813654
 20
1.81054501742492
 30
0.0
 10
46.01195461813654
 20
1.89730081064
 30
0.0
  0
LINE
  5
CB
330
1F
100
AcDbEntity
  8
중심선
100
AcDbLine
 10
-36.98804538186346
 20
-0.0000000000000023
 30
0.0
 11
49.01195461813654
 21
0.0000000000000085
 31
0.0
  0
CIRCLE
  5
CC
330
1F
100
AcDbEntity
  8
외형선
100
AcDbCircle
 10
0.0
 20
0.0
 30
0.0
 40
3.000000000000005
  0
INSERT
  5
CD
330
1F
100
AcDbEntity
  8
0
  6
Continuous
 62
     7
100
AcDbBlockReference
 66
     1
  2
블럭10
 10
-22.93944368806589
 20
-52.04609937292004
 30
0.0
  0
ATTRIB
  5
CE
330
CD
100
AcDbEntity
  8
FORMAT
 62
     2
100
AcDbText
 10
-42.21802657207924
 20
-49.97073246008785
 30
0.0
 40
4.233333333333333
  1
SEME610400140E [ 2 FLUTE ]
 41
0.75
  7
SLDTEXTSTYLE0
 11
-42.21802657207924
 21
-52.08739912675452
 31
0.0
100
AcDbAttribute
  2
AUTOATTR0
 70
     0
 74
     1
  0
SEQEND
  5
CF
330
CD
100
AcDbEntity
  8
0
  6
Continuous
 62
     7
  0
HATCH
  5
D0
330
1F
100
AcDbEntity
  8
중심선
100
AcDbHatch
 10
0.0
 20
0.0
 30
0.0
210
0.0
220
0.0
230
1.0
  2
SOLID
 70
     1
 71
     0
 91
        1
 92
        0
 93
        4
 72
     1
 10
-17.22453438368504
 20
-35.7989250712761
 11
-20.67080962752232
 21
-35.7989250712761
 72
     1
 10
-20.67080962752232
 20
-35.7989250712761
 11
-22.79903948672635
 21
-38.3352506518487
 72
     1
 10
-22.79903948672635
 20
-38.3352506518487
 11
-19.35273115777591
 21
-38.33521122254621
 72
     1
 10
-19.35273115777591
 20
-38.33521122254621
 11
-17.22453438368504
 21
-35.7989250712761
 97
        0
 75
     0
 76
     1
 98
        1
 10
0.0
 20
0.0
  0
HATCH
  5
D1
330
1F
100
AcDbEntity
  8
중심선
100
AcDbHatch
 10
0.0
 20
0.0
 30
0.0
210
0.0
220
0.0
230
1.0
  2
SOLID
 70
     1
 71
     0
 91
        1
 92
        0
 93
        4
 72
     1
 10
-12.21177039264909
 20
-35.7989250712761
 11
-15.65804563648637
 21
-35.7989250712761
 72
     1
 10
-15.65804563648637
 20
-35.7989250712761
 11
-20.18918364484376
 21
-41.19892507127612
 72
     1
 10
-20.18918364484376
 20
-41.19892507127612
 11
-16.74290840100648
 21
-41.19892507127612
 72
     1
 10
-16.74290840100648
 20
-41.19892507127612
 11
-12.21177039264909
 21
-35.7989250712761
 97
        0
 75
     0
 76
     1
 98
        1
 10
0.0
 20
0.0
  0
HATCH
  5
D2
330
1F
100
AcDbEntity
  8
중심선
100
AcDbHatch
 10
0.0
 20
0.0
 30
0.0
210
0.0
220
0.0
230
1.0
  2
SOLID
 70
     1
 71
     0
 91
        1
 92
        0
 93
        4
 72
     1
 10
-7.199006401613195
 20
-35.79892507127613
 11
-10.64528164545031
 21
-35.7989250712761
 72
     1
 10
-10.64528164545031
 20
-35.7989250712761
 11
-17.69371854733956
 21
-44.19892507127612
 72
     1
 10
-17.69371854733956
 20
-44.19892507127612
 11
-14.24744330350228
 21
-44.19892507127612
 72
     1
 10
-14.24744330350228
 20
-44.19892507127612
 11
-7.199006401613195
 21
-35.79892507127613
 97
        0
 75
     0
 76
     1
 98
        1
 10
0.0
 20
0.0
  0
HATCH
  5
D3
330
1F
100
AcDbEntity
  8
중심선
100
AcDbHatch
 10
0.0
 20
0.0
 30
0.0
210
0.0
220
0.0
230
1.0
  2
SOLID
 70
     1
 71
     0
 91
        1
 92
        0
 93
        6
 72
     3
 10
-2.399115970600996
 20
-39.99892507132738
 11
3.960054785062284
 21
1.540850780301639E-10
 40
0.3939339440162633
 50
17.09539180608433
 51
320.0019657685079
 73
     0
 72
     1
 10
-0.7161163149004002
 20
-38.58681907591441
 11
1.589185558800638
 21
-36.65249236586649
 72
     3
 10
-2.399115970653842
 20
-39.99892507127625
 11
6.600054785286829
 21
-1.249000902703301E-13
 40
0.6363583540795982
 50
39.99873849337408
 51
368.4976242363725
 73
     1
 72
     1
 10
4.026216521246767
 20
-39.03892507120613
 11
-3.71904866381792
 21
-39.0389250712061
 72
     1
 10
-3.71904866381792
 20
-39.0389250712061
 11
-3.719073708263854
 21
-40.95892507120602
 72
     1
 10
-3.719073708263854
 20
-40.95892507120602
 11
0.7223060612081831
 21
-40.95892507120599
 97
        0
 75
     0
 76
     1
 98
        1
 10
0.0
 20
0.0
  0
DIMENSION
  5
D4
330
1F
100
AcDbEntity
  8
치수문자_일반주서
100
AcDbDimension
  2
_D
 10
-45.48450340347554
 20
-3.000000000000046
 30
0.0
 11
-45.48450340347555
 21
-0.0000000000000006
 31
0.0
 70
   160
  1
%%c<>
 71
     2
 42
5.999999999999996
 52
-270.0
  3
SLDDIMSTYLE0
100
AcDbAlignedDimension
 13
-32.98804538186348
 23
2.999999999999998
 33
0.0
 14
-32.98804538186348
 24
-2.999999999999999
 34
0.0
 50
90.0000000000002
100
AcDbRotatedDimension
  0
DIMENSION
  5
E2
330
1F
100
AcDbEntity
  8
치수문자_일반주서
100
AcDbDimension
  2
_D_1
 10
40.01195461813653
 20
20.39999999999966
 30
0.0
 11
43.01195461813653
 21
20.39999999999966
 31
0.0
 70
   160
  1
<>
 71
     2
 42
6.000000000000007
  3
SLDDIMSTYLE0
100
AcDbAlignedDimension
 13
46.01195461813654
 23
1.900000000000003
 33
0.0
 14
40.01195461813653
 24
1.581514153956217
 34
0.0
100
AcDbRotatedDimension
  0
DIMENSION
  5
EE
330
1F
100
AcDbEntity
  8
치수문자_일반주서
100
AcDbDimension
  2
_D_2
 10
-33.98804538186348
 20
42.45832450504429
 30
0.0
 11
6.011954618136521
 21
42.45832450504429
 31
0.0
 70
   160
  1
<>
 71
     2
 42
80.00000000000001
  3
SLDDIMSTYLE1
100
AcDbAlignedDimension
 13
46.01195461813654
 23
1.900000000000003
 33
0.0
 14
-33.98804538186348
 24
1.999999999999997
 34
0.0
100
AcDbRotatedDimension
  0
DIMENSION
  5
F9
330
1F
100
AcDbEntity
  8
치수문자_일반주서
100
AcDbDimension
  2
_D_3
 10
6.011954618136521
 20
30.31999999999866
 30
0.0
 11
26.01195461813654
 21
30.31999999999866
 31
0.0
 70
   160
  1
<>
 71
     2
 42
40.00000000000002
  3
SLDDIMSTYLE0
100
AcDbAlignedDimension
 13
46.01195461813654
 23
1.831855556492052
 33
0.0
 14
6.011954618136523
 24
1.925000000000001
 34
0.0
 50
-0.0000000000022354
100
AcDbRotatedDimension
  0
DIMENSION
  5
105
330
1F
100
AcDbEntity
  8
치수문자_일반주서
100
AcDbDimension
  2
_D_4
 10
63.29343711688173
 20
-1.995079370482062
 30
0.0
 11
63.29343711688168
 21
11.66694027704533
 31
0.0
 70
   160
  1
%%c<>
 71
     2
 42
3.995519647527393
 52
-270.0
  3
SLDDIMSTYLE0
100
AcDbAlignedDimension
 13
46.01195461813654
 23
2.000440277045268
 33
0.0
 14
45.91195461813653
 24
-1.995079370482126
 34
0.0
 50
90.0000000000002
100
AcDbRotatedDimension
1001
ACAD_DSTYLE_DIMFLIPARROW_SYMBOL
1070
   385
1070
     0
1001
ACAD_DSTYLE_DIMFLIPARROW_WHICH_SYMBOL
1070
   386
1070
     3
  0
INSERT
  5
118
330
1F
100
AcDbEntity
  8
외형선
100
AcDbBlockReference
  2
SW_DOWELSYMBOL_0
 10
0.0
 20
0.0
 30
0.0
  0
ARC
  5
150
330
1F
100
AcDbEntity
  8
0
  6
Continuous
 62
     1
370
    25
100
AcDbCircle
 10
45.91195461813655
 20
1.895079370482134
 30
0.0
 40
0.1
100
AcDbArc
 50
0.0
 51
99.16131623744435
  0
ARC
  5
151
102
{ACAD_REACTORS
102
}
330
1F
100
AcDbEntity
  8
0
  6
Continuous
 62
     1
370
    25
100
AcDbCircle
 10
45.91195461813655
 20
-1.895079370482118
 30
0.0
 40
0.1
100
AcDbArc
 50
269.9999999999878
 51
0.0
  0
DIMENSION
  5
153
102
{ACAD_REACTORS
102
}
102
{ACAD_XDICTIONARY
360
154
102
}
330
1F
100
AcDbEntity
  8
치수문자_일반주서
100
AcDbDimension
  2
*D8
 10
45.91195461813655
 20
-1.895079370482118
 30
0.0
 11
62.4429936800439
 21
-16.42629034638423
 31
0.0
 70
   164
  1
<>
 71
     5
 42
0.0999999999999984
  3
SLDDIMSTYLE0
100
AcDbRadialDimension
 15
45.98706224395946
 25
-1.961100916535248
 35
0.0
 40
0.0
1001
ACAD_DSTYLE_DIMRADIAL_EXTENSION
1070
   387
1070
     1
1070
   388
1040
4.712388980384477
1070
   390
1040
0.0
1001
ACAD
1000
DSTYLE
1002
{
1070
    78
1070
     8
1002
}
  0
ENDSEC
  0
SECTION
  2
OBJECTS
  0
DICTIONARY
  5
C
330
0
100
AcDbDictionary
281
     1
  3
ACAD_GROUP
350
D
  3
ACAD_IMAGE_VARS
350
13C
  3
ACAD_LAYOUT
350
1A
  3
ACAD_MLINESTYLE
350
17
  3
ACAD_PLOTSETTINGS
350
19
  3
ACAD_PLOTSTYLENAME
350
E
  3
ACAD_SCALELIST
350
47
  3
APPDATA
350
13A
  3
DWGPROPS
350
160
  0
DICTIONARY
  5
154
330
153
100
AcDbDictionary
280
     1
281
     1
  0
DICTIONARY
  5
D
102
{ACAD_REACTORS
330
C
102
}
330
C
100
AcDbDictionary
281
     1
  0
RASTERVARIABLES
  5
13C
102
{ACAD_REACTORS
330
C
102
}
330
C
100
AcDbRasterVariables
 90
        0
 70
     1
 71
     1
 72
     1
  0
DICTIONARY
  5
1A
102
{ACAD_REACTORS
330
C
102
}
330
C
100
AcDbDictionary
281
     1
  3
Layout1
350
1E
  3
Layout2
350
26
  3
Model
350
22
  0
DICTIONARY
  5
17
102
{ACAD_REACTORS
330
C
102
}
330
C
100
AcDbDictionary
281
     1
  3
Standard
350
18
  0
DICTIONARY
  5
19
102
{ACAD_REACTORS
330
C
102
}
330
C
100
AcDbDictionary
281
     1
  0
ACDBDICTIONARYWDFLT
  5
E
102
{ACAD_REACTORS
330
C
102
}
330
C
100
AcDbDictionary
281
     1
  3
Normal
350
F
100
AcDbDictionaryWithDefault
340
F
  0
DICTIONARY
  5
47
102
{ACAD_REACTORS
330
C
102
}
330
C
100
AcDbDictionary
281
     1
  3
A0
350
48
  3
A1
350
49
  3
A2
350
4A
  3
A3
350
4B
  3
A4
350
4C
  3
A5
350
4D
  3
A6
350
4E
  3
A7
350
4F
  3
A8
350
50
  3
A9
350
51
  3
B0
350
52
  3
B1
350
53
  3
B2
350
54
  3
B3
350
55
  3
B4
350
56
  3
B5
350
57
  3
B6
350
58
  3
B7
350
59
  3
B8
350
5A
  3
B9
350
5B
  3
C0
350
5C
  3
C1
350
5D
  3
C2
350
5E
  3
C3
350
5F
  3
C4
350
60
  3
C5
350
61
  3
C6
350
62
  3
C7
350
63
  3
C8
350
64
  3
C9
350
65
  3
D0
350
66
  3
D1
350
67
  3
D2
350
68
  0
DICTIONARY
  5
13A
102
{ACAD_REACTORS
330
C
102
}
330
C
100
AcDbDictionary
281
     1
  0
XRECORD
  5
160
102
{ACAD_REACTORS
330
C
102
}
330
C
100
AcDbXrecord
280
     1
  1
DWGPROPS COOKIE
  2

  3

  4

  6

  7

  8
12016016
  9

300
=
301
=
302
=
303
=
304
=
305
=
306
=
307
=
308
=
309
=
 40
0.0
 41
2458263.418394734
 42
2458268.310140961
  1

 90
        0
  0
LAYOUT
  5
1E
102
{ACAD_REACTORS
330
1A
102
}
330
1A
100
AcDbPlotSettings
  1

  2
none_device
  4

  6

 40
0.0
 41
0.0
 42
0.0
 43
0.0
 44
0.0
 45
0.0
 46
0.0
 47
0.0
 48
0.0
 49
0.0
140
0.0
141
0.0
142
1.0
143
1.0
 70
   688
 72
     1
 73
     0
 74
     5
  7

 75
    16
147
1.0
148
0.0
149
0.0
100
AcDbLayout
  1
Layout1
 70
     1
 71
     1
 10
0.0
 20
0.0
 11
420.0
 21
297.0
 12
0.0
 22
0.0
 32
0.0
 14
1.000000000000000E+20
 24
1.000000000000000E+20
 34
1.000000000000000E+20
 15
-1.000000000000000E+20
 25
-1.000000000000000E+20
 35
-1.000000000000000E+20
146
0.0
 13
0.0
 23
0.0
 33
0.0
 16
1.0
 26
0.0
 36
0.0
 17
0.0
 27
1.0
 37
0.0
 76
     0
330
1B
  0
LAYOUT
  5
26
102
{ACAD_REACTORS
330
1A
102
}
330
1A
100
AcDbPlotSettings
  1

  2
none_device
  4

  6

 40
0.0
 41
0.0
 42
0.0
 43
0.0
 44
0.0
 45
0.0
 46
0.0
 47
0.0
 48
0.0
 49
0.0
140
0.0
141
0.0
142
1.0
143
1.0
 70
   688
 72
     1
 73
     0
 74
     5
  7

 75
    16
147
1.0
148
0.0
149
0.0
100
AcDbLayout
  1
Layout2
 70
     1
 71
     2
 10
0.0
 20
0.0
 11
0.0
 21
0.0
 12
0.0
 22
0.0
 32
0.0
 14
0.0
 24
0.0
 34
0.0
 15
0.0
 25
0.0
 35
0.0
146
0.0
 13
0.0
 23
0.0
 33
0.0
 16
1.0
 26
0.0
 36
0.0
 17
0.0
 27
1.0
 37
0.0
 76
     0
330
23
  0
LAYOUT
  5
22
102
{ACAD_REACTORS
330
1A
102
}
330
1A
100
AcDbPlotSettings
  1

  2
none_device
  4
ANSI_A_(11.00_x_8.50_Inches)
  6

 40
6.35
 41
19.05
 42
6.35000508
 43
19.05000254
 44
279.4
 45
215.9
 46
107.6591983667253
 47
92.9955395881743
 48
0.0
 49
0.0
140
0.0
141
0.0
142
0.0861435031914558
143
1.0
 70
  1696
 72
     0
 73
     0
 74
     0
  7

 75
     0
147
0.0235690232323232
148
0.0
149
0.0
100
AcDbLayout
  1
Model
 70
     1
 71
     0
 10
0.0
 20
0.0
 11
420.0
 21
297.0
 12
0.0
 22
0.0
 32
0.0
 14
-49.85950340347556
 24
-49.97073246008785
 34
0.0
 15
67.79590529218262
 25
46.83332450504429
 35
0.0
146
0.0
 13
0.0
 23
0.0
 33
0.0
 16
1.0
 26
0.0
 36
0.0
 17
0.0
 27
1.0
 37
0.0
 76
     0
330
1F
331
29
  0
MLINESTYLE
  5
18
102
{ACAD_REACTORS
330
17
102
}
330
17
100
AcDbMlineStyle
  2
Standard
 70
     0
  3

 62
   256
 51
90.0
 52
90.0
 71
     2
 49
0.5
 62
   256
  6
BYLAYER
 49
-0.5
 62
   256
  6
BYLAYER
  0
ACDBPLACEHOLDER
  5
F
102
{ACAD_REACTORS
330
E
102
}
330
E
  0
SCALE
  5
48
102
{ACAD_REACTORS
330
47
102
}
330
47
100
AcDbScale
 70
     0
300
1:1
140
1.0
141
1.0
290
     1
  0
SCALE
  5
49
102
{ACAD_REACTORS
330
47
102
}
330
47
100
AcDbScale
 70
     0
300
1:2
140
1.0
141
2.0
290
     0
  0
SCALE
  5
4A
102
{ACAD_REACTORS
330
47
102
}
330
47
100
AcDbScale
 70
     0
300
1:4
140
1.0
141
4.0
290
     0
  0
SCALE
  5
4B
102
{ACAD_REACTORS
330
47
102
}
330
47
100
AcDbScale
 70
     0
300
1:5
140
1.0
141
5.0
290
     0
  0
SCALE
  5
4C
102
{ACAD_REACTORS
330
47
102
}
330
47
100
AcDbScale
 70
     0
300
1:8
140
1.0
141
8.0
290
     0
  0
SCALE
  5
4D
102
{ACAD_REACTORS
330
47
102
}
330
47
100
AcDbScale
 70
     0
300
1:10
140
1.0
141
10.0
290
     0
  0
SCALE
  5
4E
102
{ACAD_REACTORS
330
47
102
}
330
47
100
AcDbScale
 70
     0
300
1:16
140
1.0
141
16.0
290
     0
  0
SCALE
  5
4F
102
{ACAD_REACTORS
330
47
102
}
330
47
100
AcDbScale
 70
     0
300
1:20
140
1.0
141
20.0
290
     0
  0
SCALE
  5
50
102
{ACAD_REACTORS
330
47
102
}
330
47
100
AcDbScale
 70
     0
300
1:30
140
1.0
141
30.0
290
     0
  0
SCALE
  5
51
102
{ACAD_REACTORS
330
47
102
}
330
47
100
AcDbScale
 70
     0
300
1:40
140
1.0
141
40.0
290
     0
  0
SCALE
  5
52
102
{ACAD_REACTORS
330
47
102
}
330
47
100
AcDbScale
 70
     0
300
1:50
140
1.0
141
50.0
290
     0
  0
SCALE
  5
53
102
{ACAD_REACTORS
330
47
102
}
330
47
100
AcDbScale
 70
     0
300
1:100
140
1.0
141
100.0
290
     0
  0
SCALE
  5
54
102
{ACAD_REACTORS
330
47
102
}
330
47
100
AcDbScale
 70
     0
300
2:1
140
2.0
141
1.0
290
     0
  0
SCALE
  5
55
102
{ACAD_REACTORS
330
47
102
}
330
47
100
AcDbScale
 70
     0
300
4:1
140
4.0
141
1.0
290
     0
  0
SCALE
  5
56
102
{ACAD_REACTORS
330
47
102
}
330
47
100
AcDbScale
 70
     0
300
8:1
140
8.0
141
1.0
290
     0
  0
SCALE
  5
57
102
{ACAD_REACTORS
330
47
102
}
330
47
100
AcDbScale
 70
     0
300
10:1
140
10.0
141
1.0
290
     0
  0
SCALE
  5
58
102
{ACAD_REACTORS
330
47
102
}
330
47
100
AcDbScale
 70
     0
300
100:1
140
100.0
141
1.0
290
     0
  0
SCALE
  5
59
102
{ACAD_REACTORS
330
47
102
}
330
47
100
AcDbScale
 70
     0
300
1/128" = 1'-0"
140
0.0078125
141
12.0
290
     0
  0
SCALE
  5
5A
102
{ACAD_REACTORS
330
47
102
}
330
47
100
AcDbScale
 70
     0
300
1/64" = 1'-0"
140
0.015625
141
12.0
290
     0
  0
SCALE
  5
5B
102
{ACAD_REACTORS
330
47
102
}
330
47
100
AcDbScale
 70
     0
300
1/32" = 1'-0"
140
0.03125
141
12.0
290
     0
  0
SCALE
  5
5C
102
{ACAD_REACTORS
330
47
102
}
330
47
100
AcDbScale
 70
     0
300
1/16" = 1'-0"
140
0.0625
141
12.0
290
     0
  0
SCALE
  5
5D
102
{ACAD_REACTORS
330
47
102
}
330
47
100
AcDbScale
 70
     0
300
3/32" = 1'-0"
140
0.09375
141
12.0
290
     0
  0
SCALE
  5
5E
102
{ACAD_REACTORS
330
47
102
}
330
47
100
AcDbScale
 70
     0
300
1/8" = 1'-0"
140
0.125
141
12.0
290
     0
  0
SCALE
  5
5F
102
{ACAD_REACTORS
330
47
102
}
330
47
100
AcDbScale
 70
     0
300
3/16" = 1'-0"
140
0.1875
141
12.0
290
     0
  0
SCALE
  5
60
102
{ACAD_REACTORS
330
47
102
}
330
47
100
AcDbScale
 70
     0
300
1/4" = 1'-0"
140
0.25
141
12.0
290
     0
  0
SCALE
  5
61
102
{ACAD_REACTORS
330
47
102
}
330
47
100
AcDbScale
 70
     0
300
3/8" = 1'-0"
140
0.375
141
12.0
290
     0
  0
SCALE
  5
62
102
{ACAD_REACTORS
330
47
102
}
330
47
100
AcDbScale
 70
     0
300
1/2" = 1'-0"
140
0.5
141
12.0
290
     0
  0
SCALE
  5
63
102
{ACAD_REACTORS
330
47
102
}
330
47
100
AcDbScale
 70
     0
300
3/4" = 1'-0"
140
0.75
141
12.0
290
     0
  0
SCALE
  5
64
102
{ACAD_REACTORS
330
47
102
}
330
47
100
AcDbScale
 70
     0
300
1" = 1'-0"
140
1.0
141
12.0
290
     0
  0
SCALE
  5
65
102
{ACAD_REACTORS
330
47
102
}
330
47
100
AcDbScale
 70
     0
300
1-1/2" = 1'-0"
140
1.5
141
12.0
290
     0
  0
SCALE
  5
66
102
{ACAD_REACTORS
330
47
102
}
330
47
100
AcDbScale
 70
     0
300
3" = 1'-0"
140
3.0
141
12.0
290
     0
  0
SCALE
  5
67
102
{ACAD_REACTORS
330
47
102
}
330
47
100
AcDbScale
 70
     0
300
6" = 1'-0"
140
6.0
141
12.0
290
     0
  0
SCALE
  5
68
102
{ACAD_REACTORS
330
47
102
}
330
47
100
AcDbScale
 70
     0
300
1'-0" = 1'-0"
140
12.0
141
12.0
290
     0
  0
ENDSEC
  0
EOF
