  0
SECTION
  2
HEADER
  9
$ACADVER
  1
AC1015
  9
$ACADMAINTVER
 70
     6
  9
$DWGCODEPAGE
  3
ANSI_949
  9
$INSBASE
 10
0.0
 20
0.0
 30
0.0
  9
$EXTMIN
 10
-51.85950340347554
 20
-49.97180738881175
 30
0.0
  9
$EXTMAX
 10
43.32186253417581
 20
46.83332450504429
 30
0.0
  9
$LIMMIN
 10
0.0
 20
0.0
  9
$LIMMAX
 10
420.0
 20
297.0
  9
$ORTHOMODE
 70
     1
  9
$REGENMODE
 70
     1
  9
$FILLMODE
 70
     1
  9
$QTEXTMODE
 70
     0
  9
$MIRRTEXT
 70
     1
  9
$LTSCALE
 40
1.0
  9
$ATTMODE
 70
     1
  9
$TEXTSIZE
 40
3.5
  9
$TRACEWID
 40
1.0
  9
$TEXTSTYLE
  7
Standard
  9
$CLAYER
  8
0
  9
$CELTYPE
  6
ByLayer
  9
$CECOLOR
 62
   256
  9
$CELTSCALE
 40
1.0
  9
$DISPSILH
 70
     0
  9
$DIMSCALE
 40
1.0
  9
$DIMASZ
 40
3.302
  9
$DIMEXO
 40
1.0
  9
$DIMDLI
 40
3.75
  9
$DIMRND
 40
0.0
  9
$DIMDLE
 40
0.0
  9
$DIMEXE
 40
1.0
  9
$DIMTP
 40
0.0
  9
$DIMTM
 40
0.0
  9
$DIMTXT
 40
3.5
  9
$DIMCEN
 40
2.5
  9
$DIMTSZ
 40
0.0
  9
$DIMTOL
 70
     0
  9
$DIMLIM
 70
     0
  9
$DIMTIH
 70
     1
  9
$DIMTOH
 70
     1
  9
$DIMSE1
 70
     0
  9
$DIMSE2
 70
     0
  9
$DIMTAD
 70
     1
  9
$DIMZIN
 70
     0
  9
$DIMBLK
  1

  9
$DIMASO
 70
     1
  9
$DIMSHO
 70
     1
  9
$DIMPOST
  1

  9
$DIMAPOST
  1

  9
$DIMALT
 70
     0
  9
$DIMALTD
 70
     3
  9
$DIMALTF
 40
0.0393700787401575
  9
$DIMLFAC
 40
1.0
  9
$DIMTOFL
 70
     1
  9
$DIMTVP
 40
0.0
  9
$DIMTIX
 70
     0
  9
$DIMSOXD
 70
     0
  9
$DIMSAH
 70
     0
  9
$DIMBLK1
  1

  9
$DIMBLK2
  1

  9
$DIMSTYLE
  2
ISO-25
  9
$DIMCLRD
 70
     0
  9
$DIMCLRE
 70
     0
  9
$DIMCLRT
 70
     0
  9
$DIMTFAC
 40
1.0
  9
$DIMGAP
 40
1.524
  9
$DIMJUST
 70
     0
  9
$DIMSD1
 70
     0
  9
$DIMSD2
 70
     0
  9
$DIMTOLJ
 70
     0
  9
$DIMTZIN
 70
     0
  9
$DIMALTZ
 70
     0
  9
$DIMALTTZ
 70
     0
  9
$DIMUPT
 70
     0
  9
$DIMDEC
 70
     2
  9
$DIMTDEC
 70
     2
  9
$DIMALTU
 70
     2
  9
$DIMALTTD
 70
     3
  9
$DIMTXSTY
  7
Standard
  9
$DIMAUNIT
 70
     0
  9
$DIMADEC
 70
     2
  9
$DIMALTRND
 40
0.0
  9
$DIMAZIN
 70
     0
  9
$DIMDSEP
 70
    44
  9
$DIMATFIT
 70
     3
  9
$DIMFRAC
 70
     0
  9
$DIMLDRBLK
  1

  9
$DIMLUNIT
 70
     2
  9
$DIMLWD
 70
    -2
  9
$DIMLWE
 70
    -2
  9
$DIMTMOVE
 70
     0
  9
$LUNITS
 70
     2
  9
$LUPREC
 70
     2
  9
$SKETCHINC
 40
1.0
  9
$FILLETRAD
 40
10.0
  9
$AUNITS
 70
     0
  9
$AUPREC
 70
     2
  9
$MENU
  1
.
  9
$ELEVATION
 40
0.0
  9
$PELEVATION
 40
0.0
  9
$THICKNESS
 40
0.0
  9
$LIMCHECK
 70
     0
  9
$CHAMFERA
 40
0.0
  9
$CHAMFERB
 40
0.0
  9
$CHAMFERC
 40
0.0
  9
$CHAMFERD
 40
0.0
  9
$SKPOLY
 70
     0
  9
$TDCREATE
 40
2458263.792638565
  9
$TDUCREATE
 40
2458263.417638565
  9
$TDUPDATE
 40
2458268.832948183
  9
$TDUUPDATE
 40
2458268.457948183
  9
$TDINDWG
 40
0.0014306481
  9
$TDUSRTIMER
 40
2458268.456517766
  9
$USRTIMER
 70
     1
  9
$ANGBASE
 50
0.0
  9
$ANGDIR
 70
     0
  9
$PDMODE
 70
     0
  9
$PDSIZE
 40
-1.0
  9
$PLINEWID
 40
0.0
  9
$SPLFRAME
 70
     0
  9
$SPLINETYPE
 70
     6
  9
$SPLINESEGS
 70
     8
  9
$HANDSEED
  5
15D
  9
$SURFTAB1
 70
     6
  9
$SURFTAB2
 70
     6
  9
$SURFTYPE
 70
     6
  9
$SURFU
 70
     6
  9
$SURFV
 70
     6
  9
$UCSBASE
  2

  9
$UCSNAME
  2

  9
$UCSORG
 10
0.0
 20
0.0
 30
0.0
  9
$UCSXDIR
 10
1.0
 20
0.0
 30
0.0
  9
$UCSYDIR
 10
0.0
 20
1.0
 30
0.0
  9
$UCSORTHOREF
  2

  9
$UCSORTHOVIEW
 70
     0
  9
$UCSORGTOP
 10
0.0
 20
0.0
 30
0.0
  9
$UCSORGBOTTOM
 10
0.0
 20
0.0
 30
0.0
  9
$UCSORGLEFT
 10
0.0
 20
0.0
 30
0.0
  9
$UCSORGRIGHT
 10
0.0
 20
0.0
 30
0.0
  9
$UCSORGFRONT
 10
0.0
 20
0.0
 30
0.0
  9
$UCSORGBACK
 10
0.0
 20
0.0
 30
0.0
  9
$PUCSBASE
  2

  9
$PUCSNAME
  2

  9
$PUCSORG
 10
0.0
 20
0.0
 30
0.0
  9
$PUCSXDIR
 10
1.0
 20
0.0
 30
0.0
  9
$PUCSYDIR
 10
0.0
 20
1.0
 30
0.0
  9
$PUCSORTHOREF
  2

  9
$PUCSORTHOVIEW
 70
     0
  9
$PUCSORGTOP
 10
0.0
 20
0.0
 30
0.0
  9
$PUCSORGBOTTOM
 10
0.0
 20
0.0
 30
0.0
  9
$PUCSORGLEFT
 10
0.0
 20
0.0
 30
0.0
  9
$PUCSORGRIGHT
 10
0.0
 20
0.0
 30
0.0
  9
$PUCSORGFRONT
 10
0.0
 20
0.0
 30
0.0
  9
$PUCSORGBACK
 10
0.0
 20
0.0
 30
0.0
  9
$USERI1
 70
     0
  9
$USERI2
 70
     0
  9
$USERI3
 70
     0
  9
$USERI4
 70
     0
  9
$USERI5
 70
     0
  9
$USERR1
 40
0.0
  9
$USERR2
 40
0.0
  9
$USERR3
 40
0.0
  9
$USERR4
 40
0.0
  9
$USERR5
 40
0.0
  9
$WORLDVIEW
 70
     1
  9
$SHADEDGE
 70
     3
  9
$SHADEDIF
 70
    70
  9
$TILEMODE
 70
     1
  9
$MAXACTVP
 70
    64
  9
$PINSBASE
 10
0.0
 20
0.0
 30
0.0
  9
$PLIMCHECK
 70
     0
  9
$PEXTMIN
 10
1.000000000000000E+20
 20
1.000000000000000E+20
 30
1.000000000000000E+20
  9
$PEXTMAX
 10
-1.000000000000000E+20
 20
-1.000000000000000E+20
 30
-1.000000000000000E+20
  9
$PLIMMIN
 10
0.0
 20
0.0
  9
$PLIMMAX
 10
0.0
 20
0.0
  9
$UNITMODE
 70
     0
  9
$VISRETAIN
 70
     1
  9
$PLINEGEN
 70
     0
  9
$PSLTSCALE
 70
     1
  9
$TREEDEPTH
 70
  3020
  9
$CMLSTYLE
  2
Standard
  9
$CMLJUST
 70
     0
  9
$CMLSCALE
 40
20.0
  9
$PROXYGRAPHICS
 70
     1
  9
$MEASUREMENT
 70
     1
  9
$CELWEIGHT
370
    -1
  9
$ENDCAPS
280
     0
  9
$JOINSTYLE
280
     0
  9
$LWDISPLAY
290
     1
  9
$INSUNITS
 70
     4
  9
$HYPERLINKBASE
  1

  9
$STYLESHEET
  1

  9
$XEDIT
290
     1
  9
$CEPSNTYPE
380
     0
  9
$PSTYLEMODE
290
     1
  9
$FINGERPRINTGUID
  2
{FA785494-A237-449E-8484-4E22F6B98F00}
  9
$VERSIONGUID
  2
{FAEB1C32-E019-11D5-929B-00C0DF256EC4}
  9
$EXTNAMES
290
     1
  9
$PSVPSCALE
 40
0.0
  9
$OLESTARTUP
290
     0
  0
ENDSEC
  0
SECTION
  2
CLASSES
  0
CLASS
  1
ACDBDICTIONARYWDFLT
  2
AcDbDictionaryWithDefault
  3
ObjectDBX Classes
 90
        0
280
     0
281
     0
  0
CLASS
  1
VISUALSTYLE
  2
AcDbVisualStyle
  3
ObjectDBX Classes
 90
     4095
280
     0
281
     0
  0
CLASS
  1
MATERIAL
  2
AcDbMaterial
  3
ObjectDBX Classes
 90
     1153
280
     0
281
     0
  0
CLASS
  1
SCALE
  2
AcDbScale
  3
ObjectDBX Classes
 90
     1153
280
     0
281
     0
  0
CLASS
  1
TABLESTYLE
  2
AcDbTableStyle
  3
ObjectDBX Classes
 90
     4095
280
     0
281
     0
  0
CLASS
  1
MLEADERSTYLE
  2
AcDbMLeaderStyle
  3
ACDB_MLEADERSTYLE_CLASS
 90
     4095
280
     0
281
     0
  0
CLASS
  1
SUN
  2
AcDbSun
  3
SCENEOE
 90
     1153
280
     0
281
     0
  0
CLASS
  1
ACDBPLACEHOLDER
  2
AcDbPlaceHolder
  3
ObjectDBX Classes
 90
        0
280
     0
281
     0
  0
CLASS
  1
LAYOUT
  2
AcDbLayout
  3
ObjectDBX Classes
 90
        0
280
     0
281
     0
  0
CLASS
  1
RASTERVARIABLES
  2
AcDbRasterVariables
  3
ISM
 90
        0
280
     0
281
     0
  0
CLASS
  1
DIMASSOC
  2
AcDbDimAssoc
  3
"AcDbDimAssoc|Product Desc:     AcDim ARX App For Dimension|Company:          Autodesk, Inc.|WEB Address:      www.autodesk.com"
 90
        0
280
     0
281
     0
  0
ENDSEC
  0
SECTION
  2
TABLES
  0
TABLE
  2
VPORT
  5
8
330
0
100
AcDbSymbolTable
 70
     1
  0
VPORT
  5
29
330
8
100
AcDbSymbolTableRecord
100
AcDbViewportTableRecord
  2
*Active
 70
     0
 10
0.0
 20
0.0
 11
1.0
 21
1.0
 12
34.95778335575759
 22
-7.116258595807201
 13
0.0
 23
0.0
 14
10.0
 24
10.0
 15
10.0
 25
10.0
 16
0.0
 26
0.0
 36
1.0
 17
0.0
 27
0.0
 37
0.0
 40
51.73185421493798
 41
1.742632612966601
 42
50.0
 43
0.0
 44
0.0
 50
0.0
 51
0.0
 71
    16
 72
  2000
 73
     1
 74
     3
 75
     0
 76
     0
 77
     0
 78
     0
281
     0
 65
     1
110
0.0
120
0.0
130
0.0
111
1.0
121
0.0
131
0.0
112
0.0
122
1.0
132
0.0
 79
     0
146
0.0
  0
ENDTAB
  0
TABLE
  2
LTYPE
  5
5
330
0
100
AcDbSymbolTable
 70
     6
  0
LTYPE
  5
14
330
5
100
AcDbSymbolTableRecord
100
AcDbLinetypeTableRecord
  2
ByBlock
 70
     0
  3

 72
    65
 73
     0
 40
0.0
  0
LTYPE
  5
15
330
5
100
AcDbSymbolTableRecord
100
AcDbLinetypeTableRecord
  2
ByLayer
 70
     0
  3

 72
    65
 73
     0
 40
0.0
  0
LTYPE
  5
16
330
5
100
AcDbSymbolTableRecord
100
AcDbLinetypeTableRecord
  2
Continuous
 70
     0
  3
Solid line
 72
    65
 73
     0
 40
0.0
  0
LTYPE
  5
6E
330
5
100
AcDbSymbolTableRecord
100
AcDbLinetypeTableRecord
  2
HIDDEN
 70
     0
  3
Hidden __ __ __ __ __ __ __ __ __ __ __ __ __ __
 72
    65
 73
     2
 40
1.905
 49
1.27
 74
     0
 49
-0.635
 74
     0
  0
LTYPE
  5
6F
330
5
100
AcDbSymbolTableRecord
100
AcDbLinetypeTableRecord
  2
PHANTOM
 70
     0
  3
Phantom ______  __  __  ______  __  __  ______
 72
    65
 73
     6
 40
12.7
 49
6.35
 74
     0
 49
-1.27
 74
     0
 49
1.27
 74
     0
 49
-1.27
 74
     0
 49
1.27
 74
     0
 49
-1.27
 74
     0
  0
LTYPE
  5
70
330
5
100
AcDbSymbolTableRecord
100
AcDbLinetypeTableRecord
  2
CENTER
 70
     0
  3
Center ____ _ ____ _ ____ _ ____ _ ____ _ ____
 72
    65
 73
     4
 40
10.16
 49
6.35
 74
     0
 49
-1.27
 74
     0
 49
1.27
 74
     0
 49
-1.27
 74
     0
  0
LTYPE
  5
71
330
5
100
AcDbSymbolTableRecord
100
AcDbLinetypeTableRecord
  2
CENTERX2
 70
     0
  3
Center (2x) ________  __  ________  __  _____
 72
    65
 73
     4
 40
20.32
 49
12.7
 74
     0
 49
-2.54
 74
     0
 49
2.54
 74
     0
 49
-2.54
 74
     0
  0
LTYPE
  5
72
330
5
100
AcDbSymbolTableRecord
100
AcDbLinetypeTableRecord
  2
DOT2
 70
     0
  3
Dot (.5x) ........................................
 72
    65
 73
     2
 40
0.635
 49
0.0
 74
     0
 49
-0.635
 74
     0
  0
ENDTAB
  0
TABLE
  2
LAYER
  5
2
330
0
100
AcDbSymbolTable
 70
    17
  0
LAYER
  5
10
330
2
100
AcDbSymbolTableRecord
100
AcDbLayerTableRecord
  2
0
 70
     0
 62
     7
  6
Continuous
370
    -3
390
F
  0
LAYER
  5
73
330
2
100
AcDbSymbolTableRecord
100
AcDbLayerTableRecord
  2
FORMAT
 70
     0
 62
     2
  6
Continuous
370
    -3
390
F
  0
LAYER
  5
74
330
2
100
AcDbSymbolTableRecord
100
AcDbLayerTableRecord
  2
외형선
 70
     0
 62
   100
  6
Continuous
370
    35
390
F
  0
LAYER
  5
75
330
2
100
AcDbSymbolTableRecord
100
AcDbLayerTableRecord
  2
숨은선
 70
     0
 62
     2
  6
HIDDEN
370
    25
390
F
  0
LAYER
  5
76
330
2
100
AcDbSymbolTableRecord
100
AcDbLayerTableRecord
  2
중심선
 70
     0
 62
     1
  6
CENTERX2
370
    -3
390
F
  0
LAYER
  5
77
330
2
100
AcDbSymbolTableRecord
100
AcDbLayerTableRecord
  2
파단선
 70
     0
 62
     4
  6
Continuous
370
    -3
390
F
  0
LAYER
  5
78
330
2
100
AcDbSymbolTableRecord
100
AcDbLayerTableRecord
  2
해칭선
 70
     0
 62
     4
  6
Continuous
370
    -3
390
F
  0
LAYER
  5
79
330
2
100
AcDbSymbolTableRecord
100
AcDbLayerTableRecord
  2
가는실선
 70
     0
 62
     4
  6
Continuous
370
    -3
390
F
  0
LAYER
  5
7A
330
2
100
AcDbSymbolTableRecord
100
AcDbLayerTableRecord
  2
치수_보조선
 70
     0
 62
     4
  6
Continuous
370
    -3
390
F
  0
LAYER
  5
7B
330
2
100
AcDbSymbolTableRecord
100
AcDbLayerTableRecord
  2
치수문자_일반주서
 70
     0
 62
     7
  6
Continuous
370
    25
390
F
  0
LAYER
  5
7C
330
2
100
AcDbSymbolTableRecord
100
AcDbLayerTableRecord
  2
개별주서
 70
     0
 62
   100
  6
Continuous
370
    35
390
F
  0
LAYER
  5
7D
330
2
100
AcDbSymbolTableRecord
100
AcDbLayerTableRecord
  2
중간선
 70
     0
 62
     2
  6
Continuous
370
    25
390
F
  0
LAYER
  5
7E
330
2
100
AcDbSymbolTableRecord
100
AcDbLayerTableRecord
  2
윤곽선
 70
     0
 62
     3
  6
Continuous
370
    50
390
F
  0
LAYER
  5
7F
330
2
100
AcDbSymbolTableRecord
100
AcDbLayerTableRecord
  2
중심마크
 70
     0
 62
   100
  6
Continuous
370
    35
390
F
  0
LAYER
  5
80
330
2
100
AcDbSymbolTableRecord
100
AcDbLayerTableRecord
  2
가상선
 70
     0
 62
     4
  6
PHANTOM
370
    -3
390
F
  0
LAYER
  5
81
330
2
100
AcDbSymbolTableRecord
100
AcDbLayerTableRecord
  2
특수지정선
 70
     0
 62
     5
  6
CENTERX2
370
    70
390
F
  0
LAYER
  5
13D
330
2
100
AcDbSymbolTableRecord
100
AcDbLayerTableRecord
  2
Defpoints
 70
     0
 62
     7
  6
Continuous
290
     0
370
    -3
390
F
  0
ENDTAB
  0
TABLE
  2
STYLE
  5
3
330
0
100
AcDbSymbolTable
 70
     2
  0
STYLE
  5
11
330
3
100
AcDbSymbolTableRecord
100
AcDbTextStyleTableRecord
  2
Standard
 70
     0
 40
0.0
 41
1.0
 50
0.0
 71
     0
 42
3.5
  3
txt
  4

  0
STYLE
  5
97
330
3
100
AcDbSymbolTableRecord
100
AcDbTextStyleTableRecord
  2
SLDTEXTSTYLE0
 70
     0
 40
0.0
 41
0.75
 50
0.0
 71
     0
 42
3.5
  3
TXT
  4

  0
ENDTAB
  0
TABLE
  2
VIEW
  5
6
330
0
100
AcDbSymbolTable
 70
     0
  0
ENDTAB
  0
TABLE
  2
UCS
  5
7
330
0
100
AcDbSymbolTable
 70
     0
  0
ENDTAB
  0
TABLE
  2
APPID
  5
9
330
0
100
AcDbSymbolTable
 70
     2
  0
APPID
  5
12
330
9
100
AcDbSymbolTableRecord
100
AcDbRegAppTableRecord
  2
ACAD
 70
     0
  0
APPID
  5
14E
330
9
100
AcDbSymbolTableRecord
100
AcDbRegAppTableRecord
  2
ACAD_DSTYLE_DIMRADIAL_EXTENSION
 70
     0
  0
ENDTAB
  0
TABLE
  2
DIMSTYLE
  5
A
330
0
100
AcDbSymbolTable
 70
     3
100
AcDbDimStyleTable
  0
DIMSTYLE
105
27
330
A
100
AcDbSymbolTableRecord
100
AcDbDimStyleTableRecord
  2
ISO-25
 70
     0
 41
2.5
 42
0.625
 43
3.75
 44
1.25
 73
     0
 74
     0
 77
     1
 78
     8
140
2.5
141
2.5
143
0.03937007874016
147
0.625
171
     3
172
     1
178
     0
271
     2
272
     2
274
     3
278
    44
283
     0
284
     8
340
11
  0
DIMSTYLE
105
D5
102
{ACAD_REACTORS
330
D4
330
E2
330
F9
330
105
330
14F
102
}
330
A
100
AcDbSymbolTableRecord
100
AcDbDimStyleTableRecord
  2
SLDDIMSTYLE0
 70
     0
 41
3.302
 44
0.0
 45
0.000000001
 73
     0
 74
     0
 77
     1
 78
    12
 79
     3
140
3.5
147
0.875
172
     1
173
     1
178
     0
271
     2
272
     2
276
     2
284
    12
289
     0
340
97
  0
DIMSTYLE
105
EF
102
{ACAD_REACTORS
330
EE
102
}
330
A
100
AcDbSymbolTableRecord
100
AcDbDimStyleTableRecord
  2
SLDDIMSTYLE1
 70
     0
 41
3.302
 44
0.0
 45
0.000000001
 73
     0
 74
     0
 77
     1
 78
    12
 79
     3
140
3.5
147
0.875
173
     1
178
     0
271
     2
272
     2
276
     2
284
    12
340
97
  0
ENDTAB
  0
TABLE
  2
BLOCK_RECORD
  5
1
330
0
100
AcDbSymbolTable
 70
     9
  0
BLOCK_RECORD
  5
1F
330
1
100
AcDbSymbolTableRecord
100
AcDbBlockTableRecord
  2
*Model_Space
340
22
  0
BLOCK_RECORD
  5
1B
330
1
100
AcDbSymbolTableRecord
100
AcDbBlockTableRecord
  2
*Paper_Space
340
1E
  0
BLOCK_RECORD
  5
23
330
1
100
AcDbSymbolTableRecord
100
AcDbBlockTableRecord
  2
*Paper_Space0
340
26
  0
BLOCK_RECORD
  5
82
330
1
100
AcDbSymbolTableRecord
100
AcDbBlockTableRecord
  2
블럭10
340
0
102
{BLKREFS
331
CD
102
}
  0
BLOCK_RECORD
  5
D6
330
1
100
AcDbSymbolTableRecord
100
AcDbBlockTableRecord
  2
_D
340
0
  0
BLOCK_RECORD
  5
E3
330
1
100
AcDbSymbolTableRecord
100
AcDbBlockTableRecord
  2
_D_1
340
0
  0
BLOCK_RECORD
  5
F0
330
1
100
AcDbSymbolTableRecord
100
AcDbBlockTableRecord
  2
_D_2
340
0
  0
BLOCK_RECORD
  5
FA
330
1
100
AcDbSymbolTableRecord
100
AcDbBlockTableRecord
  2
_D_3
340
0
  0
BLOCK_RECORD
  5
106
330
1
100
AcDbSymbolTableRecord
100
AcDbBlockTableRecord
  2
_D_4
340
0
  0
BLOCK_RECORD
  5
112
330
1
100
AcDbSymbolTableRecord
100
AcDbBlockTableRecord
  2
SW_DOWELSYMBOL_0
340
0
102
{BLKREFS
331
118
102
}
  0
BLOCK_RECORD
  5
152
330
1
100
AcDbSymbolTableRecord
100
AcDbBlockTableRecord
  2
*D8
340
0
  0
ENDTAB
  0
ENDSEC
  0
SECTION
  2
BLOCKS
  0
BLOCK
  5
20
330
1F
100
AcDbEntity
  8
0
100
AcDbBlockBegin
  2
*Model_Space
 70
     0
 10
0.0
 20
0.0
 30
0.0
  3
*Model_Space
  1
*Model_Space
  0
ENDBLK
  5
21
330
1F
100
AcDbEntity
  8
0
100
AcDbBlockEnd
  0
BLOCK
  5
1C
330
1B
100
AcDbEntity
 67
     1
  8
0
100
AcDbBlockBegin
  2
*Paper_Space
 70
     0
 10
0.0
 20
0.0
 30
0.0
  3
*Paper_Space
  1
*Paper_Space
  0
ENDBLK
  5
1D
330
1B
100
AcDbEntity
 67
     1
  8
0
100
AcDbBlockEnd
  0
BLOCK
  5
24
330
23
100
AcDbEntity
  8
0
100
AcDbBlockBegin
  2
*Paper_Space0
 70
     0
 10
0.0
 20
0.0
 30
0.0
  3
*Paper_Space0
  1
*Paper_Space0
  0
ENDBLK
  5
25
330
23
100
AcDbEntity
  8
0
100
AcDbBlockEnd
  0
BLOCK
  5
83
330
82
100
AcDbEntity
  8
0
100
AcDbBlockBegin
  2
블럭10
 70
     2
 10
0.0
 20
0.0
 30
0.0
  3
블럭10
  1
블럭10
  0
ELLIPSE
  5
85
330
82
100
AcDbEntity
  8
중심선
100
AcDbEllipse
 10
20.54032771741204
 20
12.0471743016438
 30
0.0
 11
6.600054785286829
 21
-1.261213355974178E-13
 31
0.0
210
0.0
220
0.0
230
1.0
 40
0.636358354079598
 41
0.9219305317359503
 42
6.513795318482858
  0
ELLIPSE
  5
86
330
82
100
AcDbEntity
  8
중심선
100
AcDbEllipse
 10
20.54032771746488
 20
12.04717430159265
 30
0.0
 11
3.960054785062283
 21
1.540847449632565E-10
 31
0.0
210
0.0
220
0.0
230
1.0
 40
0.3939339440162632
 41
1.131841032648279
 42
5.62031148352944
  0
LINE
  5
87
330
82
100
AcDbEntity
  8
중심선
100
AcDbLine
 10
2.268634060543552
 20
16.24717430164393
 30
0.0
 11
5.714909304380834
 21
16.24717430164393
 31
0.0
  0
LINE
  5
88
330
82
100
AcDbEntity
  8
중심선
100
AcDbLine
 10
5.245725140726316
 20
7.84717430164391
 30
0.0
 11
8.692000384563599
 21
7.84717430164391
 31
0.0
  0
LINE
  5
89
330
82
100
AcDbEntity
  8
중심선
100
AcDbLine
 10
15.74043728645272
 20
16.24717430164393
 30
0.0
 11
8.692000384563599
 21
7.84717430164391
 31
0.0
  0
LINE
  5
8A
330
82
100
AcDbEntity
  8
중심선
100
AcDbLine
 10
0.1404042013395286
 20
13.71084872107135
 30
0.0
 11
3.58671253028996
 21
13.71088815037384
 31
0.0
  0
LINE
  5
8B
330
82
100
AcDbEntity
  8
중심선
100
AcDbLine
 10
2.750260043222114
 20
10.84717430164391
 30
0.0
 11
6.196535287059397
 21
10.84717430164391
 31
0.0
  0
LINE
  5
8C
330
82
100
AcDbEntity
  8
중심선
100
AcDbLine
 10
12.29416204261559
 20
16.24717430164393
 30
0.0
 11
5.245725140726316
 21
7.84717430164391
 31
0.0
  0
LINE
  5
8D
330
82
100
AcDbEntity
  8
중심선
100
AcDbLine
 10
10.72767329541681
 20
16.24717430164393
 30
0.0
 11
6.196535287059397
 21
10.84717430164391
 31
0.0
  0
LINE
  5
8E
330
82
100
AcDbEntity
  8
중심선
100
AcDbLine
 10
7.28139805157953
 20
16.24717430164393
 30
0.0
 11
2.750260043222114
 21
10.84717430164391
 31
0.0
  0
LINE
  5
8F
330
82
100
AcDbEntity
  8
중심선
100
AcDbLine
 10
5.714909304380834
 20
16.24717430164393
 30
0.0
 11
3.58671253028996
 21
13.71088815037384
 31
0.0
  0
LINE
  5
90
330
82
100
AcDbEntity
  8
중심선
100
AcDbLine
 10
2.268634060543552
 20
16.24717430164393
 30
0.0
 11
0.1404042013395286
 21
13.71084872107135
 31
0.0
  0
LINE
  5
91
330
82
100
AcDbEntity
  8
중심선
100
AcDbLine
 10
7.28139805157953
 20
16.24717430164393
 30
0.0
 11
10.72767329541681
 21
16.24717430164393
 31
0.0
  0
LINE
  5
92
330
82
100
AcDbEntity
  8
중심선
100
AcDbLine
 10
12.29416204261559
 20
16.24717430164393
 30
0.0
 11
15.74043728645272
 21
16.24717430164393
 31
0.0
  0
LINE
  5
93
330
82
100
AcDbEntity
  8
중심선
100
AcDbLine
 10
19.22036997980202
 20
11.08717430171403
 30
0.0
 11
23.66174974927406
 21
11.08717430171406
 31
0.0
  0
LINE
  5
94
330
82
100
AcDbEntity
  8
중심선
100
AcDbLine
 10
19.22039502424796
 20
13.00717430171391
 30
0.0
 11
19.22036997980202
 21
11.08717430171403
 31
0.0
  0
LINE
  5
95
330
82
100
AcDbEntity
  8
중심선
100
AcDbLine
 10
19.22039502424796
 20
13.00717430171391
 30
0.0
 11
26.96566020931264
 21
13.00717430171391
 31
0.0
  0
LINE
  5
96
330
82
100
AcDbEntity
  8
중심선
100
AcDbLine
 10
22.22332737316547
 20
13.45928029700563
 30
0.0
 11
24.52862924686651
 21
15.39360700705356
 31
0.0
  0
ATTDEF
  5
98
330
82
100
AcDbEntity
  8
FORMAT
 62
     2
100
AcDbText
 10
-19.27858288401334
 20
2.075366912832191
 30
0.0
 40
4.233333333333333
  1
SEME610400120E [ 2 FLUTE ]
 41
0.75
  7
SLDTEXTSTYLE0
 11
-19.27858288401334
 21
-0.0412997538344756
 31
0.0
100
AcDbAttributeDefinition
  3

  2
AUTOATTR0
 70
     0
 74
     1
  0
ENDBLK
  5
84
330
82
100
AcDbEntity
  8
0
100
AcDbBlockEnd
  0
BLOCK
  5
D7
330
D6
100
AcDbEntity
  8
0
100
AcDbBlockBegin
  2
_D
 70
     0
 10
0.0
 20
0.0
 30
0.0
  3
_D
  1
_D
  0
LINE
  5
D9
330
D6
100
AcDbEntity
  8
치수문자_일반주서
 62
     0
370
    -2
100
AcDbLine
 10
-35.05054538186346
 20
2.999999999999996
 30
0.0
 11
-47.48450340347554
 21
2.999999999999949
 31
0.0
  0
LINE
  5
DA
330
D6
100
AcDbEntity
  8
치수문자_일반주서
 62
     0
370
    -2
100
AcDbLine
 10
-35.05054538186346
 20
-3.000000000000001
 30
0.0
 11
-47.48450340347552
 21
-3.000000000000048
 31
0.0
  0
LINE
  5
DB
330
D6
100
AcDbEntity
  8
치수문자_일반주서
 62
     0
370
    -2
100
AcDbLine
 10
-47.48450340347553
 20
-0.3020000000000507
 30
0.0
 11
-47.48450340347554
 21
0.3019999999999516
 31
0.0
  0
SOLID
  5
DC
330
D6
100
AcDbEntity
  8
치수문자_일반주서
 62
     0
100
AcDbTrace
 10
-46.93417007014219
 20
-0.3020000000000487
 30
0.0
 11
-48.03483673680886
 21
-0.3020000000000526
 31
0.0
 12
-47.48450340347554
 22
2.999999999999949
 32
0.0
 13
-47.48450340347554
 23
2.999999999999949
 33
0.0
  0
SOLID
  5
DD
330
D6
100
AcDbEntity
  8
치수문자_일반주서
 62
     0
100
AcDbTrace
 10
-48.03483673680887
 20
0.3019999999999497
 30
0.0
 11
-46.9341700701422
 21
0.3019999999999536
 31
0.0
 12
-47.48450340347552
 22
-3.000000000000048
 32
0.0
 13
-47.48450340347552
 23
-3.000000000000048
 33
0.0
  0
MTEXT
  5
DE
330
D6
100
AcDbEntity
  8
치수문자_일반주서
 62
     0
100
AcDbMText
 10
-51.85950340347554
 20
-0.0000000000000178
 30
0.0
 40
3.5
 41
0.0
 71
     2
 72
     1
  1
\A1;%%c6
  7
SLDTEXTSTYLE0
 11
-3.552713678800503E-15
 21
1.0
 31
0.0
 73
     1
 44
1.0
  0
POINT
  5
DF
330
D6
100
AcDbEntity
  8
Defpoints
 62
     0
100
AcDbPoint
 10
-34.98804538186346
 20
2.999999999999996
 30
0.0
  0
POINT
  5
E0
330
D6
100
AcDbEntity
  8
Defpoints
 62
     0
100
AcDbPoint
 10
-34.98804538186346
 20
-3.000000000000001
 30
0.0
  0
POINT
  5
E1
330
D6
100
AcDbEntity
  8
Defpoints
 62
     0
100
AcDbPoint
 10
-47.48450340347554
 20
-3.000000000000048
 30
0.0
  0
ENDBLK
  5
D8
330
D6
100
AcDbEntity
  8
0
100
AcDbBlockEnd
  0
BLOCK
  5
E4
330
E3
100
AcDbEntity
  8
0
100
AcDbBlockBegin
  2
_D_1
 70
     0
 10
0.0
 20
0.0
 30
0.0
  3
_D_1
  1
_D_1
  0
LINE
  5
E6
330
E3
100
AcDbEntity
  8
치수문자_일반주서
 62
     0
370
    -2
100
AcDbLine
 10
24.01195461813653
 20
1.9625
 30
0.0
 11
24.01195461813653
 21
20.39999999999966
 31
0.0
  0
LINE
  5
E7
330
E3
100
AcDbEntity
  8
치수문자_일반주서
 62
     0
370
    -2
100
AcDbLine
 10
18.01195461813654
 20
1.644014153956214
 30
0.0
 11
18.01195461813654
 21
20.39999999999966
 31
0.0
  0
LINE
  5
E8
330
E3
100
AcDbEntity
  8
치수문자_일반주서
 62
     0
370
    -2
100
AcDbLine
 10
20.70995461813653
 20
20.39999999999966
 30
0.0
 11
21.31395461813653
 21
20.39999999999966
 31
0.0
  0
SOLID
  5
E9
330
E3
100
AcDbEntity
  8
치수문자_일반주서
 62
     0
100
AcDbTrace
 10
20.70995461813653
 20
19.84966666666632
 30
0.0
 11
20.70995461813653
 21
20.95033333333299
 31
0.0
 12
24.01195461813653
 22
20.39999999999966
 32
0.0
 13
24.01195461813653
 23
20.39999999999966
 33
0.0
  0
SOLID
  5
EA
330
E3
100
AcDbEntity
  8
치수문자_일반주서
 62
     0
100
AcDbTrace
 10
21.31395461813653
 20
20.95033333333299
 30
0.0
 11
21.31395461813653
 21
19.84966666666632
 31
0.0
 12
18.01195461813654
 22
20.39999999999966
 32
0.0
 13
18.01195461813654
 23
20.39999999999966
 33
0.0
  0
MTEXT
  5
EB
330
E3
100
AcDbEntity
  8
치수문자_일반주서
 62
     0
100
AcDbMText
 10
20.9191733262003
 20
24.77499999999966
 30
0.0
 40
3.5
 41
0.0
 71
     2
 72
     1
  1
\A1;6
  7
SLDTEXTSTYLE0
 73
     1
 44
1.0
  0
POINT
  5
EC
330
E3
100
AcDbEntity
  8
Defpoints
 62
     0
100
AcDbPoint
 10
24.01195461813653
 20
1.9
 30
0.0
  0
POINT
  5
ED
330
E3
100
AcDbEntity
  8
Defpoints
 62
     0
100
AcDbPoint
 10
18.01195461813654
 20
1.581514153956214
 30
0.0
  0
POINT
  5
142
330
E3
100
AcDbEntity
  8
Defpoints
 62
     0
100
AcDbPoint
 10
18.01195461813654
 20
20.39999999999966
 30
0.0
  0
ENDBLK
  5
E5
330
E3
100
AcDbEntity
  8
0
100
AcDbBlockEnd
  0
BLOCK
  5
F1
330
F0
100
AcDbEntity
  8
0
100
AcDbBlockBegin
  2
_D_2
 70
     0
 10
0.0
 20
0.0
 30
0.0
  3
_D_2
  1
_D_2
  0
LINE
  5
F3
330
F0
100
AcDbEntity
  8
치수문자_일반주서
 62
     0
370
    -2
100
AcDbLine
 10
24.01195461813653
 20
1.9625
 30
0.0
 11
24.01195461813653
 21
42.45832450504429
 31
0.0
  0
LINE
  5
F4
330
F0
100
AcDbEntity
  8
치수문자_일반주서
 62
     0
370
    -2
100
AcDbLine
 10
-35.98804538186346
 20
2.062499999999995
 30
0.0
 11
-35.98804538186346
 21
42.45832450504429
 31
0.0
  0
LINE
  5
F5
330
F0
100
AcDbEntity
  8
치수문자_일반주서
 62
     0
370
    -2
100
AcDbLine
 10
20.70995461813653
 20
42.45832450504429
 30
0.0
 11
-32.68604538186346
 21
42.45832450504429
 31
0.0
  0
SOLID
  5
F6
330
F0
100
AcDbEntity
  8
치수문자_일반주서
 62
     0
100
AcDbTrace
 10
20.70995461813653
 20
41.90799117171095
 30
0.0
 11
20.70995461813653
 21
43.00865783837762
 31
0.0
 12
24.01195461813653
 22
42.45832450504429
 32
0.0
 13
24.01195461813653
 23
42.45832450504429
 33
0.0
  0
SOLID
  5
F7
330
F0
100
AcDbEntity
  8
치수문자_일반주서
 62
     0
100
AcDbTrace
 10
-32.68604538186346
 20
43.00865783837762
 30
0.0
 11
-32.68604538186346
 21
41.90799117171095
 31
0.0
 12
-35.98804538186346
 22
42.45832450504429
 32
0.0
 13
-35.98804538186346
 23
42.45832450504429
 33
0.0
  0
MTEXT
  5
F8
330
F0
100
AcDbEntity
  8
치수문자_일반주서
 62
     0
100
AcDbMText
 10
-5.988045381863467
 20
46.83332450504429
 30
0.0
 40
3.5
 41
0.0
 71
     2
 72
     1
  1
\A1;60
  7
SLDTEXTSTYLE0
 73
     1
 44
1.0
  0
POINT
  5
146
330
F0
100
AcDbEntity
  8
Defpoints
 62
     0
100
AcDbPoint
 10
24.01195461813653
 20
1.9
 30
0.0
  0
POINT
  5
147
330
F0
100
AcDbEntity
  8
Defpoints
 62
     0
100
AcDbPoint
 10
-35.98804538186346
 20
1.999999999999995
 30
0.0
  0
POINT
  5
148
330
F0
100
AcDbEntity
  8
Defpoints
 62
     0
100
AcDbPoint
 10
-35.98804538186346
 20
42.45832450504429
 30
0.0
  0
ENDBLK
  5
F2
330
F0
100
AcDbEntity
  8
0
100
AcDbBlockEnd
  0
BLOCK
  5
FB
330
FA
100
AcDbEntity
  8
0
100
AcDbBlockBegin
  2
_D_3
 70
     0
 10
0.0
 20
0.0
 30
0.0
  3
_D_3
  1
_D_3
  0
LINE
  5
FD
330
FA
100
AcDbEntity
  8
치수문자_일반주서
 62
     0
370
    -2
100
AcDbLine
 10
24.01195461813653
 20
1.959800810639996
 30
0.0
 11
24.01195461813653
 21
30.31999999999866
 31
0.0
  0
LINE
  5
FE
330
FA
100
AcDbEntity
  8
치수문자_일반주서
 62
     0
370
    -2
100
AcDbLine
 10
4.011954618136533
 20
1.9875
 30
0.0
 11
4.011954618136533
 21
30.31999999999866
 31
0.0
  0
LINE
  5
FF
330
FA
100
AcDbEntity
  8
치수문자_일반주서
 62
     0
370
    -2
100
AcDbLine
 10
20.70995461813653
 20
30.31999999999866
 30
0.0
 11
7.313954618136533
 21
30.31999999999866
 31
0.0
  0
SOLID
  5
100
330
FA
100
AcDbEntity
  8
치수문자_일반주서
 62
     0
100
AcDbTrace
 10
20.70995461813653
 20
29.76966666666532
 30
0.0
 11
20.70995461813653
 21
30.87033333333199
 31
0.0
 12
24.01195461813653
 22
30.31999999999866
 32
0.0
 13
24.01195461813653
 23
30.31999999999866
 33
0.0
  0
SOLID
  5
101
330
FA
100
AcDbEntity
  8
치수문자_일반주서
 62
     0
100
AcDbTrace
 10
7.313954618136533
 20
30.87033333333199
 30
0.0
 11
7.313954618136533
 21
29.76966666666532
 31
0.0
 12
4.011954618136533
 22
30.31999999999866
 32
0.0
 13
4.011954618136533
 23
30.31999999999866
 33
0.0
  0
MTEXT
  5
102
330
FA
100
AcDbEntity
  8
치수문자_일반주서
 62
     0
100
AcDbMText
 10
14.01195461813653
 20
34.69499999999866
 30
0.0
 40
3.5
 41
0.0
 71
     2
 72
     1
  1
\A1;20
  7
SLDTEXTSTYLE0
 73
     1
 44
1.0
  0
POINT
  5
103
330
FA
100
AcDbEntity
  8
Defpoints
 62
     0
100
AcDbPoint
 10
24.01195461813653
 20
1.897300810639996
 30
0.0
  0
POINT
  5
104
330
FA
100
AcDbEntity
  8
Defpoints
 62
     0
100
AcDbPoint
 10
4.011954618136533
 20
1.925
 30
0.0
  0
POINT
  5
13E
330
FA
100
AcDbEntity
  8
Defpoints
 62
     0
100
AcDbPoint
 10
4.011954618136533
 20
30.31999999999866
 30
0.0
  0
ENDBLK
  5
FC
330
FA
100
AcDbEntity
  8
0
100
AcDbBlockEnd
  0
BLOCK
  5
107
330
106
100
AcDbEntity
  8
0
100
AcDbBlockBegin
  2
_D_4
 70
     0
 10
0.0
 20
0.0
 30
0.0
  3
_D_4
  1
_D_4
  0
LINE
  5
109
330
106
100
AcDbEntity
  8
치수문자_일반주서
 62
     0
370
    -2
100
AcDbLine
 10
24.07445461813653
 20
2.000029814540417
 30
0.0
 11
42.77152920084244
 21
2.000029814540488
 31
0.0
  0
LINE
  5
10A
330
106
100
AcDbEntity
  8
치수문자_일반주서
 62
     0
370
    -2
100
AcDbLine
 10
23.9808069882524
 20
-1.995125491096564
 30
0.0
 11
42.77152920084246
 21
-1.995125491096495
 31
0.0
  0
LINE
  5
10B
330
106
100
AcDbEntity
  8
치수문자_일반주서
 62
     0
370
    -2
100
AcDbLine
 10
42.77152920084244
 20
2.000029814540488
 30
0.0
 11
42.77152920084239
 21
17.78949030741783
 31
0.0
  0
LINE
  5
10C
330
106
100
AcDbEntity
  8
치수문자_일반주서
 62
     0
370
    -2
100
AcDbLine
 10
42.77152920084244
 20
2.000029814540488
 30
0.0
 11
42.77152920084246
 21
-1.995125491096495
 31
0.0
  0
LINE
  5
10D
330
106
100
AcDbEntity
  8
치수문자_일반주서
 62
     0
370
    -2
100
AcDbLine
 10
42.77152920084243
 20
5.302029814540488
 30
0.0
 11
42.77152920084242
 21
8.604029814540487
 31
0.0
  0
LINE
  5
10E
330
106
100
AcDbEntity
  8
치수문자_일반주서
 62
     0
370
    -2
100
AcDbLine
 10
42.77152920084247
 20
-5.297125491096494
 30
0.0
 11
42.77152920084249
 21
-8.599125491096494
 31
0.0
  0
SOLID
  5
10F
330
106
100
AcDbEntity
  8
치수문자_일반주서
 62
     0
100
AcDbTrace
 10
42.2211958675091
 20
5.302029814540486
 30
0.0
 11
43.32186253417576
 21
5.302029814540489
 31
0.0
 12
42.77152920084244
 22
2.000029814540488
 32
0.0
 13
42.77152920084244
 23
2.000029814540488
 33
0.0
  0
SOLID
  5
110
330
106
100
AcDbEntity
  8
치수문자_일반주서
 62
     0
100
AcDbTrace
 10
43.32186253417581
 20
-5.297125491096493
 30
0.0
 11
42.22119586750914
 21
-5.297125491096496
 31
0.0
 12
42.77152920084246
 22
-1.995125491096495
 32
0.0
 13
42.77152920084246
 23
-1.995125491096495
 33
0.0
  0
MTEXT
  5
111
330
106
100
AcDbEntity
  8
치수문자_일반주서
 62
     0
100
AcDbMText
 10
38.3965292008424
 20
14.72699030741781
 30
0.0
 40
3.5
 41
0.0
 71
     2
 72
     1
  1
\A1;%%c4
  7
SLDTEXTSTYLE0
 11
-3.557021849726627E-15
 21
1.0
 31
0.0
 73
     1
 44
1.0
  0
POINT
  5
143
330
106
100
AcDbEntity
  8
Defpoints
 62
     0
100
AcDbPoint
 10
24.01195461813653
 20
2.000029814540417
 30
0.0
  0
POINT
  5
144
330
106
100
AcDbEntity
  8
Defpoints
 62
     0
100
AcDbPoint
 10
23.9183069882524
 20
-1.995125491096565
 30
0.0
  0
POINT
  5
145
330
106
100
AcDbEntity
  8
Defpoints
 62
     0
100
AcDbPoint
 10
42.77152920084246
 20
-1.995125491096494
 30
0.0
  0
ENDBLK
  5
108
330
106
100
AcDbEntity
  8
0
100
AcDbBlockEnd
  0
BLOCK
  5
113
330
112
100
AcDbEntity
  8
0
100
AcDbBlockBegin
  2
SW_DOWELSYMBOL_0
 70
     0
 10
0.0
 20
0.0
 30
0.0
  3
SW_DOWELSYMBOL_0
  1
SW_DOWELSYMBOL_0
  0
CIRCLE
  5
115
330
112
100
AcDbEntity
  8
외형선
 62
     0
100
AcDbCircle
 10
0.0
 20
0.0
 30
0.0
 40
3.000000000000004
  0
HATCH
  5
116
330
112
100
AcDbEntity
  8
0
  6
Continuous
 62
     0
370
    35
100
AcDbHatch
 10
0.0
 20
0.0
 30
0.0
210
0.0
220
0.0
230
1.0
  2
SOLID
 70
     1
 71
     0
 91
        1
 92
        0
 93
        3
 72
     2
 10
0.0000000000000104
 20
0.0
 40
3.000000000000004
 50
0.0
 51
90.0
 73
     1
 72
     1
 10
0.0000000000000104
 20
3.000000000000004
 11
0.0000000000000104
 21
0.0
 72
     1
 10
0.0000000000000104
 20
0.0
 11
3.000000000000015
 21
0.0
 97
        0
 75
     0
 76
     1
 98
        1
 10
0.0
 20
0.0
  0
HATCH
  5
117
330
112
100
AcDbEntity
  8
0
  6
Continuous
 62
     0
370
    35
100
AcDbHatch
 10
0.0
 20
0.0
 30
0.0
210
0.0
220
0.0
230
1.0
  2
SOLID
 70
     1
 71
     0
 91
        1
 92
        0
 93
        3
 72
     2
 10
0.0000000000000104
 20
0.0
 40
3.000000000000004
 50
180.0
 51
270.0000000000008
 73
     1
 72
     1
 10
0.0000000000000104
 20
-3.000000000000004
 11
0.0000000000000104
 21
0.0
 72
     1
 10
0.0000000000000104
 20
0.0
 11
-2.999999999999994
 21
0.0
 97
        0
 75
     0
 76
     1
 98
        1
 10
0.0
 20
0.0
  0
ENDBLK
  5
114
330
112
100
AcDbEntity
  8
0
100
AcDbBlockEnd
  0
BLOCK
  5
153
330
152
100
AcDbEntity
  8
0
100
AcDbBlockBegin
  2
*D8
 70
     1
 10
0.0
 20
0.0
 30
0.0
  3
*D8
  1
*D8
  0
LINE
  5
155
330
152
100
AcDbEntity
  8
치수문자_일반주서
 62
     0
370
    -2
100
AcDbLine
 10
25.03058833812196
 20
-5.107907190411401
 30
0.0
 11
31.40910154994194
 21
-23.42763448862691
 31
0.0
  0
MTEXT
  5
156
330
152
100
AcDbEntity
  8
치수문자_일반주서
 62
     0
100
AcDbMText
 10
32.52149179939075
 20
-18.63935431768545
 30
0.0
 40
3.5
 41
0.0
 71
     5
 72
     1
  1
\A1;R0.1
  7
SLDTEXTSTYLE0
 11
0.3288164961744396
 21
-0.9443938330186008
 31
0.0
 73
     1
 44
1.0
  0
LINE
  5
157
330
152
100
AcDbEntity
  8
치수문자_일반주서
 62
     0
370
    -2
100
AcDbLine
 10
23.91195461813652
 20
-1.895079370482122
 30
0.0
 11
23.94483626775396
 21
-1.989518753783982
 31
0.0
  0
SOLID
  5
158
330
152
100
AcDbEntity
  8
치수문자_일반주서
 62
     0
100
AcDbTrace
 10
25.55031974422653
 20
-4.926948512016735
 30
0.0
 11
24.51085693201739
 21
-5.288865868806067
 31
0.0
 12
23.94483626775396
 22
-1.989518753783982
 32
0.0
 13
23.94483626775396
 23
-1.989518753783982
 33
0.0
  0
POINT
  5
159
330
152
100
AcDbEntity
  8
Defpoints
 62
     0
100
AcDbPoint
 10
23.94483626775396
 20
-1.989518753783982
 30
0.0
  0
POINT
  5
15A
330
152
100
AcDbEntity
  8
Defpoints
 62
     0
100
AcDbPoint
 10
23.91195461813652
 20
-1.895079370482122
 30
0.0
  0
ENDBLK
  5
154
330
152
100
AcDbEntity
  8
0
100
AcDbBlockEnd
  0
ENDSEC
  0
SECTION
  2
ENTITIES
  0
LINE
  5
99
330
1F
100
AcDbEntity
  8
0
  6
Continuous
 62
     4
370
    25
100
AcDbLine
 10
0.0
 20
2.999999999999999
 30
0.0
 11
-34.98804538186346
 21
2.999999999999997
 31
0.0
  0
LINE
  5
9A
330
1F
100
AcDbEntity
  8
0
  6
Continuous
 62
     4
370
    25
100
AcDbLine
 10
-34.98804538186346
 20
-3.000000000000002
 30
0.0
 11
0.0
 21
-3.0
 31
0.0
  0
LINE
  5
9B
330
1F
100
AcDbEntity
  8
0
  6
Continuous
 62
     4
370
    25
100
AcDbLine
 10
0.0
 20
-3.0
 30
0.0
 11
4.011954618136533
 21
-1.925
 31
0.0
  0
LINE
  5
9C
330
1F
100
AcDbEntity
  8
0
  6
Continuous
 62
     4
370
    25
100
AcDbLine
 10
4.011954618136533
 20
1.925
 30
0.0
 11
0.0
 21
3.0
 31
0.0
  0
LINE
  5
9D
330
1F
100
AcDbEntity
  8
0
  6
Continuous
 62
     4
370
    25
100
AcDbLine
 10
-34.98804538186346
 20
2.999999999999996
 30
0.0
 11
-35.98804538186346
 21
1.999999999999995
 31
0.0
  0
LINE
  5
9E
330
1F
100
AcDbEntity
  8
0
  6
Continuous
 62
     4
370
    25
100
AcDbLine
 10
-35.98804538186346
 20
-2.0
 30
0.0
 11
-34.98804538186346
 21
-3.000000000000001
 31
0.0
  0
LINE
  5
9F
330
1F
100
AcDbEntity
  8
0
  6
Continuous
 62
     4
370
    25
100
AcDbLine
 10
14.96205447260912
 20
1.925
 30
0.0
 11
4.011954618136533
 21
1.925
 31
0.0
  0
LINE
  5
A0
330
1F
100
AcDbEntity
  8
0
  6
Continuous
 62
     4
370
    25
100
AcDbLine
 10
4.011954618136533
 20
-1.924999999999999
 30
0.0
 11
14.96205447260912
 21
-1.924999999999999
 31
0.0
  0
SPLINE
  5
A1
330
1F
100
AcDbEntity
  8
0
  6
Continuous
 62
     4
370
    25
100
AcDbSpline
210
0.0
220
0.0
230
1.0
 70
     8
 71
     3
 72
    14
 73
    10
 74
     0
 42
0.000000001
 43
0.00000001
 40
0.0
 40
0.0
 40
0.0
 40
0.0
 40
0.2308603510594104
 40
0.3989552025953406
 40
0.5108277282910197
 40
0.6129537199573829
 40
0.7205226558994139
 40
0.8298958555900244
 40
1.0
 40
1.0
 40
1.0
 40
1.0
 10
18.01195461813654
 20
1.580702654398447
 30
0.0
 10
17.8863617861403
 20
1.575996054278278
 30
0.0
 10
17.669321859173
 20
1.567862467909461
 30
0.0
 10
17.39195356816555
 20
1.562994242644671
 30
0.0
 10
17.18622324702793
 20
1.561664363422336
 30
0.0
 10
17.01368027431901
 20
1.562128266607734
 30
0.0
 10
16.8423041673777
 20
1.564230592440911
 30
0.0
 10
16.63448633723726
 20
1.568107723997915
 30
0.0
 10
16.48450351542365
 20
1.574723344577116
 30
0.0
 10
16.39321633197448
 20
1.578749948171721
 30
0.0
  0
SPLINE
  5
A2
330
1F
100
AcDbEntity
  8
0
  6
Continuous
 62
     4
370
    25
100
AcDbSpline
210
0.0
220
0.0
230
1.0
 70
     8
 71
     3
 72
    18
 73
    14
 74
     0
 42
0.000000001
 43
0.00000001
 40
0.0
 40
0.0
 40
0.0
 40
0.0
 40
0.1336765521789851
 40
0.2270940694151631
 40
0.2903901250152547
 40
0.3529551186948907
 40
0.4158847768435108
 40
0.4788282821201689
 40
0.5539247532052761
 40
0.6220031412824948
 40
0.6963760221031731
 40
0.8208689971472518
 40
1.0
 40
1.0
 40
1.0
 40
1.0
 10
15.24056273710407
 20
-1.655951866660313
 30
0.0
 10
15.36179496883086
 20
-1.644963979823559
 30
0.0
 10
15.56774822239965
 20
-1.626297400716319
 30
0.0
 10
15.83242005752379
 20
-1.607189833907971
 30
0.0
 10
16.03542905546969
 20
-1.594467276375236
 30
0.0
 10
16.20981300265307
 20
-1.585086863165862
 30
0.0
 10
16.38392010958177
 20
-1.577204741833124
 30
0.0
 10
16.56949041864377
 20
-1.570501530877984
 30
0.0
 10
16.76001991510758
 20
-1.565594123859549
 30
0.0
 10
16.96093308819618
 20
-1.562503334384393
 30
0.0
 10
17.20832005867715
 20
-1.561334586072363
 30
0.0
 10
17.56084166031144
 20
-1.564323838800454
 30
0.0
 10
17.84456470035753
 20
-1.574625133128643
 30
0.0
 10
18.01195461813654
 20
-1.580702654398445
 30
0.0
  0
LINE
  5
A3
330
1F
100
AcDbEntity
  8
0
  6
Continuous
 62
     1
370
    25
100
AcDbLine
 10
18.82932293642936
 20
0.5126028352728808
 30
0.0
 11
18.27646359016394
 21
0.7899980278359647
 31
0.0
  0
LINE
  5
A4
330
1F
100
AcDbEntity
  8
0
  6
Continuous
 62
     1
370
    25
100
AcDbLine
 10
18.16991308442499
 20
1.589281640184927
 30
0.0
 11
18.01178505587529
 21
1.582360539309371
 31
0.0
  0
SPLINE
  5
A5
330
1F
100
AcDbEntity
  8
0
  6
Continuous
 62
     1
370
    25
100
AcDbSpline
210
0.0
220
0.0
230
1.0
 70
     8
 71
     3
 72
    24
 73
    20
 74
     0
 42
0.000000001
 43
0.00000001
 40
0.0
 40
0.0
 40
0.0
 40
0.0
 40
0.0696733751254525
 40
0.1251634060278674
 40
0.1898099577058699
 40
0.2293605199750599
 40
0.2685899649304575
 40
0.3104580765750798
 40
0.3581523491076924
 40
0.4096802595395841
 40
0.4609246854232076
 40
0.5118920556064889
 40
0.6117599850021427
 40
0.7004427313723028
 40
0.729316662699396
 40
0.7579087377175007
 40
0.7937714264397168
 40
0.8786387525060122
 40
1.0
 40
1.0
 40
1.0
 40
1.0
 10
23.268055072988
 20
1.367904182809706
 30
0.0
 10
23.18625929800969
 20
1.361266414500355
 30
0.0
 10
23.03931883794815
 20
1.349342122207549
 30
0.0
 10
22.8176520486204
 20
1.33566227167528
 30
0.0
 10
22.63174394595033
 20
1.326970652299159
 30
0.0
 10
22.467117037226
 20
1.321494130339693
 30
0.0
 10
22.32680076549774
 20
1.318185095750719
 30
0.0
 10
22.17661632746626
 20
1.31620491372579
 30
0.0
 10
22.01226195435881
 20
1.315914939771815
 30
0.0
 10
21.83715294336086
 20
1.317856843333299
 30
0.0
 10
21.65830570474789
 20
1.322234066029506
 30
0.0
 10
21.42296710515194
 20
1.331022074127365
 30
0.0
 10
21.14386154266664
 20
1.346702354068242
 30
0.0
 10
20.89052512854885
 20
1.36686442337719
 30
0.0
 10
20.72054509437717
 20
1.382971650101403
 30
0.0
 10
20.61195460134739
 20
1.393975510900106
 30
0.0
 10
20.43827801573948
 20
1.41286152960174
 30
0.0
 10
20.15651801394201
 20
1.446806294519143
 30
0.0
 10
19.91587252711543
 20
1.482981031965652
 30
0.0
 10
19.77425763844658
 20
1.504269116291137
 30
0.0
  0
SPLINE
  5
A6
330
1F
100
AcDbEntity
  8
0
  6
Continuous
 62
     1
370
    25
100
AcDbSpline
210
0.0
220
0.0
230
1.0
 70
     8
 71
     3
 72
    14
 73
    10
 74
     0
 42
0.000000001
 43
0.00000001
 40
0.0
 40
0.0
 40
0.0
 40
0.0
 40
0.2178536991477992
 40
0.3604180477712227
 40
0.4551079745515851
 40
0.5603316704795865
 40
0.6768500656921842
 40
0.9328662806187291
 40
1.0
 40
1.0
 40
1.0
 40
1.0
 10
19.77425763844658
 20
-1.504269116291134
 30
0.0
 10
19.8824691523326
 20
-1.487809115076937
 30
0.0
 10
20.0614947219407
 20
-1.460577621982536
 30
0.0
 10
20.28594875108324
 20
-1.431442137462455
 30
0.0
 10
20.45335185185495
 20
-1.411268958448919
 30
0.0
 10
20.61153323390281
 20
-1.393796469711307
 30
0.0
 10
20.8517179956329
 20
-1.3700329896697
 30
0.0
 10
21.07022714348054
 20
-1.351324303603811
 30
0.0
 10
21.23070342644824
 20
-1.34291512569926
 30
0.0
 10
21.26404203680934
 20
-1.341168136671146
 30
0.0
  0
LINE
  5
A7
330
1F
100
AcDbEntity
  8
0
  6
Continuous
 62
     4
370
    25
100
AcDbLine
 10
18.01164460962259
 20
-1.582446890153178
 30
0.0
 11
18.16991308442499
 21
-1.589281640184925
 31
0.0
  0
LINE
  5
A8
330
1F
100
AcDbEntity
  8
0
  6
Continuous
 62
     4
370
    25
100
AcDbLine
 10
0.0
 20
3.0
 30
0.0
 11
0.0
 21
-3.0
 31
0.0
  0
LINE
  5
A9
330
1F
100
AcDbEntity
  8
0
  6
Continuous
 62
     4
370
    25
100
AcDbLine
 10
-34.98804538186346
 20
2.999999999999996
 30
0.0
 11
-34.98804538186346
 21
-3.000000000000001
 31
0.0
  0
LINE
  5
AA
330
1F
100
AcDbEntity
  8
0
  6
Continuous
 62
     4
370
    25
100
AcDbLine
 10
4.011954618136533
 20
1.925
 30
0.0
 11
4.011954618136533
 21
-1.925000000000001
 31
0.0
  0
LINE
  5
AB
330
1F
100
AcDbEntity
  8
0
  6
Continuous
 62
     4
370
    25
100
AcDbLine
 10
-35.98804538186346
 20
1.999999999999995
 30
0.0
 11
-35.98804538186346
 21
-2.0
 31
0.0
  0
SPLINE
  5
AC
330
1F
100
AcDbEntity
  8
0
  6
Continuous
 62
     4
370
    25
100
AcDbSpline
210
0.0
220
0.0
230
1.0
 70
     8
 71
     3
 72
    18
 73
    14
 74
     0
 42
0.000000001
 43
0.00000001
 40
0.0
 40
0.0
 40
0.0
 40
0.0
 40
0.1249999999999999
 40
0.1249999999999999
 40
0.2499999999999999
 40
0.2499999999999999
 40
0.5000000000000012
 40
0.5000000000000012
 40
0.6250000000000012
 40
0.6250000000000012
 40
0.7500000000000012
 40
0.7500000000000012
 40
1.0
 40
1.0
 40
1.0
 40
1.0
 10
18.01195461813654
 20
0.9195926915382499
 30
0.0
 10
17.884045833427
 20
0.9817807690997212
 30
0.0
 10
17.7561836239022
 20
1.042089630919118
 30
0.0
 10
17.50286344269905
 20
1.157894964677951
 30
0.0
 10
17.37773555719951
 20
1.213359940223311
 30
0.0
 10
16.99632815125663
 20
1.372958926438191
 30
0.0
 10
16.73827019425315
 20
1.469514920112535
 30
0.0
 10
16.35941489017574
 20
1.594490292113137
 30
0.0
 10
16.23381774097727
 20
1.632961287243954
 30
0.0
 10
15.97904123136876
 20
1.703508034370223
 30
0.0
 10
15.85087323167502
 20
1.735468311889264
 30
0.0
 10
15.46752419407563
 20
1.820506044586784
 30
0.0
 10
15.21734188243621
 20
1.862569858233662
 30
0.0
 10
14.9621591754966
 20
1.889580777916599
 30
0.0
  0
SPLINE
  5
AD
330
1F
100
AcDbEntity
  8
0
  6
Continuous
 62
     4
370
    25
100
AcDbSpline
210
0.0
220
0.0
230
1.0
 70
     8
 71
     3
 72
    18
 73
    14
 74
     0
 42
0.000000001
 43
0.00000001
 40
0.0
 40
0.0
 40
0.0
 40
0.0
 40
0.1249999999999996
 40
0.1249999999999996
 40
0.2499999999999993
 40
0.2499999999999993
 40
0.4999999999999999
 40
0.4999999999999999
 40
0.6250000000000002
 40
0.6250000000000002
 40
0.7500000000000004
 40
0.7500000000000004
 40
1.0
 40
1.0
 40
1.0
 40
1.0
 10
18.01195461813654
 20
0.4051148844735961
 30
0.0
 10
17.88404145995874
 20
0.4743194848036207
 30
0.0
 10
17.75617488040609
 20
0.5426905569955649
 30
0.0
 10
17.50284620156678
 20
0.6765454905830579
 30
0.0
 10
17.37771395140452
 20
0.7419820193595011
 30
0.0
 10
16.99629311611629
 20
0.9344443364665984
 30
0.0
 10
16.7382262691149
 20
1.05678029810996
 30
0.0
 10
16.35935912973923
 20
1.224807558637636
 30
0.0
 10
16.23375702756854
 20
1.278373176358134
 30
0.0
 10
15.97897127453355
 20
1.380623495509022
 30
0.0
 10
15.85079879768551
 20
1.429154893638037
 30
0.0
 10
15.4674371271373
 20
1.565617886610573
 30
0.0
 10
15.21724657106726
 20
1.644056332930056
 30
0.0
 10
14.9620544726091
 20
1.709143488653537
 30
0.0
  0
SPLINE
  5
AE
330
1F
100
AcDbEntity
  8
0
  6
Continuous
 62
     4
370
    25
100
AcDbSpline
210
0.0
220
0.0
230
1.0
 70
     8
 71
     3
 72
    10
 73
     6
 74
     0
 42
0.000000001
 43
0.00000001
 40
0.0
 40
0.0
 40
0.0
 40
0.0
 40
0.0653433288803178
 40
0.5338993099727117
 40
0.9999999999999999
 40
0.9999999999999999
 40
0.9999999999999999
 40
0.9999999999999999
 10
16.39822732978077
 20
-1.576954746585249
 30
0.0
 10
16.36694013456749
 20
-1.588328237084154
 30
0.0
 10
16.11130253205189
 20
-1.681257367469728
 30
0.0
 10
15.63214458911641
 20
-1.79362508437278
 30
0.0
 10
15.18509618961353
 20
-1.857651611443256
 30
0.0
 10
14.9621591754966
 20
-1.889580777916598
 30
0.0
  0
LINE
  5
AF
330
1F
100
AcDbEntity
  8
0
  6
Continuous
 62
     4
370
    25
100
AcDbLine
 10
14.96205447260912
 20
1.889597655509793
 30
0.0
 11
14.96205447260912
 21
1.925
 31
0.0
  0
LINE
  5
B0
330
1F
100
AcDbEntity
  8
0
  6
Continuous
 62
     4
370
    25
100
AcDbLine
 10
14.96205447260912
 20
-1.924999999999999
 30
0.0
 11
14.9620544726091
 21
1.709389812858348
 31
0.0
  0
SPLINE
  5
B1
330
1F
100
AcDbEntity
  8
0
  6
Continuous
 62
     4
370
    25
100
AcDbSpline
210
0.0
220
0.0
230
1.0
 70
    24
 71
     3
 72
    10
 73
     6
 74
     0
 42
0.000000001
 43
0.00000001
 40
0.0
 40
0.0
 40
0.0
 40
0.0
 40
0.5
 40
0.5
 40
1.0
 40
1.0
 40
1.0
 40
1.0
 10
18.01195461813654
 20
0.4051148844735571
 30
0.0
 10
18.01195461813654
 20
0.4044302769278715
 30
0.0
 10
18.01195461813654
 20
0.3875955315121012
 30
0.0
 10
18.01195461813654
 20
0.3248054059878274
 30
0.0
 10
18.01195461813654
 20
0.2790477599600117
 30
0.0
 10
18.01195461813654
 20
0.2247554758747603
 30
0.0
  0
SPLINE
  5
B2
330
1F
100
AcDbEntity
  8
0
  6
Continuous
 62
     4
370
    25
100
AcDbSpline
210
0.0
220
0.0
230
1.0
 70
     8
 71
     3
 72
    16
 73
    12
 74
     0
 42
0.000000001
 43
0.00000001
 40
0.0
 40
0.0
 40
0.0
 40
0.0
 40
0.1249999999999994
 40
0.1249999999999994
 40
0.2499999999999989
 40
0.2499999999999989
 40
0.4999999999999992
 40
0.4999999999999992
 40
0.7499999999999996
 40
0.7499999999999996
 40
1.0
 40
1.0
 40
1.0
 40
1.0
 10
18.01195461813654
 20
0.2247554758747609
 30
0.0
 10
17.88404251321206
 20
0.275570889342434
 30
0.0
 10
17.75617698608416
 20
0.3259222079344836
 30
0.0
 10
17.50285035371149
 20
0.4247951851730889
 30
0.0
 10
17.37771915468604
 20
0.4732806309014085
 30
0.0
 10
16.99630155355879
 20
0.6163490977012447
 30
0.0
 10
16.73823684751346
 20
0.7079288629603427
 30
0.0
 10
16.23308446201515
 20
0.8769751244957978
 30
0.0
 10
15.97860293287405
 20
0.9553040943994847
 30
0.0
 10
15.46745809525927
 20
1.095468304147061
 30
0.0
 10
15.2172695247597
 20
1.156785121265954
 30
0.0
 10
14.96207968801401
 20
1.20869848414599
 30
0.0
  0
SPLINE
  5
B3
330
1F
100
AcDbEntity
  8
0
  6
Continuous
 62
     4
370
    25
100
AcDbSpline
210
0.0
220
0.0
230
1.0
 70
     8
 71
     3
 72
    18
 73
    14
 74
     0
 42
0.000000001
 43
0.00000001
 40
0.0
 40
0.0
 40
0.0
 40
0.0
 40
0.1249999999999997
 40
0.1249999999999997
 40
0.2499999999999993
 40
0.2499999999999993
 40
0.4999999999999987
 40
0.4999999999999987
 40
0.624999999999999
 40
0.624999999999999
 40
0.7499999999999993
 40
0.7499999999999993
 40
1.0
 40
1.0
 40
1.0
 40
1.0
 10
18.01195461813654
 20
-1.579247033629272
 30
0.0
 10
17.88404305644276
 20
-1.569801255833858
 30
0.0
 10
17.75617807211822
 20
-1.557143686891271
 30
0.0
 10
17.50285249524082
 20
-1.525696305024136
 30
0.0
 10
17.37772183835344
 20
-1.506945544896002
 30
0.0
 10
16.99630590529181
 20
-1.441393886161021
 30
0.0
 10
16.73824230347658
 20
-1.385335025760006
 30
0.0
 10
16.35937948441627
 20
-1.28584640153001
 30
0.0
 10
16.23377919031785
 20
-1.25009901285612
 30
0.0
 10
15.97899681147744
 20
-1.173357530621872
 30
0.0
 10
15.850825968954
 20
-1.132450027170267
 30
0.0
 10
15.46746890987987
 20
-1.003211346154754
 30
0.0
 10
15.21728136344695
 20
-0.9088689548534631
 30
0.0
 10
14.96209269321916
 20
-0.8073574895676197
 30
0.0
  0
SPLINE
  5
B4
330
1F
100
AcDbEntity
  8
0
  6
Continuous
 62
     4
370
    25
100
AcDbSpline
210
0.0
220
0.0
230
1.0
 70
    24
 71
     3
 72
    14
 73
    10
 74
     0
 42
0.000000001
 43
0.00000001
 40
0.0
 40
0.0
 40
0.0
 40
0.0
 40
0.25
 40
0.25
 40
0.4999999999999999
 40
0.4999999999999999
 40
0.75
 40
0.75
 40
1.0
 40
1.0
 40
1.0
 40
1.0
 10
18.01195461813654
 20
0.2247554758747609
 30
0.0
 10
18.01195461813654
 20
0.047837976464674
 30
0.0
 10
18.01195461813654
 20
-0.1336037481305618
 30
0.0
 10
18.01195461813654
 20
-0.4885406909531644
 30
0.0
 10
18.01195461813654
 20
-0.6618479081743852
 30
0.0
 10
18.01195461813654
 20
-0.9824711655081982
 30
0.0
 10
18.01195461813654
 20
-1.129616364144595
 30
0.0
 10
18.01195461813654
 20
-1.38486756304176
 30
0.0
 10
18.01195461813654
 20
-1.492925576302517
 30
0.0
 10
18.01195461813654
 20
-1.579247033629272
 30
0.0
  0
SPLINE
  5
B5
330
1F
100
AcDbEntity
  8
0
  6
Continuous
 62
     4
370
    25
100
AcDbSpline
210
0.0
220
0.0
230
1.0
 70
    24
 71
     3
 72
    12
 73
     8
 74
     0
 42
0.000000001
 43
0.00000001
 40
0.0
 40
0.0
 40
0.0
 40
0.0
 40
0.2050516057108031
 40
0.4231367884804029
 40
0.6475464563244606
 40
0.8433752651337446
 40
1.0
 40
1.0
 40
1.0
 40
1.0
 10
18.01195461813654
 20
1.568259794254027
 30
0.0
 10
18.01195461813653
 20
1.565136854048191
 30
0.0
 10
18.01195461813651
 20
1.558692471987718
 30
0.0
 10
18.01195461813656
 20
1.455329286393122
 30
0.0
 10
18.01195461813652
 20
1.305356274438665
 30
0.0
 10
18.01195461813654
 20
1.126632020999607
 30
0.0
 10
18.01195461813654
 20
0.9887032945297118
 30
0.0
 10
18.01195461813654
 20
0.9274099677879759
 30
0.0
  0
LINE
  5
B6
330
1F
100
AcDbEntity
  8
0
  6
Continuous
 62
     4
370
    25
100
AcDbLine
 10
15.24262615778872
 20
-1.646589994172209
 30
0.0
 11
14.9621591754966
 21
-1.681492594814512
 31
0.0
  0
SPLINE
  5
B7
330
1F
100
AcDbEntity
  8
0
  6
Continuous
 62
     1
370
    25
100
AcDbSpline
210
0.0
220
0.0
230
1.0
 70
     8
 71
     3
 72
    32
 73
    28
 74
     0
 42
0.000000001
 43
0.00000001
 40
0.0
 40
0.0
 40
0.0
 40
0.0
 40
0.1249999999999981
 40
0.1249999999999981
 40
0.1874999999999978
 40
0.1874999999999978
 40
0.2499999999999976
 40
0.2499999999999976
 40
0.3124999999999972
 40
0.3124999999999972
 40
0.3749999999999969
 40
0.3749999999999969
 40
0.4999999999999977
 40
0.4999999999999977
 40
0.562499999999998
 40
0.562499999999998
 40
0.6249999999999982
 40
0.6249999999999982
 40
0.6874999999999986
 40
0.6874999999999986
 40
0.7499999999999988
 40
0.7499999999999988
 40
0.8749999999999994
 40
0.8749999999999994
 40
0.9374999999999997
 40
0.9374999999999997
 40
1.0
 40
1.0
 40
1.0
 40
1.0
 10
23.91195461813653
 20
-1.995079370482127
 30
0.0
 10
23.66766912707504
 20
-1.985151362637187
 30
0.0
 10
23.41834821793227
 20
-1.959980558823116
 30
0.0
 10
23.04938604844212
 20
-1.900478609523996
 30
0.0
 10
22.92825518436107
 20
-1.877133501145112
 30
0.0
 10
22.68373308995924
 20
-1.823347403868887
 30
0.0
 10
22.56026631212801
 20
-1.792875136319725
 30
0.0
 10
22.31300258553819
 20
-1.725212551881675
 30
0.0
 10
22.18920960801119
 20
-1.688023256469437
 30
0.0
 10
21.94340102906985
 20
-1.607598229403025
 30
0.0
 10
21.82239150627439
 20
-1.564496753032877
 30
0.0
 10
21.45526763115658
 20
-1.426147207439423
 30
0.0
 10
21.20588233235245
 20
-1.321776374110168
 30
0.0
 10
20.83743318906453
 20
-1.152225017349162
 30
0.0
 10
20.71650699913046
 20
-1.093728757369152
 30
0.0
 10
20.4715400706889
 20
-0.9723522608503542
 30
0.0
 10
20.34794959617341
 20
-0.9095300489239388
 30
0.0
 10
20.10064285490109
 20
-0.7806492652830255
 30
0.0
 10
19.97693056419641
 20
-0.7145927539830633
 30
0.0
 10
19.73148321171087
 20
-0.580389901740144
 30
0.0
 10
19.61060233535663
 20
-0.5124093517556407
 30
0.0
 10
19.24283968378726
 20
-0.3050148147744315
 30
0.0
 10
18.99343033916026
 20
-0.1625893166960162
 30
0.0
 10
18.62555177796107
 20
0.0501057355718808
 30
0.0
 10
18.50467819000077
 20
0.120705985233996
 30
0.0
 10
18.25930444933964
 20
0.2618834553029268
 30
0.0
 10
18.135609869834
 20
0.3323033183432044
 30
0.0
 10
18.01195461813654
 20
0.4019523873045271
 30
0.0
  0
SPLINE
  5
B9
330
1F
100
AcDbEntity
  8
0
  6
Continuous
 62
     1
370
    25
100
AcDbSpline
210
0.0
220
0.0
230
1.0
 70
     8
 71
     3
 72
     9
 73
     5
 74
     0
 42
0.000000001
 43
0.00000001
 40
0.0
 40
0.0
 40
0.0
 40
0.0
 40
0.2863663945084564
 40
1.0
 40
1.0
 40
1.0
 40
1.0
 10
19.04352865594916
 20
-0.1894796842393766
 30
0.0
 10
18.94502069235562
 20
-0.1504061863368507
 30
0.0
 10
18.60102794221945
 20
-0.0139603649980901
 30
0.0
 10
18.25727107249237
 20
0.1253435329342675
 30
0.0
 10
18.01195461813654
 20
0.2247554758747619
 30
0.0
  0
SPLINE
  5
BA
330
1F
100
AcDbEntity
  8
0
  6
Continuous
 62
     4
370
    25
100
AcDbSpline
210
0.0
220
0.0
230
1.0
 70
    24
 71
     3
 72
    11
 73
     7
 74
     0
 42
0.000000001
 43
0.00000001
 40
0.0
 40
0.0
 40
0.0
 40
0.0
 40
0.2386370911921019
 40
0.4828305794916811
 40
0.7341056954948018
 40
0.9999999999999999
 40
0.9999999999999999
 40
0.9999999999999999
 40
0.9999999999999999
 10
18.01195461813654
 20
0.4045731839372649
 30
0.0
 10
18.01195461813654
 20
0.4026159760105731
 30
0.0
 10
18.01195461813652
 20
0.3986559887650464
 30
0.0
 10
18.01195461813654
 20
0.3639278082172681
 30
0.0
 10
18.01195461813653
 20
0.3090461332078195
 30
0.0
 10
18.01195461813654
 20
0.2533769085792278
 30
0.0
 10
18.01195461813654
 20
0.2247554758765475
 30
0.0
  0
SPLINE
  5
BB
330
1F
100
AcDbEntity
  8
0
  6
Continuous
 62
     1
370
    25
100
AcDbSpline
210
0.0
220
0.0
230
1.0
 70
     8
 71
     3
 72
    14
 73
    10
 74
     0
 42
0.000000001
 43
0.00000001
 40
0.0
 40
0.0
 40
0.0
 40
0.0
 40
0.1447044498493276
 40
0.2889183932330975
 40
0.4334222404406926
 40
0.5782945641849815
 40
0.7225606003128475
 40
0.8669150974436302
 40
0.9999999999999999
 40
0.9999999999999999
 40
0.9999999999999999
 40
0.9999999999999999
 10
24.01195461813653
 20
-1.577944528736429
 30
0.0
 10
23.76013606528858
 20
-1.524834928682821
 30
0.0
 10
23.25735255205958
 20
-1.418795754844572
 30
0.0
 10
22.50376136698115
 20
-1.172034562823123
 30
0.0
 10
21.74951389144103
 20
-0.8755447126597491
 30
0.0
 10
20.99461859559606
 20
-0.5372013424990748
 30
0.0
 10
20.24086737452442
 20
-0.1728673302046226
 30
0.0
 10
19.50745359312251
 20
0.191265325851597
 30
0.0
 10
19.0245454289498
 20
0.4195953991912693
 30
0.0
 10
18.79289921703805
 20
0.5291230495371267
 30
0.0
  0
SPLINE
  5
BC
330
1F
100
AcDbEntity
  8
0
  6
Continuous
 62
     1
370
    25
100
AcDbSpline
210
0.0
220
0.0
230
1.0
 70
    24
 71
     3
 72
     8
 73
     4
 74
     0
 42
0.000000001
 43
0.00000001
 40
0.0
 40
0.0
 40
0.0
 40
0.0
 40
1.0
 40
1.0
 40
1.0
 40
1.0
 10
24.01195461813652
 20
-1.789970616993979
 30
0.0
 10
24.01195461813652
 20
-1.719157860375771
 30
0.0
 10
24.01195461813653
 20
-1.648284382186687
 30
0.0
 10
24.01195461813653
 20
-1.577944528736429
 30
0.0
  0
SPLINE
  5
BD
330
1F
100
AcDbEntity
  8
0
  6
Continuous
 62
     1
370
    25
100
AcDbSpline
210
0.0
220
0.0
230
1.0
 70
     8
 71
     3
 72
    23
 73
    19
 74
     0
 42
0.000000001
 43
0.00000001
 40
0.0000000000000017
 40
0.0000000000000017
 40
0.0000000000000017
 40
0.0000000000000017
 40
0.0000309836703648
 40
0.0000309836703648
 40
0.0000309836703648
 40
0.0000621829899111
 40
0.0000621829899111
 40
0.0000621829899111
 40
0.0000908430932116
 40
0.0000908430932116
 40
0.0000908430932116
 40
0.0001186191166451
 40
0.0001186191166451
 40
0.0001186191166451
 40
0.0001487828091073
 40
0.0001487828091073
 40
0.0001487828091073
 40
0.0001635667189071
 40
0.0001635667189071
 40
0.0001635667189071
 40
0.0001635667189071
 10
24.01195461813653
 20
-1.789970616992272
 30
0.0
 10
24.01195461813654
 20
-1.80029351949417
 30
0.0
 10
24.01052758196267
 20
-1.81078693559301
 30
0.0
 10
24.0075758918948
 20
-1.820623784845139
 30
0.0
 10
24.00461193260097
 20
-1.830501522714819
 30
0.0
 10
23.9999975561602
 20
-1.839985950675747
 30
0.0
 10
23.99408116047589
 20
-1.848078095923308
 30
0.0
 10
23.98863441479102
 20
-1.855527877777049
 30
0.0
 10
23.98193719814945
 20
-1.862005293172089
 30
0.0
 10
23.9746194137937
 20
-1.866989484404808
 30
0.0
 10
23.96751024345147
 20
-1.87183158725576
 30
0.0
 10
23.95964889064226
 20
-1.87540259358833
 30
0.0
 10
23.95164204501017
 20
-1.877614214021329
 30
0.0
 10
23.9429430323008
 20
-1.880017022210597
 30
0.0
 10
23.93387855152724
 20
-1.880888518493314
 30
0.0
 10
23.92500971907475
 20
-1.880411710245971
 30
0.0
 10
23.92062869773303
 20
-1.880176176750586
 30
0.0
 10
23.9162612075738
 20
-1.87961543486629
 30
0.0
 10
23.91195461813645
 20
-1.878759392336792
 30
0.0
  0
SPLINE
  5
BE
330
1F
100
AcDbEntity
  8
0
  6
Continuous
 62
     1
370
    25
100
AcDbSpline
210
0.0
220
0.0
230
1.0
 70
     8
 71
     3
 72
    32
 73
    28
 74
     0
 42
0.000000001
 43
0.00000001
 40
0.0
 40
0.0
 40
0.0
 40
0.0
 40
0.1249999999999993
 40
0.1249999999999993
 40
0.1874999999999995
 40
0.1874999999999995
 40
0.2499999999999998
 40
0.2499999999999998
 40
0.3125000000000001
 40
0.3125000000000001
 40
0.3750000000000004
 40
0.3750000000000004
 40
0.500000000000001
 40
0.500000000000001
 40
0.5625000000000007
 40
0.5625000000000007
 40
0.6250000000000002
 40
0.6250000000000002
 40
0.6874999999999999
 40
0.6874999999999999
 40
0.7499999999999994
 40
0.7499999999999994
 40
0.8749999999999994
 40
0.8749999999999994
 40
0.9374999999999997
 40
0.9374999999999997
 40
1.0
 40
1.0
 40
1.0
 40
1.0
 10
23.91195461813655
 20
-1.878759392336735
 30
0.0
 10
23.66766912707505
 20
-1.830201531707355
 30
0.0
 10
23.41834821793228
 20
-1.767023612717099
 30
0.0
 10
23.04938604844214
 20
-1.653375885174994
 30
0.0
 10
22.9282551843611
 20
-1.612503818923679
 30
0.0
 10
22.68373308995925
 20
-1.524614537033106
 30
0.0
 10
22.56026631212802
 20
-1.477566206471189
 30
0.0
 10
22.31300258553821
 20
-1.377996213212123
 30
0.0
 10
22.1892096080112
 20
-1.325476097117726
 30
0.0
 10
21.94340102906986
 20
-1.21588767666994
 30
0.0
 10
21.8223915062744
 20
-1.158987959163776
 30
0.0
 10
21.45526763115659
 20
-0.9814509038959941
 30
0.0
 10
21.20588233235246
 20
-0.8539803129927962
 30
0.0
 10
20.83743318906453
 20
-0.6555011653376085
 30
0.0
 10
20.71650699913044
 20
-0.5883260685726239
 30
0.0
 10
20.4715400706889
 20
-0.4514494475053533
 30
0.0
 10
20.34794959617343
 20
-0.3818232480486833
 30
0.0
 10
20.10064285490109
 20
-0.2413607634919941
 30
0.0
 10
19.97693056419642
 20
-0.170526732479841
 30
0.0
 10
19.73148321171088
 20
-0.0288611937289154
 30
0.0
 10
19.61060233535664
 20
0.0418044686204024
 30
0.0
 10
19.24283968378726
 20
0.2541514567572681
 30
0.0
 10
18.99343033916026
 20
0.3956590214485008
 30
0.0
 10
18.62555177796109
 20
0.6006921858368931
 30
0.0
 10
18.50467819000077
 20
0.6677135968214475
 30
0.0
 10
18.25930444933964
 20
0.7996535535534783
 30
0.0
 10
18.135609869834
 20
0.8644162975288721
 30
0.0
 10
18.01195461813654
 20
0.927409967787982
 30
0.0
  0
LINE
  5
BF
330
1F
100
AcDbEntity
  8
0
  6
Continuous
 62
     4
370
    25
100
AcDbLine
 10
18.01195461813654
 20
0.4019523873045271
 30
0.0
 11
18.01195461813654
 21
0.9274099677879813
 31
0.0
  0
SPLINE
  5
C0
330
1F
100
AcDbEntity
  8
0
  6
Continuous
 62
     1
370
    25
100
AcDbSpline
210
0.0
220
0.0
230
1.0
 70
     8
 71
     3
 72
    15
 73
    11
 74
     0
 42
0.000000001
 43
0.00000001
 40
0.0
 40
0.0
 40
0.0
 40
0.0
 40
0.1292382411430054
 40
0.2580322866879046
 40
0.3870888378614478
 40
0.5164791162936604
 40
0.6453203551619551
 40
0.7742416438477847
 40
0.9007741242581667
 40
1.0
 40
1.0
 40
1.0
 40
1.0
 10
24.01195461813653
 20
0.0000000000000036
 30
0.0
 10
23.76013767471228
 20
0.1161101971573387
 30
0.0
 10
23.25736929003101
 20
0.3479315173433579
 30
0.0
 10
22.50373774143038
 20
0.6805103165042231
 30
0.0
 10
21.74947890742062
 20
0.9803674823237424
 30
0.0
 10
20.99462798605592
 20
1.23310171007247
 30
0.0
 10
20.24082434443253
 20
1.429310479413394
 30
0.0
 10
19.49250223876544
 20
1.55438554067552
 30
0.0
 10
18.80110220863381
 20
1.610860366839027
 30
0.0
 10
18.36151234920993
 20
1.591648933788188
 30
0.0
 10
18.16830271785013
 20
1.583205076819988
 30
0.0
  0
SPLINE
  5
C1
330
1F
100
AcDbEntity
  8
0
  6
Continuous
 62
     1
370
    25
100
AcDbSpline
210
0.0
220
0.0
230
1.0
 70
    24
 71
     3
 72
    10
 73
     6
 74
     0
 42
0.000000001
 43
0.00000001
 40
0.0
 40
0.0
 40
0.0
 40
0.0
 40
0.5000000000000001
 40
0.5000000000000001
 40
1.0
 40
1.0
 40
1.0
 40
1.0
 10
24.01195461813653
 20
-1.577944528736429
 30
0.0
 10
24.01195461813653
 20
-1.407185134337968
 30
0.0
 10
24.01195461813654
 20
-1.171452163182277
 30
0.0
 10
24.01195461813652
 20
-0.6198823592321795
 30
0.0
 10
24.01195461813652
 20
-0.3064196984977469
 30
0.0
 10
24.01195461813653
 20
0.0000000000000036
 30
0.0
  0
SPLINE
  5
C2
330
1F
100
AcDbEntity
  8
0
  6
Continuous
 62
     4
370
    25
100
AcDbSpline
210
0.0
220
0.0
230
1.0
 70
    24
 71
     3
 72
    13
 73
     9
 74
     0
 42
0.000000001
 43
0.00000001
 40
0.0
 40
0.0
 40
0.0
 40
0.0
 40
0.0897819337886689
 40
0.2352852897670479
 40
0.4450762001529665
 40
0.6609510611523227
 40
0.8493320577801076
 40
1.0
 40
1.0
 40
1.0
 40
1.0
 10
18.01195461813654
 20
1.578172008286989
 30
0.0
 10
18.01195461813654
 20
1.578546579504829
 30
0.0
 10
18.01195461813654
 20
1.579528192328355
 30
0.0
 10
18.01195461813654
 20
1.543489802611744
 30
0.0
 10
18.01195461813654
 20
1.457440694116131
 30
0.0
 10
18.01195461813654
 20
1.304862772871651
 30
0.0
 10
18.01195461813654
 20
1.126721477503451
 30
0.0
 10
18.01195461813654
 20
0.9887308170184675
 30
0.0
 10
18.01195461813654
 20
0.9274099677879769
 30
0.0
  0
LINE
  5
C3
330
1F
100
AcDbEntity
  8
0
  6
Continuous
 62
     1
370
    25
100
AcDbLine
 10
24.01195461813653
 20
1.400000000000003
 30
0.0
 11
23.26357773580352
 21
1.351040346293681
 31
0.0
  0
SPLINE
  5
C4
330
1F
100
AcDbEntity
  8
0
  6
Continuous
 62
     1
370
    25
100
AcDbSpline
210
0.0
220
0.0
230
1.0
 70
    24
 71
     3
 72
    14
 73
    10
 74
     0
 42
0.000000001
 43
0.00000001
 40
0.0
 40
0.0
 40
0.0
 40
0.0
 40
0.2499999999999999
 40
0.2499999999999999
 40
0.4999999999999998
 40
0.4999999999999998
 40
0.7499999999999999
 40
0.7499999999999999
 40
1.0
 40
1.0
 40
1.0
 40
1.0
 10
24.01195461813653
 20
0.0000000000000039
 30
0.0
 10
24.01195461813653
 20
0.1665687034027954
 30
0.0
 10
24.01195461813653
 20
0.3310871527509113
 30
0.0
 10
24.01195461813652
 20
0.6387450999155135
 30
0.0
 10
24.01195461813653
 20
0.7816934607495366
 30
0.0
 10
24.01195461813653
 20
1.030513824303656
 30
0.0
 10
24.01195461813654
 20
1.136253245131315
 30
0.0
 10
24.01195461813652
 20
1.302133108422715
 30
0.0
 10
24.01195461813653
 20
1.362281548872783
 30
0.0
 10
24.01195461813653
 20
1.400000000000003
 30
0.0
  0
SPLINE
  5
C5
330
1F
100
AcDbEntity
  8
0
  6
Continuous
 62
     1
370
    25
100
AcDbSpline
210
0.0
220
0.0
230
1.0
 70
     8
 71
     3
 72
    10
 73
     6
 74
     0
 42
0.000000001
 43
0.00000001
 40
0.0
 40
0.0
 40
0.0
 40
0.0
 40
0.1649796164864076
 40
0.5833925669778159
 40
1.0
 40
1.0
 40
1.0
 40
1.0
 10
19.77921678376185
 20
-1.49529372551535
 30
0.0
 10
19.6820592104432
 20
-1.51272231718835
 30
0.0
 10
19.33849551871659
 20
-1.574352420660906
 30
0.0
 10
18.74893664203484
 20
-1.610707621432685
 30
0.0
 10
18.25726091854265
 20
-1.58971876855957
 30
0.0
 10
18.01195461813654
 20
-1.579247033629273
 30
0.0
  0
SPLINE
  5
C6
330
1F
100
AcDbEntity
  8
0
  6
Continuous
 62
     4
370
    25
100
AcDbSpline
210
0.0
220
0.0
230
1.0
 70
    24
 71
     3
 72
    14
 73
    10
 74
     0
 42
0.000000001
 43
0.00000001
 40
0.0
 40
0.0
 40
0.0
 40
0.0
 40
0.25
 40
0.25
 40
0.4999999999999999
 40
0.4999999999999999
 40
0.75
 40
0.75
 40
1.0
 40
1.0
 40
1.0
 40
1.0
 10
18.01195461813654
 20
0.2247554758747609
 30
0.0
 10
18.01195461813654
 20
0.047837976464674
 30
0.0
 10
18.01195461813654
 20
-0.1336037481305618
 30
0.0
 10
18.01195461813654
 20
-0.4885406909531644
 30
0.0
 10
18.01195461813654
 20
-0.6618479081743852
 30
0.0
 10
18.01195461813654
 20
-0.9824711655081982
 30
0.0
 10
18.01195461813654
 20
-1.129616364144595
 30
0.0
 10
18.01195461813654
 20
-1.38486756304176
 30
0.0
 10
18.01195461813654
 20
-1.492925576302517
 30
0.0
 10
18.01195461813654
 20
-1.579247033629272
 30
0.0
  0
LINE
  5
C7
330
1F
100
AcDbEntity
  8
0
  6
Continuous
 62
     1
370
    25
100
AcDbLine
 10
24.01195461813652
 20
-1.78997061699398
 30
0.0
 11
24.01195461813653
 21
-1.897300810640364
 31
0.0
  0
SPLINE
  5
C8
330
1F
100
AcDbEntity
  8
0
  6
Continuous
 62
     1
370
    25
100
AcDbSpline
210
0.0
220
0.0
230
1.0
 70
     8
 71
     3
 72
    11
 73
     7
 74
     0
 42
0.000000001
 43
0.00000001
 40
0.0
 40
0.0
 40
0.0
 40
0.0
 40
0.0193261445246309
 40
0.3457537122006235
 40
0.6725729949456073
 40
0.9999999999999999
 40
0.9999999999999999
 40
0.9999999999999999
 40
0.9999999999999999
 10
21.26447957325037
 20
1.341371639063239
 30
0.0
 10
21.28152912192557
 20
1.349341303457867
 30
0.0
 10
21.5865534757631
 20
1.491922305370793
 30
0.0
 10
22.17991055752626
 20
1.695024701506025
 30
0.0
 10
23.04527552284971
 20
1.9252644710576
 30
0.0
 10
23.62288274200545
 20
1.971793330622276
 30
0.0
 10
23.91195461813653
 20
1.99507937048213
 30
0.0
  0
SPLINE
  5
CA
330
1F
100
AcDbEntity
  8
0
  6
Continuous
 62
     1
370
    25
100
AcDbSpline
210
0.0
220
0.0
230
1.0
 70
    24
 71
     3
 72
    10
 73
     6
 74
     0
 42
0.000000001
 43
0.00000001
 40
0.0
 40
0.0
 40
0.0
 40
0.0
 40
0.5
 40
0.5
 40
1.0
 40
1.0
 40
1.0
 40
1.0
 10
24.01195461813653
 20
1.400000000000003
 30
0.0
 10
24.01195461813653
 20
1.470887229722256
 30
0.0
 10
24.01195461813653
 20
1.551262239179052
 30
0.0
 10
24.01195461813652
 20
1.721188119805146
 30
0.0
 10
24.01195461813653
 20
1.810545017424917
 30
0.0
 10
24.01195461813653
 20
1.897300810639996
 30
0.0
  0
LINE
  5
CB
330
1F
100
AcDbEntity
  8
중심선
100
AcDbLine
 10
-38.98804538186345
 20
-0.0000000000000041
 30
0.0
 11
27.01195461813652
 21
0.0000000000000039
 31
0.0
  0
CIRCLE
  5
CC
330
1F
100
AcDbEntity
  8
외형선
100
AcDbCircle
 10
0.0
 20
0.0
 30
0.0
 40
3.000000000000005
  0
INSERT
  5
CD
330
1F
100
AcDbEntity
  8
0
  6
Continuous
 62
     7
100
AcDbBlockReference
 66
     1
  2
블럭10
 10
-29.42143823645298
 20
-52.04717430164393
 30
0.0
  0
ATTRIB
  5
CE
330
CD
100
AcDbEntity
  8
FORMAT
 62
     2
100
AcDbText
 10
-48.70002112046632
 20
-49.97180738881175
 30
0.0
 40
4.233333333333333
  1
SEME610400120E [ 2 FLUTE ]
 41
0.75
  7
SLDTEXTSTYLE0
 11
-48.70002112046632
 21
-52.08847405547841
 31
0.0
100
AcDbAttribute
  2
AUTOATTR0
 70
     0
 74
     1
  0
SEQEND
  5
CF
330
CD
100
AcDbEntity
  8
0
  6
Continuous
 62
     7
  0
HATCH
  5
D0
330
1F
100
AcDbEntity
  8
중심선
100
AcDbHatch
 10
0.0
 20
0.0
 30
0.0
210
0.0
220
0.0
230
1.0
  2
SOLID
 70
     1
 71
     0
 91
        1
 92
        0
 93
        4
 72
     1
 10
-23.70652893207212
 20
-35.8
 11
-27.15280417590941
 21
-35.8
 72
     1
 10
-27.15280417590941
 20
-35.8
 11
-29.28103403511343
 21
-38.3363255805726
 72
     1
 10
-29.28103403511343
 20
-38.3363255805726
 11
-25.834725706163
 21
-38.33628615127011
 72
     1
 10
-25.834725706163
 20
-38.33628615127011
 11
-23.70652893207213
 21
-35.8
 97
        0
 75
     0
 76
     1
 98
        1
 10
-6.481994548387084
 20
-0.0010749287238934
  0
HATCH
  5
D1
330
1F
100
AcDbEntity
  8
중심선
100
AcDbHatch
 10
0.0
 20
0.0
 30
0.0
210
0.0
220
0.0
230
1.0
  2
SOLID
 70
     1
 71
     0
 91
        1
 92
        0
 93
        4
 72
     1
 10
-18.69376494103617
 20
-35.8
 11
-22.14004018487346
 21
-35.8
 72
     1
 10
-22.14004018487346
 20
-35.8
 11
-26.67117819323084
 21
-41.20000000000002
 72
     1
 10
-26.67117819323084
 20
-41.20000000000002
 11
-23.22490294939356
 21
-41.20000000000002
 72
     1
 10
-23.22490294939356
 20
-41.20000000000002
 11
-18.69376494103617
 21
-35.8
 97
        0
 75
     0
 76
     1
 98
        1
 10
-6.481994548387084
 20
-0.0010749287238934
  0
HATCH
  5
D2
330
1F
100
AcDbEntity
  8
중심선
100
AcDbHatch
 10
0.0
 20
0.0
 30
0.0
210
0.0
220
0.0
230
1.0
  2
SOLID
 70
     1
 71
     0
 91
        1
 92
        0
 93
        4
 72
     1
 10
-13.68100095000028
 20
-35.80000000000003
 11
-17.1272761938374
 21
-35.8
 72
     1
 10
-17.1272761938374
 20
-35.8
 11
-24.17571309572665
 21
-44.20000000000002
 72
     1
 10
-24.17571309572664
 20
-44.20000000000002
 11
-20.72943785188936
 21
-44.20000000000002
 72
     1
 10
-20.72943785188936
 20
-44.20000000000002
 11
-13.68100095000028
 21
-35.80000000000003
 97
        0
 75
     0
 76
     1
 98
        1
 10
-6.481994548387084
 20
-0.0010749287238934
  0
HATCH
  5
D3
330
1F
100
AcDbEntity
  8
중심선
100
AcDbHatch
 10
0.0
 20
0.0
 30
0.0
210
0.0
220
0.0
230
1.0
  2
SOLID
 70
     1
 71
     0
 91
        1
 92
        0
 93
        6
 72
     3
 10
-8.881110518988079
 20
-40.00000000005127
 11
3.960054785062283
 21
1.540882976769353E-10
 40
0.3939339440162628
 50
17.09539180608437
 51
320.0019657685079
 73
     0
 72
     1
 10
-7.198110863287484
 20
-38.5878940046383
 11
-4.892808989586446
 21
-36.65356729459038
 72
     3
 10
-8.881110519040925
 20
-40.00000000000015
 11
6.600054785286829
 21
-1.278976924368180E-13
 40
0.636358354079598
 50
39.99873849337411
 51
368.4976242363725
 73
     1
 72
     1
 10
-2.455778027140316
 20
-39.03999999993002
 11
-10.201043212205
 21
-39.03999999993
 72
     1
 10
-10.201043212205
 20
-39.03999999993
 11
-10.20106825665094
 21
-40.95999999992991
 72
     1
 10
-10.20106825665094
 20
-40.95999999992991
 11
-5.759688487178901
 21
-40.95999999992988
 97
        0
 75
     0
 76
     1
 98
        1
 10
-6.481994548387084
 20
-0.0010749287238934
  0
DIMENSION
  5
D4
330
1F
100
AcDbEntity
  8
치수문자_일반주서
100
AcDbDimension
  2
_D
 10
-47.48450340347552
 20
-3.000000000000048
 30
0.0
 11
-47.48450340347554
 21
-0.0000000000000024
 31
0.0
 70
   160
  1
%%c<>
 71
     2
 42
5.999999999999996
 52
-270.0
  3
SLDDIMSTYLE0
100
AcDbAlignedDimension
 13
-34.98804538186346
 23
2.999999999999996
 33
0.0
 14
-34.98804538186346
 24
-3.000000000000001
 34
0.0
 50
90.0000000000002
100
AcDbRotatedDimension
  0
DIMENSION
  5
E2
330
1F
100
AcDbEntity
  8
치수문자_일반주서
100
AcDbDimension
  2
_D_1
 10
18.01195461813654
 20
20.39999999999966
 30
0.0
 11
20.9191733262003
 21
20.39999999999966
 31
0.0
 70
   160
  1
<>
 71
     2
 42
5.999999999999993
  3
SLDDIMSTYLE0
100
AcDbAlignedDimension
 13
24.01195461813653
 23
1.9
 33
0.0
 14
18.01195461813654
 24
1.581514153956214
 34
0.0
100
AcDbRotatedDimension
  0
DIMENSION
  5
EE
330
1F
100
AcDbEntity
  8
치수문자_일반주서
100
AcDbDimension
  2
_D_2
 10
-35.98804538186346
 20
42.45832450504429
 30
0.0
 11
-5.988045381863467
 21
42.45832450504429
 31
0.0
 70
   160
  1
<>
 71
     2
 42
59.99999999999999
  3
SLDDIMSTYLE1
100
AcDbAlignedDimension
 13
24.01195461813653
 23
1.9
 33
0.0
 14
-35.98804538186346
 24
1.999999999999995
 34
0.0
100
AcDbRotatedDimension
  0
DIMENSION
  5
F9
330
1F
100
AcDbEntity
  8
치수문자_일반주서
100
AcDbDimension
  2
_D_3
 10
4.011954618136533
 20
30.31999999999866
 30
0.0
 11
14.01195461813653
 21
30.31999999999866
 31
0.0
 70
   160
  1
<>
 71
     2
 42
19.99999999999999
  3
SLDDIMSTYLE0
100
AcDbAlignedDimension
 13
24.01195461813653
 23
1.897300810639996
 33
0.0
 14
4.011954618136533
 24
1.925
 34
0.0
 50
-0.0000000000022354
100
AcDbRotatedDimension
  0
DIMENSION
  5
105
330
1F
100
AcDbEntity
  8
치수문자_일반주서
100
AcDbDimension
  2
_D_4
 10
42.77152920084246
 20
-1.995125491096495
 30
0.0
 11
42.7715292008424
 21
14.72699030741783
 31
0.0
 70
   160
  1
%%c<>
 71
     2
 42
3.995155305636981
 52
-270.0
  3
SLDDIMSTYLE0
100
AcDbAlignedDimension
 13
24.01195461813653
 23
2.000029814540417
 33
0.0
 14
23.9183069882524
 24
-1.995125491096565
 34
0.0
 50
90.0000000000002
100
AcDbRotatedDimension
  0
INSERT
  5
118
330
1F
100
AcDbEntity
  8
외형선
100
AcDbBlockReference
  2
SW_DOWELSYMBOL_0
 10
0.0
 20
0.0
 30
0.0
  0
ARC
  5
14C
330
1F
100
AcDbEntity
  8
0
  6
Continuous
 62
     1
370
    25
100
AcDbCircle
 10
23.91195461813652
 20
1.89507937048213
 30
0.0
 40
0.1
100
AcDbArc
 50
0.0
 51
90.0
  0
ARC
  5
14D
102
{ACAD_REACTORS
102
}
330
1F
100
AcDbEntity
  8
0
  6
Continuous
 62
     1
370
    25
100
AcDbCircle
 10
23.91195461813652
 20
-1.895079370482122
 30
0.0
 40
0.1
100
AcDbArc
 50
270.0
 51
0.0
  0
DIMENSION
  5
14F
102
{ACAD_REACTORS
102
}
102
{ACAD_XDICTIONARY
360
150
102
}
330
1F
100
AcDbEntity
  8
치수문자_일반주서
100
AcDbDimension
  2
*D8
 10
23.91195461813652
 20
-1.895079370482122
 30
0.0
 11
30.04245798771693
 21
-19.50249762014335
 31
0.0
 70
   164
  1
<>
 71
     5
 42
0.1000000000000001
  3
SLDDIMSTYLE0
100
AcDbRadialDimension
 15
23.94483626775396
 25
-1.989518753783982
 35
0.0
 40
0.0
1001
ACAD_DSTYLE_DIMRADIAL_EXTENSION
1070
   387
1070
     1
1070
   388
1040
4.71238898038469
1070
   390
1040
0.0
1001
ACAD
1000
DSTYLE
1002
{
1070
    78
1070
     8
1002
}
  0
ENDSEC
  0
SECTION
  2
OBJECTS
  0
DICTIONARY
  5
C
330
0
100
AcDbDictionary
281
     1
  3
ACAD_GROUP
350
D
  3
ACAD_IMAGE_VARS
350
13C
  3
ACAD_LAYOUT
350
1A
  3
ACAD_MLINESTYLE
350
17
  3
ACAD_PLOTSETTINGS
350
19
  3
ACAD_PLOTSTYLENAME
350
E
  3
ACAD_SCALELIST
350
47
  3
APPDATA
350
13A
  3
DWGPROPS
350
15C
  0
DICTIONARY
  5
150
330
14F
100
AcDbDictionary
280
     1
281
     1
  0
DICTIONARY
  5
D
102
{ACAD_REACTORS
330
C
102
}
330
C
100
AcDbDictionary
281
     1
  0
RASTERVARIABLES
  5
13C
102
{ACAD_REACTORS
330
C
102
}
330
C
100
AcDbRasterVariables
 90
        0
 70
     1
 71
     1
 72
     1
  0
DICTIONARY
  5
1A
102
{ACAD_REACTORS
330
C
102
}
330
C
100
AcDbDictionary
281
     1
  3
Layout1
350
1E
  3
Layout2
350
26
  3
Model
350
22
  0
DICTIONARY
  5
17
102
{ACAD_REACTORS
330
C
102
}
330
C
100
AcDbDictionary
281
     1
  3
Standard
350
18
  0
DICTIONARY
  5
19
102
{ACAD_REACTORS
330
C
102
}
330
C
100
AcDbDictionary
281
     1
  0
ACDBDICTIONARYWDFLT
  5
E
102
{ACAD_REACTORS
330
C
102
}
330
C
100
AcDbDictionary
281
     1
  3
Normal
350
F
100
AcDbDictionaryWithDefault
340
F
  0
DICTIONARY
  5
47
102
{ACAD_REACTORS
330
C
102
}
330
C
100
AcDbDictionary
281
     1
  3
A0
350
48
  3
A1
350
49
  3
A2
350
4A
  3
A3
350
4B
  3
A4
350
4C
  3
A5
350
4D
  3
A6
350
4E
  3
A7
350
4F
  3
A8
350
50
  3
A9
350
51
  3
B0
350
52
  3
B1
350
53
  3
B2
350
54
  3
B3
350
55
  3
B4
350
56
  3
B5
350
57
  3
B6
350
58
  3
B7
350
59
  3
B8
350
5A
  3
B9
350
5B
  3
C0
350
5C
  3
C1
350
5D
  3
C2
350
5E
  3
C3
350
5F
  3
C4
350
60
  3
C5
350
61
  3
C6
350
62
  3
C7
350
63
  3
C8
350
64
  3
C9
350
65
  3
D0
350
66
  3
D1
350
67
  3
D2
350
68
  0
DICTIONARY
  5
13A
102
{ACAD_REACTORS
330
C
102
}
330
C
100
AcDbDictionary
281
     1
  0
XRECORD
  5
15C
102
{ACAD_REACTORS
330
C
102
}
330
C
100
AcDbXrecord
280
     1
  1
DWGPROPS COOKIE
  2

  3

  4

  6

  7

  8
12016016
  9

300
=
301
=
302
=
303
=
304
=
305
=
306
=
307
=
308
=
309
=
 40
0.0
 41
2458263.417638565
 42
2458268.457948183
  1

 90
        0
  0
LAYOUT
  5
1E
102
{ACAD_REACTORS
330
1A
102
}
330
1A
100
AcDbPlotSettings
  1

  2
none_device
  4

  6

 40
0.0
 41
0.0
 42
0.0
 43
0.0
 44
0.0
 45
0.0
 46
0.0
 47
0.0
 48
0.0
 49
0.0
140
0.0
141
0.0
142
1.0
143
1.0
 70
   688
 72
     1
 73
     0
 74
     5
  7

 75
    16
147
1.0
148
0.0
149
0.0
100
AcDbLayout
  1
Layout1
 70
     1
 71
     1
 10
0.0
 20
0.0
 11
420.0
 21
297.0
 12
0.0
 22
0.0
 32
0.0
 14
1.000000000000000E+20
 24
1.000000000000000E+20
 34
1.000000000000000E+20
 15
-1.000000000000000E+20
 25
-1.000000000000000E+20
 35
-1.000000000000000E+20
146
0.0
 13
0.0
 23
0.0
 33
0.0
 16
1.0
 26
0.0
 36
0.0
 17
0.0
 27
1.0
 37
0.0
 76
     0
330
1B
  0
LAYOUT
  5
26
102
{ACAD_REACTORS
330
1A
102
}
330
1A
100
AcDbPlotSettings
  1

  2
none_device
  4

  6

 40
0.0
 41
0.0
 42
0.0
 43
0.0
 44
0.0
 45
0.0
 46
0.0
 47
0.0
 48
0.0
 49
0.0
140
0.0
141
0.0
142
1.0
143
1.0
 70
   688
 72
     1
 73
     0
 74
     5
  7

 75
    16
147
1.0
148
0.0
149
0.0
100
AcDbLayout
  1
Layout2
 70
     1
 71
     2
 10
0.0
 20
0.0
 11
0.0
 21
0.0
 12
0.0
 22
0.0
 32
0.0
 14
0.0
 24
0.0
 34
0.0
 15
0.0
 25
0.0
 35
0.0
146
0.0
 13
0.0
 23
0.0
 33
0.0
 16
1.0
 26
0.0
 36
0.0
 17
0.0
 27
1.0
 37
0.0
 76
     0
330
23
  0
LAYOUT
  5
22
102
{ACAD_REACTORS
330
1A
102
}
330
1A
100
AcDbPlotSettings
  1

  2
none_device
  4
ANSI_A_(11.00_x_8.50_Inches)
  6

 40
6.35
 41
19.05
 42
6.35000508
 43
19.05000254
 44
279.4
 45
215.9
 46
107.6591983667253
 47
92.9955395881743
 48
0.0
 49
0.0
140
0.0
141
0.0
142
0.0861435031914558
143
1.0
 70
  1696
 72
     0
 73
     0
 74
     0
  7

 75
     0
147
0.0235690232323232
148
0.0
149
0.0
100
AcDbLayout
  1
Model
 70
     1
 71
     0
 10
0.0
 20
0.0
 11
420.0
 21
297.0
 12
0.0
 22
0.0
 32
0.0
 14
-51.85950340347554
 24
-49.97180738881175
 34
0.0
 15
43.32186253417581
 25
46.83332450504429
 35
0.0
146
0.0
 13
0.0
 23
0.0
 33
0.0
 16
1.0
 26
0.0
 36
0.0
 17
0.0
 27
1.0
 37
0.0
 76
     0
330
1F
331
29
  0
MLINESTYLE
  5
18
102
{ACAD_REACTORS
330
17
102
}
330
17
100
AcDbMlineStyle
  2
Standard
 70
     0
  3

 62
   256
 51
90.0
 52
90.0
 71
     2
 49
0.5
 62
   256
  6
BYLAYER
 49
-0.5
 62
   256
  6
BYLAYER
  0
ACDBPLACEHOLDER
  5
F
102
{ACAD_REACTORS
330
E
102
}
330
E
  0
SCALE
  5
48
102
{ACAD_REACTORS
330
47
102
}
330
47
100
AcDbScale
 70
     0
300
1:1
140
1.0
141
1.0
290
     1
  0
SCALE
  5
49
102
{ACAD_REACTORS
330
47
102
}
330
47
100
AcDbScale
 70
     0
300
1:2
140
1.0
141
2.0
290
     0
  0
SCALE
  5
4A
102
{ACAD_REACTORS
330
47
102
}
330
47
100
AcDbScale
 70
     0
300
1:4
140
1.0
141
4.0
290
     0
  0
SCALE
  5
4B
102
{ACAD_REACTORS
330
47
102
}
330
47
100
AcDbScale
 70
     0
300
1:5
140
1.0
141
5.0
290
     0
  0
SCALE
  5
4C
102
{ACAD_REACTORS
330
47
102
}
330
47
100
AcDbScale
 70
     0
300
1:8
140
1.0
141
8.0
290
     0
  0
SCALE
  5
4D
102
{ACAD_REACTORS
330
47
102
}
330
47
100
AcDbScale
 70
     0
300
1:10
140
1.0
141
10.0
290
     0
  0
SCALE
  5
4E
102
{ACAD_REACTORS
330
47
102
}
330
47
100
AcDbScale
 70
     0
300
1:16
140
1.0
141
16.0
290
     0
  0
SCALE
  5
4F
102
{ACAD_REACTORS
330
47
102
}
330
47
100
AcDbScale
 70
     0
300
1:20
140
1.0
141
20.0
290
     0
  0
SCALE
  5
50
102
{ACAD_REACTORS
330
47
102
}
330
47
100
AcDbScale
 70
     0
300
1:30
140
1.0
141
30.0
290
     0
  0
SCALE
  5
51
102
{ACAD_REACTORS
330
47
102
}
330
47
100
AcDbScale
 70
     0
300
1:40
140
1.0
141
40.0
290
     0
  0
SCALE
  5
52
102
{ACAD_REACTORS
330
47
102
}
330
47
100
AcDbScale
 70
     0
300
1:50
140
1.0
141
50.0
290
     0
  0
SCALE
  5
53
102
{ACAD_REACTORS
330
47
102
}
330
47
100
AcDbScale
 70
     0
300
1:100
140
1.0
141
100.0
290
     0
  0
SCALE
  5
54
102
{ACAD_REACTORS
330
47
102
}
330
47
100
AcDbScale
 70
     0
300
2:1
140
2.0
141
1.0
290
     0
  0
SCALE
  5
55
102
{ACAD_REACTORS
330
47
102
}
330
47
100
AcDbScale
 70
     0
300
4:1
140
4.0
141
1.0
290
     0
  0
SCALE
  5
56
102
{ACAD_REACTORS
330
47
102
}
330
47
100
AcDbScale
 70
     0
300
8:1
140
8.0
141
1.0
290
     0
  0
SCALE
  5
57
102
{ACAD_REACTORS
330
47
102
}
330
47
100
AcDbScale
 70
     0
300
10:1
140
10.0
141
1.0
290
     0
  0
SCALE
  5
58
102
{ACAD_REACTORS
330
47
102
}
330
47
100
AcDbScale
 70
     0
300
100:1
140
100.0
141
1.0
290
     0
  0
SCALE
  5
59
102
{ACAD_REACTORS
330
47
102
}
330
47
100
AcDbScale
 70
     0
300
1/128" = 1'-0"
140
0.0078125
141
12.0
290
     0
  0
SCALE
  5
5A
102
{ACAD_REACTORS
330
47
102
}
330
47
100
AcDbScale
 70
     0
300
1/64" = 1'-0"
140
0.015625
141
12.0
290
     0
  0
SCALE
  5
5B
102
{ACAD_REACTORS
330
47
102
}
330
47
100
AcDbScale
 70
     0
300
1/32" = 1'-0"
140
0.03125
141
12.0
290
     0
  0
SCALE
  5
5C
102
{ACAD_REACTORS
330
47
102
}
330
47
100
AcDbScale
 70
     0
300
1/16" = 1'-0"
140
0.0625
141
12.0
290
     0
  0
SCALE
  5
5D
102
{ACAD_REACTORS
330
47
102
}
330
47
100
AcDbScale
 70
     0
300
3/32" = 1'-0"
140
0.09375
141
12.0
290
     0
  0
SCALE
  5
5E
102
{ACAD_REACTORS
330
47
102
}
330
47
100
AcDbScale
 70
     0
300
1/8" = 1'-0"
140
0.125
141
12.0
290
     0
  0
SCALE
  5
5F
102
{ACAD_REACTORS
330
47
102
}
330
47
100
AcDbScale
 70
     0
300
3/16" = 1'-0"
140
0.1875
141
12.0
290
     0
  0
SCALE
  5
60
102
{ACAD_REACTORS
330
47
102
}
330
47
100
AcDbScale
 70
     0
300
1/4" = 1'-0"
140
0.25
141
12.0
290
     0
  0
SCALE
  5
61
102
{ACAD_REACTORS
330
47
102
}
330
47
100
AcDbScale
 70
     0
300
3/8" = 1'-0"
140
0.375
141
12.0
290
     0
  0
SCALE
  5
62
102
{ACAD_REACTORS
330
47
102
}
330
47
100
AcDbScale
 70
     0
300
1/2" = 1'-0"
140
0.5
141
12.0
290
     0
  0
SCALE
  5
63
102
{ACAD_REACTORS
330
47
102
}
330
47
100
AcDbScale
 70
     0
300
3/4" = 1'-0"
140
0.75
141
12.0
290
     0
  0
SCALE
  5
64
102
{ACAD_REACTORS
330
47
102
}
330
47
100
AcDbScale
 70
     0
300
1" = 1'-0"
140
1.0
141
12.0
290
     0
  0
SCALE
  5
65
102
{ACAD_REACTORS
330
47
102
}
330
47
100
AcDbScale
 70
     0
300
1-1/2" = 1'-0"
140
1.5
141
12.0
290
     0
  0
SCALE
  5
66
102
{ACAD_REACTORS
330
47
102
}
330
47
100
AcDbScale
 70
     0
300
3" = 1'-0"
140
3.0
141
12.0
290
     0
  0
SCALE
  5
67
102
{ACAD_REACTORS
330
47
102
}
330
47
100
AcDbScale
 70
     0
300
6" = 1'-0"
140
6.0
141
12.0
290
     0
  0
SCALE
  5
68
102
{ACAD_REACTORS
330
47
102
}
330
47
100
AcDbScale
 70
     0
300
1'-0" = 1'-0"
140
12.0
141
12.0
290
     0
  0
ENDSEC
  0
EOF
