  0
SECTION
  2
HEADER
  9
$ACADVER
  1
AC1015
  9
$ACADMAINTVER
 70
     6
  9
$DWGCODEPAGE
  3
ANSI_949
  9
$INSBASE
 10
0.0
 20
0.0
 30
0.0
  9
$EXTMIN
 10
1.000000000000000E+20
 20
1.000000000000000E+20
 30
1.000000000000000E+20
  9
$EXTMAX
 10
-1.000000000000000E+20
 20
-1.000000000000000E+20
 30
-1.000000000000000E+20
  9
$LIMMIN
 10
0.0
 20
0.0
  9
$LIMMAX
 10
420.0
 20
297.0
  9
$ORTHOMODE
 70
     0
  9
$REGENMODE
 70
     1
  9
$FILLMODE
 70
     1
  9
$QTEXTMODE
 70
     0
  9
$MIRRTEXT
 70
     1
  9
$LTSCALE
 40
1.0
  9
$ATTMODE
 70
     1
  9
$TEXTSIZE
 40
3.5
  9
$TRACEWID
 40
1.0
  9
$TEXTSTYLE
  7
Standard
  9
$CLAYER
  8
0
  9
$CELTYPE
  6
ByLayer
  9
$CECOLOR
 62
   256
  9
$CELTSCALE
 40
1.0
  9
$DISPSILH
 70
     0
  9
$DIMSCALE
 40
1.0
  9
$DIMASZ
 40
3.302
  9
$DIMEXO
 40
1.0
  9
$DIMDLI
 40
3.75
  9
$DIMRND
 40
0.0
  9
$DIMDLE
 40
0.0
  9
$DIMEXE
 40
1.0
  9
$DIMTP
 40
0.0
  9
$DIMTM
 40
0.0
  9
$DIMTXT
 40
3.5
  9
$DIMCEN
 40
2.5
  9
$DIMTSZ
 40
0.0
  9
$DIMTOL
 70
     0
  9
$DIMLIM
 70
     0
  9
$DIMTIH
 70
     1
  9
$DIMTOH
 70
     1
  9
$DIMSE1
 70
     0
  9
$DIMSE2
 70
     0
  9
$DIMTAD
 70
     1
  9
$DIMZIN
 70
     0
  9
$DIMBLK
  1

  9
$DIMASO
 70
     1
  9
$DIMSHO
 70
     1
  9
$DIMPOST
  1

  9
$DIMAPOST
  1

  9
$DIMALT
 70
     0
  9
$DIMALTD
 70
     3
  9
$DIMALTF
 40
0.0393700787401575
  9
$DIMLFAC
 40
1.0
  9
$DIMTOFL
 70
     1
  9
$DIMTVP
 40
0.0
  9
$DIMTIX
 70
     0
  9
$DIMSOXD
 70
     0
  9
$DIMSAH
 70
     0
  9
$DIMBLK1
  1

  9
$DIMBLK2
  1

  9
$DIMSTYLE
  2
ISO-25
  9
$DIMCLRD
 70
     0
  9
$DIMCLRE
 70
     0
  9
$DIMCLRT
 70
     0
  9
$DIMTFAC
 40
1.0
  9
$DIMGAP
 40
1.524
  9
$DIMJUST
 70
     0
  9
$DIMSD1
 70
     0
  9
$DIMSD2
 70
     0
  9
$DIMTOLJ
 70
     0
  9
$DIMTZIN
 70
     0
  9
$DIMALTZ
 70
     0
  9
$DIMALTTZ
 70
     0
  9
$DIMUPT
 70
     0
  9
$DIMDEC
 70
     2
  9
$DIMTDEC
 70
     2
  9
$DIMALTU
 70
     2
  9
$DIMALTTD
 70
     3
  9
$DIMTXSTY
  7
Standard
  9
$DIMAUNIT
 70
     0
  9
$DIMADEC
 70
     2
  9
$DIMALTRND
 40
0.0
  9
$DIMAZIN
 70
     0
  9
$DIMDSEP
 70
    44
  9
$DIMATFIT
 70
     3
  9
$DIMFRAC
 70
     0
  9
$DIMLDRBLK
  1

  9
$DIMLUNIT
 70
     2
  9
$DIMLWD
 70
    -2
  9
$DIMLWE
 70
    -2
  9
$DIMTMOVE
 70
     0
  9
$LUNITS
 70
     2
  9
$LUPREC
 70
     2
  9
$SKETCHINC
 40
1.0
  9
$FILLETRAD
 40
10.0
  9
$AUNITS
 70
     0
  9
$AUPREC
 70
     2
  9
$MENU
  1
.
  9
$ELEVATION
 40
0.0
  9
$PELEVATION
 40
0.0
  9
$THICKNESS
 40
0.0
  9
$LIMCHECK
 70
     0
  9
$CHAMFERA
 40
0.0
  9
$CHAMFERB
 40
0.0
  9
$CHAMFERC
 40
0.0
  9
$CHAMFERD
 40
0.0
  9
$SKPOLY
 70
     0
  9
$TDCREATE
 40
2458263.791315278
  9
$TDUCREATE
 40
2458263.416315278
  9
$TDUPDATE
 40
2458268.879574884
  9
$TDUUPDATE
 40
2458268.504574884
  9
$TDINDWG
 40
0.0001551852
  9
$TDUSRTIMER
 40
2458268.504419977
  9
$USRTIMER
 70
     1
  9
$ANGBASE
 50
0.0
  9
$ANGDIR
 70
     0
  9
$PDMODE
 70
     0
  9
$PDSIZE
 40
-1.0
  9
$PLINEWID
 40
0.0
  9
$SPLFRAME
 70
     0
  9
$SPLINETYPE
 70
     6
  9
$SPLINESEGS
 70
     8
  9
$HANDSEED
  5
2A4
  9
$SURFTAB1
 70
     6
  9
$SURFTAB2
 70
     6
  9
$SURFTYPE
 70
     6
  9
$SURFU
 70
     6
  9
$SURFV
 70
     6
  9
$UCSBASE
  2

  9
$UCSNAME
  2

  9
$UCSORG
 10
0.0
 20
0.0
 30
0.0
  9
$UCSXDIR
 10
1.0
 20
0.0
 30
0.0
  9
$UCSYDIR
 10
0.0
 20
1.0
 30
0.0
  9
$UCSORTHOREF
  2

  9
$UCSORTHOVIEW
 70
     0
  9
$UCSORGTOP
 10
0.0
 20
0.0
 30
0.0
  9
$UCSORGBOTTOM
 10
0.0
 20
0.0
 30
0.0
  9
$UCSORGLEFT
 10
0.0
 20
0.0
 30
0.0
  9
$UCSORGRIGHT
 10
0.0
 20
0.0
 30
0.0
  9
$UCSORGFRONT
 10
0.0
 20
0.0
 30
0.0
  9
$UCSORGBACK
 10
0.0
 20
0.0
 30
0.0
  9
$PUCSBASE
  2

  9
$PUCSNAME
  2

  9
$PUCSORG
 10
0.0
 20
0.0
 30
0.0
  9
$PUCSXDIR
 10
1.0
 20
0.0
 30
0.0
  9
$PUCSYDIR
 10
0.0
 20
1.0
 30
0.0
  9
$PUCSORTHOREF
  2

  9
$PUCSORTHOVIEW
 70
     0
  9
$PUCSORGTOP
 10
0.0
 20
0.0
 30
0.0
  9
$PUCSORGBOTTOM
 10
0.0
 20
0.0
 30
0.0
  9
$PUCSORGLEFT
 10
0.0
 20
0.0
 30
0.0
  9
$PUCSORGRIGHT
 10
0.0
 20
0.0
 30
0.0
  9
$PUCSORGFRONT
 10
0.0
 20
0.0
 30
0.0
  9
$PUCSORGBACK
 10
0.0
 20
0.0
 30
0.0
  9
$USERI1
 70
     0
  9
$USERI2
 70
     0
  9
$USERI3
 70
     0
  9
$USERI4
 70
     0
  9
$USERI5
 70
     0
  9
$USERR1
 40
0.0
  9
$USERR2
 40
0.0
  9
$USERR3
 40
0.0
  9
$USERR4
 40
0.0
  9
$USERR5
 40
0.0
  9
$WORLDVIEW
 70
     1
  9
$SHADEDGE
 70
     3
  9
$SHADEDIF
 70
    70
  9
$TILEMODE
 70
     1
  9
$MAXACTVP
 70
    64
  9
$PINSBASE
 10
0.0
 20
0.0
 30
0.0
  9
$PLIMCHECK
 70
     0
  9
$PEXTMIN
 10
1.000000000000000E+20
 20
1.000000000000000E+20
 30
1.000000000000000E+20
  9
$PEXTMAX
 10
-1.000000000000000E+20
 20
-1.000000000000000E+20
 30
-1.000000000000000E+20
  9
$PLIMMIN
 10
0.0
 20
0.0
  9
$PLIMMAX
 10
0.0
 20
0.0
  9
$UNITMODE
 70
     0
  9
$VISRETAIN
 70
     1
  9
$PLINEGEN
 70
     0
  9
$PSLTSCALE
 70
     1
  9
$TREEDEPTH
 70
  3020
  9
$CMLSTYLE
  2
Standard
  9
$CMLJUST
 70
     0
  9
$CMLSCALE
 40
20.0
  9
$PROXYGRAPHICS
 70
     1
  9
$MEASUREMENT
 70
     1
  9
$CELWEIGHT
370
    -1
  9
$ENDCAPS
280
     0
  9
$JOINSTYLE
280
     0
  9
$LWDISPLAY
290
     1
  9
$INSUNITS
 70
     4
  9
$HYPERLINKBASE
  1

  9
$STYLESHEET
  1

  9
$XEDIT
290
     1
  9
$CEPSNTYPE
380
     0
  9
$PSTYLEMODE
290
     1
  9
$FINGERPRINTGUID
  2
{0209CAD6-BD2A-48A3-B29E-310A0A85B33C}
  9
$VERSIONGUID
  2
{FAEB1C32-E019-11D5-929B-00C0DF256EC4}
  9
$EXTNAMES
290
     1
  9
$PSVPSCALE
 40
0.0
  9
$OLESTARTUP
290
     0
  0
ENDSEC
  0
SECTION
  2
CLASSES
  0
CLASS
  1
ACDBDICTIONARYWDFLT
  2
AcDbDictionaryWithDefault
  3
ObjectDBX Classes
 90
        0
280
     0
281
     0
  0
CLASS
  1
VISUALSTYLE
  2
AcDbVisualStyle
  3
ObjectDBX Classes
 90
     4095
280
     0
281
     0
  0
CLASS
  1
MATERIAL
  2
AcDbMaterial
  3
ObjectDBX Classes
 90
     1153
280
     0
281
     0
  0
CLASS
  1
SCALE
  2
AcDbScale
  3
ObjectDBX Classes
 90
     1153
280
     0
281
     0
  0
CLASS
  1
TABLESTYLE
  2
AcDbTableStyle
  3
ObjectDBX Classes
 90
     4095
280
     0
281
     0
  0
CLASS
  1
MLEADERSTYLE
  2
AcDbMLeaderStyle
  3
ACDB_MLEADERSTYLE_CLASS
 90
     4095
280
     0
281
     0
  0
CLASS
  1
SUN
  2
AcDbSun
  3
SCENEOE
 90
     1153
280
     0
281
     0
  0
CLASS
  1
ACDBPLACEHOLDER
  2
AcDbPlaceHolder
  3
ObjectDBX Classes
 90
        0
280
     0
281
     0
  0
CLASS
  1
LAYOUT
  2
AcDbLayout
  3
ObjectDBX Classes
 90
        0
280
     0
281
     0
  0
CLASS
  1
RASTERVARIABLES
  2
AcDbRasterVariables
  3
ISM
 90
        0
280
     0
281
     0
  0
CLASS
  1
DIMASSOC
  2
AcDbDimAssoc
  3
"AcDbDimAssoc|Product Desc:     AcDim ARX App For Dimension|Company:          Autodesk, Inc.|WEB Address:      www.autodesk.com"
 90
        0
280
     0
281
     0
  0
ENDSEC
  0
SECTION
  2
TABLES
  0
TABLE
  2
VPORT
  5
8
330
0
100
AcDbSymbolTable
 70
     1
  0
VPORT
  5
29
330
8
100
AcDbSymbolTableRecord
100
AcDbViewportTableRecord
  2
*Active
 70
     0
 10
0.0
 20
0.0
 11
1.0
 21
1.0
 12
30.07670895597974
 22
0.1041535217113245
 13
0.0
 23
0.0
 14
10.0
 24
10.0
 15
10.0
 25
10.0
 16
0.0
 26
0.0
 36
1.0
 17
0.0
 27
0.0
 37
0.0
 40
5.47616042014177
 41
1.730844793713163
 42
50.0
 43
0.0
 44
0.0
 50
0.0
 51
0.0
 71
    16
 72
  2000
 73
     1
 74
     3
 75
     0
 76
     0
 77
     0
 78
     0
281
     0
 65
     1
110
0.0
120
0.0
130
0.0
111
1.0
121
0.0
131
0.0
112
0.0
122
1.0
132
0.0
 79
     0
146
0.0
  0
ENDTAB
  0
TABLE
  2
LTYPE
  5
5
330
0
100
AcDbSymbolTable
 70
     6
  0
LTYPE
  5
14
330
5
100
AcDbSymbolTableRecord
100
AcDbLinetypeTableRecord
  2
ByBlock
 70
     0
  3

 72
    65
 73
     0
 40
0.0
  0
LTYPE
  5
15
330
5
100
AcDbSymbolTableRecord
100
AcDbLinetypeTableRecord
  2
ByLayer
 70
     0
  3

 72
    65
 73
     0
 40
0.0
  0
LTYPE
  5
16
330
5
100
AcDbSymbolTableRecord
100
AcDbLinetypeTableRecord
  2
Continuous
 70
     0
  3
Solid line
 72
    65
 73
     0
 40
0.0
  0
LTYPE
  5
6E
330
5
100
AcDbSymbolTableRecord
100
AcDbLinetypeTableRecord
  2
HIDDEN
 70
     0
  3
Hidden __ __ __ __ __ __ __ __ __ __ __ __ __ __
 72
    65
 73
     2
 40
1.905
 49
1.27
 74
     0
 49
-0.635
 74
     0
  0
LTYPE
  5
6F
330
5
100
AcDbSymbolTableRecord
100
AcDbLinetypeTableRecord
  2
PHANTOM
 70
     0
  3
Phantom ______  __  __  ______  __  __  ______
 72
    65
 73
     6
 40
12.7
 49
6.35
 74
     0
 49
-1.27
 74
     0
 49
1.27
 74
     0
 49
-1.27
 74
     0
 49
1.27
 74
     0
 49
-1.27
 74
     0
  0
LTYPE
  5
70
330
5
100
AcDbSymbolTableRecord
100
AcDbLinetypeTableRecord
  2
CENTER
 70
     0
  3
Center ____ _ ____ _ ____ _ ____ _ ____ _ ____
 72
    65
 73
     4
 40
10.16
 49
6.35
 74
     0
 49
-1.27
 74
     0
 49
1.27
 74
     0
 49
-1.27
 74
     0
  0
LTYPE
  5
71
330
5
100
AcDbSymbolTableRecord
100
AcDbLinetypeTableRecord
  2
CENTERX2
 70
     0
  3
Center (2x) ________  __  ________  __  _____
 72
    65
 73
     4
 40
20.32
 49
12.7
 74
     0
 49
-2.54
 74
     0
 49
2.54
 74
     0
 49
-2.54
 74
     0
  0
LTYPE
  5
72
330
5
100
AcDbSymbolTableRecord
100
AcDbLinetypeTableRecord
  2
DOT2
 70
     0
  3
Dot (.5x) ........................................
 72
    65
 73
     2
 40
0.635
 49
0.0
 74
     0
 49
-0.635
 74
     0
  0
ENDTAB
  0
TABLE
  2
LAYER
  5
2
330
0
100
AcDbSymbolTable
 70
    17
  0
LAYER
  5
10
330
2
100
AcDbSymbolTableRecord
100
AcDbLayerTableRecord
  2
0
 70
     0
 62
     7
  6
Continuous
370
    -3
390
F
  0
LAYER
  5
73
330
2
100
AcDbSymbolTableRecord
100
AcDbLayerTableRecord
  2
FORMAT
 70
     0
 62
     2
  6
Continuous
370
    -3
390
F
  0
LAYER
  5
74
330
2
100
AcDbSymbolTableRecord
100
AcDbLayerTableRecord
  2
외형선
 70
     0
 62
   100
  6
Continuous
370
    35
390
F
  0
LAYER
  5
75
330
2
100
AcDbSymbolTableRecord
100
AcDbLayerTableRecord
  2
숨은선
 70
     0
 62
     2
  6
HIDDEN
370
    25
390
F
  0
LAYER
  5
76
330
2
100
AcDbSymbolTableRecord
100
AcDbLayerTableRecord
  2
중심선
 70
     0
 62
     1
  6
CENTERX2
370
    -3
390
F
  0
LAYER
  5
77
330
2
100
AcDbSymbolTableRecord
100
AcDbLayerTableRecord
  2
파단선
 70
     0
 62
     4
  6
Continuous
370
    -3
390
F
  0
LAYER
  5
78
330
2
100
AcDbSymbolTableRecord
100
AcDbLayerTableRecord
  2
해칭선
 70
     0
 62
     4
  6
Continuous
370
    -3
390
F
  0
LAYER
  5
79
330
2
100
AcDbSymbolTableRecord
100
AcDbLayerTableRecord
  2
가는실선
 70
     0
 62
     4
  6
Continuous
370
    -3
390
F
  0
LAYER
  5
7A
330
2
100
AcDbSymbolTableRecord
100
AcDbLayerTableRecord
  2
치수_보조선
 70
     0
 62
     4
  6
Continuous
370
    -3
390
F
  0
LAYER
  5
7B
330
2
100
AcDbSymbolTableRecord
100
AcDbLayerTableRecord
  2
치수문자_일반주서
 70
     0
 62
     7
  6
Continuous
370
    25
390
F
  0
LAYER
  5
7C
330
2
100
AcDbSymbolTableRecord
100
AcDbLayerTableRecord
  2
개별주서
 70
     0
 62
   100
  6
Continuous
370
    35
390
F
  0
LAYER
  5
7D
330
2
100
AcDbSymbolTableRecord
100
AcDbLayerTableRecord
  2
중간선
 70
     0
 62
     2
  6
Continuous
370
    25
390
F
  0
LAYER
  5
7E
330
2
100
AcDbSymbolTableRecord
100
AcDbLayerTableRecord
  2
윤곽선
 70
     0
 62
     3
  6
Continuous
370
    50
390
F
  0
LAYER
  5
7F
330
2
100
AcDbSymbolTableRecord
100
AcDbLayerTableRecord
  2
중심마크
 70
     0
 62
   100
  6
Continuous
370
    35
390
F
  0
LAYER
  5
80
330
2
100
AcDbSymbolTableRecord
100
AcDbLayerTableRecord
  2
가상선
 70
     0
 62
     4
  6
PHANTOM
370
    -3
390
F
  0
LAYER
  5
81
330
2
100
AcDbSymbolTableRecord
100
AcDbLayerTableRecord
  2
특수지정선
 70
     0
 62
     5
  6
CENTERX2
370
    70
390
F
  0
LAYER
  5
13E
330
2
100
AcDbSymbolTableRecord
100
AcDbLayerTableRecord
  2
Defpoints
 70
     0
 62
     7
  6
Continuous
290
     0
370
    -3
390
F
  0
ENDTAB
  0
TABLE
  2
STYLE
  5
3
330
0
100
AcDbSymbolTable
 70
     2
  0
STYLE
  5
11
330
3
100
AcDbSymbolTableRecord
100
AcDbTextStyleTableRecord
  2
Standard
 70
     0
 40
0.0
 41
1.0
 50
0.0
 71
     0
 42
3.5
  3
txt
  4

  0
STYLE
  5
97
330
3
100
AcDbSymbolTableRecord
100
AcDbTextStyleTableRecord
  2
SLDTEXTSTYLE0
 70
     0
 40
0.0
 41
0.75
 50
0.0
 71
     0
 42
3.5
  3
TXT
  4

  0
ENDTAB
  0
TABLE
  2
VIEW
  5
6
330
0
100
AcDbSymbolTable
 70
     0
  0
ENDTAB
  0
TABLE
  2
UCS
  5
7
330
0
100
AcDbSymbolTable
 70
     0
  0
ENDTAB
  0
TABLE
  2
APPID
  5
9
330
0
100
AcDbSymbolTable
 70
     2
  0
APPID
  5
12
330
9
100
AcDbSymbolTableRecord
100
AcDbRegAppTableRecord
  2
ACAD
 70
     0
  0
APPID
  5
235
330
9
100
AcDbSymbolTableRecord
100
AcDbRegAppTableRecord
  2
ACAD_DSTYLE_DIMRADIAL_EXTENSION
 70
     0
  0
ENDTAB
  0
TABLE
  2
DIMSTYLE
  5
A
330
0
100
AcDbSymbolTable
 70
     5
100
AcDbDimStyleTable
  0
DIMSTYLE
105
27
330
A
100
AcDbSymbolTableRecord
100
AcDbDimStyleTableRecord
  2
ISO-25
 70
     0
 41
2.5
 42
0.625
 43
3.75
 44
1.25
 73
     0
 74
     0
 77
     1
 78
     8
140
2.5
141
2.5
143
0.03937007874016
147
0.625
171
     3
172
     1
178
     0
271
     2
272
     2
274
     3
278
    44
283
     0
284
     8
340
11
  0
DIMSTYLE
105
D5
102
{ACAD_REACTORS
330
17E
330
1A6
330
1E5
330
1E8
102
}
330
A
100
AcDbSymbolTableRecord
100
AcDbDimStyleTableRecord
  2
SLDDIMSTYLE0
 70
     0
 41
3.302
 44
0.0
 45
0.000000001
 73
     0
 74
     0
 77
     1
 78
    12
 79
     3
140
3.5
147
0.875
172
     1
173
     1
178
     0
271
     2
272
     2
276
     2
284
    12
289
     0
340
97
  0
DIMSTYLE
105
E3
102
{ACAD_REACTORS
330
18B
330
1E6
102
}
330
A
100
AcDbSymbolTableRecord
100
AcDbDimStyleTableRecord
  2
SLDDIMSTYLE1
 70
     0
 41
3.302
 44
0.0
 45
0.000000001
 73
     0
 74
     0
 77
     1
 78
     4
 79
     1
140
3.5
147
0.875
172
     1
173
     1
178
     0
271
     2
272
     2
276
     2
284
    12
289
     0
340
97
  0
DIMSTYLE
105
F0
102
{ACAD_REACTORS
330
199
330
1E7
102
}
330
A
100
AcDbSymbolTableRecord
100
AcDbDimStyleTableRecord
  2
SLDDIMSTYLE2
 70
     0
 41
3.302
 44
0.0
 45
0.000000001
 73
     0
 74
     0
 77
     1
 78
    12
 79
     3
140
3.5
147
0.875
173
     1
178
     0
271
     2
272
     2
276
     2
284
    12
340
97
  0
DIMSTYLE
105
14A
102
{ACAD_REACTORS
330
1B3
330
1E9
330
26E
330
297
102
}
330
A
100
AcDbSymbolTableRecord
100
AcDbDimStyleTableRecord
  2
SLDDIMSTYLE3
 70
     0
 41
3.302
 44
0.0
 45
0.000000001
 73
     0
 74
     0
 77
     1
 78
     8
 79
     2
140
3.5
147
0.875
172
     1
173
     1
178
     0
271
     2
272
     2
276
     2
284
    12
289
     0
340
97
  0
ENDTAB
  0
TABLE
  2
BLOCK_RECORD
  5
1
330
0
100
AcDbSymbolTable
 70
    22
  0
BLOCK_RECORD
  5
1F
330
1
100
AcDbSymbolTableRecord
100
AcDbBlockTableRecord
  2
*Model_Space
340
22
  0
BLOCK_RECORD
  5
1B
330
1
100
AcDbSymbolTableRecord
100
AcDbBlockTableRecord
  2
*Paper_Space
340
1E
  0
BLOCK_RECORD
  5
23
330
1
100
AcDbSymbolTableRecord
100
AcDbBlockTableRecord
  2
*Paper_Space0
340
26
  0
BLOCK_RECORD
  5
82
330
1
100
AcDbSymbolTableRecord
100
AcDbBlockTableRecord
  2
블럭10
340
0
102
{BLKREFS
331
CD
102
}
  0
BLOCK_RECORD
  5
D6
330
1
100
AcDbSymbolTableRecord
100
AcDbBlockTableRecord
  2
_D
340
0
  0
BLOCK_RECORD
  5
E4
330
1
100
AcDbSymbolTableRecord
100
AcDbBlockTableRecord
  2
_D_1
340
0
  0
BLOCK_RECORD
  5
F1
330
1
100
AcDbSymbolTableRecord
100
AcDbBlockTableRecord
  2
_D_2
340
0
  0
BLOCK_RECORD
  5
FB
330
1
100
AcDbSymbolTableRecord
100
AcDbBlockTableRecord
  2
_D_3
340
0
  0
BLOCK_RECORD
  5
107
330
1
100
AcDbSymbolTableRecord
100
AcDbBlockTableRecord
  2
_D_4
340
0
  0
BLOCK_RECORD
  5
113
330
1
100
AcDbSymbolTableRecord
100
AcDbBlockTableRecord
  2
SW_DOWELSYMBOL_0
340
0
102
{BLKREFS
331
0
331
1C3
331
1EA
102
}
  0
BLOCK_RECORD
  5
17F
330
1
100
AcDbSymbolTableRecord
100
AcDbBlockTableRecord
  2
*D9
340
0
  0
BLOCK_RECORD
  5
18C
330
1
100
AcDbSymbolTableRecord
100
AcDbBlockTableRecord
  2
*D10
340
0
  0
BLOCK_RECORD
  5
19A
330
1
100
AcDbSymbolTableRecord
100
AcDbBlockTableRecord
  2
*D11
340
0
  0
BLOCK_RECORD
  5
1A7
330
1
100
AcDbSymbolTableRecord
100
AcDbBlockTableRecord
  2
*D12
340
0
  0
BLOCK_RECORD
  5
1B4
330
1
100
AcDbSymbolTableRecord
100
AcDbBlockTableRecord
  2
*D13
340
0
  0
BLOCK_RECORD
  5
1EF
330
1
100
AcDbSymbolTableRecord
100
AcDbBlockTableRecord
  2
*D14
340
0
  0
BLOCK_RECORD
  5
1FB
330
1
100
AcDbSymbolTableRecord
100
AcDbBlockTableRecord
  2
*D15
340
0
  0
BLOCK_RECORD
  5
207
330
1
100
AcDbSymbolTableRecord
100
AcDbBlockTableRecord
  2
*D16
340
0
  0
BLOCK_RECORD
  5
213
330
1
100
AcDbSymbolTableRecord
100
AcDbBlockTableRecord
  2
*D17
340
0
  0
BLOCK_RECORD
  5
21F
330
1
100
AcDbSymbolTableRecord
100
AcDbBlockTableRecord
  2
*D18
340
0
  0
BLOCK_RECORD
  5
271
330
1
100
AcDbSymbolTableRecord
100
AcDbBlockTableRecord
  2
*D20
340
0
  0
BLOCK_RECORD
  5
29A
330
1
100
AcDbSymbolTableRecord
100
AcDbBlockTableRecord
  2
*D21
340
0
  0
ENDTAB
  0
ENDSEC
  0
SECTION
  2
BLOCKS
  0
BLOCK
  5
20
330
1F
100
AcDbEntity
  8
0
100
AcDbBlockBegin
  2
*Model_Space
 70
     0
 10
0.0
 20
0.0
 30
0.0
  3
*Model_Space
  1
*Model_Space
  0
ENDBLK
  5
21
330
1F
100
AcDbEntity
  8
0
100
AcDbBlockEnd
  0
BLOCK
  5
1C
330
1B
100
AcDbEntity
 67
     1
  8
0
100
AcDbBlockBegin
  2
*Paper_Space
 70
     0
 10
0.0
 20
0.0
 30
0.0
  3
*Paper_Space
  1
*Paper_Space
  0
ENDBLK
  5
1D
330
1B
100
AcDbEntity
 67
     1
  8
0
100
AcDbBlockEnd
  0
BLOCK
  5
24
330
23
100
AcDbEntity
  8
0
100
AcDbBlockBegin
  2
*Paper_Space0
 70
     0
 10
0.0
 20
0.0
 30
0.0
  3
*Paper_Space0
  1
*Paper_Space0
  0
ENDBLK
  5
25
330
23
100
AcDbEntity
  8
0
100
AcDbBlockEnd
  0
BLOCK
  5
83
330
82
100
AcDbEntity
  8
0
100
AcDbBlockBegin
  2
블럭10
 70
     2
 10
0.0
 20
0.0
 30
0.0
  3
블럭10
  1
블럭10
  0
ELLIPSE
  5
85
330
82
100
AcDbEntity
  8
중심선
100
AcDbEllipse
 10
20.54032771741204
 20
12.0471743016438
 30
0.0
 11
6.600054785286829
 21
-1.261213355974178E-13
 31
0.0
210
0.0
220
0.0
230
1.0
 40
0.636358354079598
 41
0.9219305317359503
 42
6.513795318482858
  0
ELLIPSE
  5
86
330
82
100
AcDbEntity
  8
중심선
100
AcDbEllipse
 10
20.54032771746488
 20
12.04717430159265
 30
0.0
 11
3.960054785062283
 21
1.540847449632565E-10
 31
0.0
210
0.0
220
0.0
230
1.0
 40
0.3939339440162632
 41
1.131841032648279
 42
5.62031148352944
  0
LINE
  5
87
330
82
100
AcDbEntity
  8
중심선
100
AcDbLine
 10
2.268634060543552
 20
16.24717430164393
 30
0.0
 11
5.714909304380834
 21
16.24717430164393
 31
0.0
  0
LINE
  5
88
330
82
100
AcDbEntity
  8
중심선
100
AcDbLine
 10
5.245725140726316
 20
7.84717430164391
 30
0.0
 11
8.692000384563599
 21
7.84717430164391
 31
0.0
  0
LINE
  5
89
330
82
100
AcDbEntity
  8
중심선
100
AcDbLine
 10
15.74043728645272
 20
16.24717430164393
 30
0.0
 11
8.692000384563599
 21
7.84717430164391
 31
0.0
  0
LINE
  5
8A
330
82
100
AcDbEntity
  8
중심선
100
AcDbLine
 10
0.1404042013395286
 20
13.71084872107135
 30
0.0
 11
3.58671253028996
 21
13.71088815037384
 31
0.0
  0
LINE
  5
8B
330
82
100
AcDbEntity
  8
중심선
100
AcDbLine
 10
2.750260043222114
 20
10.84717430164391
 30
0.0
 11
6.196535287059397
 21
10.84717430164391
 31
0.0
  0
LINE
  5
8C
330
82
100
AcDbEntity
  8
중심선
100
AcDbLine
 10
12.29416204261559
 20
16.24717430164393
 30
0.0
 11
5.245725140726316
 21
7.84717430164391
 31
0.0
  0
LINE
  5
8D
330
82
100
AcDbEntity
  8
중심선
100
AcDbLine
 10
10.72767329541681
 20
16.24717430164393
 30
0.0
 11
6.196535287059397
 21
10.84717430164391
 31
0.0
  0
LINE
  5
8E
330
82
100
AcDbEntity
  8
중심선
100
AcDbLine
 10
7.28139805157953
 20
16.24717430164393
 30
0.0
 11
2.750260043222114
 21
10.84717430164391
 31
0.0
  0
LINE
  5
8F
330
82
100
AcDbEntity
  8
중심선
100
AcDbLine
 10
5.714909304380834
 20
16.24717430164393
 30
0.0
 11
3.58671253028996
 21
13.71088815037384
 31
0.0
  0
LINE
  5
90
330
82
100
AcDbEntity
  8
중심선
100
AcDbLine
 10
2.268634060543552
 20
16.24717430164393
 30
0.0
 11
0.1404042013395286
 21
13.71084872107135
 31
0.0
  0
LINE
  5
91
330
82
100
AcDbEntity
  8
중심선
100
AcDbLine
 10
7.28139805157953
 20
16.24717430164393
 30
0.0
 11
10.72767329541681
 21
16.24717430164393
 31
0.0
  0
LINE
  5
92
330
82
100
AcDbEntity
  8
중심선
100
AcDbLine
 10
12.29416204261559
 20
16.24717430164393
 30
0.0
 11
15.74043728645272
 21
16.24717430164393
 31
0.0
  0
LINE
  5
93
330
82
100
AcDbEntity
  8
중심선
100
AcDbLine
 10
19.22036997980202
 20
11.08717430171403
 30
0.0
 11
23.66174974927406
 21
11.08717430171406
 31
0.0
  0
LINE
  5
94
330
82
100
AcDbEntity
  8
중심선
100
AcDbLine
 10
19.22039502424796
 20
13.00717430171391
 30
0.0
 11
19.22036997980202
 21
11.08717430171403
 31
0.0
  0
LINE
  5
95
330
82
100
AcDbEntity
  8
중심선
100
AcDbLine
 10
19.22039502424796
 20
13.00717430171391
 30
0.0
 11
26.96566020931264
 21
13.00717430171391
 31
0.0
  0
LINE
  5
96
330
82
100
AcDbEntity
  8
중심선
100
AcDbLine
 10
22.22332737316547
 20
13.45928029700563
 30
0.0
 11
24.52862924686651
 21
15.39360700705356
 31
0.0
  0
ATTDEF
  5
98
330
82
100
AcDbEntity
  8
FORMAT
 62
     2
100
AcDbText
 10
-19.27858288401334
 20
2.075366912832191
 30
0.0
 40
4.233333333333333
  1
SEME610301030E [ 2 FLUTE ]
 41
0.75
  7
SLDTEXTSTYLE0
 11
-19.27858288401334
 21
-0.0412997538344756
 31
0.0
100
AcDbAttributeDefinition
  3

  2
AUTOATTR0
 70
     0
 74
     1
  0
ENDBLK
  5
84
330
82
100
AcDbEntity
  8
0
100
AcDbBlockEnd
  0
BLOCK
  5
D7
330
D6
100
AcDbEntity
  8
0
100
AcDbBlockBegin
  2
_D
 70
     0
 10
0.0
 20
0.0
 30
0.0
  3
_D
  1
_D
  0
SOLID
  5
D9
330
D6
100
AcDbEntity
  8
치수문자_일반주서
100
AcDbTrace
 10
-41.00250885508846
 20
3.001074928723889
 30
0.0
 11
-40.49450885508846
 21
6.303074928723889
 31
0.0
 12
-41.51050885508847
 22
6.303074928723889
 32
0.0
 13
-41.51050885508847
 23
6.303074928723889
 33
0.0
  0
SOLID
  5
DA
330
D6
100
AcDbEntity
  8
치수문자_일반주서
100
AcDbTrace
 10
-41.00250885508846
 20
-2.998925071276108
 30
0.0
 11
-41.51050885508847
 21
-6.300925071276107
 31
0.0
 12
-40.49450885508846
 22
-6.300925071276107
 32
0.0
 13
-40.49450885508846
 23
-6.300925071276107
 33
0.0
  0
LINE
  5
DB
330
D6
100
AcDbEntity
  8
치수문자_일반주서
100
AcDbLine
 10
-29.50605083347639
 20
3.001074928723889
 30
0.0
 11
-42.00250885508846
 21
3.001074928723889
 31
0.0
  0
LINE
  5
DC
330
D6
100
AcDbEntity
  8
치수문자_일반주서
100
AcDbLine
 10
-29.50605083347639
 20
-2.998925071276108
 30
0.0
 11
-42.00250885508846
 21
-2.998925071276108
 31
0.0
  0
LINE
  5
DD
330
D6
100
AcDbEntity
  8
치수문자_일반주서
100
AcDbLine
 10
-41.00250885508846
 20
3.001074928723889
 30
0.0
 11
-41.00250885508846
 21
9.35107492872389
 31
0.0
  0
LINE
  5
DE
330
D6
100
AcDbEntity
  8
치수문자_일반주서
100
AcDbLine
 10
-41.00250885508846
 20
3.001074928723889
 30
0.0
 11
-41.00250885508846
 21
-2.998925071276108
 31
0.0
  0
LINE
  5
DF
330
D6
100
AcDbEntity
  8
치수문자_일반주서
100
AcDbLine
 10
-41.00250885508846
 20
-2.998925071276108
 30
0.0
 11
-41.00250885508846
 21
-9.348925071276108
 31
0.0
  0
MTEXT
  5
E0
330
D6
100
AcDbEntity
  8
치수문자_일반주서
100
AcDbMText
 10
-45.51424594429033
 20
-3.931199483639951
 30
0.0
 40
3.5
 41
0.0
 71
     1
 72
     1
  1
%%c
  7
SLDTEXTSTYLE0
 11
-7.044195017643634E-15
 21
1.0
 31
0.0
 73
     1
 44
1.0
  0
MTEXT
  5
E1
330
D6
100
AcDbEntity
  8
치수문자_일반주서
100
AcDbMText
 10
-45.56771812095022
 20
1.34723791473413
 30
0.0
 40
3.5
 41
0.0
 71
     1
 72
     1
  1
6
  7
SLDTEXTSTYLE0
 11
-7.044195017643634E-15
 21
1.0
 31
0.0
 73
     1
 44
1.0
  0
ENDBLK
  5
D8
330
D6
100
AcDbEntity
  8
0
100
AcDbBlockEnd
  0
BLOCK
  5
E5
330
E4
100
AcDbEntity
  8
0
100
AcDbBlockBegin
  2
_D_1
 70
     0
 10
0.0
 20
0.0
 30
0.0
  3
_D_1
  1
_D_1
  0
SOLID
  5
E7
330
E4
100
AcDbEntity
  8
치수문자_일반주서
100
AcDbTrace
 10
40.49394916652226
 20
19.00107492872354
 30
0.0
 11
43.7959491665223
 21
18.49307492872378
 31
0.0
 12
43.79594916652223
 22
19.50907492872378
 32
0.0
 13
43.79594916652223
 23
19.50907492872378
 33
0.0
  0
SOLID
  5
E8
330
E4
100
AcDbEntity
  8
치수문자_일반주서
100
AcDbTrace
 10
35.99394916652231
 20
19.00107492872321
 30
0.0
 11
32.69194916652228
 21
19.50907492872296
 31
0.0
 12
32.69194916652235
 22
18.49307492872297
 32
0.0
 13
32.69194916652235
 23
18.49307492872297
 33
0.0
  0
LINE
  5
E9
330
E4
100
AcDbEntity
  8
치수문자_일반주서
100
AcDbLine
 10
40.49394916652354
 20
1.501074928723895
 30
0.0
 11
40.49394916652219
 21
20.00107492872354
 31
0.0
  0
LINE
  5
EA
330
E4
100
AcDbEntity
  8
치수문자_일반주서
100
AcDbLine
 10
35.99394916652354
 20
2.187222785201915
 30
0.0
 11
35.99394916652223
 21
20.00107492872321
 31
0.0
  0
LINE
  5
EB
330
E4
100
AcDbEntity
  8
치수문자_일반주서
100
AcDbLine
 10
40.49394916652226
 20
19.00107492872354
 30
0.0
 11
49.94170690579242
 21
19.00107492872423
 31
0.0
  0
LINE
  5
EC
330
E4
100
AcDbEntity
  8
치수문자_일반주서
100
AcDbLine
 10
40.49394916652226
 20
19.00107492872354
 30
0.0
 11
35.99394916652231
 21
19.00107492872321
 31
0.0
  0
LINE
  5
ED
330
E4
100
AcDbEntity
  8
치수문자_일반주서
100
AcDbLine
 10
35.99394916652231
 20
19.00107492872321
 30
0.0
 11
29.64394916652231
 21
19.00107492872274
 31
0.0
  0
MTEXT
  5
EE
330
E4
100
AcDbEntity
  8
치수문자_일반주서
100
AcDbMText
 10
40.89031784487799
 20
23.51281184330279
 30
0.0
 40
3.5
 41
0.0
 71
     1
 72
     1
  1
4.50
  7
SLDTEXTSTYLE0
 73
     1
 44
1.0
  0
ENDBLK
  5
E6
330
E4
100
AcDbEntity
  8
0
100
AcDbBlockEnd
  0
BLOCK
  5
F2
330
F1
100
AcDbEntity
  8
0
100
AcDbBlockBegin
  2
_D_2
 70
     0
 10
0.0
 20
0.0
 30
0.0
  3
_D_2
  1
_D_2
  0
SOLID
  5
F4
330
F1
100
AcDbEntity
  8
치수문자_일반주서
100
AcDbTrace
 10
40.49394916652361
 20
41.05939943376818
 30
0.0
 11
37.19194916652361
 21
41.56739943376819
 31
0.0
 12
37.19194916652361
 22
40.55139943376818
 32
0.0
 13
37.19194916652361
 23
40.55139943376818
 33
0.0
  0
SOLID
  5
F5
330
F1
100
AcDbEntity
  8
치수문자_일반주서
100
AcDbTrace
 10
-29.50605083347639
 20
41.05939943376818
 30
0.0
 11
-26.20405083347639
 21
40.55139943376818
 31
0.0
 12
-26.20405083347639
 22
41.56739943376819
 32
0.0
 13
-26.20405083347639
 23
41.56739943376819
 33
0.0
  0
LINE
  5
F6
330
F1
100
AcDbEntity
  8
치수문자_일반주서
100
AcDbLine
 10
40.49394916652361
 20
1.501074928723895
 30
0.0
 11
40.49394916652361
 21
42.05939943376818
 31
0.0
  0
LINE
  5
F7
330
F1
100
AcDbEntity
  8
치수문자_일반주서
100
AcDbLine
 10
-29.50605083347639
 20
3.001074928723888
 30
0.0
 11
-29.50605083347639
 21
42.05939943376818
 31
0.0
  0
LINE
  5
F8
330
F1
100
AcDbEntity
  8
치수문자_일반주서
100
AcDbLine
 10
40.49394916652361
 20
41.05939943376818
 30
0.0
 11
-29.50605083347639
 21
41.05939943376818
 31
0.0
  0
MTEXT
  5
F9
330
F1
100
AcDbEntity
  8
치수문자_일반주서
100
AcDbMText
 10
2.907837973000787
 20
45.57113634834708
 30
0.0
 40
3.5
 41
0.0
 71
     1
 72
     1
  1
70
  7
SLDTEXTSTYLE0
 73
     1
 44
1.0
  0
ENDBLK
  5
F3
330
F1
100
AcDbEntity
  8
0
100
AcDbBlockEnd
  0
BLOCK
  5
FC
330
FB
100
AcDbEntity
  8
0
100
AcDbBlockBegin
  2
_D_3
 70
     0
 10
0.0
 20
0.0
 30
0.0
  3
_D_3
  1
_D_3
  0
SOLID
  5
FE
330
FB
100
AcDbEntity
  8
치수문자_일반주서
100
AcDbTrace
 10
14.49394916652476
 20
30.32107492872395
 30
0.0
 11
17.79594916652475
 21
29.81307492872382
 31
0.0
 12
17.79594916652478
 22
30.82907492872382
 32
0.0
 13
17.79594916652478
 23
30.82907492872382
 33
0.0
  0
SOLID
  5
FF
330
FB
100
AcDbEntity
  8
치수문자_일반주서
100
AcDbTrace
 10
10.2140453559571
 20
30.32107492872411
 30
0.0
 11
6.912045355957115
 21
30.82907492872424
 31
0.0
 12
6.912045355957076
 22
29.81307492872424
 32
0.0
 13
6.912045355957076
 23
29.81307492872424
 33
0.0
  0
LINE
  5
100
330
FB
100
AcDbEntity
  8
치수문자_일반주서
100
AcDbLine
 10
14.49394916652365
 20
1.401074928723893
 30
0.0
 11
14.4939491665248
 21
31.32107492872394
 31
0.0
  0
LINE
  5
101
330
FB
100
AcDbEntity
  8
치수문자_일반주서
100
AcDbLine
 10
10.21404535595599
 20
1.551074928723894
 30
0.0
 11
10.21404535595713
 21
31.32107492872411
 31
0.0
  0
LINE
  5
102
330
FB
100
AcDbEntity
  8
치수문자_일반주서
100
AcDbLine
 10
14.49394916652476
 20
30.32107492872395
 30
0.0
 11
55.42440269528608
 21
30.32107492872239
 31
0.0
  0
LINE
  5
103
330
FB
100
AcDbEntity
  8
치수문자_일반주서
100
AcDbLine
 10
14.49394916652476
 20
30.32107492872395
 30
0.0
 11
10.2140453559571
 21
30.32107492872411
 31
0.0
  0
LINE
  5
104
330
FB
100
AcDbEntity
  8
치수문자_일반주서
100
AcDbLine
 10
10.2140453559571
 20
30.32107492872411
 30
0.0
 11
3.864045355957095
 21
30.32107492872435
 31
0.0
  0
MTEXT
  5
105
330
FB
100
AcDbEntity
  8
치수문자_일반주서
100
AcDbMText
 10
46.3730136343715
 20
34.83281184330144
 30
0.0
 40
3.5
 41
0.0
 71
     1
 72
     1
  1
4.28
  7
SLDTEXTSTYLE0
 73
     1
 44
1.0
  0
ENDBLK
  5
FD
330
FB
100
AcDbEntity
  8
0
100
AcDbBlockEnd
  0
BLOCK
  5
108
330
107
100
AcDbEntity
  8
0
100
AcDbBlockBegin
  2
_D_4
 70
     0
 10
0.0
 20
0.0
 30
0.0
  3
_D_4
  1
_D_4
  0
SOLID
  5
10A
330
107
100
AcDbEntity
  8
치수문자_일반주서
100
AcDbTrace
 10
68.05059833193548
 20
1.501074928723896
 30
0.0
 11
68.55859833193547
 21
4.803074928723896
 31
0.0
 12
67.54259833193548
 22
4.803074928723896
 32
0.0
 13
67.54259833193548
 23
4.803074928723896
 33
0.0
  0
SOLID
  5
10B
330
107
100
AcDbEntity
  8
치수문자_일반주서
100
AcDbTrace
 10
68.05059833193548
 20
-1.480510821134722
 30
0.0
 11
67.54259833193548
 21
-4.782510821134721
 31
0.0
 12
68.55859833193547
 22
-4.782510821134721
 32
0.0
 13
68.55859833193547
 23
-4.782510821134721
 33
0.0
  0
LINE
  5
10C
330
107
100
AcDbEntity
  8
치수문자_일반주서
100
AcDbLine
 10
51.19394916652362
 20
1.501074928723897
 30
0.0
 11
69.05059833193548
 21
1.501074928723896
 31
0.0
  0
LINE
  5
10D
330
107
100
AcDbEntity
  8
치수문자_일반주서
100
AcDbLine
 10
51.19394916652362
 20
-1.480510821134721
 30
0.0
 11
69.05059833193548
 21
-1.480510821134722
 31
0.0
  0
LINE
  5
10E
330
107
100
AcDbEntity
  8
치수문자_일반주서
100
AcDbLine
 10
68.05059833193548
 20
1.501074928723896
 30
0.0
 11
68.05059833193548
 21
7.851074928723896
 31
0.0
  0
LINE
  5
10F
330
107
100
AcDbEntity
  8
치수문자_일반주서
100
AcDbLine
 10
68.05059833193548
 20
1.501074928723896
 30
0.0
 11
68.05059833193548
 21
-1.480510821134722
 31
0.0
  0
LINE
  5
110
330
107
100
AcDbEntity
  8
치수문자_일반주서
100
AcDbLine
 10
68.05059833193548
 20
-1.480510821134722
 30
0.0
 11
68.05059833193548
 21
-14.32156976103179
 31
0.0
  0
MTEXT
  5
111
330
107
100
AcDbEntity
  8
치수문자_일반주서
100
AcDbMText
 10
63.53886124273361
 20
-14.32156976103178
 30
0.0
 40
3.5
 41
0.0
 71
     1
 72
     1
  1
%%c
  7
SLDTEXTSTYLE0
 11
-7.044195017643634E-15
 21
1.0
 31
0.0
 73
     1
 44
1.0
  0
MTEXT
  5
112
330
107
100
AcDbEntity
  8
치수문자_일반주서
100
AcDbMText
 10
63.48538906607372
 20
-9.043132362657696
 30
0.0
 40
3.5
 41
0.0
 71
     1
 72
     1
  1
2.98
  7
SLDTEXTSTYLE0
 11
-7.044195017643634E-15
 21
1.0
 31
0.0
 73
     1
 44
1.0
  0
ENDBLK
  5
109
330
107
100
AcDbEntity
  8
0
100
AcDbBlockEnd
  0
BLOCK
  5
114
330
113
100
AcDbEntity
  8
0
100
AcDbBlockBegin
  2
SW_DOWELSYMBOL_0
 70
     0
 10
0.0
 20
0.0
 30
0.0
  3
SW_DOWELSYMBOL_0
  1
SW_DOWELSYMBOL_0
  0
CIRCLE
  5
116
330
113
100
AcDbEntity
  8
외형선
 62
     0
100
AcDbCircle
 10
0.0
 20
0.0
 30
0.0
 40
3.000000000000004
  0
HATCH
  5
117
330
113
100
AcDbEntity
  8
0
  6
Continuous
 62
     0
370
    35
100
AcDbHatch
 10
0.0
 20
0.0
 30
0.0
210
0.0
220
0.0
230
1.0
  2
SOLID
 70
     1
 71
     0
 91
        1
 92
        0
 93
        3
 72
     2
 10
0.0000000000000104
 20
0.0
 40
3.000000000000004
 50
0.0
 51
90.0
 73
     1
 72
     1
 10
0.0000000000000104
 20
3.000000000000004
 11
0.0000000000000104
 21
0.0
 72
     1
 10
0.0000000000000104
 20
0.0
 11
3.000000000000015
 21
0.0
 97
        0
 75
     0
 76
     1
 98
        1
 10
0.0
 20
0.0
  0
HATCH
  5
118
330
113
100
AcDbEntity
  8
0
  6
Continuous
 62
     0
370
    35
100
AcDbHatch
 10
0.0
 20
0.0
 30
0.0
210
0.0
220
0.0
230
1.0
  2
SOLID
 70
     1
 71
     0
 91
        1
 92
        0
 93
        3
 72
     2
 10
0.0000000000000104
 20
0.0
 40
3.000000000000004
 50
180.0
 51
270.0000000000008
 73
     1
 72
     1
 10
0.0000000000000104
 20
-3.000000000000004
 11
0.0000000000000104
 21
0.0
 72
     1
 10
0.0000000000000104
 20
0.0
 11
-2.999999999999994
 21
0.0
 97
        0
 75
     0
 76
     1
 98
        1
 10
0.0
 20
0.0
  0
ENDBLK
  5
115
330
113
100
AcDbEntity
  8
0
100
AcDbBlockEnd
  0
BLOCK
  5
180
330
17F
100
AcDbEntity
  8
0
100
AcDbBlockBegin
  2
*D9
 70
     1
 10
0.0
 20
0.0
 30
0.0
  3
*D9
  1
*D9
  0
LINE
  5
181
330
17F
100
AcDbEntity
  8
치수문자_일반주서
 62
     0
370
    -2
100
AcDbLine
 10
16.80895802161206
 20
11.09921694339781
 30
0.0
 11
4.374999999999989
 21
11.09921694339776
 31
0.0
  0
LINE
  5
182
330
17F
100
AcDbEntity
  8
치수문자_일반주서
 62
     0
370
    -2
100
AcDbLine
 10
16.80895802161206
 20
5.099216943397821
 30
0.0
 11
4.375000000000011
 21
5.099216943397774
 31
0.0
  0
LINE
  5
183
330
17F
100
AcDbEntity
  8
치수문자_일반주서
 62
     0
370
    -2
100
AcDbLine
 10
4.375000000000001
 20
7.797216943397761
 30
0.0
 11
4.374999999999999
 21
8.401216943397774
 31
0.0
  0
SOLID
  5
184
330
17F
100
AcDbEntity
  8
치수문자_일반주서
 62
     0
100
AcDbTrace
 10
4.925333333333334
 20
7.797216943397762
 30
0.0
 11
3.824666666666668
 21
7.797216943397759
 31
0.0
 12
4.374999999999989
 22
11.09921694339776
 32
0.0
 13
4.374999999999989
 23
11.09921694339776
 33
0.0
  0
SOLID
  5
185
330
17F
100
AcDbEntity
  8
치수문자_일반주서
 62
     0
100
AcDbTrace
 10
3.824666666666666
 20
8.401216943397772
 30
0.0
 11
4.925333333333333
 21
8.401216943397776
 31
0.0
 12
4.375000000000011
 22
5.099216943397774
 32
0.0
 13
4.375000000000011
 23
5.099216943397774
 33
0.0
  0
MTEXT
  5
186
330
17F
100
AcDbEntity
  8
치수문자_일반주서
 62
     0
100
AcDbMText
 10
0.0
 20
8.099216943397792
 30
0.0
 40
3.5
 41
0.0
 71
     2
 72
     1
  1
\A1;%%c6
  7
SLDTEXTSTYLE0
 11
-3.552713678800509E-15
 21
1.0
 31
0.0
 73
     1
 44
1.0
  0
POINT
  5
187
330
17F
100
AcDbEntity
  8
Defpoints
 62
     0
100
AcDbPoint
 10
16.87145802161206
 20
11.09921694339781
 30
0.0
  0
POINT
  5
188
330
17F
100
AcDbEntity
  8
Defpoints
 62
     0
100
AcDbPoint
 10
16.87145802161206
 20
5.099216943397821
 30
0.0
  0
POINT
  5
189
330
17F
100
AcDbEntity
  8
Defpoints
 62
     0
100
AcDbPoint
 10
4.375
 20
5.099216943397773
 30
0.0
  0
ENDBLK
  5
18A
330
17F
100
AcDbEntity
  8
0
100
AcDbBlockEnd
  0
BLOCK
  5
18D
330
18C
100
AcDbEntity
  8
0
100
AcDbBlockBegin
  2
*D10
 70
     1
 10
0.0
 20
0.0
 30
0.0
  3
*D10
  1
*D10
  0
LINE
  5
18E
330
18C
100
AcDbEntity
  8
치수문자_일반주서
 62
     0
370
    -2
100
AcDbLine
 10
85.87145802161206
 20
9.561716943397812
 30
0.0
 11
85.87145802161206
 21
27.99921694339747
 31
0.0
  0
LINE
  5
18F
330
18C
100
AcDbEntity
  8
치수문자_일반주서
 62
     0
370
    -2
100
AcDbLine
 10
81.37145802161206
 20
9.347864799875836
 30
0.0
 11
81.37145802161206
 21
27.99921694339747
 31
0.0
  0
LINE
  5
190
330
18C
100
AcDbEntity
  8
치수문자_일반주서
 62
     0
370
    -2
100
AcDbLine
 10
82.56945802161206
 20
27.99921694339747
 30
0.0
 11
84.67345802161205
 21
27.99921694339747
 31
0.0
  0
SOLID
  5
191
330
18C
100
AcDbEntity
  8
치수문자_일반주서
 62
     0
100
AcDbTrace
 10
82.56945802161206
 20
27.44888361006414
 30
0.0
 11
82.56945802161206
 21
28.54955027673081
 31
0.0
 12
85.87145802161206
 22
27.99921694339747
 32
0.0
 13
85.87145802161206
 23
27.99921694339747
 33
0.0
  0
SOLID
  5
192
330
18C
100
AcDbEntity
  8
치수문자_일반주서
 62
     0
100
AcDbTrace
 10
84.67345802161205
 20
28.54955027673081
 30
0.0
 11
84.67345802161205
 21
27.44888361006414
 31
0.0
 12
81.37145802161206
 22
27.99921694339747
 32
0.0
 13
81.37145802161206
 23
27.99921694339747
 33
0.0
  0
MTEXT
  5
193
330
18C
100
AcDbEntity
  8
치수문자_일반주서
 62
     0
100
AcDbMText
 10
83.62145802161206
 20
32.37421694339747
 30
0.0
 40
3.5
 41
0.0
 71
     2
 72
     1
  1
\A1;4.50
  7
SLDTEXTSTYLE0
 73
     1
 44
1.0
  0
POINT
  5
194
330
18C
100
AcDbEntity
  8
Defpoints
 62
     0
100
AcDbPoint
 10
85.87145802161206
 20
9.499216943397812
 30
0.0
  0
POINT
  5
195
330
18C
100
AcDbEntity
  8
Defpoints
 62
     0
100
AcDbPoint
 10
81.37145802161206
 20
9.285364799875836
 30
0.0
  0
POINT
  5
196
330
18C
100
AcDbEntity
  8
Defpoints
 62
     0
100
AcDbPoint
 10
81.37145802161206
 20
27.99921694339747
 30
0.0
  0
ENDBLK
  5
198
330
18C
100
AcDbEntity
  8
0
100
AcDbBlockEnd
  0
BLOCK
  5
19B
330
19A
100
AcDbEntity
  8
0
100
AcDbBlockBegin
  2
*D11
 70
     1
 10
0.0
 20
0.0
 30
0.0
  3
*D11
  1
*D11
  0
LINE
  5
19C
330
19A
100
AcDbEntity
  8
치수문자_일반주서
 62
     0
370
    -2
100
AcDbLine
 10
85.87145802161206
 20
9.561716943397812
 30
0.0
 11
85.87145802161206
 21
50.05754144844211
 31
0.0
  0
LINE
  5
19D
330
19A
100
AcDbEntity
  8
치수문자_일반주서
 62
     0
370
    -2
100
AcDbLine
 10
15.87145802161206
 20
10.16171694339781
 30
0.0
 11
15.87145802161206
 21
50.05754144844211
 31
0.0
  0
LINE
  5
19E
330
19A
100
AcDbEntity
  8
치수문자_일반주서
 62
     0
370
    -2
100
AcDbLine
 10
82.56945802161206
 20
50.05754144844211
 30
0.0
 11
19.17345802161206
 21
50.05754144844211
 31
0.0
  0
SOLID
  5
19F
330
19A
100
AcDbEntity
  8
치수문자_일반주서
 62
     0
100
AcDbTrace
 10
82.56945802161206
 20
49.50720811510877
 30
0.0
 11
82.56945802161206
 21
50.60787478177544
 31
0.0
 12
85.87145802161206
 22
50.05754144844211
 32
0.0
 13
85.87145802161206
 23
50.05754144844211
 33
0.0
  0
SOLID
  5
1A0
330
19A
100
AcDbEntity
  8
치수문자_일반주서
 62
     0
100
AcDbTrace
 10
19.17345802161206
 20
50.60787478177544
 30
0.0
 11
19.17345802161206
 21
49.50720811510877
 31
0.0
 12
15.87145802161206
 22
50.05754144844211
 32
0.0
 13
15.87145802161206
 23
50.05754144844211
 33
0.0
  0
MTEXT
  5
1A1
330
19A
100
AcDbEntity
  8
치수문자_일반주서
 62
     0
100
AcDbMText
 10
50.87145802161206
 20
54.43254144844211
 30
0.0
 40
3.5
 41
0.0
 71
     2
 72
     1
  1
\A1;70
  7
SLDTEXTSTYLE0
 73
     1
 44
1.0
  0
POINT
  5
1A2
330
19A
100
AcDbEntity
  8
Defpoints
 62
     0
100
AcDbPoint
 10
85.87145802161206
 20
9.499216943397812
 30
0.0
  0
POINT
  5
1A3
330
19A
100
AcDbEntity
  8
Defpoints
 62
     0
100
AcDbPoint
 10
15.87145802161206
 20
10.09921694339781
 30
0.0
  0
POINT
  5
1A4
330
19A
100
AcDbEntity
  8
Defpoints
 62
     0
100
AcDbPoint
 10
15.87145802161206
 20
50.05754144844211
 30
0.0
  0
ENDBLK
  5
1A5
330
19A
100
AcDbEntity
  8
0
100
AcDbBlockEnd
  0
BLOCK
  5
1A8
330
1A7
100
AcDbEntity
  8
0
100
AcDbBlockBegin
  2
*D12
 70
     1
 10
0.0
 20
0.0
 30
0.0
  3
*D12
  1
*D12
  0
LINE
  5
1A9
330
1A7
100
AcDbEntity
  8
치수문자_일반주서
 62
     0
370
    -2
100
AcDbLine
 10
85.87145802161206
 20
9.559515654021979
 30
0.0
 11
85.87145802161206
 21
38.41921694339646
 31
0.0
  0
LINE
  5
1AA
330
1A7
100
AcDbEntity
  8
치수문자_일반주서
 62
     0
370
    -2
100
AcDbLine
 10
55.87145802161206
 20
9.586716943397818
 30
0.0
 11
55.87145802161206
 21
38.41921694339646
 31
0.0
  0
LINE
  5
1AB
330
1A7
100
AcDbEntity
  8
치수문자_일반주서
 62
     0
370
    -2
100
AcDbLine
 10
82.56945802161206
 20
38.41921694339646
 30
0.0
 11
59.17345802161206
 21
38.41921694339646
 31
0.0
  0
SOLID
  5
1AC
330
1A7
100
AcDbEntity
  8
치수문자_일반주서
 62
     0
100
AcDbTrace
 10
82.56945802161206
 20
37.86888361006313
 30
0.0
 11
82.56945802161206
 21
38.9695502767298
 31
0.0
 12
85.87145802161206
 22
38.41921694339646
 32
0.0
 13
85.87145802161206
 23
38.41921694339646
 33
0.0
  0
SOLID
  5
1AD
330
1A7
100
AcDbEntity
  8
치수문자_일반주서
 62
     0
100
AcDbTrace
 10
59.17345802161206
 20
38.9695502767298
 30
0.0
 11
59.17345802161206
 21
37.86888361006313
 31
0.0
 12
55.87145802161206
 22
38.41921694339646
 32
0.0
 13
55.87145802161206
 23
38.41921694339646
 33
0.0
  0
MTEXT
  5
1AE
330
1A7
100
AcDbEntity
  8
치수문자_일반주서
 62
     0
100
AcDbMText
 10
68.37145802161206
 20
42.79421694339646
 30
0.0
 40
3.5
 41
0.0
 71
     2
 72
     1
  1
\A1;30
  7
SLDTEXTSTYLE0
 73
     1
 44
1.0
  0
POINT
  5
1AF
330
1A7
100
AcDbEntity
  8
Defpoints
 62
     0
100
AcDbPoint
 10
85.87145802161206
 20
9.497015654021979
 30
0.0
  0
POINT
  5
1B0
330
1A7
100
AcDbEntity
  8
Defpoints
 62
     0
100
AcDbPoint
 10
55.87145802161206
 20
9.524216943397818
 30
0.0
  0
POINT
  5
1B1
330
1A7
100
AcDbEntity
  8
Defpoints
 62
     0
100
AcDbPoint
 10
55.87145802161206
 20
38.41921694339646
 30
0.0
  0
ENDBLK
  5
1B2
330
1A7
100
AcDbEntity
  8
0
100
AcDbBlockEnd
  0
BLOCK
  5
1B5
330
1B4
100
AcDbEntity
  8
0
100
AcDbBlockBegin
  2
*D13
 70
     1
 10
0.0
 20
0.0
 30
0.0
  3
*D13
  1
*D13
  0
LINE
  5
1B6
330
1B4
100
AcDbEntity
  8
치수문자_일반주서
 62
     0
370
    -2
100
AcDbLine
 10
85.93395802161206
 20
9.60112122212226
 30
0.0
 11
100.2816927158746
 21
9.601121222122313
 31
0.0
  0
LINE
  5
1B7
330
1B4
100
AcDbEntity
  8
치수문자_일반주서
 62
     0
370
    -2
100
AcDbLine
 10
85.83395802161209
 20
6.603999999999942
 30
0.0
 11
100.2816927158746
 21
6.603999999999996
 31
0.0
  0
LINE
  5
1B8
330
1B4
100
AcDbEntity
  8
치수문자_일반주서
 62
     0
370
    -2
100
AcDbLine
 10
100.2816927158746
 20
9.601121222122313
 30
0.0
 11
100.2816927158745
 21
25.38593388679575
 31
0.0
  0
LINE
  5
1B9
330
1B4
100
AcDbEntity
  8
치수문자_일반주서
 62
     0
370
    -2
100
AcDbLine
 10
100.2816927158746
 20
9.601121222122313
 30
0.0
 11
100.2816927158746
 21
6.603999999999996
 31
0.0
  0
LINE
  5
1BA
330
1B4
100
AcDbEntity
  8
치수문자_일반주서
 62
     0
370
    -2
100
AcDbLine
 10
100.2816927158746
 20
12.90312122212231
 30
0.0
 11
100.2816927158746
 21
16.20512122212231
 31
0.0
  0
LINE
  5
1BB
330
1B4
100
AcDbEntity
  8
치수문자_일반주서
 62
     0
370
    -2
100
AcDbLine
 10
100.2816927158746
 20
3.301999999999996
 30
0.0
 11
100.2816927158747
 21
-0.0000000000000036
 31
0.0
  0
SOLID
  5
1BC
330
1B4
100
AcDbEntity
  8
치수문자_일반주서
 62
     0
100
AcDbTrace
 10
99.73135938254127
 20
12.90312122212231
 30
0.0
 11
100.8320260492079
 21
12.90312122212231
 31
0.0
 12
100.2816927158746
 22
9.601121222122313
 32
0.0
 13
100.2816927158746
 23
9.601121222122313
 33
0.0
  0
SOLID
  5
1BD
330
1B4
100
AcDbEntity
  8
치수문자_일반주서
 62
     0
100
AcDbTrace
 10
100.832026049208
 20
3.301999999999999
 30
0.0
 11
99.73135938254131
 21
3.301999999999993
 31
0.0
 12
100.2816927158746
 22
6.603999999999996
 32
0.0
 13
100.2816927158746
 23
6.603999999999996
 33
0.0
  0
MTEXT
  5
1BE
330
1B4
100
AcDbEntity
  8
치수문자_일반주서
 62
     0
100
AcDbMText
 10
95.90669271587456
 20
22.32343388679573
 30
0.0
 40
3.5
 41
0.0
 71
     2
 72
     1
  1
\A1;%%c3
  7
SLDTEXTSTYLE0
 11
-4.741501481591405E-15
 21
1.0
 31
0.0
 73
     1
 44
1.0
  0
POINT
  5
1BF
330
1B4
100
AcDbEntity
  8
Defpoints
 62
     0
100
AcDbPoint
 10
85.87145802161206
 20
9.60112122212226
 30
0.0
  0
POINT
  5
1C0
330
1B4
100
AcDbEntity
  8
Defpoints
 62
     0
100
AcDbPoint
 10
85.77145802161209
 20
6.603999999999942
 30
0.0
  0
POINT
  5
1C1
330
1B4
100
AcDbEntity
  8
Defpoints
 62
     0
100
AcDbPoint
 10
100.2816927158746
 20
6.603999999999997
 30
0.0
  0
ENDBLK
  5
1C2
330
1B4
100
AcDbEntity
  8
0
100
AcDbBlockEnd
  0
BLOCK
  5
1F0
330
1EF
100
AcDbEntity
  8
0
100
AcDbBlockBegin
  2
*D14
 70
     1
 10
0.0
 20
0.0
 30
0.0
  3
*D14
  1
*D14
  0
LINE
  5
1F2
330
1EF
100
AcDbEntity
  8
치수문자_일반주서
 62
     0
370
    -2
100
AcDbLine
 10
-33.18451997807904
 20
2.999999999999985
 30
0.0
 11
-45.6184779996911
 21
2.999999999999938
 31
0.0
  0
LINE
  5
1F3
330
1EF
100
AcDbEntity
  8
치수문자_일반주서
 62
     0
370
    -2
100
AcDbLine
 10
-33.18451997807904
 20
-3.0
 30
0.0
 11
-45.61847799969108
 21
-3.000000000000048
 31
0.0
  0
LINE
  5
1F4
330
1EF
100
AcDbEntity
  8
치수문자_일반주서
 62
     0
370
    -2
100
AcDbLine
 10
-45.61847799969109
 20
-0.3020000000000613
 30
0.0
 11
-45.61847799969109
 21
0.3019999999999521
 31
0.0
  0
SOLID
  5
1F5
330
1EF
100
AcDbEntity
  8
치수문자_일반주서
 62
     0
100
AcDbTrace
 10
-45.06814466635775
 20
-0.3020000000000594
 30
0.0
 11
-46.16881133302442
 21
-0.3020000000000633
 31
0.0
 12
-45.6184779996911
 22
2.999999999999938
 32
0.0
 13
-45.6184779996911
 23
2.999999999999938
 33
0.0
  0
SOLID
  5
1F6
330
1EF
100
AcDbEntity
  8
치수문자_일반주서
 62
     0
100
AcDbTrace
 10
-46.16881133302443
 20
0.3019999999999501
 30
0.0
 11
-45.06814466635776
 21
0.301999999999954
 31
0.0
 12
-45.61847799969108
 22
-3.000000000000048
 32
0.0
 13
-45.61847799969108
 23
-3.000000000000048
 33
0.0
  0
MTEXT
  5
1F7
330
1EF
100
AcDbEntity
  8
치수문자_일반주서
 62
     0
100
AcDbMText
 10
-49.99347799969109
 20
-0.0000000000000296
 30
0.0
 40
3.5
 41
0.0
 71
     2
 72
     1
  1
\A1;%%c6
  7
SLDTEXTSTYLE0
 11
-3.552713678800510E-15
 21
1.0
 31
0.0
 73
     1
 44
1.0
  0
POINT
  5
1F8
330
1EF
100
AcDbEntity
  8
Defpoints
 62
     0
100
AcDbPoint
 10
-33.12201997807904
 20
2.999999999999986
 30
0.0
  0
POINT
  5
1F9
330
1EF
100
AcDbEntity
  8
Defpoints
 62
     0
100
AcDbPoint
 10
-33.12201997807904
 20
-3.0
 30
0.0
  0
POINT
  5
1FA
330
1EF
100
AcDbEntity
  8
Defpoints
 62
     0
100
AcDbPoint
 10
-45.61847799969108
 20
-3.000000000000047
 30
0.0
  0
ENDBLK
  5
1F1
330
1EF
100
AcDbEntity
  8
0
100
AcDbBlockEnd
  0
BLOCK
  5
1FC
330
1FB
100
AcDbEntity
  8
0
100
AcDbBlockBegin
  2
*D15
 70
     1
 10
0.0
 20
0.0
 30
0.0
  3
*D15
  1
*D15
  0
LINE
  5
1FE
330
1FB
100
AcDbEntity
  8
치수문자_일반주서
 62
     0
370
    -2
100
AcDbLine
 10
35.87798002192096
 20
1.462499999999991
 30
0.0
 11
35.87798002192096
 21
19.89999999999965
 31
0.0
  0
LINE
  5
1FF
330
1FB
100
AcDbEntity
  8
치수문자_일반주서
 62
     0
370
    -2
100
AcDbLine
 10
31.37798002192096
 20
1.248647856478016
 30
0.0
 11
31.37798002192096
 21
19.89999999999965
 31
0.0
  0
LINE
  5
200
330
1FB
100
AcDbEntity
  8
치수문자_일반주서
 62
     0
370
    -2
100
AcDbLine
 10
32.57598002192096
 20
19.89999999999965
 30
0.0
 11
34.67998002192096
 21
19.89999999999965
 31
0.0
  0
SOLID
  5
201
330
1FB
100
AcDbEntity
  8
치수문자_일반주서
 62
     0
100
AcDbTrace
 10
32.57598002192096
 20
19.34966666666632
 30
0.0
 11
32.57598002192096
 21
20.45033333333298
 31
0.0
 12
35.87798002192096
 22
19.89999999999965
 32
0.0
 13
35.87798002192096
 23
19.89999999999965
 33
0.0
  0
SOLID
  5
202
330
1FB
100
AcDbEntity
  8
치수문자_일반주서
 62
     0
100
AcDbTrace
 10
34.67998002192096
 20
20.45033333333298
 30
0.0
 11
34.67998002192096
 21
19.34966666666632
 31
0.0
 12
31.37798002192096
 22
19.89999999999965
 32
0.0
 13
31.37798002192096
 23
19.89999999999965
 33
0.0
  0
MTEXT
  5
203
330
1FB
100
AcDbEntity
  8
치수문자_일반주서
 62
     0
100
AcDbMText
 10
33.62798002192096
 20
24.27499999999965
 30
0.0
 40
3.5
 41
0.0
 71
     2
 72
     1
  1
\A1;4.50
  7
SLDTEXTSTYLE0
 73
     1
 44
1.0
  0
POINT
  5
204
330
1FB
100
AcDbEntity
  8
Defpoints
 62
     0
100
AcDbPoint
 10
35.87798002192096
 20
1.399999999999991
 30
0.0
  0
POINT
  5
205
330
1FB
100
AcDbEntity
  8
Defpoints
 62
     0
100
AcDbPoint
 10
31.37798002192096
 20
1.186147856478016
 30
0.0
  0
POINT
  5
206
330
1FB
100
AcDbEntity
  8
Defpoints
 62
     0
100
AcDbPoint
 10
31.37798002192096
 20
19.89999999999965
 30
0.0
  0
ENDBLK
  5
1FD
330
1FB
100
AcDbEntity
  8
0
100
AcDbBlockEnd
  0
BLOCK
  5
208
330
207
100
AcDbEntity
  8
0
100
AcDbBlockBegin
  2
*D16
 70
     1
 10
0.0
 20
0.0
 30
0.0
  3
*D16
  1
*D16
  0
LINE
  5
20A
330
207
100
AcDbEntity
  8
치수문자_일반주서
 62
     0
370
    -2
100
AcDbLine
 10
35.87798002192096
 20
1.462499999999991
 30
0.0
 11
35.87798002192096
 21
41.95832450504429
 31
0.0
  0
LINE
  5
20B
330
207
100
AcDbEntity
  8
치수문자_일반주서
 62
     0
370
    -2
100
AcDbLine
 10
-34.12201997807904
 20
2.062499999999986
 30
0.0
 11
-34.12201997807904
 21
41.95832450504429
 31
0.0
  0
LINE
  5
20C
330
207
100
AcDbEntity
  8
치수문자_일반주서
 62
     0
370
    -2
100
AcDbLine
 10
32.57598002192096
 20
41.95832450504429
 30
0.0
 11
-30.82001997807904
 21
41.95832450504429
 31
0.0
  0
SOLID
  5
20D
330
207
100
AcDbEntity
  8
치수문자_일반주서
 62
     0
100
AcDbTrace
 10
32.57598002192096
 20
41.40799117171095
 30
0.0
 11
32.57598002192096
 21
42.50865783837762
 31
0.0
 12
35.87798002192096
 22
41.95832450504429
 32
0.0
 13
35.87798002192096
 23
41.95832450504429
 33
0.0
  0
SOLID
  5
20E
330
207
100
AcDbEntity
  8
치수문자_일반주서
 62
     0
100
AcDbTrace
 10
-30.82001997807904
 20
42.50865783837762
 30
0.0
 11
-30.82001997807904
 21
41.40799117171095
 31
0.0
 12
-34.12201997807904
 22
41.95832450504429
 32
0.0
 13
-34.12201997807904
 23
41.95832450504429
 33
0.0
  0
MTEXT
  5
20F
330
207
100
AcDbEntity
  8
치수문자_일반주서
 62
     0
100
AcDbMText
 10
0.8779800219209619
 20
46.33332450504429
 30
0.0
 40
3.5
 41
0.0
 71
     2
 72
     1
  1
\A1;70
  7
SLDTEXTSTYLE0
 73
     1
 44
1.0
  0
POINT
  5
210
330
207
100
AcDbEntity
  8
Defpoints
 62
     0
100
AcDbPoint
 10
35.87798002192096
 20
1.399999999999991
 30
0.0
  0
POINT
  5
211
330
207
100
AcDbEntity
  8
Defpoints
 62
     0
100
AcDbPoint
 10
-34.12201997807904
 20
1.999999999999986
 30
0.0
  0
POINT
  5
212
330
207
100
AcDbEntity
  8
Defpoints
 62
     0
100
AcDbPoint
 10
-34.12201997807904
 20
41.95832450504429
 30
0.0
  0
ENDBLK
  5
209
330
207
100
AcDbEntity
  8
0
100
AcDbBlockEnd
  0
BLOCK
  5
214
330
213
100
AcDbEntity
  8
0
100
AcDbBlockBegin
  2
*D17
 70
     1
 10
0.0
 20
0.0
 30
0.0
  3
*D17
  1
*D17
  0
LINE
  5
216
330
213
100
AcDbEntity
  8
치수문자_일반주서
 62
     0
370
    -2
100
AcDbLine
 10
35.87798002192096
 20
1.460298710624159
 30
0.0
 11
35.87798002192096
 21
30.31999999999864
 31
0.0
  0
LINE
  5
217
330
213
100
AcDbEntity
  8
치수문자_일반주서
 62
     0
370
    -2
100
AcDbLine
 10
5.877980021920962
 20
1.487499999999997
 30
0.0
 11
5.877980021920962
 21
30.31999999999864
 31
0.0
  0
LINE
  5
218
330
213
100
AcDbEntity
  8
치수문자_일반주서
 62
     0
370
    -2
100
AcDbLine
 10
32.57598002192096
 20
30.31999999999864
 30
0.0
 11
9.179980021920962
 21
30.31999999999864
 31
0.0
  0
SOLID
  5
219
330
213
100
AcDbEntity
  8
치수문자_일반주서
 62
     0
100
AcDbTrace
 10
32.57598002192096
 20
29.76966666666531
 30
0.0
 11
32.57598002192096
 21
30.87033333333198
 31
0.0
 12
35.87798002192096
 22
30.31999999999864
 32
0.0
 13
35.87798002192096
 23
30.31999999999864
 33
0.0
  0
SOLID
  5
21A
330
213
100
AcDbEntity
  8
치수문자_일반주서
 62
     0
100
AcDbTrace
 10
9.179980021920962
 20
30.87033333333198
 30
0.0
 11
9.179980021920962
 21
29.76966666666531
 31
0.0
 12
5.877980021920962
 22
30.31999999999864
 32
0.0
 13
5.877980021920962
 23
30.31999999999864
 33
0.0
  0
MTEXT
  5
21B
330
213
100
AcDbEntity
  8
치수문자_일반주서
 62
     0
100
AcDbMText
 10
18.37798002192096
 20
34.69499999999864
 30
0.0
 40
3.5
 41
0.0
 71
     2
 72
     1
  1
\A1;30
  7
SLDTEXTSTYLE0
 73
     1
 44
1.0
  0
POINT
  5
21C
330
213
100
AcDbEntity
  8
Defpoints
 62
     0
100
AcDbPoint
 10
35.87798002192096
 20
1.397798710624159
 30
0.0
  0
POINT
  5
21D
330
213
100
AcDbEntity
  8
Defpoints
 62
     0
100
AcDbPoint
 10
5.877980021920962
 20
1.424999999999997
 30
0.0
  0
POINT
  5
21E
330
213
100
AcDbEntity
  8
Defpoints
 62
     0
100
AcDbPoint
 10
5.877980021920962
 20
30.31999999999864
 30
0.0
  0
ENDBLK
  5
215
330
213
100
AcDbEntity
  8
0
100
AcDbBlockEnd
  0
BLOCK
  5
220
330
21F
100
AcDbEntity
  8
0
100
AcDbBlockBegin
  2
*D18
 70
     1
 10
0.0
 20
0.0
 30
0.0
  3
*D18
  1
*D18
  0
LINE
  5
222
330
21F
100
AcDbEntity
  8
치수문자_일반주서
 62
     0
370
    -2
100
AcDbLine
 10
35.94048002192096
 20
1.501904278724439
 30
0.0
 11
50.28821471618349
 21
1.501904278724492
 31
0.0
  0
LINE
  5
223
330
21F
100
AcDbEntity
  8
치수문자_일반주서
 62
     0
370
    -2
100
AcDbLine
 10
35.840480021921
 20
-1.495216943397878
 30
0.0
 11
50.2882147161835
 21
-1.495216943397825
 31
0.0
  0
LINE
  5
224
330
21F
100
AcDbEntity
  8
치수문자_일반주서
 62
     0
370
    -2
100
AcDbLine
 10
50.28821471618349
 20
1.501904278724492
 30
0.0
 11
50.28821471618345
 21
17.28671694339793
 31
0.0
  0
LINE
  5
225
330
21F
100
AcDbEntity
  8
치수문자_일반주서
 62
     0
370
    -2
100
AcDbLine
 10
50.28821471618349
 20
1.501904278724492
 30
0.0
 11
50.2882147161835
 21
-1.495216943397825
 31
0.0
  0
LINE
  5
226
330
21F
100
AcDbEntity
  8
치수문자_일반주서
 62
     0
370
    -2
100
AcDbLine
 10
50.28821471618348
 20
4.803904278724492
 30
0.0
 11
50.28821471618348
 21
8.105904278724491
 31
0.0
  0
LINE
  5
227
330
21F
100
AcDbEntity
  8
치수문자_일반주서
 62
     0
370
    -2
100
AcDbLine
 10
50.2882147161835
 20
-4.797216943397824
 30
0.0
 11
50.28821471618351
 21
-8.099216943397824
 31
0.0
  0
SOLID
  5
228
330
21F
100
AcDbEntity
  8
치수문자_일반주서
 62
     0
100
AcDbTrace
 10
49.73788138285015
 20
4.803904278724491
 30
0.0
 11
50.83854804951682
 21
4.803904278724493
 31
0.0
 12
50.28821471618349
 22
1.501904278724492
 32
0.0
 13
50.28821471618349
 23
1.501904278724492
 33
0.0
  0
SOLID
  5
229
330
21F
100
AcDbEntity
  8
치수문자_일반주서
 62
     0
100
AcDbTrace
 10
50.83854804951684
 20
-4.797216943397824
 30
0.0
 11
49.73788138285017
 21
-4.797216943397825
 31
0.0
 12
50.2882147161835
 22
-1.495216943397825
 32
0.0
 13
50.2882147161835
 23
-1.495216943397825
 33
0.0
  0
MTEXT
  5
22A
330
21F
100
AcDbEntity
  8
치수문자_일반주서
 62
     0
100
AcDbMText
 10
45.91321471618346
 20
14.22421694339792
 30
0.0
 40
3.5
 41
0.0
 71
     2
 72
     1
  1
\A1;%%c3
  7
SLDTEXTSTYLE0
 11
-2.370750740795702E-15
 21
1.0
 31
0.0
 73
     1
 44
1.0
  0
POINT
  5
22B
330
21F
100
AcDbEntity
  8
Defpoints
 62
     0
100
AcDbPoint
 10
35.87798002192096
 20
1.501904278724439
 30
0.0
  0
POINT
  5
22C
330
21F
100
AcDbEntity
  8
Defpoints
 62
     0
100
AcDbPoint
 10
35.777980021921
 20
-1.495216943397878
 30
0.0
  0
POINT
  5
22D
330
21F
100
AcDbEntity
  8
Defpoints
 62
     0
100
AcDbPoint
 10
50.28821471618353
 20
-1.495216943397824
 30
0.0
  0
ENDBLK
  5
221
330
21F
100
AcDbEntity
  8
0
100
AcDbBlockEnd
  0
BLOCK
  5
272
330
271
100
AcDbEntity
  8
0
100
AcDbBlockBegin
  2
*D20
 70
     1
 10
0.0
 20
0.0
 30
0.0
  3
*D20
  1
*D20
  0
LINE
  5
273
330
271
100
AcDbEntity
  8
치수문자_일반주서
 62
     0
370
    -2
100
AcDbLine
 10
5.737696927657213
 20
17.96678389723163
 30
0.0
 11
16.67891872871368
 21
-0.0000000000000013
 31
0.0
  0
MTEXT
  5
274
330
271
100
AcDbEntity
  8
치수문자_일반주서
 62
     0
100
AcDbMText
 10
17.55560874968902
 20
3.607307112947585
 30
0.0
 40
3.5
 41
0.0
 71
     5
 72
     1
  1
\A1;R1
  7
SLDTEXTSTYLE0
 11
0.5201175413280454
 21
-0.8540946921757968
 31
0.0
 73
     1
 44
1.0
  0
LINE
  5
275
330
271
100
AcDbEntity
  8
치수문자_일반주서
 62
     0
370
    -2
100
AcDbLine
 10
3.500151264863973
 20
21.64109926297189
 30
0.0
 11
4.020268806192007
 21
20.78700457079611
 31
0.0
  0
SOLID
  5
276
330
271
100
AcDbEntity
  8
치수문자_일반주서
 62
     0
100
AcDbTrace
 10
6.207733706584627
 20
18.25302191747583
 30
0.0
 11
5.267660148729799
 21
17.68054587698743
 31
0.0
 12
4.020268806192007
 22
20.78700457079611
 32
0.0
 13
4.020268806192007
 23
20.78700457079611
 33
0.0
  0
POINT
  5
277
330
271
100
AcDbEntity
  8
Defpoints
 62
     0
100
AcDbPoint
 10
4.020268806192007
 20
20.78700457079611
 30
0.0
  0
POINT
  5
278
330
271
100
AcDbEntity
  8
Defpoints
 62
     0
100
AcDbPoint
 10
3.500151264863973
 20
21.64109926297189
 30
0.0
  0
ENDBLK
  5
279
330
271
100
AcDbEntity
  8
0
100
AcDbBlockEnd
  0
BLOCK
  5
29B
330
29A
100
AcDbEntity
  8
0
100
AcDbBlockBegin
  2
*D21
 70
     1
 10
0.0
 20
0.0
 30
0.0
  3
*D21
  1
*D21
  0
LINE
  5
29D
330
29A
100
AcDbEntity
  8
치수문자_일반주서
 62
     0
370
    -2
100
AcDbLine
 10
37.11552568471699
 20
-4.134411009443649
 30
0.0
 11
48.05674748577345
 21
-22.10119490667529
 31
0.0
  0
MTEXT
  5
29E
330
29A
100
AcDbEntity
  8
치수문자_일반주서
 62
     0
100
AcDbMText
 10
48.9334375067488
 20
-18.4938877937277
 30
0.0
 40
3.5
 41
0.0
 71
     5
 72
     1
  1
\A1;R1
  7
SLDTEXTSTYLE0
 11
0.5201175413280454
 21
-0.8540946921757968
 31
0.0
 73
     1
 44
1.0
  0
LINE
  5
29F
330
29A
100
AcDbEntity
  8
치수문자_일반주서
 62
     0
370
    -2
100
AcDbLine
 10
34.87798002192375
 20
-0.4600956437033901
 30
0.0
 11
35.39809756325178
 21
-1.314190335879168
 31
0.0
  0
SOLID
  5
2A0
330
29A
100
AcDbEntity
  8
치수문자_일반주서
 62
     0
100
AcDbTrace
 10
37.5855624636444
 20
-3.848172989199448
 30
0.0
 11
36.64548890578957
 21
-4.42064902968785
 31
0.0
 12
35.39809756325178
 22
-1.314190335879168
 32
0.0
 13
35.39809756325178
 23
-1.314190335879168
 33
0.0
  0
POINT
  5
2A1
330
29A
100
AcDbEntity
  8
Defpoints
 62
     0
100
AcDbPoint
 10
35.39809756325178
 20
-1.314190335879168
 30
0.0
  0
POINT
  5
2A2
330
29A
100
AcDbEntity
  8
Defpoints
 62
     0
100
AcDbPoint
 10
34.87798002192375
 20
-0.4600956437033901
 30
0.0
  0
ENDBLK
  5
29C
330
29A
100
AcDbEntity
  8
0
100
AcDbBlockEnd
  0
ENDSEC
  0
SECTION
  2
ENTITIES
  0
INSERT
  5
CD
330
1F
100
AcDbEntity
  8
0
  6
Continuous
 62
     7
100
AcDbBlockReference
 66
     1
  2
블럭10
 10
-22.93944368806589
 20
-52.04609937292004
 30
0.0
  0
ATTRIB
  5
CE
330
CD
100
AcDbEntity
  8
FORMAT
 62
     2
100
AcDbText
 10
-42.21802657207924
 20
-49.97073246008785
 30
0.0
 40
4.233333333333333
  1
SEME610301030E [ 2 FLUTE ]
 41
0.75
  7
SLDTEXTSTYLE0
 11
-42.21802657207924
 21
-52.08739912675452
 31
0.0
100
AcDbAttribute
  2
AUTOATTR0
 70
     0
 74
     1
  0
SEQEND
  5
CF
330
CD
100
AcDbEntity
  8
0
  6
Continuous
 62
     7
  0
HATCH
  5
D0
330
1F
100
AcDbEntity
  8
중심선
100
AcDbHatch
 10
0.0
 20
0.0
 30
0.0
210
0.0
220
0.0
230
1.0
  2
SOLID
 70
     1
 71
     0
 91
        1
 92
        0
 93
        4
 72
     1
 10
-17.22453438368504
 20
-35.7989250712761
 11
-20.67080962752232
 21
-35.7989250712761
 72
     1
 10
-20.67080962752232
 20
-35.7989250712761
 11
-22.79903948672635
 21
-38.3352506518487
 72
     1
 10
-22.79903948672635
 20
-38.3352506518487
 11
-19.35273115777591
 21
-38.33521122254621
 72
     1
 10
-19.35273115777591
 20
-38.33521122254621
 11
-17.22453438368504
 21
-35.7989250712761
 97
        0
 75
     0
 76
     1
 98
        1
 10
0.0
 20
0.0
  0
HATCH
  5
D1
330
1F
100
AcDbEntity
  8
중심선
100
AcDbHatch
 10
0.0
 20
0.0
 30
0.0
210
0.0
220
0.0
230
1.0
  2
SOLID
 70
     1
 71
     0
 91
        1
 92
        0
 93
        4
 72
     1
 10
-12.21177039264909
 20
-35.7989250712761
 11
-15.65804563648637
 21
-35.7989250712761
 72
     1
 10
-15.65804563648637
 20
-35.7989250712761
 11
-20.18918364484376
 21
-41.19892507127612
 72
     1
 10
-20.18918364484376
 20
-41.19892507127612
 11
-16.74290840100648
 21
-41.19892507127612
 72
     1
 10
-16.74290840100648
 20
-41.19892507127612
 11
-12.21177039264909
 21
-35.7989250712761
 97
        0
 75
     0
 76
     1
 98
        1
 10
0.0
 20
0.0
  0
HATCH
  5
D2
330
1F
100
AcDbEntity
  8
중심선
100
AcDbHatch
 10
0.0
 20
0.0
 30
0.0
210
0.0
220
0.0
230
1.0
  2
SOLID
 70
     1
 71
     0
 91
        1
 92
        0
 93
        4
 72
     1
 10
-7.199006401613195
 20
-35.79892507127613
 11
-10.64528164545031
 21
-35.7989250712761
 72
     1
 10
-10.64528164545031
 20
-35.7989250712761
 11
-17.69371854733956
 21
-44.19892507127612
 72
     1
 10
-17.69371854733956
 20
-44.19892507127612
 11
-14.24744330350228
 21
-44.19892507127612
 72
     1
 10
-14.24744330350228
 20
-44.19892507127612
 11
-7.199006401613195
 21
-35.79892507127613
 97
        0
 75
     0
 76
     1
 98
        1
 10
0.0
 20
0.0
  0
HATCH
  5
D3
330
1F
100
AcDbEntity
  8
중심선
100
AcDbHatch
 10
0.0
 20
0.0
 30
0.0
210
0.0
220
0.0
230
1.0
  2
SOLID
 70
     1
 71
     0
 91
        1
 92
        0
 93
        6
 72
     3
 10
-2.399115970600996
 20
-39.99892507132738
 11
3.960054785062284
 21
1.540850780301639E-10
 40
0.3939339440162633
 50
17.09539180608433
 51
320.0019657685079
 73
     0
 72
     1
 10
-0.7161163149004002
 20
-38.58681907591441
 11
1.589185558800638
 21
-36.65249236586649
 72
     3
 10
-2.399115970653842
 20
-39.99892507127625
 11
6.600054785286829
 21
-1.249000902703301E-13
 40
0.6363583540795982
 50
39.99873849337408
 51
368.4976242363725
 73
     1
 72
     1
 10
4.026216521246767
 20
-39.03892507120613
 11
-3.71904866381792
 21
-39.0389250712061
 72
     1
 10
-3.71904866381792
 20
-39.0389250712061
 11
-3.719073708263854
 21
-40.95892507120602
 72
     1
 10
-3.719073708263854
 20
-40.95892507120602
 11
0.7223060612081831
 21
-40.95892507120599
 97
        0
 75
     0
 76
     1
 98
        1
 10
0.0
 20
0.0
  0
LINE
  5
1D1
330
1F
100
AcDbEntity
  8
0
  6
Continuous
 62
     4
370
    25
100
AcDbLine
 10
0.0
 20
2.999999999999986
 30
0.0
 11
-33.12201997807904
 21
2.999999999999986
 31
0.0
  0
LINE
  5
1D2
330
1F
100
AcDbEntity
  8
0
  6
Continuous
 62
     4
370
    25
100
AcDbLine
 10
-33.12201997807904
 20
-3.0
 30
0.0
 11
0.0
 21
-3.0
 31
0.0
  0
LINE
  5
1D3
330
1F
100
AcDbEntity
  8
0
  6
Continuous
 62
     4
370
    25
100
AcDbLine
 10
0.0
 20
-3.0
 30
0.0
 11
5.877980021920962
 21
-1.425000000000011
 31
0.0
  0
LINE
  5
1D4
330
1F
100
AcDbEntity
  8
0
  6
Continuous
 62
     4
370
    25
100
AcDbLine
 10
5.877980021920962
 20
1.425000000000011
 30
0.0
 11
0.0
 21
3.000000000000014
 31
0.0
  0
LINE
  5
1D5
330
1F
100
AcDbEntity
  8
0
  6
Continuous
 62
     4
370
    25
100
AcDbLine
 10
-33.12201997807904
 20
2.999999999999986
 30
0.0
 11
-34.12201997807904
 21
1.999999999999986
 31
0.0
  0
LINE
  5
1D6
330
1F
100
AcDbEntity
  8
0
  6
Continuous
 62
     4
370
    25
100
AcDbLine
 10
-34.12201997807904
 20
-2.0
 30
0.0
 11
-33.12201997807904
 21
-3.0
 31
0.0
  0
SPLINE
  5
1D7
330
1F
100
AcDbEntity
  8
0
  6
Continuous
 62
     4
370
    25
100
AcDbSpline
210
0.0
220
0.0
230
1.0
 70
     8
 71
     3
 72
    11
 73
     7
 74
     0
 42
0.000000001
 43
0.00000001
 40
0.0
 40
0.0
 40
0.0
 40
0.0
 40
0.4620818500171489
 40
0.6382717798866115
 40
0.7622377342187463
 40
1.0
 40
1.0
 40
1.0
 40
1.0
 10
29.22872731927811
 20
-1.249385338093418
 30
0.0
 10
29.55944570740172
 20
-1.221409739854337
 30
0.0
 10
30.01626567170257
 20
-1.1827671597989
 30
0.0
 10
30.55898300468164
 20
-1.171422626580508
 30
0.0
 10
30.94503628666808
 20
-1.170786841335314
 30
0.0
 10
31.20627140290111
 20
-1.179686844256551
 30
0.0
 10
31.37798002192375
 20
-1.185536774514546
 30
0.0
  0
SPLINE
  5
1D8
330
1F
100
AcDbEntity
  8
0
  6
Continuous
 62
     4
370
    25
100
AcDbSpline
210
0.0
220
0.0
230
1.0
 70
     8
 71
     3
 72
    10
 73
     6
 74
     0
 42
0.000000001
 43
0.00000001
 40
0.0
 40
0.0
 40
0.0
 40
0.0
 40
0.3870787935662618
 40
0.8756474541578245
 40
1.0
 40
1.0
 40
1.0
 40
1.0
 10
31.37798002192375
 20
1.185536774514546
 30
0.0
 10
31.20616199766562
 20
1.180275927980162
 30
0.0
 10
30.8174762364697
 20
1.168374870750682
 30
0.0
 10
30.37962593413681
 20
1.1680069356985
 30
0.0
 10
30.11045252007307
 20
1.188020771135626
 30
0.0
 10
30.05584126015822
 20
1.192081279015838
 30
0.0
  0
LINE
  5
1D9
330
1F
100
AcDbEntity
  8
0
  6
Continuous
 62
     4
370
    25
100
AcDbLine
 10
0.0
 20
3.0
 30
0.0
 11
0.0
 21
-3.0
 31
0.0
  0
LINE
  5
1DA
330
1F
100
AcDbEntity
  8
0
  6
Continuous
 62
     4
370
    25
100
AcDbLine
 10
-33.12201997807904
 20
2.999999999999986
 30
0.0
 11
-33.12201997807904
 21
-3.0
 31
0.0
  0
LINE
  5
1DB
330
1F
100
AcDbEntity
  8
0
  6
Continuous
 62
     4
370
    25
100
AcDbLine
 10
-34.12201997807904
 20
1.999999999999986
 30
0.0
 11
-34.12201997807904
 21
-2.0
 31
0.0
  0
SPLINE
  5
1DC
330
1F
100
AcDbEntity
  8
0
  6
Continuous
 62
     4
370
    25
100
AcDbSpline
210
0.0
220
0.0
230
1.0
 70
     8
 71
     3
 72
    11
 73
     7
 74
     0
 42
0.000000001
 43
0.00000001
 40
0.0
 40
0.0
 40
0.0
 40
0.0
 40
0.3081407231133523
 40
0.6162132639756378
 40
0.8580955920846803
 40
1.0
 40
1.0
 40
1.0
 40
1.0
 10
31.37798002192096
 20
0.6870816828002404
 30
0.0
 10
31.09303182063019
 20
0.8170536809710711
 30
0.0
 10
30.52319846849389
 20
1.076968918428406
 30
0.0
 10
29.72953459740825
 20
1.308085052955036
 30
0.0
 10
29.09020492472803
 20
1.418469883264819
 30
0.0
 10
28.73560532955867
 20
1.414847141716223
 30
0.0
 10
28.60449281086983
 20
1.413507639992403
 30
0.0
  0
SPLINE
  5
1DD
330
1F
100
AcDbEntity
  8
0
  6
Continuous
 62
     4
370
    25
100
AcDbSpline
210
0.0
220
0.0
230
1.0
 70
     8
 71
     3
 72
    18
 73
    14
 74
     0
 42
0.000000001
 43
0.00000001
 40
0.0
 40
0.0
 40
0.0
 40
0.0
 40
0.2499999999999993
 40
0.2499999999999993
 40
0.374999999999999
 40
0.374999999999999
 40
0.4999999999999987
 40
0.4999999999999987
 40
0.7500000000000007
 40
0.7500000000000007
 40
0.8750000000000003
 40
0.8750000000000003
 40
1.0
 40
1.0
 40
1.0
 40
1.0
 10
31.37798002192096
 20
0.303244761994975
 30
0.0
 10
31.12670489584298
 20
0.4389837875974649
 30
0.0
 10
30.86835353956178
 20
0.5715685439838296
 30
0.0
 10
30.48722262627552
 20
0.7542920151711741
 30
0.0
 10
30.36271216615984
 20
0.8123249287065875
 30
0.0
 10
30.10827595583197
 20
0.922984502174387
 30
0.0
 10
29.9796937128985
 20
0.9753759846058188
 30
0.0
 10
29.59607410072101
 20
1.12114770647797
 30
0.0
 10
29.34620871936022
 20
1.202864090491275
 30
0.0
 10
28.96186803355471
 20
1.298888962885385
 30
0.0
 10
28.83368678525835
 20
1.32630312617728
 30
0.0
 10
28.58129275290275
 20
1.371202433796967
 30
0.0
 10
28.45584006199323
 20
1.388804689407408
 30
0.0
 10
28.32807904911959
 20
1.401450687889962
 30
0.0
  0
SPLINE
  5
1DE
330
1F
100
AcDbEntity
  8
0
  6
Continuous
 62
     4
370
    25
100
AcDbSpline
210
0.0
220
0.0
230
1.0
 70
     8
 71
     3
 72
    10
 73
     6
 74
     0
 42
0.000000001
 43
0.00000001
 40
0.0
 40
0.0
 40
0.0
 40
0.0
 40
0.2240999493484423
 40
0.6122868967800255
 40
1.0
 40
1.0
 40
1.0
 40
1.0
 10
30.05584126015822
 20
-1.192081279015838
 30
0.0
 10
29.92669988751862
 20
-1.233204133533206
 30
0.0
 10
29.57385924418384
 20
-1.345560182931621
 30
0.0
 10
28.99810377897109
 20
-1.425625308197667
 30
0.0
 10
28.55139894512968
 20
-1.419816081108024
 30
0.0
 10
28.32818293012031
 20
-1.416913241418371
 30
0.0
  0
LINE
  5
1DF
330
1F
100
AcDbEntity
  8
0
  6
Continuous
 62
     4
370
    25
100
AcDbLine
 10
28.32807904911965
 20
-1.416906676188916
 30
0.0
 11
28.32807904911959
 21
1.401509192723822
 31
0.0
  0
SPLINE
  5
1E0
330
1F
100
AcDbEntity
  8
0
  6
Continuous
 62
     4
370
    25
100
AcDbSpline
210
0.0
220
0.0
230
1.0
 70
     8
 71
     3
 72
    18
 73
    14
 74
     0
 42
0.000000001
 43
0.00000001
 40
0.0
 40
0.0
 40
0.0
 40
0.0
 40
0.25
 40
0.25
 40
0.3749999999999986
 40
0.3749999999999986
 40
0.4999999999999971
 40
0.4999999999999971
 40
0.7499999999999971
 40
0.7499999999999971
 40
0.8749999999999986
 40
0.8749999999999986
 40
1.0
 40
1.0
 40
1.0
 40
1.0
 10
31.37798002192125
 20
0.1684588969660865
 30
0.0
 10
31.12670694557164
 20
0.269494917373919
 30
0.0
 10
30.8683577817277
 20
0.3690133812817464
 30
0.0
 10
30.48722983220074
 20
0.5074552679662077
 30
0.0
 10
30.3627204016841
 20
0.551652625181319
 30
0.0
 10
30.10828639993269
 20
0.6364097992832711
 30
0.0
 10
29.97970523335141
 20
0.6767927361734536
 30
0.0
 10
29.59608861145989
 20
0.789964088495978
 30
0.0
 10
29.34622542575926
 20
0.8545619771935975
 30
0.0
 10
28.9618878970208
 20
0.9325380152344565
 30
0.0
 10
28.83370759923957
 20
0.9552430824268612
 30
0.0
 10
28.58131517493052
 20
0.9934504156937152
 30
0.0
 10
28.45586392027832
 20
1.00904675346645
 30
0.0
 10
28.32810406156943
 20
1.021049093281164
 30
0.0
  0
LINE
  5
1E1
330
1F
100
AcDbEntity
  8
0
  6
Continuous
 62
     4
370
    25
100
AcDbLine
 10
29.22972082026922
 20
-1.245711639323503
 30
0.0
 11
28.32818293012031
 21
-1.261464555600412
 31
0.0
  0
SPLINE
  5
1E2
330
1F
100
AcDbEntity
  8
0
  6
Continuous
 62
     4
370
    25
100
AcDbSpline
210
0.0
220
0.0
230
1.0
 70
     8
 71
     3
 72
    18
 73
    14
 74
     0
 42
0.000000001
 43
0.00000001
 40
0.0
 40
0.0
 40
0.0
 40
0.0
 40
0.2499999999999972
 40
0.2499999999999972
 40
0.3749999999999972
 40
0.3749999999999972
 40
0.4999999999999972
 40
0.4999999999999972
 40
0.7499999999999972
 40
0.7499999999999972
 40
0.8749999999999986
 40
0.8749999999999986
 40
1.0
 40
1.0
 40
1.0
 40
1.0
 10
31.37798002192119
 20
-1.184455290307298
 30
0.0
 10
31.12670800289158
 20
-1.165686616818775
 30
0.0
 10
30.86835996998116
 20
-1.129571594191418
 30
0.0
 10
30.48723354926472
 20
-1.052191909332052
 30
0.0
 10
30.36272464984643
 20
-1.022727742932631
 30
0.0
 10
30.10829178735526
 20
-0.9562690105208702
 30
0.0
 10
29.9797111759944
 20
-0.9193463227331193
 30
0.0
 10
29.5960960966006
 20
-0.799233510628369
 30
0.0
 10
29.34623404348264
 20
-0.7071341988484647
 30
0.0
 10
28.96189814327886
 20
-0.5546450904299007
 30
0.0
 10
28.83371833581094
 20
-0.501610593258377
 30
0.0
 10
28.58132674100023
 20
-0.3928945801800978
 30
0.0
 10
28.45587622718233
 20
-0.3370485482709427
 30
0.0
 10
28.32811696383726
 20
-0.2798512126111774
 30
0.0
  0
LINE
  5
1E3
330
1F
100
AcDbEntity
  8
중심선
100
AcDbLine
 10
-37.12201997807898
 20
-0.0000000000000142
 30
0.0
 11
38.87798002192096
 21
0.0
 31
0.0
  0
CIRCLE
  5
1E4
330
1F
100
AcDbEntity
  8
외형선
100
AcDbCircle
 10
0.0
 20
0.0
 30
0.0
 40
3.000000000000005
  0
DIMENSION
  5
1E5
330
1F
100
AcDbEntity
  8
치수문자_일반주서
100
AcDbDimension
  2
*D14
 10
-45.61847799969108
 20
-3.000000000000048
 30
0.0
 11
-45.61847799969109
 21
-0.0000000000000142
 31
0.0
 70
   160
  1
%%c<>
 71
     2
 42
5.999999999999986
 52
-270.0
  3
SLDDIMSTYLE0
100
AcDbAlignedDimension
 13
-33.12201997807904
 23
2.999999999999986
 33
0.0
 14
-33.12201997807904
 24
-3.0
 34
0.0
 50
90.0000000000002
100
AcDbRotatedDimension
  0
DIMENSION
  5
1E6
330
1F
100
AcDbEntity
  8
치수문자_일반주서
100
AcDbDimension
  2
*D15
 10
31.37798002192096
 20
19.89999999999965
 30
0.0
 11
33.62798002192096
 21
19.89999999999965
 31
0.0
 70
   160
  1
<>
 71
     2
 42
4.5
  3
SLDDIMSTYLE1
100
AcDbAlignedDimension
 13
35.87798002192096
 23
1.399999999999991
 33
0.0
 14
31.37798002192096
 24
1.186147856478016
 34
0.0
100
AcDbRotatedDimension
  0
DIMENSION
  5
1E7
330
1F
100
AcDbEntity
  8
치수문자_일반주서
100
AcDbDimension
  2
*D16
 10
-34.12201997807904
 20
41.95832450504429
 30
0.0
 11
0.8779800219209619
 21
41.95832450504429
 31
0.0
 70
   160
  1
<>
 71
     2
 42
70.0
  3
SLDDIMSTYLE2
100
AcDbAlignedDimension
 13
35.87798002192096
 23
1.399999999999991
 33
0.0
 14
-34.12201997807904
 24
1.999999999999986
 34
0.0
100
AcDbRotatedDimension
  0
DIMENSION
  5
1E8
330
1F
100
AcDbEntity
  8
치수문자_일반주서
100
AcDbDimension
  2
*D17
 10
5.877980021920962
 20
30.31999999999864
 30
0.0
 11
18.37798002192096
 21
30.31999999999864
 31
0.0
 70
   160
  1
<>
 71
     2
 42
30.0
  3
SLDDIMSTYLE0
100
AcDbAlignedDimension
 13
35.87798002192096
 23
1.397798710624159
 33
0.0
 14
5.877980021920962
 24
1.424999999999997
 34
0.0
 50
-0.0000000000022354
100
AcDbRotatedDimension
  0
DIMENSION
  5
1E9
330
1F
100
AcDbEntity
  8
치수문자_일반주서
100
AcDbDimension
  2
*D18
 10
50.2882147161835
 20
-1.495216943397825
 30
0.0
 11
50.28821471618346
 21
14.22421694339793
 31
0.0
 70
   160
  1
%%c<>
 71
     2
 42
2.997121222122316
 52
-270.0
  3
SLDDIMSTYLE3
100
AcDbAlignedDimension
 13
35.87798002192096
 23
1.501904278724439
 33
0.0
 14
35.777980021921
 24
-1.495216943397878
 34
0.0
 50
90.0000000000002
100
AcDbRotatedDimension
  0
INSERT
  5
1EA
330
1F
100
AcDbEntity
  8
외형선
100
AcDbBlockReference
  2
SW_DOWELSYMBOL_0
 10
0.0
 20
0.0
 30
0.0
  0
LINE
  5
1EB
330
1F
100
AcDbEntity
  8
0
  6
Continuous
 62
     4
370
    25
100
AcDbLine
 10
0.0
 20
3.0
 30
0.0
 11
0.0
 21
-3.0
 31
0.0
  0
LINE
  5
1EC
330
1F
100
AcDbEntity
  8
0
  6
Continuous
 62
     4
370
    25
100
AcDbLine
 10
5.877980021920962
 20
1.424999999999997
 30
0.0
 11
5.877980021920962
 21
-1.425000000000011
 31
0.0
  0
LINE
  5
1ED
330
1F
100
AcDbEntity
  8
0
  6
Continuous
 62
     4
370
    25
100
AcDbLine
 10
28.60449281086983
 20
1.424999999999997
 30
0.0
 11
5.877980021920962
 21
1.424999999999997
 31
0.0
  0
LINE
  5
1EE
330
1F
100
AcDbEntity
  8
0
  6
Continuous
 62
     4
370
    25
100
AcDbLine
 10
5.877980021920962
 20
-1.424999999999997
 30
0.0
 11
28.60449281086983
 21
-1.424999999999997
 31
0.0
  0
LINE
  5
27D
330
1F
100
AcDbEntity
  8
0
  6
Continuous
 62
     1
370
    25
100
AcDbLine
 10
31.99249794115462
 20
0.3938006783862846
 30
0.0
 11
31.57464140797435
 21
0.6020012912079409
 31
0.0
  0
LINE
  5
27E
330
1F
100
AcDbEntity
  8
0
  6
Continuous
 62
     1
370
    25
100
AcDbLine
 10
31.49480478408327
 20
1.201310038406049
 30
0.0
 11
31.37786938279277
 21
1.197447405613062
 31
0.0
  0
SPLINE
  5
27F
330
1F
100
AcDbEntity
  8
0
  6
Continuous
 62
     1
370
    25
100
AcDbSpline
210
0.0
220
0.0
230
1.0
 70
     8
 71
     3
 72
    17
 73
    13
 74
     0
 42
0.000000001
 43
0.00000001
 40
0.0
 40
0.0
 40
0.0
 40
0.0
 40
0.1334917817438933
 40
0.2244732328187496
 40
0.280576081778084
 40
0.3344890092336326
 40
0.3906446422435726
 40
0.4540663663752953
 40
0.5662789782755091
 40
0.6765438931706219
 40
0.8112577588028519
 40
1.0
 40
1.0
 40
1.0
 40
1.0
 10
35.342644626126
 20
1.037190962004999
 30
0.0
 10
35.22427547888844
 20
1.027879260015659
 30
0.0
 10
35.02523172653673
 20
1.012221158660765
 30
0.0
 10
34.77773884409584
 20
1.00187777711762
 30
0.0
 10
34.60088794684725
 20
0.9975990268410797
 30
0.0
 10
34.45470254067436
 20
0.9961688420196353
 30
0.0
 10
34.30210141887159
 20
0.996817195786889
 30
0.0
 10
34.09832375308929
 20
1.000840169766754
 30
0.0
 10
33.84710634231777
 20
1.011606502478429
 30
0.0
 10
33.53255244742655
 20
1.033796465454714
 30
0.0
 10
33.15182233838635
 20
1.071398665747481
 30
0.0
 10
32.86684016634399
 20
1.113151573315108
 30
0.0
 10
32.70054813253529
 20
1.137515118118948
 30
0.0
  0
SPLINE
  5
280
330
1F
100
AcDbEntity
  8
0
  6
Continuous
 62
     1
370
    25
100
AcDbSpline
210
0.0
220
0.0
230
1.0
 70
     8
 71
     3
 72
    12
 73
     8
 74
     0
 42
0.000000001
 43
0.00000001
 40
0.0
 40
0.0
 40
0.0
 40
0.0
 40
0.3542329868263014
 40
0.571646713658965
 40
0.720892684207345
 40
0.8779634366905859
 40
1.0
 40
1.0
 40
1.0
 40
1.0
 10
32.70054813253529
 20
-1.118777378372762
 30
0.0
 10
32.83264368074799
 20
-1.099199258398905
 30
0.0
 10
33.04581407659765
 20
-1.0676048887075
 30
0.0
 10
33.31326300747617
 20
-1.03695327072554
 30
0.0
 10
33.5082750828588
 20
-1.018307143422696
 30
0.0
 10
33.66769352159878
 20
-1.00525833302887
 30
0.0
 10
33.77154021055043
 20
-0.9990401214543638
 30
0.0
 10
33.81694601797159
 20
-0.9963212777424815
 30
0.0
  0
LINE
  5
281
330
1F
100
AcDbEntity
  8
0
  6
Continuous
 62
     4
370
    25
100
AcDbLine
 10
31.37782875705977
 20
-1.17870832390981
 30
0.0
 11
31.49480478408327
 21
-1.182572298659863
 31
0.0
  0
SPLINE
  5
282
330
1F
100
AcDbEntity
  8
0
  6
Continuous
 62
     4
370
    25
100
AcDbSpline
210
0.0
220
0.0
230
1.0
 70
    24
 71
     3
 72
     8
 73
     4
 74
     0
 42
0.000000001
 43
0.00000001
 40
0.0
 40
0.0
 40
0.0
 40
0.0
 40
1.0
 40
1.0
 40
1.0
 40
1.0
 10
31.37798002192375
 20
0.312613631867741
 30
0.0
 10
31.37798002192375
 20
0.3074748288441924
 30
0.0
 10
31.37798002192375
 20
0.2554820717735069
 30
0.0
 10
31.37798002192375
 20
0.1778277668392931
 30
0.0
  0
SPLINE
  5
283
330
1F
100
AcDbEntity
  8
0
  6
Continuous
 62
     4
370
    25
100
AcDbSpline
210
0.0
220
0.0
230
1.0
 70
    24
 71
     3
 72
    10
 73
     6
 74
     0
 42
0.000000001
 43
0.00000001
 40
0.0
 40
0.0
 40
0.0
 40
0.0
 40
0.5
 40
0.5
 40
1.0
 40
1.0
 40
1.0
 40
1.0
 10
31.37798002192375
 20
0.177827766839286
 30
0.0
 10
31.37798002192375
 20
-0.0875470094389073
 30
0.0
 10
31.37798002192375
 20
-0.366880900855115
 30
0.0
 10
31.37798002192375
 20
-0.8477846150478427
 30
0.0
 10
31.37798002192375
 20
-1.045628354367551
 30
0.0
 10
31.37798002192375
 20
-1.175086420434184
 30
0.0
  0
SPLINE
  5
284
330
1F
100
AcDbEntity
  8
0
  6
Continuous
 62
     4
370
    25
100
AcDbSpline
210
0.0
220
0.0
230
1.0
 70
    24
 71
     3
 72
    12
 73
     8
 74
     0
 42
0.000000001
 43
0.00000001
 40
0.0
 40
0.0
 40
0.0
 40
0.0
 40
0.1973647600354508
 40
0.4062980397748442
 40
0.6212903987808261
 40
0.8084883287724897
 40
1.0
 40
1.0
 40
1.0
 40
1.0
 10
31.37798002192375
 20
1.185536774514546
 30
0.0
 10
31.37798002192375
 20
1.183165713547154
 30
0.0
 10
31.37798002192369
 20
1.178284612062455
 30
0.0
 10
31.37798002192375
 20
1.100363269373268
 30
0.0
 10
31.37798002192375
 20
0.9880785379456611
 30
0.0
 10
31.37798002192375
 20
0.8429117257259477
 30
0.0
 10
31.37798002192375
 20
0.7264061276926341
 30
0.0
 10
31.37798002192375
 20
0.6674897925511658
 30
0.0
  0
SPLINE
  5
285
330
1F
100
AcDbEntity
  8
0
  6
Continuous
 62
     1
370
    25
100
AcDbSpline
210
0.0
220
0.0
230
1.0
 70
     8
 71
     3
 72
     9
 73
     5
 74
     0
 42
0.000000001
 43
0.00000001
 40
0.0
 40
0.0
 40
0.0
 40
0.0
 40
0.0560631360298127
 40
1.0
 40
1.0
 40
1.0
 40
1.0
 10
32.14689521107351
 20
-0.1305738475225127
 30
0.0
 10
32.13252487567843
 20
-0.1250616679486001
 30
0.0
 10
31.87620073092376
 20
-0.0267407397190809
 30
0.0
 10
31.61990603420082
 20
0.0784933912600891
 30
0.0
 10
31.37798002192397
 20
0.1778277668392008
 30
0.0
  0
SPLINE
  5
286
330
1F
100
AcDbEntity
  8
0
  6
Continuous
 62
     4
370
    25
100
AcDbSpline
210
0.0
220
0.0
230
1.0
 70
    24
 71
     3
 72
    11
 73
     7
 74
     0
 42
0.000000001
 43
0.00000001
 40
0.0
 40
0.0
 40
0.0
 40
0.0
 40
0.2360693181082624
 40
0.4811108144576596
 40
0.7332585308014953
 40
1.0
 40
1.0
 40
1.0
 40
1.0
 10
31.37798002192375
 20
0.3125402734593479
 30
0.0
 10
31.37798002192375
 20
0.3110872106404443
 30
0.0
 10
31.37798002192375
 20
0.3081258591108806
 30
0.0
 10
31.37798002192369
 20
0.2821703498332511
 30
0.0
 10
31.37798002192375
 20
0.2410276713533364
 30
0.0
 10
31.37798002192375
 20
0.199285732210484
 30
0.0
 10
31.37798002192375
 20
0.1778277668406218
 30
0.0
  0
LINE
  5
287
330
1F
100
AcDbEntity
  8
0
  6
Continuous
 62
     4
370
    25
100
AcDbLine
 10
31.37798002192375
 20
0.3106804474690321
 30
0.0
 11
31.37798002192375
 21
0.7047882232068403
 31
0.0
  0
SPLINE
  5
288
330
1F
100
AcDbEntity
  8
0
  6
Continuous
 62
     1
370
    25
100
AcDbSpline
210
0.0
220
0.0
230
1.0
 70
     8
 71
     3
 72
    12
 73
     8
 74
     0
 42
0.000000001
 43
0.00000001
 40
0.0
 40
0.0
 40
0.0
 40
0.0
 40
0.2152126109729702
 40
0.430450483078558
 40
0.6457114560085063
 40
0.8609933469573069
 40
1.0
 40
1.0
 40
1.0
 40
1.0
 10
35.87798002192375
 20
0.0093688698730929
 30
0.0
 10
35.56352458610303
 20
0.154596864937524
 30
0.0
 10
34.93457680444777
 20
0.4450699015750814
 30
0.0
 10
33.99108055551307
 20
0.8248189368279526
 30
0.0
 10
33.04748479218068
 20
1.094501700543184
 30
0.0
 10
32.21521869122586
 20
1.219540001847214
 30
0.0
 10
31.69759056042687
 20
1.201904334841835
 30
0.0
 10
31.49449690921119
 20
1.194984904094866
 30
0.0
  0
SPLINE
  5
289
330
1F
100
AcDbEntity
  8
0
  6
Continuous
 62
     4
370
    25
100
AcDbSpline
210
0.0
220
0.0
230
1.0
 70
    24
 71
     3
 72
    13
 73
     9
 74
     0
 42
0.000000001
 43
0.00000001
 40
0.0
 40
0.0
 40
0.0
 40
0.0
 40
0.0835506619152463
 40
0.2240614790798895
 40
0.4260453591536491
 40
0.633886785432908
 40
0.814858262493214
 40
1.0
 40
1.0
 40
1.0
 40
1.0
 10
31.37798002192375
 20
1.192946346916969
 30
0.0
 10
31.37798002192375
 20
1.193193982013916
 30
0.0
 10
31.37798002192375
 20
1.193858075927984
 30
0.0
 10
31.37798002192369
 20
1.166764574109479
 30
0.0
 10
31.37798002192375
 20
1.10195526695977
 30
0.0
 10
31.37798002192369
 20
0.9877106909236915
 30
0.0
 10
31.37798002192369
 20
0.843000673607726
 30
0.0
 10
31.37798002192369
 20
0.7264360012843696
 30
0.0
 10
31.37798002192375
 20
0.6674897925511658
 30
0.0
  0
SPLINE
  5
28A
330
1F
100
AcDbEntity
  8
0
  6
Continuous
 62
     1
370
    25
100
AcDbSpline
210
0.0
220
0.0
230
1.0
 70
     8
 71
     3
 72
     9
 73
     5
 74
     0
 42
0.000000001
 43
0.00000001
 40
0.0
 40
0.0
 40
0.0
 40
0.0
 40
0.4548294405691402
 40
1.0
 40
1.0
 40
1.0
 40
1.0
 10
32.70938418476152
 20
-1.100255407518617
 30
0.0
 10
32.50751528545453
 20
-1.134287210251273
 30
0.0
 10
32.06368100099314
 20
-1.209110429016683
 30
0.0
 10
31.6199105868572
 20
-1.18709084782882
 30
0.0
 10
31.37798002192392
 20
-1.175086420434198
 30
0.0
  0
SPLINE
  5
28B
330
1F
100
AcDbEntity
  8
0
  6
Continuous
 62
     4
370
    25
100
AcDbSpline
210
0.0
220
0.0
230
1.0
 70
    24
 71
     3
 72
    10
 73
     6
 74
     0
 42
0.000000001
 43
0.00000001
 40
0.0
 40
0.0
 40
0.0
 40
0.0
 40
0.5
 40
0.5
 40
1.0
 40
1.0
 40
1.0
 40
1.0
 10
31.37798002192375
 20
0.177827766839286
 30
0.0
 10
31.37798002192375
 20
-0.0875470094389073
 30
0.0
 10
31.37798002192375
 20
-0.366880900855115
 30
0.0
 10
31.37798002192375
 20
-0.8477846150478427
 30
0.0
 10
31.37798002192375
 20
-1.045628354367551
 30
0.0
 10
31.37798002192375
 20
-1.175086420434184
 30
0.0
  0
SPLINE
  5
28C
330
1F
100
AcDbEntity
  8
0
  6
Continuous
 62
     1
370
    25
100
AcDbSpline
210
0.0
220
0.0
230
1.0
 70
    24
 71
     3
 72
     8
 73
     4
 74
     0
 42
0.000000001
 43
0.00000001
 40
0.9929789949741769
 40
0.9929789949741769
 40
0.9929789949741769
 40
0.9929789949741769
 40
1.0
 40
1.0
 40
1.0
 40
1.0
 10
35.87798002192375
 20
1.404585813270963
 30
0.0
 10
35.87798002192375
 20
1.405446553227442
 30
0.0
 10
35.87798002192375
 20
1.406307145700602
 30
0.0
 10
35.87798002192375
 20
1.407167580497259
 30
0.0
  0
LINE
  5
28D
330
1F
100
AcDbEntity
  8
0
  6
Continuous
 62
     1
370
    25
100
AcDbLine
 10
35.87798002192375
 20
-1.385848073524762
 30
0.0
 11
35.87798002192375
 21
-1.388429840751684
 31
0.0
  0
ARC
  5
28E
330
1F
100
AcDbEntity
  8
0
  6
Continuous
 62
     1
370
    25
100
AcDbCircle
 10
34.87798002192375
 20
0.4788333834495759
 30
0.0
 40
0.9999999999999997
100
AcDbArc
 50
359.9999966619105
 51
73.11900455235299
  0
SPLINE
  5
28F
330
1F
100
AcDbEntity
  8
0
  6
Continuous
 62
     1
370
    25
100
AcDbSpline
210
0.0
220
0.0
230
1.0
 70
     8
 71
     3
 72
    11
 73
     7
 74
     0
 42
0.000000001
 43
0.00000001
 40
0.0
 40
0.0
 40
0.0
 40
0.0
 40
0.0132331356419757
 40
0.3415344459744827
 40
0.6700375518903243
 40
0.6893381204095439
 40
0.6893381204095439
 40
0.6893381204095439
 40
0.6893381204095439
 10
33.81693679038585
 20
1.015054603442572
 30
0.0
 10
33.82559088003256
 20
1.019210371084384
 30
0.0
 10
34.04894457282779
 20
1.126466718902861
 30
0.0
 10
34.48653897022007
 20
1.273661359520133
 30
0.0
 10
34.92833281448611
 20
1.394138563136543
 30
0.0
 10
35.15574471436435
 20
1.433617756887777
 30
0.0
 10
35.16836483211472
 20
1.4357433384667
 30
0.0
  0
LINE
  5
290
330
1F
100
AcDbEntity
  8
0
  6
Continuous
 62
     1
370
    25
100
AcDbLine
 10
35.70121640376237
 20
1.046532123642969
 30
0.0
 11
35.338242680186
 21
1.020172618071499
 31
0.0
  0
SPLINE
  5
291
330
1F
100
AcDbEntity
  8
0
  6
Continuous
 62
     1
370
    25
100
AcDbSpline
210
0.0
220
0.0
230
1.0
 70
    24
 71
     3
 72
     8
 73
     4
 74
     0
 42
0.000000001
 43
0.00000001
 40
0.0
 40
0.0
 40
0.0
 40
0.0
 40
0.3283828249260366
 40
0.3283828249260366
 40
0.3283828249260366
 40
0.3283828249260366
 10
35.87798002192375
 20
0.0093688698730929
 30
0.0
 10
35.87798002192375
 20
0.1734637739761169
 30
0.0
 10
35.87798002192375
 20
0.3346498641208839
 30
0.0
 10
35.87798002192375
 20
0.4788333251889227
 30
0.0
  0
ARC
  5
292
102
{ACAD_REACTORS
102
}
330
1F
100
AcDbEntity
  8
0
  6
Continuous
 62
     1
370
    25
100
AcDbCircle
 10
34.87798002192375
 20
-0.4600956437033901
 30
0.0
 40
0.9999999999999997
100
AcDbArc
 50
286.880995447647
 51
0.0000033380895395
  0
SPLINE
  5
293
330
1F
100
AcDbEntity
  8
0
  6
Continuous
 62
     1
370
    25
100
AcDbSpline
210
0.0
220
0.0
230
1.0
 70
    24
 71
     3
 72
     8
 73
     4
 74
     0
 42
0.000000001
 43
0.00000001
 40
0.6570932991353768
 40
0.6570932991353768
 40
0.6570932991353768
 40
0.6570932991353768
 40
1.0
 40
1.0
 40
1.0
 40
1.0
 10
35.87798002192375
 20
-0.4600955854438027
 30
0.0
 10
35.87798002192375
 20
-0.3083356740622563
 30
0.0
 10
35.87798002192375
 20
-0.1482411819646003
 30
0.0
 10
35.87798002192375
 20
0.0093688698730929
 30
0.0
  0
SPLINE
  5
294
330
1F
100
AcDbEntity
  8
0
  6
Continuous
 62
     1
370
    25
100
AcDbSpline
210
0.0
220
0.0
230
1.0
 70
     8
 71
     3
 72
    12
 73
     8
 74
     0
 42
0.000000001
 43
0.00000001
 40
0.0628766721884145
 40
0.0628766721884145
 40
0.0628766721884145
 40
0.0628766721884145
 40
0.2412210240886674
 40
0.4824699611798129
 40
0.7237444244961632
 40
0.9650420024851548
 40
1.0
 40
1.0
 40
1.0
 40
1.0
 10
35.63208437483934
 20
-1.116850259152521
 30
0.0
 10
35.39959683920642
 20
-1.061791842029173
 30
0.0
 10
34.85261863341384
 20
-0.9228427355556121
 30
0.0
 10
33.99109607552941
 20
-0.5701876011430755
 30
0.0
 10
33.04751533440981
 20
-0.1238239105153198
 30
0.0
 10
32.37278719266692
 20
0.2216776566495184
 30
0.0
 10
32.01268646402286
 20
0.3824630959700173
 30
0.0
 10
31.96711851356946
 20
0.4028092445606433
 30
0.0
  0
SPLINE
  5
295
330
1F
100
AcDbEntity
  8
0
  6
Continuous
 62
     1
370
    25
100
AcDbSpline
210
0.0
220
0.0
230
1.0
 70
     8
 71
     3
 72
    22
 73
    18
 74
     0
 42
0.000000001
 43
0.00000001
 40
0.0
 40
0.0
 40
0.0
 40
0.0
 40
0.125
 40
0.125
 40
0.25
 40
0.25
 40
0.375
 40
0.375
 40
0.5
 40
0.5
 40
0.625
 40
0.625
 40
0.75
 40
0.75
 40
0.875
 40
0.875
 40
1.0
 40
1.0
 40
1.0
 40
1.0
 10
35.16836483211409
 20
-1.417005598720415
 30
0.0
 10
34.87793887157636
 20
-1.349258029042055
 30
0.0
 10
34.96743806681394
 20
-1.36934838142713
 30
0.0
 10
34.70912518318579
 20
-1.311494047423821
 30
0.0
 10
34.67810030213445
 20
-1.304678709807725
 30
0.0
 10
34.49422285869082
 20
-1.253654217754487
 30
0.0
 10
34.30828352945781
 20
-1.192446050077962
 30
0.0
 10
33.9451585933686
 20
-1.054137247454392
 30
0.0
 10
33.76208231942121
 20
-0.9763570504313606
 30
0.0
 10
33.39278305539358
 20
-0.8067329110225856
 30
0.0
 10
33.21160572007744
 20
-0.7157145486753151
 30
0.0
 10
32.84656455330349
 20
-0.5238691885981126
 30
0.0
 10
32.66039517996825
 20
-0.4225796538802342
 30
0.0
 10
32.29314658490694
 20
-0.2159663278734953
 30
0.0
 10
32.11349718079288
 20
-0.110961940223504
 30
0.0
 10
31.7448635178207
 20
0.1010523312932179
 30
0.0
 10
31.55907932568493
 20
0.2074357142948671
 30
0.0
 10
31.37798002192369
 20
0.3106804474690392
 30
0.0
  0
SPLINE
  5
296
330
1F
100
AcDbEntity
  8
0
  6
Continuous
 62
     1
370
    25
100
AcDbSpline
210
0.0
220
0.0
230
1.0
 70
     8
 71
     3
 72
    22
 73
    18
 74
     0
 42
0.000000001
 43
0.00000001
 40
0.0837117388835083
 40
0.0837117388835083
 40
0.0837117388835083
 40
0.0837117388835083
 40
0.125
 40
0.125
 40
0.25
 40
0.25
 40
0.375
 40
0.375
 40
0.5
 40
0.5
 40
0.625
 40
0.625
 40
0.75
 40
0.75
 40
0.875
 40
0.875
 40
1.0
 40
1.0
 40
1.0
 40
1.0
 10
35.41061189496423
 20
-1.306442669350268
 30
0.0
 10
35.34759510551311
 20
-1.289015709425236
 30
0.0
 10
35.28661909192647
 20
-1.271104078763976
 30
0.0
 10
35.04201534452227
 20
-1.194870943898977
 30
0.0
 10
34.86251724186565
 20
-1.128649893318581
 30
0.0
 10
34.49422285869082
 20
-0.9791412155700101
 30
0.0
 10
34.30828352945781
 20
-0.8961034185443779
 30
0.0
 10
33.94515859336866
 20
-0.719178180855657
 30
0.0
 10
33.76208231942127
 20
-0.6243859416065263
 30
0.0
 10
33.39278305539364
 20
-0.4261682270768148
 30
0.0
 10
33.2116057200775
 20
-0.3236853037219873
 30
0.0
 10
32.84656455330355
 20
-0.1148204090712781
 30
0.0
 10
32.6603951799683
 20
-0.0079801615138138
 30
0.0
 10
32.29314658490694
 20
0.203410517399881
 30
0.0
 10
32.11349718079288
 20
0.3076909324835952
 30
0.0
 10
31.7448635178207
 20
0.512018225728319
 30
0.0
 10
31.55907932568493
 20
0.6114060738468652
 30
0.0
 10
31.37798002192375
 20
0.7047882232068403
 30
0.0
  0
DIMENSION
  5
297
102
{ACAD_REACTORS
102
}
102
{ACAD_XDICTIONARY
360
298
102
}
330
1F
100
AcDbEntity
  8
치수문자_일반주서
100
AcDbDimension
  2
*D21
 10
34.87798002192375
 20
-0.4600956437033901
 30
0.0
 11
46.69143893978733
 21
-19.85919633971382
 31
0.0
 70
   164
  1
<>
 71
     5
 42
0.9999999999999779
  3
SLDDIMSTYLE3
100
AcDbRadialDimension
 15
35.39809756325178
 25
-1.314190335879168
 35
0.0
 40
0.0
1001
ACAD_DSTYLE_DIMRADIAL_EXTENSION
1070
   387
1070
     1
1070
   388
1040
5.007017931960348
1070
   390
1040
0.0000000582606499
  0
ENDSEC
  0
SECTION
  2
OBJECTS
  0
DICTIONARY
  5
C
330
0
100
AcDbDictionary
281
     1
  3
ACAD_GROUP
350
D
  3
ACAD_IMAGE_VARS
350
13D
  3
ACAD_LAYOUT
350
1A
  3
ACAD_MLINESTYLE
350
17
  3
ACAD_PLOTSETTINGS
350
19
  3
ACAD_PLOTSTYLENAME
350
E
  3
ACAD_SCALELIST
350
47
  3
APPDATA
350
13B
  3
DWGPROPS
350
2A3
  0
DICTIONARY
  5
298
330
297
100
AcDbDictionary
280
     1
281
     1
  0
DICTIONARY
  5
D
102
{ACAD_REACTORS
330
C
102
}
330
C
100
AcDbDictionary
281
     1
  0
RASTERVARIABLES
  5
13D
102
{ACAD_REACTORS
330
C
102
}
330
C
100
AcDbRasterVariables
 90
        0
 70
     1
 71
     1
 72
     1
  0
DICTIONARY
  5
1A
102
{ACAD_REACTORS
330
C
102
}
330
C
100
AcDbDictionary
281
     1
  3
Layout1
350
1E
  3
Layout2
350
26
  3
Model
350
22
  0
DICTIONARY
  5
17
102
{ACAD_REACTORS
330
C
102
}
330
C
100
AcDbDictionary
281
     1
  3
Standard
350
18
  0
DICTIONARY
  5
19
102
{ACAD_REACTORS
330
C
102
}
330
C
100
AcDbDictionary
281
     1
  0
ACDBDICTIONARYWDFLT
  5
E
102
{ACAD_REACTORS
330
C
102
}
330
C
100
AcDbDictionary
281
     1
  3
Normal
350
F
100
AcDbDictionaryWithDefault
340
F
  0
DICTIONARY
  5
47
102
{ACAD_REACTORS
330
C
102
}
330
C
100
AcDbDictionary
281
     1
  3
A0
350
48
  3
A1
350
49
  3
A2
350
4A
  3
A3
350
4B
  3
A4
350
4C
  3
A5
350
4D
  3
A6
350
4E
  3
A7
350
4F
  3
A8
350
50
  3
A9
350
51
  3
B0
350
52
  3
B1
350
53
  3
B2
350
54
  3
B3
350
55
  3
B4
350
56
  3
B5
350
57
  3
B6
350
58
  3
B7
350
59
  3
B8
350
5A
  3
B9
350
5B
  3
C0
350
5C
  3
C1
350
5D
  3
C2
350
5E
  3
C3
350
5F
  3
C4
350
60
  3
C5
350
61
  3
C6
350
62
  3
C7
350
63
  3
C8
350
64
  3
C9
350
65
  3
D0
350
66
  3
D1
350
67
  3
D2
350
68
  0
DICTIONARY
  5
13B
102
{ACAD_REACTORS
330
C
102
}
330
C
100
AcDbDictionary
281
     1
  0
XRECORD
  5
2A3
102
{ACAD_REACTORS
330
C
102
}
330
C
100
AcDbXrecord
280
     1
  1
DWGPROPS COOKIE
  2

  3

  4

  6

  7

  8
12016016
  9

300
=
301
=
302
=
303
=
304
=
305
=
306
=
307
=
308
=
309
=
 40
0.0
 41
2458263.416315278
 42
2458268.504574884
  1

 90
        0
  0
LAYOUT
  5
1E
102
{ACAD_REACTORS
330
1A
102
}
330
1A
100
AcDbPlotSettings
  1

  2
none_device
  4

  6

 40
0.0
 41
0.0
 42
0.0
 43
0.0
 44
0.0
 45
0.0
 46
0.0
 47
0.0
 48
0.0
 49
0.0
140
0.0
141
0.0
142
1.0
143
1.0
 70
   688
 72
     1
 73
     0
 74
     5
  7

 75
    16
147
1.0
148
0.0
149
0.0
100
AcDbLayout
  1
Layout1
 70
     1
 71
     1
 10
0.0
 20
0.0
 11
420.0
 21
297.0
 12
0.0
 22
0.0
 32
0.0
 14
1.000000000000000E+20
 24
1.000000000000000E+20
 34
1.000000000000000E+20
 15
-1.000000000000000E+20
 25
-1.000000000000000E+20
 35
-1.000000000000000E+20
146
0.0
 13
0.0
 23
0.0
 33
0.0
 16
1.0
 26
0.0
 36
0.0
 17
0.0
 27
1.0
 37
0.0
 76
     0
330
1B
  0
LAYOUT
  5
26
102
{ACAD_REACTORS
330
1A
102
}
330
1A
100
AcDbPlotSettings
  1

  2
none_device
  4

  6

 40
0.0
 41
0.0
 42
0.0
 43
0.0
 44
0.0
 45
0.0
 46
0.0
 47
0.0
 48
0.0
 49
0.0
140
0.0
141
0.0
142
1.0
143
1.0
 70
   688
 72
     1
 73
     0
 74
     5
  7

 75
    16
147
1.0
148
0.0
149
0.0
100
AcDbLayout
  1
Layout2
 70
     1
 71
     2
 10
0.0
 20
0.0
 11
0.0
 21
0.0
 12
0.0
 22
0.0
 32
0.0
 14
0.0
 24
0.0
 34
0.0
 15
0.0
 25
0.0
 35
0.0
146
0.0
 13
0.0
 23
0.0
 33
0.0
 16
1.0
 26
0.0
 36
0.0
 17
0.0
 27
1.0
 37
0.0
 76
     0
330
23
  0
LAYOUT
  5
22
102
{ACAD_REACTORS
330
1A
102
}
330
1A
100
AcDbPlotSettings
  1

  2
none_device
  4
ANSI_A_(11.00_x_8.50_Inches)
  6

 40
6.35
 41
19.05
 42
6.35000508
 43
19.05000254
 44
279.4
 45
215.9
 46
107.2856530897896
 47
94.60899039257822
 48
0.0
 49
0.0
140
0.0
141
0.0
142
0.087396033275827
143
1.0
 70
  1696
 72
     0
 73
     0
 74
     0
  7

 75
     0
147
0.0235690232323232
148
0.0
149
0.0
100
AcDbLayout
  1
Model
 70
     1
 71
     0
 10
0.0
 20
0.0
 11
420.0
 21
297.0
 12
0.0
 22
0.0
 32
0.0
 14
1.000000000000000E+20
 24
1.000000000000000E+20
 34
1.000000000000000E+20
 15
-1.000000000000000E+20
 25
-1.000000000000000E+20
 35
-1.000000000000000E+20
146
0.0
 13
0.0
 23
0.0
 33
0.0
 16
1.0
 26
0.0
 36
0.0
 17
0.0
 27
1.0
 37
0.0
 76
     0
330
1F
331
29
  0
MLINESTYLE
  5
18
102
{ACAD_REACTORS
330
17
102
}
330
17
100
AcDbMlineStyle
  2
Standard
 70
     0
  3

 62
   256
 51
90.0
 52
90.0
 71
     2
 49
0.5
 62
   256
  6
BYLAYER
 49
-0.5
 62
   256
  6
BYLAYER
  0
ACDBPLACEHOLDER
  5
F
102
{ACAD_REACTORS
330
E
102
}
330
E
  0
SCALE
  5
48
102
{ACAD_REACTORS
330
47
102
}
330
47
100
AcDbScale
 70
     0
300
1:1
140
1.0
141
1.0
290
     1
  0
SCALE
  5
49
102
{ACAD_REACTORS
330
47
102
}
330
47
100
AcDbScale
 70
     0
300
1:2
140
1.0
141
2.0
290
     0
  0
SCALE
  5
4A
102
{ACAD_REACTORS
330
47
102
}
330
47
100
AcDbScale
 70
     0
300
1:4
140
1.0
141
4.0
290
     0
  0
SCALE
  5
4B
102
{ACAD_REACTORS
330
47
102
}
330
47
100
AcDbScale
 70
     0
300
1:5
140
1.0
141
5.0
290
     0
  0
SCALE
  5
4C
102
{ACAD_REACTORS
330
47
102
}
330
47
100
AcDbScale
 70
     0
300
1:8
140
1.0
141
8.0
290
     0
  0
SCALE
  5
4D
102
{ACAD_REACTORS
330
47
102
}
330
47
100
AcDbScale
 70
     0
300
1:10
140
1.0
141
10.0
290
     0
  0
SCALE
  5
4E
102
{ACAD_REACTORS
330
47
102
}
330
47
100
AcDbScale
 70
     0
300
1:16
140
1.0
141
16.0
290
     0
  0
SCALE
  5
4F
102
{ACAD_REACTORS
330
47
102
}
330
47
100
AcDbScale
 70
     0
300
1:20
140
1.0
141
20.0
290
     0
  0
SCALE
  5
50
102
{ACAD_REACTORS
330
47
102
}
330
47
100
AcDbScale
 70
     0
300
1:30
140
1.0
141
30.0
290
     0
  0
SCALE
  5
51
102
{ACAD_REACTORS
330
47
102
}
330
47
100
AcDbScale
 70
     0
300
1:40
140
1.0
141
40.0
290
     0
  0
SCALE
  5
52
102
{ACAD_REACTORS
330
47
102
}
330
47
100
AcDbScale
 70
     0
300
1:50
140
1.0
141
50.0
290
     0
  0
SCALE
  5
53
102
{ACAD_REACTORS
330
47
102
}
330
47
100
AcDbScale
 70
     0
300
1:100
140
1.0
141
100.0
290
     0
  0
SCALE
  5
54
102
{ACAD_REACTORS
330
47
102
}
330
47
100
AcDbScale
 70
     0
300
2:1
140
2.0
141
1.0
290
     0
  0
SCALE
  5
55
102
{ACAD_REACTORS
330
47
102
}
330
47
100
AcDbScale
 70
     0
300
4:1
140
4.0
141
1.0
290
     0
  0
SCALE
  5
56
102
{ACAD_REACTORS
330
47
102
}
330
47
100
AcDbScale
 70
     0
300
8:1
140
8.0
141
1.0
290
     0
  0
SCALE
  5
57
102
{ACAD_REACTORS
330
47
102
}
330
47
100
AcDbScale
 70
     0
300
10:1
140
10.0
141
1.0
290
     0
  0
SCALE
  5
58
102
{ACAD_REACTORS
330
47
102
}
330
47
100
AcDbScale
 70
     0
300
100:1
140
100.0
141
1.0
290
     0
  0
SCALE
  5
59
102
{ACAD_REACTORS
330
47
102
}
330
47
100
AcDbScale
 70
     0
300
1/128" = 1'-0"
140
0.0078125
141
12.0
290
     0
  0
SCALE
  5
5A
102
{ACAD_REACTORS
330
47
102
}
330
47
100
AcDbScale
 70
     0
300
1/64" = 1'-0"
140
0.015625
141
12.0
290
     0
  0
SCALE
  5
5B
102
{ACAD_REACTORS
330
47
102
}
330
47
100
AcDbScale
 70
     0
300
1/32" = 1'-0"
140
0.03125
141
12.0
290
     0
  0
SCALE
  5
5C
102
{ACAD_REACTORS
330
47
102
}
330
47
100
AcDbScale
 70
     0
300
1/16" = 1'-0"
140
0.0625
141
12.0
290
     0
  0
SCALE
  5
5D
102
{ACAD_REACTORS
330
47
102
}
330
47
100
AcDbScale
 70
     0
300
3/32" = 1'-0"
140
0.09375
141
12.0
290
     0
  0
SCALE
  5
5E
102
{ACAD_REACTORS
330
47
102
}
330
47
100
AcDbScale
 70
     0
300
1/8" = 1'-0"
140
0.125
141
12.0
290
     0
  0
SCALE
  5
5F
102
{ACAD_REACTORS
330
47
102
}
330
47
100
AcDbScale
 70
     0
300
3/16" = 1'-0"
140
0.1875
141
12.0
290
     0
  0
SCALE
  5
60
102
{ACAD_REACTORS
330
47
102
}
330
47
100
AcDbScale
 70
     0
300
1/4" = 1'-0"
140
0.25
141
12.0
290
     0
  0
SCALE
  5
61
102
{ACAD_REACTORS
330
47
102
}
330
47
100
AcDbScale
 70
     0
300
3/8" = 1'-0"
140
0.375
141
12.0
290
     0
  0
SCALE
  5
62
102
{ACAD_REACTORS
330
47
102
}
330
47
100
AcDbScale
 70
     0
300
1/2" = 1'-0"
140
0.5
141
12.0
290
     0
  0
SCALE
  5
63
102
{ACAD_REACTORS
330
47
102
}
330
47
100
AcDbScale
 70
     0
300
3/4" = 1'-0"
140
0.75
141
12.0
290
     0
  0
SCALE
  5
64
102
{ACAD_REACTORS
330
47
102
}
330
47
100
AcDbScale
 70
     0
300
1" = 1'-0"
140
1.0
141
12.0
290
     0
  0
SCALE
  5
65
102
{ACAD_REACTORS
330
47
102
}
330
47
100
AcDbScale
 70
     0
300
1-1/2" = 1'-0"
140
1.5
141
12.0
290
     0
  0
SCALE
  5
66
102
{ACAD_REACTORS
330
47
102
}
330
47
100
AcDbScale
 70
     0
300
3" = 1'-0"
140
3.0
141
12.0
290
     0
  0
SCALE
  5
67
102
{ACAD_REACTORS
330
47
102
}
330
47
100
AcDbScale
 70
     0
300
6" = 1'-0"
140
6.0
141
12.0
290
     0
  0
SCALE
  5
68
102
{ACAD_REACTORS
330
47
102
}
330
47
100
AcDbScale
 70
     0
300
1'-0" = 1'-0"
140
12.0
141
12.0
290
     0
  0
ENDSEC
  0
EOF
