  0
SECTION
  2
HEADER
  9
$ACADVER
  1
AC1015
  9
$ACADMAINTVER
 70
     6
  9
$DWGCODEPAGE
  3
ANSI_949
  9
$INSBASE
 10
0.0
 20
0.0
 30
0.0
  9
$EXTMIN
 10
1.000000000000000E+20
 20
1.000000000000000E+20
 30
1.000000000000000E+20
  9
$EXTMAX
 10
-1.000000000000000E+20
 20
-1.000000000000000E+20
 30
-1.000000000000000E+20
  9
$LIMMIN
 10
0.0
 20
0.0
  9
$LIMMAX
 10
420.0
 20
297.0
  9
$ORTHOMODE
 70
     0
  9
$REGENMODE
 70
     1
  9
$FILLMODE
 70
     1
  9
$QTEXTMODE
 70
     0
  9
$MIRRTEXT
 70
     1
  9
$LTSCALE
 40
1.0
  9
$ATTMODE
 70
     1
  9
$TEXTSIZE
 40
3.5
  9
$TRACEWID
 40
1.0
  9
$TEXTSTYLE
  7
Standard
  9
$CLAYER
  8
0
  9
$CELTYPE
  6
ByLayer
  9
$CECOLOR
 62
   256
  9
$CELTSCALE
 40
1.0
  9
$DISPSILH
 70
     0
  9
$DIMSCALE
 40
1.0
  9
$DIMASZ
 40
3.302
  9
$DIMEXO
 40
1.0
  9
$DIMDLI
 40
3.75
  9
$DIMRND
 40
0.0
  9
$DIMDLE
 40
0.0
  9
$DIMEXE
 40
1.0
  9
$DIMTP
 40
0.0
  9
$DIMTM
 40
0.0
  9
$DIMTXT
 40
3.5
  9
$DIMCEN
 40
2.5
  9
$DIMTSZ
 40
0.0
  9
$DIMTOL
 70
     0
  9
$DIMLIM
 70
     0
  9
$DIMTIH
 70
     1
  9
$DIMTOH
 70
     1
  9
$DIMSE1
 70
     0
  9
$DIMSE2
 70
     0
  9
$DIMTAD
 70
     1
  9
$DIMZIN
 70
     0
  9
$DIMBLK
  1

  9
$DIMASO
 70
     1
  9
$DIMSHO
 70
     1
  9
$DIMPOST
  1

  9
$DIMAPOST
  1

  9
$DIMALT
 70
     0
  9
$DIMALTD
 70
     3
  9
$DIMALTF
 40
0.0393700787401575
  9
$DIMLFAC
 40
1.0
  9
$DIMTOFL
 70
     1
  9
$DIMTVP
 40
0.0
  9
$DIMTIX
 70
     0
  9
$DIMSOXD
 70
     0
  9
$DIMSAH
 70
     0
  9
$DIMBLK1
  1

  9
$DIMBLK2
  1

  9
$DIMSTYLE
  2
ISO-25
  9
$DIMCLRD
 70
     0
  9
$DIMCLRE
 70
     0
  9
$DIMCLRT
 70
     0
  9
$DIMTFAC
 40
1.0
  9
$DIMGAP
 40
1.524
  9
$DIMJUST
 70
     0
  9
$DIMSD1
 70
     0
  9
$DIMSD2
 70
     0
  9
$DIMTOLJ
 70
     0
  9
$DIMTZIN
 70
     0
  9
$DIMALTZ
 70
     0
  9
$DIMALTTZ
 70
     0
  9
$DIMUPT
 70
     0
  9
$DIMDEC
 70
     2
  9
$DIMTDEC
 70
     2
  9
$DIMALTU
 70
     2
  9
$DIMALTTD
 70
     3
  9
$DIMTXSTY
  7
Standard
  9
$DIMAUNIT
 70
     0
  9
$DIMADEC
 70
     2
  9
$DIMALTRND
 40
0.0
  9
$DIMAZIN
 70
     0
  9
$DIMDSEP
 70
    44
  9
$DIMATFIT
 70
     3
  9
$DIMFRAC
 70
     0
  9
$DIMLDRBLK
  1

  9
$DIMLUNIT
 70
     2
  9
$DIMLWD
 70
    -2
  9
$DIMLWE
 70
    -2
  9
$DIMTMOVE
 70
     0
  9
$LUNITS
 70
     2
  9
$LUPREC
 70
     2
  9
$SKETCHINC
 40
1.0
  9
$FILLETRAD
 40
10.0
  9
$AUNITS
 70
     0
  9
$AUPREC
 70
     2
  9
$MENU
  1
.
  9
$ELEVATION
 40
0.0
  9
$PELEVATION
 40
0.0
  9
$THICKNESS
 40
0.0
  9
$LIMCHECK
 70
     0
  9
$CHAMFERA
 40
0.0
  9
$CHAMFERB
 40
0.0
  9
$CHAMFERC
 40
0.0
  9
$CHAMFERD
 40
0.0
  9
$SKPOLY
 70
     0
  9
$TDCREATE
 40
2458263.790181204
  9
$TDUCREATE
 40
2458263.415181204
  9
$TDUPDATE
 40
2458269.367108357
  9
$TDUUPDATE
 40
2458268.992108357
  9
$TDINDWG
 40
0.0000622685
  9
$TDUSRTIMER
 40
2458268.992046366
  9
$USRTIMER
 70
     1
  9
$ANGBASE
 50
0.0
  9
$ANGDIR
 70
     0
  9
$PDMODE
 70
     0
  9
$PDSIZE
 40
-1.0
  9
$PLINEWID
 40
0.0
  9
$SPLFRAME
 70
     0
  9
$SPLINETYPE
 70
     6
  9
$SPLINESEGS
 70
     8
  9
$HANDSEED
  5
2A2
  9
$SURFTAB1
 70
     6
  9
$SURFTAB2
 70
     6
  9
$SURFTYPE
 70
     6
  9
$SURFU
 70
     6
  9
$SURFV
 70
     6
  9
$UCSBASE
  2

  9
$UCSNAME
  2

  9
$UCSORG
 10
0.0
 20
0.0
 30
0.0
  9
$UCSXDIR
 10
1.0
 20
0.0
 30
0.0
  9
$UCSYDIR
 10
0.0
 20
1.0
 30
0.0
  9
$UCSORTHOREF
  2

  9
$UCSORTHOVIEW
 70
     0
  9
$UCSORGTOP
 10
0.0
 20
0.0
 30
0.0
  9
$UCSORGBOTTOM
 10
0.0
 20
0.0
 30
0.0
  9
$UCSORGLEFT
 10
0.0
 20
0.0
 30
0.0
  9
$UCSORGRIGHT
 10
0.0
 20
0.0
 30
0.0
  9
$UCSORGFRONT
 10
0.0
 20
0.0
 30
0.0
  9
$UCSORGBACK
 10
0.0
 20
0.0
 30
0.0
  9
$PUCSBASE
  2

  9
$PUCSNAME
  2

  9
$PUCSORG
 10
0.0
 20
0.0
 30
0.0
  9
$PUCSXDIR
 10
1.0
 20
0.0
 30
0.0
  9
$PUCSYDIR
 10
0.0
 20
1.0
 30
0.0
  9
$PUCSORTHOREF
  2

  9
$PUCSORTHOVIEW
 70
     0
  9
$PUCSORGTOP
 10
0.0
 20
0.0
 30
0.0
  9
$PUCSORGBOTTOM
 10
0.0
 20
0.0
 30
0.0
  9
$PUCSORGLEFT
 10
0.0
 20
0.0
 30
0.0
  9
$PUCSORGRIGHT
 10
0.0
 20
0.0
 30
0.0
  9
$PUCSORGFRONT
 10
0.0
 20
0.0
 30
0.0
  9
$PUCSORGBACK
 10
0.0
 20
0.0
 30
0.0
  9
$USERI1
 70
     0
  9
$USERI2
 70
     0
  9
$USERI3
 70
     0
  9
$USERI4
 70
     0
  9
$USERI5
 70
     0
  9
$USERR1
 40
0.0
  9
$USERR2
 40
0.0
  9
$USERR3
 40
0.0
  9
$USERR4
 40
0.0
  9
$USERR5
 40
0.0
  9
$WORLDVIEW
 70
     1
  9
$SHADEDGE
 70
     3
  9
$SHADEDIF
 70
    70
  9
$TILEMODE
 70
     1
  9
$MAXACTVP
 70
    64
  9
$PINSBASE
 10
0.0
 20
0.0
 30
0.0
  9
$PLIMCHECK
 70
     0
  9
$PEXTMIN
 10
1.000000000000000E+20
 20
1.000000000000000E+20
 30
1.000000000000000E+20
  9
$PEXTMAX
 10
-1.000000000000000E+20
 20
-1.000000000000000E+20
 30
-1.000000000000000E+20
  9
$PLIMMIN
 10
0.0
 20
0.0
  9
$PLIMMAX
 10
0.0
 20
0.0
  9
$UNITMODE
 70
     0
  9
$VISRETAIN
 70
     1
  9
$PLINEGEN
 70
     0
  9
$PSLTSCALE
 70
     1
  9
$TREEDEPTH
 70
  3020
  9
$CMLSTYLE
  2
Standard
  9
$CMLJUST
 70
     0
  9
$CMLSCALE
 40
20.0
  9
$PROXYGRAPHICS
 70
     1
  9
$MEASUREMENT
 70
     1
  9
$CELWEIGHT
370
    -1
  9
$ENDCAPS
280
     0
  9
$JOINSTYLE
280
     0
  9
$LWDISPLAY
290
     1
  9
$INSUNITS
 70
     4
  9
$HYPERLINKBASE
  1

  9
$STYLESHEET
  1

  9
$XEDIT
290
     1
  9
$CEPSNTYPE
380
     0
  9
$PSTYLEMODE
290
     1
  9
$FINGERPRINTGUID
  2
{2B181D57-2F4F-4F23-ABA4-0B4DCB9845D2}
  9
$VERSIONGUID
  2
{FAEB1C32-E019-11D5-929B-00C0DF256EC4}
  9
$EXTNAMES
290
     1
  9
$PSVPSCALE
 40
0.0
  9
$OLESTARTUP
290
     0
  0
ENDSEC
  0
SECTION
  2
CLASSES
  0
CLASS
  1
ACDBDICTIONARYWDFLT
  2
AcDbDictionaryWithDefault
  3
ObjectDBX Classes
 90
        0
280
     0
281
     0
  0
CLASS
  1
VISUALSTYLE
  2
AcDbVisualStyle
  3
ObjectDBX Classes
 90
     4095
280
     0
281
     0
  0
CLASS
  1
MATERIAL
  2
AcDbMaterial
  3
ObjectDBX Classes
 90
     1153
280
     0
281
     0
  0
CLASS
  1
SCALE
  2
AcDbScale
  3
ObjectDBX Classes
 90
     1153
280
     0
281
     0
  0
CLASS
  1
TABLESTYLE
  2
AcDbTableStyle
  3
ObjectDBX Classes
 90
     4095
280
     0
281
     0
  0
CLASS
  1
MLEADERSTYLE
  2
AcDbMLeaderStyle
  3
ACDB_MLEADERSTYLE_CLASS
 90
     4095
280
     0
281
     0
  0
CLASS
  1
SUN
  2
AcDbSun
  3
SCENEOE
 90
     1153
280
     0
281
     0
  0
CLASS
  1
ACDBPLACEHOLDER
  2
AcDbPlaceHolder
  3
ObjectDBX Classes
 90
        0
280
     0
281
     0
  0
CLASS
  1
LAYOUT
  2
AcDbLayout
  3
ObjectDBX Classes
 90
        0
280
     0
281
     0
  0
CLASS
  1
RASTERVARIABLES
  2
AcDbRasterVariables
  3
ISM
 90
        0
280
     0
281
     0
  0
ENDSEC
  0
SECTION
  2
TABLES
  0
TABLE
  2
VPORT
  5
8
330
0
100
AcDbSymbolTable
 70
     1
  0
VPORT
  5
29
330
8
100
AcDbSymbolTableRecord
100
AcDbViewportTableRecord
  2
*Active
 70
     0
 10
0.0
 20
0.0
 11
1.0
 21
1.0
 12
40.27840422901963
 22
13.64450909985564
 13
0.0
 23
0.0
 14
10.0
 24
10.0
 15
10.0
 25
10.0
 16
0.0
 26
0.0
 36
1.0
 17
0.0
 27
0.0
 37
0.0
 40
51.0007182149381
 41
1.964636542239686
 42
50.0
 43
0.0
 44
0.0
 50
0.0
 51
0.0
 71
    16
 72
  2000
 73
     1
 74
     3
 75
     0
 76
     0
 77
     0
 78
     0
281
     0
 65
     1
110
0.0
120
0.0
130
0.0
111
1.0
121
0.0
131
0.0
112
0.0
122
1.0
132
0.0
 79
     0
146
0.0
  0
ENDTAB
  0
TABLE
  2
LTYPE
  5
5
330
0
100
AcDbSymbolTable
 70
     6
  0
LTYPE
  5
14
330
5
100
AcDbSymbolTableRecord
100
AcDbLinetypeTableRecord
  2
ByBlock
 70
     0
  3

 72
    65
 73
     0
 40
0.0
  0
LTYPE
  5
15
330
5
100
AcDbSymbolTableRecord
100
AcDbLinetypeTableRecord
  2
ByLayer
 70
     0
  3

 72
    65
 73
     0
 40
0.0
  0
LTYPE
  5
16
330
5
100
AcDbSymbolTableRecord
100
AcDbLinetypeTableRecord
  2
Continuous
 70
     0
  3
Solid line
 72
    65
 73
     0
 40
0.0
  0
LTYPE
  5
6E
330
5
100
AcDbSymbolTableRecord
100
AcDbLinetypeTableRecord
  2
HIDDEN
 70
     0
  3
Hidden __ __ __ __ __ __ __ __ __ __ __ __ __ __
 72
    65
 73
     2
 40
1.905
 49
1.27
 74
     0
 49
-0.635
 74
     0
  0
LTYPE
  5
6F
330
5
100
AcDbSymbolTableRecord
100
AcDbLinetypeTableRecord
  2
PHANTOM
 70
     0
  3
Phantom ______  __  __  ______  __  __  ______
 72
    65
 73
     6
 40
12.7
 49
6.35
 74
     0
 49
-1.27
 74
     0
 49
1.27
 74
     0
 49
-1.27
 74
     0
 49
1.27
 74
     0
 49
-1.27
 74
     0
  0
LTYPE
  5
70
330
5
100
AcDbSymbolTableRecord
100
AcDbLinetypeTableRecord
  2
CENTER
 70
     0
  3
Center ____ _ ____ _ ____ _ ____ _ ____ _ ____
 72
    65
 73
     4
 40
10.16
 49
6.35
 74
     0
 49
-1.27
 74
     0
 49
1.27
 74
     0
 49
-1.27
 74
     0
  0
LTYPE
  5
71
330
5
100
AcDbSymbolTableRecord
100
AcDbLinetypeTableRecord
  2
CENTERX2
 70
     0
  3
Center (2x) ________  __  ________  __  _____
 72
    65
 73
     4
 40
20.32
 49
12.7
 74
     0
 49
-2.54
 74
     0
 49
2.54
 74
     0
 49
-2.54
 74
     0
  0
LTYPE
  5
72
330
5
100
AcDbSymbolTableRecord
100
AcDbLinetypeTableRecord
  2
DOT2
 70
     0
  3
Dot (.5x) ........................................
 72
    65
 73
     2
 40
0.635
 49
0.0
 74
     0
 49
-0.635
 74
     0
  0
ENDTAB
  0
TABLE
  2
LAYER
  5
2
330
0
100
AcDbSymbolTable
 70
    17
  0
LAYER
  5
10
330
2
100
AcDbSymbolTableRecord
100
AcDbLayerTableRecord
  2
0
 70
     0
 62
     7
  6
Continuous
370
    -3
390
F
  0
LAYER
  5
73
330
2
100
AcDbSymbolTableRecord
100
AcDbLayerTableRecord
  2
FORMAT
 70
     0
 62
     2
  6
Continuous
370
    -3
390
F
  0
LAYER
  5
74
330
2
100
AcDbSymbolTableRecord
100
AcDbLayerTableRecord
  2
외형선
 70
     0
 62
   100
  6
Continuous
370
    35
390
F
  0
LAYER
  5
75
330
2
100
AcDbSymbolTableRecord
100
AcDbLayerTableRecord
  2
숨은선
 70
     0
 62
     2
  6
HIDDEN
370
    25
390
F
  0
LAYER
  5
76
330
2
100
AcDbSymbolTableRecord
100
AcDbLayerTableRecord
  2
중심선
 70
     0
 62
     1
  6
CENTERX2
370
    -3
390
F
  0
LAYER
  5
77
330
2
100
AcDbSymbolTableRecord
100
AcDbLayerTableRecord
  2
파단선
 70
     0
 62
     4
  6
Continuous
370
    -3
390
F
  0
LAYER
  5
78
330
2
100
AcDbSymbolTableRecord
100
AcDbLayerTableRecord
  2
해칭선
 70
     0
 62
     4
  6
Continuous
370
    -3
390
F
  0
LAYER
  5
79
330
2
100
AcDbSymbolTableRecord
100
AcDbLayerTableRecord
  2
가는실선
 70
     0
 62
     4
  6
Continuous
370
    -3
390
F
  0
LAYER
  5
7A
330
2
100
AcDbSymbolTableRecord
100
AcDbLayerTableRecord
  2
치수_보조선
 70
     0
 62
     4
  6
Continuous
370
    -3
390
F
  0
LAYER
  5
7B
330
2
100
AcDbSymbolTableRecord
100
AcDbLayerTableRecord
  2
치수문자_일반주서
 70
     0
 62
     7
  6
Continuous
370
    25
390
F
  0
LAYER
  5
7C
330
2
100
AcDbSymbolTableRecord
100
AcDbLayerTableRecord
  2
개별주서
 70
     0
 62
   100
  6
Continuous
370
    35
390
F
  0
LAYER
  5
7D
330
2
100
AcDbSymbolTableRecord
100
AcDbLayerTableRecord
  2
중간선
 70
     0
 62
     2
  6
Continuous
370
    25
390
F
  0
LAYER
  5
7E
330
2
100
AcDbSymbolTableRecord
100
AcDbLayerTableRecord
  2
윤곽선
 70
     0
 62
     3
  6
Continuous
370
    50
390
F
  0
LAYER
  5
7F
330
2
100
AcDbSymbolTableRecord
100
AcDbLayerTableRecord
  2
중심마크
 70
     0
 62
   100
  6
Continuous
370
    35
390
F
  0
LAYER
  5
80
330
2
100
AcDbSymbolTableRecord
100
AcDbLayerTableRecord
  2
가상선
 70
     0
 62
     4
  6
PHANTOM
370
    -3
390
F
  0
LAYER
  5
81
330
2
100
AcDbSymbolTableRecord
100
AcDbLayerTableRecord
  2
특수지정선
 70
     0
 62
     5
  6
CENTERX2
370
    70
390
F
  0
LAYER
  5
13E
330
2
100
AcDbSymbolTableRecord
100
AcDbLayerTableRecord
  2
Defpoints
 70
     0
 62
     7
  6
Continuous
290
     0
370
    -3
390
F
  0
ENDTAB
  0
TABLE
  2
STYLE
  5
3
330
0
100
AcDbSymbolTable
 70
     2
  0
STYLE
  5
11
330
3
100
AcDbSymbolTableRecord
100
AcDbTextStyleTableRecord
  2
Standard
 70
     0
 40
0.0
 41
1.0
 50
0.0
 71
     0
 42
3.5
  3
txt
  4

  0
STYLE
  5
97
330
3
100
AcDbSymbolTableRecord
100
AcDbTextStyleTableRecord
  2
SLDTEXTSTYLE0
 70
     0
 40
0.0
 41
0.75
 50
0.0
 71
     0
 42
3.5
  3
TXT
  4

  0
ENDTAB
  0
TABLE
  2
VIEW
  5
6
330
0
100
AcDbSymbolTable
 70
     0
  0
ENDTAB
  0
TABLE
  2
UCS
  5
7
330
0
100
AcDbSymbolTable
 70
     0
  0
ENDTAB
  0
TABLE
  2
APPID
  5
9
330
0
100
AcDbSymbolTable
 70
     2
  0
APPID
  5
12
330
9
100
AcDbSymbolTableRecord
100
AcDbRegAppTableRecord
  2
ACAD
 70
     0
  0
APPID
  5
237
330
9
100
AcDbSymbolTableRecord
100
AcDbRegAppTableRecord
  2
ACAD_DSTYLE_DIMRADIAL_EXTENSION
 70
     0
  0
ENDTAB
  0
TABLE
  2
DIMSTYLE
  5
A
330
0
100
AcDbSymbolTable
 70
     5
100
AcDbDimStyleTable
  0
DIMSTYLE
105
27
330
A
100
AcDbSymbolTableRecord
100
AcDbDimStyleTableRecord
  2
ISO-25
 70
     0
 41
2.5
 42
0.625
 43
3.75
 44
1.25
 73
     0
 74
     0
 77
     1
 78
     8
140
2.5
141
2.5
143
0.03937007874016
147
0.625
171
     3
172
     1
178
     0
271
     2
272
     2
274
     3
278
    44
283
     0
284
     8
340
11
  0
DIMSTYLE
105
D5
102
{ACAD_REACTORS
330
17A
330
1A2
330
1E2
330
1E5
102
}
330
A
100
AcDbSymbolTableRecord
100
AcDbDimStyleTableRecord
  2
SLDDIMSTYLE0
 70
     0
 41
3.302
 44
0.0
 45
0.000000001
 73
     0
 74
     0
 77
     1
 78
    12
 79
     3
140
3.5
147
0.875
172
     1
173
     1
178
     0
271
     2
272
     2
276
     2
284
    12
289
     0
340
97
  0
DIMSTYLE
105
E3
102
{ACAD_REACTORS
330
187
330
1E3
102
}
330
A
100
AcDbSymbolTableRecord
100
AcDbDimStyleTableRecord
  2
SLDDIMSTYLE1
 70
     0
 41
3.302
 44
0.0
 45
0.000000001
 73
     0
 74
     0
 77
     1
 78
     4
 79
     1
140
3.5
147
0.875
172
     1
173
     1
178
     0
271
     2
272
     2
276
     2
284
    12
289
     0
340
97
  0
DIMSTYLE
105
F0
102
{ACAD_REACTORS
330
195
330
1E4
102
}
330
A
100
AcDbSymbolTableRecord
100
AcDbDimStyleTableRecord
  2
SLDDIMSTYLE2
 70
     0
 41
3.302
 44
0.0
 45
0.000000001
 73
     0
 74
     0
 77
     1
 78
    12
 79
     3
140
3.5
147
0.875
173
     1
178
     0
271
     2
272
     2
276
     2
284
    12
340
97
  0
DIMSTYLE
105
14A
102
{ACAD_REACTORS
330
1AF
330
1E6
330
270
330
297
102
}
330
A
100
AcDbSymbolTableRecord
100
AcDbDimStyleTableRecord
  2
SLDDIMSTYLE3
 70
     0
 41
3.302
 44
0.0
 45
0.000000001
 73
     0
 74
     0
 77
     1
 78
     8
 79
     2
140
3.5
147
0.875
172
     1
173
     1
178
     0
271
     2
272
     2
276
     2
284
    12
289
     0
340
97
  0
ENDTAB
  0
TABLE
  2
BLOCK_RECORD
  5
1
330
0
100
AcDbSymbolTable
 70
    22
  0
BLOCK_RECORD
  5
1F
330
1
100
AcDbSymbolTableRecord
100
AcDbBlockTableRecord
  2
*Model_Space
340
22
  0
BLOCK_RECORD
  5
1B
330
1
100
AcDbSymbolTableRecord
100
AcDbBlockTableRecord
  2
*Paper_Space
340
1E
  0
BLOCK_RECORD
  5
23
330
1
100
AcDbSymbolTableRecord
100
AcDbBlockTableRecord
  2
*Paper_Space0
340
26
  0
BLOCK_RECORD
  5
82
330
1
100
AcDbSymbolTableRecord
100
AcDbBlockTableRecord
  2
블럭10
340
0
102
{BLKREFS
331
CD
102
}
  0
BLOCK_RECORD
  5
D6
330
1
100
AcDbSymbolTableRecord
100
AcDbBlockTableRecord
  2
_D
340
0
  0
BLOCK_RECORD
  5
E4
330
1
100
AcDbSymbolTableRecord
100
AcDbBlockTableRecord
  2
_D_1
340
0
  0
BLOCK_RECORD
  5
F1
330
1
100
AcDbSymbolTableRecord
100
AcDbBlockTableRecord
  2
_D_2
340
0
  0
BLOCK_RECORD
  5
FB
330
1
100
AcDbSymbolTableRecord
100
AcDbBlockTableRecord
  2
_D_3
340
0
  0
BLOCK_RECORD
  5
107
330
1
100
AcDbSymbolTableRecord
100
AcDbBlockTableRecord
  2
_D_4
340
0
  0
BLOCK_RECORD
  5
113
330
1
100
AcDbSymbolTableRecord
100
AcDbBlockTableRecord
  2
SW_DOWELSYMBOL_0
340
0
102
{BLKREFS
331
0
331
1BF
331
1E7
102
}
  0
BLOCK_RECORD
  5
17B
330
1
100
AcDbSymbolTableRecord
100
AcDbBlockTableRecord
  2
*D9
340
0
  0
BLOCK_RECORD
  5
188
330
1
100
AcDbSymbolTableRecord
100
AcDbBlockTableRecord
  2
*D10
340
0
  0
BLOCK_RECORD
  5
196
330
1
100
AcDbSymbolTableRecord
100
AcDbBlockTableRecord
  2
*D11
340
0
  0
BLOCK_RECORD
  5
1A3
330
1
100
AcDbSymbolTableRecord
100
AcDbBlockTableRecord
  2
*D12
340
0
  0
BLOCK_RECORD
  5
1B0
330
1
100
AcDbSymbolTableRecord
100
AcDbBlockTableRecord
  2
*D13
340
0
  0
BLOCK_RECORD
  5
1F1
330
1
100
AcDbSymbolTableRecord
100
AcDbBlockTableRecord
  2
*D14
340
0
  0
BLOCK_RECORD
  5
1FD
330
1
100
AcDbSymbolTableRecord
100
AcDbBlockTableRecord
  2
*D15
340
0
  0
BLOCK_RECORD
  5
209
330
1
100
AcDbSymbolTableRecord
100
AcDbBlockTableRecord
  2
*D16
340
0
  0
BLOCK_RECORD
  5
215
330
1
100
AcDbSymbolTableRecord
100
AcDbBlockTableRecord
  2
*D17
340
0
  0
BLOCK_RECORD
  5
221
330
1
100
AcDbSymbolTableRecord
100
AcDbBlockTableRecord
  2
*D18
340
0
  0
BLOCK_RECORD
  5
271
330
1
100
AcDbSymbolTableRecord
100
AcDbBlockTableRecord
  2
*D20
340
0
  0
BLOCK_RECORD
  5
298
330
1
100
AcDbSymbolTableRecord
100
AcDbBlockTableRecord
  2
*D21
340
0
  0
ENDTAB
  0
ENDSEC
  0
SECTION
  2
BLOCKS
  0
BLOCK
  5
20
330
1F
100
AcDbEntity
  8
0
100
AcDbBlockBegin
  2
*Model_Space
 70
     0
 10
0.0
 20
0.0
 30
0.0
  3
*Model_Space
  1
*Model_Space
  0
ENDBLK
  5
21
330
1F
100
AcDbEntity
  8
0
100
AcDbBlockEnd
  0
BLOCK
  5
1C
330
1B
100
AcDbEntity
 67
     1
  8
0
100
AcDbBlockBegin
  2
*Paper_Space
 70
     0
 10
0.0
 20
0.0
 30
0.0
  3
*Paper_Space
  1
*Paper_Space
  0
ENDBLK
  5
1D
330
1B
100
AcDbEntity
 67
     1
  8
0
100
AcDbBlockEnd
  0
BLOCK
  5
24
330
23
100
AcDbEntity
  8
0
100
AcDbBlockBegin
  2
*Paper_Space0
 70
     0
 10
0.0
 20
0.0
 30
0.0
  3
*Paper_Space0
  1
*Paper_Space0
  0
ENDBLK
  5
25
330
23
100
AcDbEntity
  8
0
100
AcDbBlockEnd
  0
BLOCK
  5
83
330
82
100
AcDbEntity
  8
0
100
AcDbBlockBegin
  2
블럭10
 70
     2
 10
0.0
 20
0.0
 30
0.0
  3
블럭10
  1
블럭10
  0
ELLIPSE
  5
85
330
82
100
AcDbEntity
  8
중심선
100
AcDbEllipse
 10
20.54032771741204
 20
12.0471743016438
 30
0.0
 11
6.600054785286829
 21
-1.261213355974178E-13
 31
0.0
210
0.0
220
0.0
230
1.0
 40
0.636358354079598
 41
0.9219305317359503
 42
6.513795318482858
  0
ELLIPSE
  5
86
330
82
100
AcDbEntity
  8
중심선
100
AcDbEllipse
 10
20.54032771746488
 20
12.04717430159265
 30
0.0
 11
3.960054785062283
 21
1.540847449632565E-10
 31
0.0
210
0.0
220
0.0
230
1.0
 40
0.3939339440162632
 41
1.131841032648279
 42
5.62031148352944
  0
LINE
  5
87
330
82
100
AcDbEntity
  8
중심선
100
AcDbLine
 10
2.268634060543552
 20
16.24717430164393
 30
0.0
 11
5.714909304380834
 21
16.24717430164393
 31
0.0
  0
LINE
  5
88
330
82
100
AcDbEntity
  8
중심선
100
AcDbLine
 10
5.245725140726316
 20
7.84717430164391
 30
0.0
 11
8.692000384563599
 21
7.84717430164391
 31
0.0
  0
LINE
  5
89
330
82
100
AcDbEntity
  8
중심선
100
AcDbLine
 10
15.74043728645272
 20
16.24717430164393
 30
0.0
 11
8.692000384563599
 21
7.84717430164391
 31
0.0
  0
LINE
  5
8A
330
82
100
AcDbEntity
  8
중심선
100
AcDbLine
 10
0.1404042013395286
 20
13.71084872107135
 30
0.0
 11
3.58671253028996
 21
13.71088815037384
 31
0.0
  0
LINE
  5
8B
330
82
100
AcDbEntity
  8
중심선
100
AcDbLine
 10
2.750260043222114
 20
10.84717430164391
 30
0.0
 11
6.196535287059397
 21
10.84717430164391
 31
0.0
  0
LINE
  5
8C
330
82
100
AcDbEntity
  8
중심선
100
AcDbLine
 10
12.29416204261559
 20
16.24717430164393
 30
0.0
 11
5.245725140726316
 21
7.84717430164391
 31
0.0
  0
LINE
  5
8D
330
82
100
AcDbEntity
  8
중심선
100
AcDbLine
 10
10.72767329541681
 20
16.24717430164393
 30
0.0
 11
6.196535287059397
 21
10.84717430164391
 31
0.0
  0
LINE
  5
8E
330
82
100
AcDbEntity
  8
중심선
100
AcDbLine
 10
7.28139805157953
 20
16.24717430164393
 30
0.0
 11
2.750260043222114
 21
10.84717430164391
 31
0.0
  0
LINE
  5
8F
330
82
100
AcDbEntity
  8
중심선
100
AcDbLine
 10
5.714909304380834
 20
16.24717430164393
 30
0.0
 11
3.58671253028996
 21
13.71088815037384
 31
0.0
  0
LINE
  5
90
330
82
100
AcDbEntity
  8
중심선
100
AcDbLine
 10
2.268634060543552
 20
16.24717430164393
 30
0.0
 11
0.1404042013395286
 21
13.71084872107135
 31
0.0
  0
LINE
  5
91
330
82
100
AcDbEntity
  8
중심선
100
AcDbLine
 10
7.28139805157953
 20
16.24717430164393
 30
0.0
 11
10.72767329541681
 21
16.24717430164393
 31
0.0
  0
LINE
  5
92
330
82
100
AcDbEntity
  8
중심선
100
AcDbLine
 10
12.29416204261559
 20
16.24717430164393
 30
0.0
 11
15.74043728645272
 21
16.24717430164393
 31
0.0
  0
LINE
  5
93
330
82
100
AcDbEntity
  8
중심선
100
AcDbLine
 10
19.22036997980202
 20
11.08717430171403
 30
0.0
 11
23.66174974927406
 21
11.08717430171406
 31
0.0
  0
LINE
  5
94
330
82
100
AcDbEntity
  8
중심선
100
AcDbLine
 10
19.22039502424796
 20
13.00717430171391
 30
0.0
 11
19.22036997980202
 21
11.08717430171403
 31
0.0
  0
LINE
  5
95
330
82
100
AcDbEntity
  8
중심선
100
AcDbLine
 10
19.22039502424796
 20
13.00717430171391
 30
0.0
 11
26.96566020931264
 21
13.00717430171391
 31
0.0
  0
LINE
  5
96
330
82
100
AcDbEntity
  8
중심선
100
AcDbLine
 10
22.22332737316547
 20
13.45928029700563
 30
0.0
 11
24.52862924686651
 21
15.39360700705356
 31
0.0
  0
ATTDEF
  5
98
330
82
100
AcDbEntity
  8
FORMAT
 62
     2
100
AcDbText
 10
-19.27858288401334
 20
2.075366912832191
 30
0.0
 40
4.233333333333333
  1
SEME610301010E [ 2 FLUTE ]
 41
0.75
  7
SLDTEXTSTYLE0
 11
-19.27858288401334
 21
-0.0412997538344756
 31
0.0
100
AcDbAttributeDefinition
  3

  2
AUTOATTR0
 70
     0
 74
     1
  0
ENDBLK
  5
84
330
82
100
AcDbEntity
  8
0
100
AcDbBlockEnd
  0
BLOCK
  5
D7
330
D6
100
AcDbEntity
  8
0
100
AcDbBlockBegin
  2
_D
 70
     0
 10
0.0
 20
0.0
 30
0.0
  3
_D
  1
_D
  0
SOLID
  5
D9
330
D6
100
AcDbEntity
  8
치수문자_일반주서
100
AcDbTrace
 10
-41.00250885508846
 20
3.001074928723889
 30
0.0
 11
-40.49450885508846
 21
6.303074928723889
 31
0.0
 12
-41.51050885508847
 22
6.303074928723889
 32
0.0
 13
-41.51050885508847
 23
6.303074928723889
 33
0.0
  0
SOLID
  5
DA
330
D6
100
AcDbEntity
  8
치수문자_일반주서
100
AcDbTrace
 10
-41.00250885508846
 20
-2.998925071276108
 30
0.0
 11
-41.51050885508847
 21
-6.300925071276107
 31
0.0
 12
-40.49450885508846
 22
-6.300925071276107
 32
0.0
 13
-40.49450885508846
 23
-6.300925071276107
 33
0.0
  0
LINE
  5
DB
330
D6
100
AcDbEntity
  8
치수문자_일반주서
100
AcDbLine
 10
-29.50605083347638
 20
3.001074928723889
 30
0.0
 11
-42.00250885508846
 21
3.001074928723889
 31
0.0
  0
LINE
  5
DC
330
D6
100
AcDbEntity
  8
치수문자_일반주서
100
AcDbLine
 10
-29.50605083347638
 20
-2.998925071276108
 30
0.0
 11
-42.00250885508846
 21
-2.998925071276108
 31
0.0
  0
LINE
  5
DD
330
D6
100
AcDbEntity
  8
치수문자_일반주서
100
AcDbLine
 10
-41.00250885508846
 20
3.001074928723889
 30
0.0
 11
-41.00250885508846
 21
9.35107492872389
 31
0.0
  0
LINE
  5
DE
330
D6
100
AcDbEntity
  8
치수문자_일반주서
100
AcDbLine
 10
-41.00250885508846
 20
3.001074928723889
 30
0.0
 11
-41.00250885508846
 21
-2.998925071276108
 31
0.0
  0
LINE
  5
DF
330
D6
100
AcDbEntity
  8
치수문자_일반주서
100
AcDbLine
 10
-41.00250885508846
 20
-2.998925071276108
 30
0.0
 11
-41.00250885508846
 21
-9.348925071276108
 31
0.0
  0
MTEXT
  5
E0
330
D6
100
AcDbEntity
  8
치수문자_일반주서
100
AcDbMText
 10
-45.51424594429033
 20
-3.931199483639909
 30
0.0
 40
3.5
 41
0.0
 71
     1
 72
     1
  1
%%c
  7
SLDTEXTSTYLE0
 11
-7.044195017643634E-15
 21
1.0
 31
0.0
 73
     1
 44
1.0
  0
MTEXT
  5
E1
330
D6
100
AcDbEntity
  8
치수문자_일반주서
100
AcDbMText
 10
-45.56771812095022
 20
1.347237914734172
 30
0.0
 40
3.5
 41
0.0
 71
     1
 72
     1
  1
6
  7
SLDTEXTSTYLE0
 11
-7.044195017643634E-15
 21
1.0
 31
0.0
 73
     1
 44
1.0
  0
ENDBLK
  5
D8
330
D6
100
AcDbEntity
  8
0
100
AcDbBlockEnd
  0
BLOCK
  5
E5
330
E4
100
AcDbEntity
  8
0
100
AcDbBlockBegin
  2
_D_1
 70
     0
 10
0.0
 20
0.0
 30
0.0
  3
_D_1
  1
_D_1
  0
SOLID
  5
E7
330
E4
100
AcDbEntity
  8
치수문자_일반주서
100
AcDbTrace
 10
20.49394916652232
 20
19.00107492872355
 30
0.0
 11
23.79594916652235
 21
18.49307492872378
 31
0.0
 12
23.79594916652228
 22
19.50907492872378
 32
0.0
 13
23.79594916652228
 23
19.50907492872378
 33
0.0
  0
SOLID
  5
E8
330
E4
100
AcDbEntity
  8
치수문자_일반주서
100
AcDbTrace
 10
15.99394916652237
 20
19.00107492872323
 30
0.0
 11
12.69194916652233
 21
19.509074928723
 31
0.0
 12
12.69194916652241
 22
18.493074928723
 32
0.0
 13
12.69194916652241
 23
18.493074928723
 33
0.0
  0
LINE
  5
E9
330
E4
100
AcDbEntity
  8
치수문자_일반주서
100
AcDbLine
 10
20.49394916652355
 20
1.501074928723894
 30
0.0
 11
20.49394916652225
 21
20.00107492872355
 31
0.0
  0
LINE
  5
EA
330
E4
100
AcDbEntity
  8
치수문자_일반주서
100
AcDbLine
 10
15.99394916652355
 20
2.187222785201912
 30
0.0
 11
15.9939491665223
 21
20.00107492872323
 31
0.0
  0
LINE
  5
EB
330
E4
100
AcDbEntity
  8
치수문자_일반주서
100
AcDbLine
 10
20.49394916652232
 20
19.00107492872355
 30
0.0
 11
29.94170690579249
 21
19.00107492872421
 31
0.0
  0
LINE
  5
EC
330
E4
100
AcDbEntity
  8
치수문자_일반주서
100
AcDbLine
 10
20.49394916652232
 20
19.00107492872355
 30
0.0
 11
15.99394916652237
 21
19.00107492872323
 31
0.0
  0
LINE
  5
ED
330
E4
100
AcDbEntity
  8
치수문자_일반주서
100
AcDbLine
 10
15.99394916652237
 20
19.00107492872323
 30
0.0
 11
9.64394916652237
 21
19.00107492872279
 31
0.0
  0
MTEXT
  5
EE
330
E4
100
AcDbEntity
  8
치수문자_일반주서
100
AcDbMText
 10
20.89031784487806
 20
23.51281184330279
 30
0.0
 40
3.5
 41
0.0
 71
     1
 72
     1
  1
4.50
  7
SLDTEXTSTYLE0
 73
     1
 44
1.0
  0
ENDBLK
  5
E6
330
E4
100
AcDbEntity
  8
0
100
AcDbBlockEnd
  0
BLOCK
  5
F2
330
F1
100
AcDbEntity
  8
0
100
AcDbBlockBegin
  2
_D_2
 70
     0
 10
0.0
 20
0.0
 30
0.0
  3
_D_2
  1
_D_2
  0
SOLID
  5
F4
330
F1
100
AcDbEntity
  8
치수문자_일반주서
100
AcDbTrace
 10
20.49394916652362
 20
41.05939943376818
 30
0.0
 11
17.19194916652362
 21
41.56739943376819
 31
0.0
 12
17.19194916652362
 22
40.55139943376818
 32
0.0
 13
17.19194916652362
 23
40.55139943376818
 33
0.0
  0
SOLID
  5
F5
330
F1
100
AcDbEntity
  8
치수문자_일반주서
100
AcDbTrace
 10
-29.50605083347639
 20
41.05939943376818
 30
0.0
 11
-26.20405083347639
 21
40.55139943376818
 31
0.0
 12
-26.20405083347639
 22
41.56739943376819
 32
0.0
 13
-26.20405083347639
 23
41.56739943376819
 33
0.0
  0
LINE
  5
F6
330
F1
100
AcDbEntity
  8
치수문자_일반주서
100
AcDbLine
 10
20.49394916652362
 20
1.501074928723894
 30
0.0
 11
20.49394916652362
 21
42.05939943376818
 31
0.0
  0
LINE
  5
F7
330
F1
100
AcDbEntity
  8
치수문자_일반주서
100
AcDbLine
 10
-29.50605083347638
 20
3.001074928723888
 30
0.0
 11
-29.50605083347639
 21
42.05939943376818
 31
0.0
  0
LINE
  5
F8
330
F1
100
AcDbEntity
  8
치수문자_일반주서
100
AcDbLine
 10
20.49394916652362
 20
41.05939943376818
 30
0.0
 11
-29.50605083347639
 21
41.05939943376818
 31
0.0
  0
MTEXT
  5
F9
330
F1
100
AcDbEntity
  8
치수문자_일반주서
100
AcDbMText
 10
-7.092162026999205
 20
45.57113634834708
 30
0.0
 40
3.5
 41
0.0
 71
     1
 72
     1
  1
50
  7
SLDTEXTSTYLE0
 73
     1
 44
1.0
  0
ENDBLK
  5
F3
330
F1
100
AcDbEntity
  8
0
100
AcDbBlockEnd
  0
BLOCK
  5
FC
330
FB
100
AcDbEntity
  8
0
100
AcDbBlockBegin
  2
_D_3
 70
     0
 10
0.0
 20
0.0
 30
0.0
  3
_D_3
  1
_D_3
  0
SOLID
  5
FE
330
FB
100
AcDbEntity
  8
치수문자_일반주서
100
AcDbTrace
 10
14.49394916652476
 20
30.32107492872395
 30
0.0
 11
17.79594916652475
 21
29.81307492872382
 31
0.0
 12
17.79594916652478
 22
30.82907492872382
 32
0.0
 13
17.79594916652478
 23
30.82907492872382
 33
0.0
  0
SOLID
  5
FF
330
FB
100
AcDbEntity
  8
치수문자_일반주서
100
AcDbTrace
 10
10.2140453559571
 20
30.32107492872411
 30
0.0
 11
6.912045355957115
 21
30.82907492872424
 31
0.0
 12
6.912045355957076
 22
29.81307492872424
 32
0.0
 13
6.912045355957076
 23
29.81307492872424
 33
0.0
  0
LINE
  5
100
330
FB
100
AcDbEntity
  8
치수문자_일반주서
100
AcDbLine
 10
14.49394916652365
 20
1.401074928723893
 30
0.0
 11
14.4939491665248
 21
31.32107492872394
 31
0.0
  0
LINE
  5
101
330
FB
100
AcDbEntity
  8
치수문자_일반주서
100
AcDbLine
 10
10.21404535595599
 20
1.551074928723894
 30
0.0
 11
10.21404535595713
 21
31.32107492872411
 31
0.0
  0
LINE
  5
102
330
FB
100
AcDbEntity
  8
치수문자_일반주서
100
AcDbLine
 10
14.49394916652476
 20
30.32107492872395
 30
0.0
 11
55.42440269528608
 21
30.32107492872239
 31
0.0
  0
LINE
  5
103
330
FB
100
AcDbEntity
  8
치수문자_일반주서
100
AcDbLine
 10
14.49394916652476
 20
30.32107492872395
 30
0.0
 11
10.2140453559571
 21
30.32107492872411
 31
0.0
  0
LINE
  5
104
330
FB
100
AcDbEntity
  8
치수문자_일반주서
100
AcDbLine
 10
10.2140453559571
 20
30.32107492872411
 30
0.0
 11
3.864045355957095
 21
30.32107492872435
 31
0.0
  0
MTEXT
  5
105
330
FB
100
AcDbEntity
  8
치수문자_일반주서
100
AcDbMText
 10
46.3730136343715
 20
34.83281184330144
 30
0.0
 40
3.5
 41
0.0
 71
     1
 72
     1
  1
4.28
  7
SLDTEXTSTYLE0
 73
     1
 44
1.0
  0
ENDBLK
  5
FD
330
FB
100
AcDbEntity
  8
0
100
AcDbBlockEnd
  0
BLOCK
  5
108
330
107
100
AcDbEntity
  8
0
100
AcDbBlockBegin
  2
_D_4
 70
     0
 10
0.0
 20
0.0
 30
0.0
  3
_D_4
  1
_D_4
  0
SOLID
  5
10A
330
107
100
AcDbEntity
  8
치수문자_일반주서
100
AcDbTrace
 10
68.05059833193548
 20
1.501074928723896
 30
0.0
 11
68.55859833193547
 21
4.803074928723896
 31
0.0
 12
67.54259833193548
 22
4.803074928723896
 32
0.0
 13
67.54259833193548
 23
4.803074928723896
 33
0.0
  0
SOLID
  5
10B
330
107
100
AcDbEntity
  8
치수문자_일반주서
100
AcDbTrace
 10
68.05059833193548
 20
-1.480510821134722
 30
0.0
 11
67.54259833193548
 21
-4.782510821134721
 31
0.0
 12
68.55859833193547
 22
-4.782510821134721
 32
0.0
 13
68.55859833193547
 23
-4.782510821134721
 33
0.0
  0
LINE
  5
10C
330
107
100
AcDbEntity
  8
치수문자_일반주서
100
AcDbLine
 10
51.19394916652362
 20
1.501074928723897
 30
0.0
 11
69.05059833193548
 21
1.501074928723896
 31
0.0
  0
LINE
  5
10D
330
107
100
AcDbEntity
  8
치수문자_일반주서
100
AcDbLine
 10
51.19394916652362
 20
-1.480510821134721
 30
0.0
 11
69.05059833193548
 21
-1.480510821134722
 31
0.0
  0
LINE
  5
10E
330
107
100
AcDbEntity
  8
치수문자_일반주서
100
AcDbLine
 10
68.05059833193548
 20
1.501074928723896
 30
0.0
 11
68.05059833193548
 21
7.851074928723896
 31
0.0
  0
LINE
  5
10F
330
107
100
AcDbEntity
  8
치수문자_일반주서
100
AcDbLine
 10
68.05059833193548
 20
1.501074928723896
 30
0.0
 11
68.05059833193548
 21
-1.480510821134722
 31
0.0
  0
LINE
  5
110
330
107
100
AcDbEntity
  8
치수문자_일반주서
100
AcDbLine
 10
68.05059833193548
 20
-1.480510821134722
 30
0.0
 11
68.05059833193548
 21
-14.32156976103179
 31
0.0
  0
MTEXT
  5
111
330
107
100
AcDbEntity
  8
치수문자_일반주서
100
AcDbMText
 10
63.53886124273361
 20
-14.32156976103178
 30
0.0
 40
3.5
 41
0.0
 71
     1
 72
     1
  1
%%c
  7
SLDTEXTSTYLE0
 11
-7.044195017643634E-15
 21
1.0
 31
0.0
 73
     1
 44
1.0
  0
MTEXT
  5
112
330
107
100
AcDbEntity
  8
치수문자_일반주서
100
AcDbMText
 10
63.48538906607372
 20
-9.043132362657696
 30
0.0
 40
3.5
 41
0.0
 71
     1
 72
     1
  1
2.98
  7
SLDTEXTSTYLE0
 11
-7.044195017643634E-15
 21
1.0
 31
0.0
 73
     1
 44
1.0
  0
ENDBLK
  5
109
330
107
100
AcDbEntity
  8
0
100
AcDbBlockEnd
  0
BLOCK
  5
114
330
113
100
AcDbEntity
  8
0
100
AcDbBlockBegin
  2
SW_DOWELSYMBOL_0
 70
     0
 10
0.0
 20
0.0
 30
0.0
  3
SW_DOWELSYMBOL_0
  1
SW_DOWELSYMBOL_0
  0
CIRCLE
  5
116
330
113
100
AcDbEntity
  8
외형선
 62
     0
100
AcDbCircle
 10
0.0
 20
0.0
 30
0.0
 40
3.000000000000004
  0
HATCH
  5
117
330
113
100
AcDbEntity
  8
0
  6
Continuous
 62
     0
370
    35
100
AcDbHatch
 10
0.0
 20
0.0
 30
0.0
210
0.0
220
0.0
230
1.0
  2
SOLID
 70
     1
 71
     0
 91
        1
 92
        0
 93
        3
 72
     2
 10
0.0000000000000104
 20
0.0
 40
3.000000000000004
 50
0.0
 51
90.0
 73
     1
 72
     1
 10
0.0000000000000104
 20
3.000000000000004
 11
0.0000000000000104
 21
0.0
 72
     1
 10
0.0000000000000104
 20
0.0
 11
3.000000000000015
 21
0.0
 97
        0
 75
     0
 76
     1
 98
        1
 10
0.0
 20
0.0
  0
HATCH
  5
118
330
113
100
AcDbEntity
  8
0
  6
Continuous
 62
     0
370
    35
100
AcDbHatch
 10
0.0
 20
0.0
 30
0.0
210
0.0
220
0.0
230
1.0
  2
SOLID
 70
     1
 71
     0
 91
        1
 92
        0
 93
        3
 72
     2
 10
0.0000000000000104
 20
0.0
 40
3.000000000000004
 50
180.0
 51
270.0000000000008
 73
     1
 72
     1
 10
0.0000000000000104
 20
-3.000000000000004
 11
0.0000000000000104
 21
0.0
 72
     1
 10
0.0000000000000104
 20
0.0
 11
-2.999999999999994
 21
0.0
 97
        0
 75
     0
 76
     1
 98
        1
 10
0.0
 20
0.0
  0
ENDBLK
  5
115
330
113
100
AcDbEntity
  8
0
100
AcDbBlockEnd
  0
BLOCK
  5
17C
330
17B
100
AcDbEntity
  8
0
100
AcDbBlockBegin
  2
*D9
 70
     1
 10
0.0
 20
0.0
 30
0.0
  3
*D9
  1
*D105
  0
LINE
  5
17D
330
17B
100
AcDbEntity
  8
치수문자_일반주서
 62
     0
370
    -2
100
AcDbLine
 10
16.80895802161211
 20
11.09921694339782
 30
0.0
 11
4.374999999999989
 21
11.09921694339777
 31
0.0
  0
LINE
  5
17E
330
17B
100
AcDbEntity
  8
치수문자_일반주서
 62
     0
370
    -2
100
AcDbLine
 10
16.80895802161211
 20
5.099216943397835
 30
0.0
 11
4.375000000000011
 21
5.099216943397789
 31
0.0
  0
LINE
  5
17F
330
17B
100
AcDbEntity
  8
치수문자_일반주서
 62
     0
370
    -2
100
AcDbLine
 10
4.375000000000001
 20
7.797216943397775
 30
0.0
 11
4.374999999999999
 21
8.401216943397788
 31
0.0
  0
SOLID
  5
180
330
17B
100
AcDbEntity
  8
치수문자_일반주서
 62
     0
100
AcDbTrace
 10
4.925333333333334
 20
7.797216943397776
 30
0.0
 11
3.824666666666668
 21
7.797216943397773
 31
0.0
 12
4.374999999999989
 22
11.09921694339777
 32
0.0
 13
4.374999999999989
 23
11.09921694339777
 33
0.0
  0
SOLID
  5
181
330
17B
100
AcDbEntity
  8
치수문자_일반주서
 62
     0
100
AcDbTrace
 10
3.824666666666666
 20
8.401216943397786
 30
0.0
 11
4.925333333333333
 21
8.40121694339779
 31
0.0
 12
4.375000000000011
 22
5.099216943397789
 32
0.0
 13
4.375000000000011
 23
5.099216943397789
 33
0.0
  0
MTEXT
  5
182
330
17B
100
AcDbEntity
  8
치수문자_일반주서
 62
     0
100
AcDbMText
 10
0.0
 20
8.099216943397806
 30
0.0
 40
3.5
 41
0.0
 71
     2
 72
     1
  1
\A1;%%c6
  7
SLDTEXTSTYLE0
 11
-3.552713678800509E-15
 21
1.0
 31
0.0
 73
     1
 44
1.0
  0
POINT
  5
183
330
17B
100
AcDbEntity
  8
Defpoints
 62
     0
100
AcDbPoint
 10
16.87145802161211
 20
11.09921694339782
 30
0.0
  0
POINT
  5
184
330
17B
100
AcDbEntity
  8
Defpoints
 62
     0
100
AcDbPoint
 10
16.87145802161211
 20
5.099216943397835
 30
0.0
  0
POINT
  5
185
330
17B
100
AcDbEntity
  8
Defpoints
 62
     0
100
AcDbPoint
 10
4.375
 20
5.099216943397788
 30
0.0
  0
ENDBLK
  5
186
330
17B
100
AcDbEntity
  8
0
100
AcDbBlockEnd
  0
BLOCK
  5
189
330
188
100
AcDbEntity
  8
0
100
AcDbBlockBegin
  2
*D10
 70
     1
 10
0.0
 20
0.0
 30
0.0
  3
*D10
  1
*D106
  0
LINE
  5
18A
330
188
100
AcDbEntity
  8
치수문자_일반주서
 62
     0
370
    -2
100
AcDbLine
 10
65.80895802161211
 20
9.561716943397826
 30
0.0
 11
65.80895802161211
 21
27.99921694339749
 31
0.0
  0
LINE
  5
18B
330
188
100
AcDbEntity
  8
치수문자_일반주서
 62
     0
370
    -2
100
AcDbLine
 10
61.30895802161211
 20
9.34786479987585
 30
0.0
 11
61.30895802161211
 21
27.99921694339749
 31
0.0
  0
LINE
  5
18C
330
188
100
AcDbEntity
  8
치수문자_일반주서
 62
     0
370
    -2
100
AcDbLine
 10
62.50695802161211
 20
27.99921694339749
 30
0.0
 11
64.6109580216121
 21
27.99921694339749
 31
0.0
  0
SOLID
  5
18D
330
188
100
AcDbEntity
  8
치수문자_일반주서
 62
     0
100
AcDbTrace
 10
62.50695802161211
 20
27.44888361006415
 30
0.0
 11
62.50695802161211
 21
28.54955027673082
 31
0.0
 12
65.80895802161211
 22
27.99921694339749
 32
0.0
 13
65.80895802161211
 23
27.99921694339749
 33
0.0
  0
SOLID
  5
18E
330
188
100
AcDbEntity
  8
치수문자_일반주서
 62
     0
100
AcDbTrace
 10
64.6109580216121
 20
28.54955027673082
 30
0.0
 11
64.6109580216121
 21
27.44888361006415
 31
0.0
 12
61.30895802161211
 22
27.99921694339749
 32
0.0
 13
61.30895802161211
 23
27.99921694339749
 33
0.0
  0
MTEXT
  5
18F
330
188
100
AcDbEntity
  8
치수문자_일반주서
 62
     0
100
AcDbMText
 10
63.55895802161211
 20
32.37421694339749
 30
0.0
 40
3.5
 41
0.0
 71
     2
 72
     1
  1
\A1;4.50
  7
SLDTEXTSTYLE0
 73
     1
 44
1.0
  0
POINT
  5
190
330
188
100
AcDbEntity
  8
Defpoints
 62
     0
100
AcDbPoint
 10
65.80895802161211
 20
9.499216943397826
 30
0.0
  0
POINT
  5
191
330
188
100
AcDbEntity
  8
Defpoints
 62
     0
100
AcDbPoint
 10
61.30895802161211
 20
9.28536479987585
 30
0.0
  0
POINT
  5
192
330
188
100
AcDbEntity
  8
Defpoints
 62
     0
100
AcDbPoint
 10
61.30895802161211
 20
27.99921694339749
 30
0.0
  0
ENDBLK
  5
194
330
188
100
AcDbEntity
  8
0
100
AcDbBlockEnd
  0
BLOCK
  5
197
330
196
100
AcDbEntity
  8
0
100
AcDbBlockBegin
  2
*D11
 70
     1
 10
0.0
 20
0.0
 30
0.0
  3
*D11
  1
*D107
  0
LINE
  5
198
330
196
100
AcDbEntity
  8
치수문자_일반주서
 62
     0
370
    -2
100
AcDbLine
 10
65.80895802161211
 20
9.561716943397826
 30
0.0
 11
65.80895802161211
 21
50.05754144844212
 31
0.0
  0
LINE
  5
199
330
196
100
AcDbEntity
  8
치수문자_일반주서
 62
     0
370
    -2
100
AcDbLine
 10
15.80895802161211
 20
10.16171694339782
 30
0.0
 11
15.80895802161211
 21
50.05754144844212
 31
0.0
  0
LINE
  5
19A
330
196
100
AcDbEntity
  8
치수문자_일반주서
 62
     0
370
    -2
100
AcDbLine
 10
62.50695802161211
 20
50.05754144844212
 30
0.0
 11
19.11095802161211
 21
50.05754144844212
 31
0.0
  0
SOLID
  5
19B
330
196
100
AcDbEntity
  8
치수문자_일반주서
 62
     0
100
AcDbTrace
 10
62.50695802161211
 20
49.50720811510879
 30
0.0
 11
62.50695802161211
 21
50.60787478177546
 31
0.0
 12
65.80895802161211
 22
50.05754144844212
 32
0.0
 13
65.80895802161211
 23
50.05754144844212
 33
0.0
  0
SOLID
  5
19C
330
196
100
AcDbEntity
  8
치수문자_일반주서
 62
     0
100
AcDbTrace
 10
19.11095802161211
 20
50.60787478177546
 30
0.0
 11
19.11095802161211
 21
49.50720811510879
 31
0.0
 12
15.80895802161211
 22
50.05754144844212
 32
0.0
 13
15.80895802161211
 23
50.05754144844212
 33
0.0
  0
MTEXT
  5
19D
330
196
100
AcDbEntity
  8
치수문자_일반주서
 62
     0
100
AcDbMText
 10
40.80895802161211
 20
54.43254144844212
 30
0.0
 40
3.5
 41
0.0
 71
     2
 72
     1
  1
\A1;50
  7
SLDTEXTSTYLE0
 73
     1
 44
1.0
  0
POINT
  5
19E
330
196
100
AcDbEntity
  8
Defpoints
 62
     0
100
AcDbPoint
 10
65.80895802161211
 20
9.499216943397826
 30
0.0
  0
POINT
  5
19F
330
196
100
AcDbEntity
  8
Defpoints
 62
     0
100
AcDbPoint
 10
15.80895802161211
 20
10.09921694339782
 30
0.0
  0
POINT
  5
1A0
330
196
100
AcDbEntity
  8
Defpoints
 62
     0
100
AcDbPoint
 10
15.80895802161211
 20
50.05754144844212
 30
0.0
  0
ENDBLK
  5
1A1
330
196
100
AcDbEntity
  8
0
100
AcDbBlockEnd
  0
BLOCK
  5
1A4
330
1A3
100
AcDbEntity
  8
0
100
AcDbBlockBegin
  2
*D12
 70
     1
 10
0.0
 20
0.0
 30
0.0
  3
*D12
  1
*D108
  0
LINE
  5
1A5
330
1A3
100
AcDbEntity
  8
치수문자_일반주서
 62
     0
370
    -2
100
AcDbLine
 10
65.80895802161211
 20
9.559515654021993
 30
0.0
 11
65.80895802161211
 21
38.41921694339652
 31
0.0
  0
LINE
  5
1A6
330
1A3
100
AcDbEntity
  8
치수문자_일반주서
 62
     0
370
    -2
100
AcDbLine
 10
55.80895802161206
 20
9.586716943397846
 30
0.0
 11
55.80895802161206
 21
38.41921694339652
 31
0.0
  0
LINE
  5
1A7
330
1A3
100
AcDbEntity
  8
치수문자_일반주서
 62
     0
370
    -2
100
AcDbLine
 10
62.50695802161211
 20
38.41921694339652
 30
0.0
 11
59.11095802161206
 21
38.41921694339652
 31
0.0
  0
SOLID
  5
1A8
330
1A3
100
AcDbEntity
  8
치수문자_일반주서
 62
     0
100
AcDbTrace
 10
62.50695802161211
 20
37.86888361006319
 30
0.0
 11
62.50695802161211
 21
38.96955027672985
 31
0.0
 12
65.80895802161211
 22
38.41921694339652
 32
0.0
 13
65.80895802161211
 23
38.41921694339652
 33
0.0
  0
SOLID
  5
1A9
330
1A3
100
AcDbEntity
  8
치수문자_일반주서
 62
     0
100
AcDbTrace
 10
59.11095802161206
 20
38.96955027672985
 30
0.0
 11
59.11095802161206
 21
37.86888361006319
 31
0.0
 12
55.80895802161206
 22
38.41921694339652
 32
0.0
 13
55.80895802161206
 23
38.41921694339652
 33
0.0
  0
MTEXT
  5
1AA
330
1A3
100
AcDbEntity
  8
치수문자_일반주서
 62
     0
100
AcDbMText
 10
60.80895802161206
 20
42.79421694339652
 30
0.0
 40
3.5
 41
0.0
 71
     2
 72
     1
  1
\A1;10
  7
SLDTEXTSTYLE0
 73
     1
 44
1.0
  0
POINT
  5
1AB
330
1A3
100
AcDbEntity
  8
Defpoints
 62
     0
100
AcDbPoint
 10
65.80895802161211
 20
9.497015654021993
 30
0.0
  0
POINT
  5
1AC
330
1A3
100
AcDbEntity
  8
Defpoints
 62
     0
100
AcDbPoint
 10
55.80895802161206
 20
9.524216943397846
 30
0.0
  0
POINT
  5
1AD
330
1A3
100
AcDbEntity
  8
Defpoints
 62
     0
100
AcDbPoint
 10
55.80895802161206
 20
38.41921694339652
 30
0.0
  0
ENDBLK
  5
1AE
330
1A3
100
AcDbEntity
  8
0
100
AcDbBlockEnd
  0
BLOCK
  5
1B1
330
1B0
100
AcDbEntity
  8
0
100
AcDbBlockBegin
  2
*D13
 70
     1
 10
0.0
 20
0.0
 30
0.0
  3
*D13
  1
*D109
  0
LINE
  5
1B2
330
1B0
100
AcDbEntity
  8
치수문자_일반주서
 62
     0
370
    -2
100
AcDbLine
 10
65.87145802161211
 20
9.601121222122273
 30
0.0
 11
80.21919271587464
 21
9.601121222122327
 31
0.0
  0
LINE
  5
1B3
330
1B0
100
AcDbEntity
  8
치수문자_일반주서
 62
     0
370
    -2
100
AcDbLine
 10
65.77145802161209
 20
6.603999999999957
 30
0.0
 11
80.21919271587466
 21
6.60400000000001
 31
0.0
  0
LINE
  5
1B4
330
1B0
100
AcDbEntity
  8
치수문자_일반주서
 62
     0
370
    -2
100
AcDbLine
 10
80.21919271587464
 20
9.601121222122327
 30
0.0
 11
80.21919271587457
 21
25.38593388679577
 31
0.0
  0
LINE
  5
1B5
330
1B0
100
AcDbEntity
  8
치수문자_일반주서
 62
     0
370
    -2
100
AcDbLine
 10
80.21919271587464
 20
9.601121222122327
 30
0.0
 11
80.21919271587466
 21
6.60400000000001
 31
0.0
  0
LINE
  5
1B6
330
1B0
100
AcDbEntity
  8
치수문자_일반주서
 62
     0
370
    -2
100
AcDbLine
 10
80.21919271587463
 20
12.90312122212233
 30
0.0
 11
80.21919271587461
 21
16.20512122212233
 31
0.0
  0
LINE
  5
1B7
330
1B0
100
AcDbEntity
  8
치수문자_일반주서
 62
     0
370
    -2
100
AcDbLine
 10
80.21919271587467
 20
3.30200000000001
 30
0.0
 11
80.21919271587468
 21
0.0000000000000098
 31
0.0
  0
SOLID
  5
1B8
330
1B0
100
AcDbEntity
  8
치수문자_일반주서
 62
     0
100
AcDbTrace
 10
79.6688593825413
 20
12.90312122212232
 30
0.0
 11
80.76952604920795
 21
12.90312122212233
 31
0.0
 12
80.21919271587464
 22
9.601121222122327
 32
0.0
 13
80.21919271587464
 23
9.601121222122327
 33
0.0
  0
SOLID
  5
1B9
330
1B0
100
AcDbEntity
  8
치수문자_일반주서
 62
     0
100
AcDbTrace
 10
80.769526049208
 20
3.302000000000012
 30
0.0
 11
79.66885938254134
 21
3.302000000000007
 31
0.0
 12
80.21919271587466
 22
6.60400000000001
 32
0.0
 13
80.21919271587466
 23
6.60400000000001
 33
0.0
  0
MTEXT
  5
1BA
330
1B0
100
AcDbEntity
  8
치수문자_일반주서
 62
     0
100
AcDbMText
 10
75.84419271587458
 20
22.32343388679575
 30
0.0
 40
3.5
 41
0.0
 71
     2
 72
     1
  1
\A1;%%c3
  7
SLDTEXTSTYLE0
 11
-4.741501481591405E-15
 21
1.0
 31
0.0
 73
     1
 44
1.0
  0
POINT
  5
1BB
330
1B0
100
AcDbEntity
  8
Defpoints
 62
     0
100
AcDbPoint
 10
65.80895802161211
 20
9.601121222122273
 30
0.0
  0
POINT
  5
1BC
330
1B0
100
AcDbEntity
  8
Defpoints
 62
     0
100
AcDbPoint
 10
65.70895802161209
 20
6.603999999999957
 30
0.0
  0
POINT
  5
1BD
330
1B0
100
AcDbEntity
  8
Defpoints
 62
     0
100
AcDbPoint
 10
80.21919271587458
 20
6.604000000000011
 30
0.0
  0
ENDBLK
  5
1BE
330
1B0
100
AcDbEntity
  8
0
100
AcDbBlockEnd
  0
BLOCK
  5
1F2
330
1F1
100
AcDbEntity
  8
0
100
AcDbBlockBegin
  2
*D14
 70
     1
 10
0.0
 20
0.0
 30
0.0
  3
*D14
  1
*D14
  0
LINE
  5
1F4
330
1F1
100
AcDbEntity
  8
치수문자_일반주서
 62
     0
370
    -2
100
AcDbLine
 10
-33.12201997807895
 20
2.999999999999978
 30
0.0
 11
-45.55597799969107
 21
2.999999999999931
 31
0.0
  0
LINE
  5
1F5
330
1F1
100
AcDbEntity
  8
치수문자_일반주서
 62
     0
370
    -2
100
AcDbLine
 10
-33.12201997807895
 20
-3.000000000000008
 30
0.0
 11
-45.55597799969105
 21
-3.000000000000055
 31
0.0
  0
LINE
  5
1F6
330
1F1
100
AcDbEntity
  8
치수문자_일반주서
 62
     0
370
    -2
100
AcDbLine
 10
-45.55597799969106
 20
-0.3020000000000684
 30
0.0
 11
-45.55597799969107
 21
0.301999999999945
 31
0.0
  0
SOLID
  5
1F7
330
1F1
100
AcDbEntity
  8
치수문자_일반주서
 62
     0
100
AcDbTrace
 10
-45.00564466635772
 20
-0.3020000000000665
 30
0.0
 11
-46.10631133302439
 21
-0.3020000000000704
 31
0.0
 12
-45.55597799969107
 22
2.999999999999931
 32
0.0
 13
-45.55597799969107
 23
2.999999999999931
 33
0.0
  0
SOLID
  5
1F8
330
1F1
100
AcDbEntity
  8
치수문자_일반주서
 62
     0
100
AcDbTrace
 10
-46.1063113330244
 20
0.301999999999943
 30
0.0
 11
-45.00564466635773
 21
0.3019999999999469
 31
0.0
 12
-45.55597799969105
 22
-3.000000000000055
 32
0.0
 13
-45.55597799969105
 23
-3.000000000000055
 33
0.0
  0
MTEXT
  5
1F9
330
1F1
100
AcDbEntity
  8
치수문자_일반주서
 62
     0
100
AcDbMText
 10
-49.93097799969107
 20
-0.0000000000000368
 30
0.0
 40
3.5
 41
0.0
 71
     2
 72
     1
  1
\A1;%%c6
  7
SLDTEXTSTYLE0
 11
-3.552713678800510E-15
 21
1.0
 31
0.0
 73
     1
 44
1.0
  0
POINT
  5
1FA
330
1F1
100
AcDbEntity
  8
Defpoints
 62
     0
100
AcDbPoint
 10
-33.05951997807895
 20
2.999999999999979
 30
0.0
  0
POINT
  5
1FB
330
1F1
100
AcDbEntity
  8
Defpoints
 62
     0
100
AcDbPoint
 10
-33.05951997807895
 20
-3.000000000000007
 30
0.0
  0
POINT
  5
1FC
330
1F1
100
AcDbEntity
  8
Defpoints
 62
     0
100
AcDbPoint
 10
-45.55597799969105
 20
-3.000000000000054
 30
0.0
  0
ENDBLK
  5
1F3
330
1F1
100
AcDbEntity
  8
0
100
AcDbBlockEnd
  0
BLOCK
  5
1FE
330
1FD
100
AcDbEntity
  8
0
100
AcDbBlockBegin
  2
*D15
 70
     1
 10
0.0
 20
0.0
 30
0.0
  3
*D15
  1
*D15
  0
LINE
  5
200
330
1FD
100
AcDbEntity
  8
치수문자_일반주서
 62
     0
370
    -2
100
AcDbLine
 10
15.87798002192105
 20
1.462499999999984
 30
0.0
 11
15.87798002192105
 21
19.89999999999964
 31
0.0
  0
LINE
  5
201
330
1FD
100
AcDbEntity
  8
치수문자_일반주서
 62
     0
370
    -2
100
AcDbLine
 10
11.37798002192105
 20
1.248647856478009
 30
0.0
 11
11.37798002192105
 21
19.89999999999964
 31
0.0
  0
LINE
  5
202
330
1FD
100
AcDbEntity
  8
치수문자_일반주서
 62
     0
370
    -2
100
AcDbLine
 10
12.57598002192105
 20
19.89999999999964
 30
0.0
 11
14.67998002192105
 21
19.89999999999964
 31
0.0
  0
SOLID
  5
203
330
1FD
100
AcDbEntity
  8
치수문자_일반주서
 62
     0
100
AcDbTrace
 10
12.57598002192105
 20
19.34966666666631
 30
0.0
 11
12.57598002192105
 21
20.45033333333298
 31
0.0
 12
15.87798002192105
 22
19.89999999999964
 32
0.0
 13
15.87798002192105
 23
19.89999999999964
 33
0.0
  0
SOLID
  5
204
330
1FD
100
AcDbEntity
  8
치수문자_일반주서
 62
     0
100
AcDbTrace
 10
14.67998002192105
 20
20.45033333333298
 30
0.0
 11
14.67998002192105
 21
19.34966666666631
 31
0.0
 12
11.37798002192105
 22
19.89999999999964
 32
0.0
 13
11.37798002192105
 23
19.89999999999964
 33
0.0
  0
MTEXT
  5
205
330
1FD
100
AcDbEntity
  8
치수문자_일반주서
 62
     0
100
AcDbMText
 10
13.62798002192105
 20
24.27499999999964
 30
0.0
 40
3.5
 41
0.0
 71
     2
 72
     1
  1
\A1;4.50
  7
SLDTEXTSTYLE0
 73
     1
 44
1.0
  0
POINT
  5
206
330
1FD
100
AcDbEntity
  8
Defpoints
 62
     0
100
AcDbPoint
 10
15.87798002192105
 20
1.399999999999984
 30
0.0
  0
POINT
  5
207
330
1FD
100
AcDbEntity
  8
Defpoints
 62
     0
100
AcDbPoint
 10
11.37798002192105
 20
1.186147856478009
 30
0.0
  0
POINT
  5
208
330
1FD
100
AcDbEntity
  8
Defpoints
 62
     0
100
AcDbPoint
 10
11.37798002192105
 20
19.89999999999964
 30
0.0
  0
ENDBLK
  5
1FF
330
1FD
100
AcDbEntity
  8
0
100
AcDbBlockEnd
  0
BLOCK
  5
20A
330
209
100
AcDbEntity
  8
0
100
AcDbBlockBegin
  2
*D16
 70
     1
 10
0.0
 20
0.0
 30
0.0
  3
*D16
  1
*D16
  0
LINE
  5
20C
330
209
100
AcDbEntity
  8
치수문자_일반주서
 62
     0
370
    -2
100
AcDbLine
 10
15.87798002192105
 20
1.462499999999984
 30
0.0
 11
15.87798002192105
 21
41.95832450504428
 31
0.0
  0
LINE
  5
20D
330
209
100
AcDbEntity
  8
치수문자_일반주서
 62
     0
370
    -2
100
AcDbLine
 10
-34.12201997807895
 20
2.062499999999979
 30
0.0
 11
-34.12201997807895
 21
41.95832450504428
 31
0.0
  0
LINE
  5
20E
330
209
100
AcDbEntity
  8
치수문자_일반주서
 62
     0
370
    -2
100
AcDbLine
 10
12.57598002192105
 20
41.95832450504428
 30
0.0
 11
-30.82001997807895
 21
41.95832450504428
 31
0.0
  0
SOLID
  5
20F
330
209
100
AcDbEntity
  8
치수문자_일반주서
 62
     0
100
AcDbTrace
 10
12.57598002192105
 20
41.40799117171095
 30
0.0
 11
12.57598002192105
 21
42.50865783837762
 31
0.0
 12
15.87798002192105
 22
41.95832450504428
 32
0.0
 13
15.87798002192105
 23
41.95832450504428
 33
0.0
  0
SOLID
  5
210
330
209
100
AcDbEntity
  8
치수문자_일반주서
 62
     0
100
AcDbTrace
 10
-30.82001997807895
 20
42.50865783837762
 30
0.0
 11
-30.82001997807895
 21
41.40799117171095
 31
0.0
 12
-34.12201997807895
 22
41.95832450504428
 32
0.0
 13
-34.12201997807895
 23
41.95832450504428
 33
0.0
  0
MTEXT
  5
211
330
209
100
AcDbEntity
  8
치수문자_일반주서
 62
     0
100
AcDbMText
 10
-9.122019978078953
 20
46.33332450504428
 30
0.0
 40
3.5
 41
0.0
 71
     2
 72
     1
  1
\A1;50
  7
SLDTEXTSTYLE0
 73
     1
 44
1.0
  0
POINT
  5
212
330
209
100
AcDbEntity
  8
Defpoints
 62
     0
100
AcDbPoint
 10
15.87798002192105
 20
1.399999999999984
 30
0.0
  0
POINT
  5
213
330
209
100
AcDbEntity
  8
Defpoints
 62
     0
100
AcDbPoint
 10
-34.12201997807895
 20
1.999999999999979
 30
0.0
  0
POINT
  5
214
330
209
100
AcDbEntity
  8
Defpoints
 62
     0
100
AcDbPoint
 10
-34.12201997807895
 20
41.95832450504428
 30
0.0
  0
ENDBLK
  5
20B
330
209
100
AcDbEntity
  8
0
100
AcDbBlockEnd
  0
BLOCK
  5
216
330
215
100
AcDbEntity
  8
0
100
AcDbBlockBegin
  2
*D17
 70
     1
 10
0.0
 20
0.0
 30
0.0
  3
*D17
  1
*D17
  0
LINE
  5
218
330
215
100
AcDbEntity
  8
치수문자_일반주서
 62
     0
370
    -2
100
AcDbLine
 10
15.87798002192105
 20
1.460298710624151
 30
0.0
 11
15.87798002192105
 21
30.31999999999868
 31
0.0
  0
LINE
  5
219
330
215
100
AcDbEntity
  8
치수문자_일반주서
 62
     0
370
    -2
100
AcDbLine
 10
5.87798002192099
 20
1.487500000000004
 30
0.0
 11
5.87798002192099
 21
30.31999999999868
 31
0.0
  0
LINE
  5
21A
330
215
100
AcDbEntity
  8
치수문자_일반주서
 62
     0
370
    -2
100
AcDbLine
 10
12.57598002192105
 20
30.31999999999868
 30
0.0
 11
9.17998002192099
 21
30.31999999999868
 31
0.0
  0
SOLID
  5
21B
330
215
100
AcDbEntity
  8
치수문자_일반주서
 62
     0
100
AcDbTrace
 10
12.57598002192105
 20
29.76966666666534
 30
0.0
 11
12.57598002192105
 21
30.87033333333201
 31
0.0
 12
15.87798002192105
 22
30.31999999999868
 32
0.0
 13
15.87798002192105
 23
30.31999999999868
 33
0.0
  0
SOLID
  5
21C
330
215
100
AcDbEntity
  8
치수문자_일반주서
 62
     0
100
AcDbTrace
 10
9.17998002192099
 20
30.87033333333201
 30
0.0
 11
9.17998002192099
 21
29.76966666666534
 31
0.0
 12
5.87798002192099
 22
30.31999999999868
 32
0.0
 13
5.87798002192099
 23
30.31999999999868
 33
0.0
  0
MTEXT
  5
21D
330
215
100
AcDbEntity
  8
치수문자_일반주서
 62
     0
100
AcDbMText
 10
10.87798002192099
 20
34.69499999999868
 30
0.0
 40
3.5
 41
0.0
 71
     2
 72
     1
  1
\A1;10
  7
SLDTEXTSTYLE0
 73
     1
 44
1.0
  0
POINT
  5
21E
330
215
100
AcDbEntity
  8
Defpoints
 62
     0
100
AcDbPoint
 10
15.87798002192105
 20
1.397798710624151
 30
0.0
  0
POINT
  5
21F
330
215
100
AcDbEntity
  8
Defpoints
 62
     0
100
AcDbPoint
 10
5.87798002192099
 20
1.425000000000004
 30
0.0
  0
POINT
  5
220
330
215
100
AcDbEntity
  8
Defpoints
 62
     0
100
AcDbPoint
 10
5.87798002192099
 20
30.31999999999868
 30
0.0
  0
ENDBLK
  5
217
330
215
100
AcDbEntity
  8
0
100
AcDbBlockEnd
  0
BLOCK
  5
222
330
221
100
AcDbEntity
  8
0
100
AcDbBlockBegin
  2
*D18
 70
     1
 10
0.0
 20
0.0
 30
0.0
  3
*D18
  1
*D18
  0
LINE
  5
224
330
221
100
AcDbEntity
  8
치수문자_일반주서
 62
     0
370
    -2
100
AcDbLine
 10
15.94048002192105
 20
1.501904278724432
 30
0.0
 11
30.28821471618356
 21
1.501904278724485
 31
0.0
  0
LINE
  5
225
330
221
100
AcDbEntity
  8
치수문자_일반주서
 62
     0
370
    -2
100
AcDbLine
 10
15.84048002192102
 20
-1.495216943397885
 30
0.0
 11
30.28821471618357
 21
-1.495216943397832
 31
0.0
  0
LINE
  5
226
330
221
100
AcDbEntity
  8
치수문자_일반주서
 62
     0
370
    -2
100
AcDbLine
 10
30.28821471618356
 20
1.501904278724485
 30
0.0
 11
30.28821471618351
 21
17.28671694339793
 31
0.0
  0
LINE
  5
227
330
221
100
AcDbEntity
  8
치수문자_일반주서
 62
     0
370
    -2
100
AcDbLine
 10
30.28821471618356
 20
1.501904278724485
 30
0.0
 11
30.28821471618357
 21
-1.495216943397832
 31
0.0
  0
LINE
  5
228
330
221
100
AcDbEntity
  8
치수문자_일반주서
 62
     0
370
    -2
100
AcDbLine
 10
30.28821471618355
 20
4.803904278724485
 30
0.0
 11
30.28821471618354
 21
8.105904278724484
 31
0.0
  0
LINE
  5
229
330
221
100
AcDbEntity
  8
치수문자_일반주서
 62
     0
370
    -2
100
AcDbLine
 10
30.28821471618359
 20
-4.797216943397832
 30
0.0
 11
30.2882147161836
 21
-8.099216943397831
 31
0.0
  0
SOLID
  5
22A
330
221
100
AcDbEntity
  8
치수문자_일반주서
 62
     0
100
AcDbTrace
 10
29.73788138285022
 20
4.803904278724483
 30
0.0
 11
30.83854804951689
 21
4.803904278724486
 31
0.0
 12
30.28821471618356
 22
1.501904278724485
 32
0.0
 13
30.28821471618356
 23
1.501904278724485
 33
0.0
  0
SOLID
  5
22B
330
221
100
AcDbEntity
  8
치수문자_일반주서
 62
     0
100
AcDbTrace
 10
30.83854804951692
 20
-4.79721694339783
 30
0.0
 11
29.73788138285025
 21
-4.797216943397833
 31
0.0
 12
30.28821471618357
 22
-1.495216943397832
 32
0.0
 13
30.28821471618357
 23
-1.495216943397832
 33
0.0
  0
MTEXT
  5
22C
330
221
100
AcDbEntity
  8
치수문자_일반주서
 62
     0
100
AcDbMText
 10
25.91321471618352
 20
14.22421694339791
 30
0.0
 40
3.5
 41
0.0
 71
     2
 72
     1
  1
\A1;%%c3
  7
SLDTEXTSTYLE0
 11
-3.556126111193553E-15
 21
1.0
 31
0.0
 73
     1
 44
1.0
  0
POINT
  5
22D
330
221
100
AcDbEntity
  8
Defpoints
 62
     0
100
AcDbPoint
 10
15.87798002192105
 20
1.501904278724432
 30
0.0
  0
POINT
  5
22E
330
221
100
AcDbEntity
  8
Defpoints
 62
     0
100
AcDbPoint
 10
15.77798002192102
 20
-1.495216943397885
 30
0.0
  0
POINT
  5
22F
330
221
100
AcDbEntity
  8
Defpoints
 62
     0
100
AcDbPoint
 10
30.28821471618357
 20
-1.495216943397831
 30
0.0
  0
ENDBLK
  5
223
330
221
100
AcDbEntity
  8
0
100
AcDbBlockEnd
  0
BLOCK
  5
272
330
271
100
AcDbEntity
  8
0
100
AcDbBlockBegin
  2
*D20
 70
     1
 10
0.0
 20
0.0
 30
0.0
  3
*D20
  1
*D85
  0
LINE
  5
273
330
271
100
AcDbEntity
  8
치수문자_일반주서
 62
     0
370
    -2
100
AcDbLine
 10
5.737696927657293
 20
17.9667838972311
 30
0.0
 11
16.67891872871462
 21
0.0000000000000031
 31
0.0
  0
MTEXT
  5
274
330
271
100
AcDbEntity
  8
치수문자_일반주서
 62
     0
100
AcDbMText
 10
17.55560874968979
 20
3.607307112947631
 30
0.0
 40
3.5
 41
0.0
 71
     5
 72
     1
  1
\A1;R1
  7
SLDTEXTSTYLE0
 11
0.5201175413280869
 21
-0.8540946921757715
 31
0.0
 73
     1
 44
1.0
  0
LINE
  5
275
330
271
100
AcDbEntity
  8
치수문자_일반주서
 62
     0
370
    -2
100
AcDbLine
 10
3.50015126486386
 20
21.64109926297127
 30
0.0
 11
4.02026880619195
 21
20.78700457079549
 31
0.0
  0
SOLID
  5
276
330
271
100
AcDbEntity
  8
치수문자_일반주서
 62
     0
100
AcDbTrace
 10
6.207733706584692
 20
18.25302191747532
 30
0.0
 11
5.267660148729894
 21
17.68054587698687
 31
0.0
 12
4.02026880619195
 22
20.78700457079549
 32
0.0
 13
4.02026880619195
 23
20.78700457079549
 33
0.0
  0
POINT
  5
277
330
271
100
AcDbEntity
  8
Defpoints
 62
     0
100
AcDbPoint
 10
4.02026880619195
 20
20.78700457079549
 30
0.0
  0
POINT
  5
278
330
271
100
AcDbEntity
  8
Defpoints
 62
     0
100
AcDbPoint
 10
3.50015126486386
 20
21.64109926297127
 30
0.0
  0
ENDBLK
  5
279
330
271
100
AcDbEntity
  8
0
100
AcDbBlockEnd
  0
BLOCK
  5
299
330
298
100
AcDbEntity
  8
0
100
AcDbBlockBegin
  2
*D21
 70
     1
 10
0.0
 20
0.0
 30
0.0
  3
*D21
  1
*D21
  0
LINE
  5
29B
330
298
100
AcDbEntity
  8
치수문자_일반주서
 62
     0
370
    -2
100
AcDbLine
 10
17.11552568471715
 20
-4.141820581845989
 30
0.0
 11
28.05674748577448
 21
-22.10860447907708
 31
0.0
  0
MTEXT
  5
29C
330
298
100
AcDbEntity
  8
치수문자_일반주서
 62
     0
100
AcDbMText
 10
28.93343750674965
 20
-18.50129736612946
 30
0.0
 40
3.5
 41
0.0
 71
     5
 72
     1
  1
\A1;R1
  7
SLDTEXTSTYLE0
 11
0.5201175413280869
 21
-0.8540946921757715
 31
0.0
 73
     1
 44
1.0
  0
LINE
  5
29D
330
298
100
AcDbEntity
  8
치수문자_일반주서
 62
     0
370
    -2
100
AcDbLine
 10
14.87798002192372
 20
-0.4675052161058133
 30
0.0
 11
15.39809756325181
 21
-1.321599908281591
 31
0.0
  0
SOLID
  5
29E
330
298
100
AcDbEntity
  8
치수문자_일반주서
 62
     0
100
AcDbTrace
 10
17.58556246364455
 20
-3.855582561601766
 30
0.0
 11
16.64548890578975
 21
-4.428058602090213
 31
0.0
 12
15.39809756325181
 22
-1.321599908281591
 32
0.0
 13
15.39809756325181
 23
-1.321599908281591
 33
0.0
  0
POINT
  5
29F
330
298
100
AcDbEntity
  8
Defpoints
 62
     0
100
AcDbPoint
 10
15.39809756325181
 20
-1.321599908281591
 30
0.0
  0
POINT
  5
2A0
330
298
100
AcDbEntity
  8
Defpoints
 62
     0
100
AcDbPoint
 10
14.87798002192372
 20
-0.4675052161058133
 30
0.0
  0
ENDBLK
  5
29A
330
298
100
AcDbEntity
  8
0
100
AcDbBlockEnd
  0
ENDSEC
  0
SECTION
  2
ENTITIES
  0
INSERT
  5
CD
330
1F
100
AcDbEntity
  8
0
  6
Continuous
 62
     7
100
AcDbBlockReference
 66
     1
  2
블럭10
 10
-22.93944368806589
 20
-52.04609937292004
 30
0.0
  0
ATTRIB
  5
CE
330
CD
100
AcDbEntity
  8
FORMAT
 62
     2
100
AcDbText
 10
-42.21802657207924
 20
-49.97073246008785
 30
0.0
 40
4.233333333333333
  1
SEME610301010E [ 2 FLUTE ]
 41
0.75
  7
SLDTEXTSTYLE0
 11
-42.21802657207924
 21
-52.08739912675452
 31
0.0
100
AcDbAttribute
  2
AUTOATTR0
 70
     0
 74
     1
  0
SEQEND
  5
CF
330
CD
100
AcDbEntity
  8
0
  6
Continuous
 62
     7
  0
HATCH
  5
D0
330
1F
100
AcDbEntity
  8
중심선
100
AcDbHatch
 10
0.0
 20
0.0
 30
0.0
210
0.0
220
0.0
230
1.0
  2
SOLID
 70
     1
 71
     0
 91
        1
 92
        0
 93
        4
 72
     1
 10
-17.22453438368504
 20
-35.7989250712761
 11
-20.67080962752232
 21
-35.7989250712761
 72
     1
 10
-20.67080962752232
 20
-35.7989250712761
 11
-22.79903948672635
 21
-38.3352506518487
 72
     1
 10
-22.79903948672635
 20
-38.3352506518487
 11
-19.35273115777591
 21
-38.33521122254621
 72
     1
 10
-19.35273115777591
 20
-38.33521122254621
 11
-17.22453438368504
 21
-35.7989250712761
 97
        0
 75
     0
 76
     1
 98
        1
 10
0.0
 20
0.0
  0
HATCH
  5
D1
330
1F
100
AcDbEntity
  8
중심선
100
AcDbHatch
 10
0.0
 20
0.0
 30
0.0
210
0.0
220
0.0
230
1.0
  2
SOLID
 70
     1
 71
     0
 91
        1
 92
        0
 93
        4
 72
     1
 10
-12.21177039264909
 20
-35.7989250712761
 11
-15.65804563648637
 21
-35.7989250712761
 72
     1
 10
-15.65804563648637
 20
-35.7989250712761
 11
-20.18918364484376
 21
-41.19892507127612
 72
     1
 10
-20.18918364484376
 20
-41.19892507127612
 11
-16.74290840100648
 21
-41.19892507127612
 72
     1
 10
-16.74290840100648
 20
-41.19892507127612
 11
-12.21177039264909
 21
-35.7989250712761
 97
        0
 75
     0
 76
     1
 98
        1
 10
0.0
 20
0.0
  0
HATCH
  5
D2
330
1F
100
AcDbEntity
  8
중심선
100
AcDbHatch
 10
0.0
 20
0.0
 30
0.0
210
0.0
220
0.0
230
1.0
  2
SOLID
 70
     1
 71
     0
 91
        1
 92
        0
 93
        4
 72
     1
 10
-7.199006401613195
 20
-35.79892507127613
 11
-10.64528164545031
 21
-35.7989250712761
 72
     1
 10
-10.64528164545031
 20
-35.7989250712761
 11
-17.69371854733956
 21
-44.19892507127612
 72
     1
 10
-17.69371854733956
 20
-44.19892507127612
 11
-14.24744330350228
 21
-44.19892507127612
 72
     1
 10
-14.24744330350228
 20
-44.19892507127612
 11
-7.199006401613195
 21
-35.79892507127613
 97
        0
 75
     0
 76
     1
 98
        1
 10
0.0
 20
0.0
  0
HATCH
  5
D3
330
1F
100
AcDbEntity
  8
중심선
100
AcDbHatch
 10
0.0
 20
0.0
 30
0.0
210
0.0
220
0.0
230
1.0
  2
SOLID
 70
     1
 71
     0
 91
        1
 92
        0
 93
        6
 72
     3
 10
-2.399115970600996
 20
-39.99892507132738
 11
3.960054785062284
 21
1.540850780301639E-10
 40
0.3939339440162633
 50
17.09539180608433
 51
320.0019657685079
 73
     0
 72
     1
 10
-0.7161163149004002
 20
-38.58681907591441
 11
1.589185558800638
 21
-36.65249236586649
 72
     3
 10
-2.399115970653842
 20
-39.99892507127625
 11
6.600054785286829
 21
-1.249000902703301E-13
 40
0.6363583540795982
 50
39.99873849337408
 51
368.4976242363725
 73
     1
 72
     1
 10
4.026216521246767
 20
-39.03892507120613
 11
-3.71904866381792
 21
-39.0389250712061
 72
     1
 10
-3.71904866381792
 20
-39.0389250712061
 11
-3.719073708263854
 21
-40.95892507120602
 72
     1
 10
-3.719073708263854
 20
-40.95892507120602
 11
0.7223060612081831
 21
-40.95892507120599
 97
        0
 75
     0
 76
     1
 98
        1
 10
0.0
 20
0.0
  0
LINE
  5
1D2
330
1F
100
AcDbEntity
  8
0
  6
Continuous
 62
     4
370
    25
100
AcDbLine
 10
0.0000000000000284
 20
-3.000000000000007
 30
0.0
 11
5.877980021921047
 21
-1.425000000000018
 31
0.0
  0
LINE
  5
1D3
330
1F
100
AcDbEntity
  8
0
  6
Continuous
 62
     4
370
    25
100
AcDbLine
 10
5.87798002192099
 20
1.425000000000004
 30
0.0
 11
-0.0000000000000284
 21
3.000000000000007
 31
0.0
  0
LINE
  5
1D4
330
1F
100
AcDbEntity
  8
0
  6
Continuous
 62
     4
370
    25
100
AcDbLine
 10
-33.12201997807895
 20
2.999999999999979
 30
0.0
 11
-34.12201997807895
 21
1.999999999999979
 31
0.0
  0
LINE
  5
1D5
330
1F
100
AcDbEntity
  8
0
  6
Continuous
 62
     4
370
    25
100
AcDbLine
 10
-34.12201997807895
 20
-2.000000000000007
 30
0.0
 11
-33.12201997807895
 21
-3.000000000000007
 31
0.0
  0
SPLINE
  5
1D6
330
1F
100
AcDbEntity
  8
0
  6
Continuous
 62
     4
370
    25
100
AcDbSpline
210
0.0
220
0.0
230
1.0
 70
     8
 71
     3
 72
    11
 73
     7
 74
     0
 42
0.000000001
 43
0.00000001
 40
0.0
 40
0.0
 40
0.0
 40
0.0
 40
0.4620818500171489
 40
0.6382717798866115
 40
0.7622377342187463
 40
1.0
 40
1.0
 40
1.0
 40
1.0
 10
9.228727319278136
 20
-1.249385338093425
 30
0.0
 10
9.55944570740175
 20
-1.221409739854344
 30
0.0
 10
10.01626567170266
 20
-1.182767159798907
 30
0.0
 10
10.55898300468161
 20
-1.171422626580515
 30
0.0
 10
10.94503628666811
 20
-1.170786841335321
 30
0.0
 10
11.20627140290114
 20
-1.179686844256558
 30
0.0
 10
11.37798002192372
 20
-1.185536774514553
 30
0.0
  0
SPLINE
  5
1D7
330
1F
100
AcDbEntity
  8
0
  6
Continuous
 62
     4
370
    25
100
AcDbSpline
210
0.0
220
0.0
230
1.0
 70
     8
 71
     3
 72
    10
 73
     6
 74
     0
 42
0.000000001
 43
0.00000001
 40
0.0
 40
0.0
 40
0.0
 40
0.0
 40
0.3870787935662618
 40
0.8756474541578245
 40
1.0
 40
1.0
 40
1.0
 40
1.0
 10
11.37798002192372
 20
1.185536774514539
 30
0.0
 10
11.20616199766565
 20
1.180275927980155
 30
0.0
 10
10.81747623646973
 20
1.168374870750675
 30
0.0
 10
10.37962593413684
 20
1.168006935698493
 30
0.0
 10
10.11045252007315
 20
1.188020771135619
 30
0.0
 10
10.05584126015825
 20
1.192081279015831
 30
0.0
  0
LINE
  5
1D8
330
1F
100
AcDbEntity
  8
0
  6
Continuous
 62
     4
370
    25
100
AcDbLine
 10
0.0000000000000284
 20
3.000000000000007
 30
0.0
 11
0.0000000000000284
 21
-2.999999999999993
 31
0.0
  0
LINE
  5
1D9
330
1F
100
AcDbEntity
  8
0
  6
Continuous
 62
     4
370
    25
100
AcDbLine
 10
-34.12201997807895
 20
1.999999999999979
 30
0.0
 11
-34.12201997807895
 21
-2.000000000000007
 31
0.0
  0
SPLINE
  5
1DA
330
1F
100
AcDbEntity
  8
0
  6
Continuous
 62
     4
370
    25
100
AcDbSpline
210
0.0
220
0.0
230
1.0
 70
     8
 71
     3
 72
    11
 73
     7
 74
     0
 42
0.000000001
 43
0.00000001
 40
0.0
 40
0.0
 40
0.0
 40
0.0
 40
0.3081407231133523
 40
0.6162132639756378
 40
0.8580955920846803
 40
1.0
 40
1.0
 40
1.0
 40
1.0
 10
11.37798002192105
 20
0.6870816828002333
 30
0.0
 10
11.09303182063022
 20
0.817053680971064
 30
0.0
 10
10.52319846849392
 20
1.076968918428399
 30
0.0
 10
9.729534597408218
 20
1.308085052955029
 30
0.0
 10
9.090204924728056
 20
1.418469883264812
 30
0.0
 10
8.735605329558751
 20
1.414847141716216
 30
0.0
 10
8.604492810869857
 20
1.413507639992396
 30
0.0
  0
SPLINE
  5
1DB
330
1F
100
AcDbEntity
  8
0
  6
Continuous
 62
     4
370
    25
100
AcDbSpline
210
0.0
220
0.0
230
1.0
 70
     8
 71
     3
 72
    18
 73
    14
 74
     0
 42
0.000000001
 43
0.00000001
 40
0.0
 40
0.0
 40
0.0
 40
0.0
 40
0.2499999999999993
 40
0.2499999999999993
 40
0.374999999999999
 40
0.374999999999999
 40
0.4999999999999987
 40
0.4999999999999987
 40
0.7500000000000007
 40
0.7500000000000007
 40
0.8750000000000003
 40
0.8750000000000003
 40
1.0
 40
1.0
 40
1.0
 40
1.0
 10
11.37798002192105
 20
0.3032447619949679
 30
0.0
 10
11.12670489584301
 20
0.4389837875974578
 30
0.0
 10
10.86835353956181
 20
0.5715685439838225
 30
0.0
 10
10.48722262627555
 20
0.754292015171167
 30
0.0
 10
10.36271216615981
 20
0.8123249287065804
 30
0.0
 10
10.10827595583206
 20
0.9229845021743799
 30
0.0
 10
9.979693712898523
 20
0.9753759846058117
 30
0.0
 10
9.59607410072104
 20
1.121147706477963
 30
0.0
 10
9.346208719360249
 20
1.202864090491268
 30
0.0
 10
8.961868033554737
 20
1.298888962885378
 30
0.0
 10
8.833686785258323
 20
1.326303126177272
 30
0.0
 10
8.58129275290284
 20
1.371202433796959
 30
0.0
 10
8.455840061993257
 20
1.388804689407401
 30
0.0
 10
8.328079049119623
 20
1.401450687889955
 30
0.0
  0
SPLINE
  5
1DC
330
1F
100
AcDbEntity
  8
0
  6
Continuous
 62
     4
370
    25
100
AcDbSpline
210
0.0
220
0.0
230
1.0
 70
     8
 71
     3
 72
    10
 73
     6
 74
     0
 42
0.000000001
 43
0.00000001
 40
0.0
 40
0.0
 40
0.0
 40
0.0
 40
0.2240999493484423
 40
0.6122868967800255
 40
1.0
 40
1.0
 40
1.0
 40
1.0
 10
10.05584126015825
 20
-1.192081279015845
 30
0.0
 10
9.926699887518652
 20
-1.233204133533214
 30
0.0
 10
9.573859244183808
 20
-1.345560182931628
 30
0.0
 10
8.998103778971114
 20
-1.425625308197674
 30
0.0
 10
8.551398945129705
 20
-1.419816081108031
 30
0.0
 10
8.328182930120335
 20
-1.416913241418378
 30
0.0
  0
LINE
  5
1DD
330
1F
100
AcDbEntity
  8
0
  6
Continuous
 62
     4
370
    25
100
AcDbLine
 10
8.328079049119623
 20
-1.416906676188923
 30
0.0
 11
8.328079049119623
 21
1.401509192723815
 31
0.0
  0
SPLINE
  5
1DE
330
1F
100
AcDbEntity
  8
0
  6
Continuous
 62
     4
370
    25
100
AcDbSpline
210
0.0
220
0.0
230
1.0
 70
     8
 71
     3
 72
    18
 73
    14
 74
     0
 42
0.000000001
 43
0.00000001
 40
0.0
 40
0.0
 40
0.0
 40
0.0
 40
0.25
 40
0.25
 40
0.3749999999999986
 40
0.3749999999999986
 40
0.4999999999999971
 40
0.4999999999999971
 40
0.7499999999999971
 40
0.7499999999999971
 40
0.8749999999999986
 40
0.8749999999999986
 40
1.0
 40
1.0
 40
1.0
 40
1.0
 10
11.37798002192122
 20
0.1684588969660794
 30
0.0
 10
11.12670694557161
 20
0.2694949173739118
 30
0.0
 10
10.86835778172772
 20
0.3690133812817393
 30
0.0
 10
10.48722983220071
 20
0.5074552679662006
 30
0.0
 10
10.36272040168413
 20
0.5516526251813119
 30
0.0
 10
10.10828639993272
 20
0.636409799283264
 30
0.0
 10
9.979705233351439
 20
0.6767927361734465
 30
0.0
 10
9.596088611459919
 20
0.7899640884959709
 30
0.0
 10
9.346225425759343
 20
0.8545619771935904
 30
0.0
 10
8.96188789702083
 20
0.9325380152344493
 30
0.0
 10
8.83370759923966
 20
0.9552430824268541
 30
0.0
 10
8.581315174930552
 20
0.9934504156937081
 30
0.0
 10
8.455863920278347
 20
1.009046753466443
 30
0.0
 10
8.328104061569405
 20
1.021049093281157
 30
0.0
  0
LINE
  5
1DF
330
1F
100
AcDbEntity
  8
0
  6
Continuous
 62
     4
370
    25
100
AcDbLine
 10
9.22972082026925
 20
-1.24571163932351
 30
0.0
 11
8.328182930120335
 21
-1.261464555600419
 31
0.0
  0
SPLINE
  5
1E0
330
1F
100
AcDbEntity
  8
0
  6
Continuous
 62
     4
370
    25
100
AcDbSpline
210
0.0
220
0.0
230
1.0
 70
     8
 71
     3
 72
    18
 73
    14
 74
     0
 42
0.000000001
 43
0.00000001
 40
0.0
 40
0.0
 40
0.0
 40
0.0
 40
0.2499999999999972
 40
0.2499999999999972
 40
0.3749999999999972
 40
0.3749999999999972
 40
0.4999999999999972
 40
0.4999999999999972
 40
0.7499999999999972
 40
0.7499999999999972
 40
0.8749999999999986
 40
0.8749999999999986
 40
1.0
 40
1.0
 40
1.0
 40
1.0
 10
11.37798002192122
 20
-1.184455290307305
 30
0.0
 10
11.1267080028916
 20
-1.165686616818782
 30
0.0
 10
10.86835996998124
 20
-1.129571594191425
 30
0.0
 10
10.48723354926474
 20
-1.052191909332059
 30
0.0
 10
10.36272464984646
 20
-1.022727742932638
 30
0.0
 10
10.10829178735534
 20
-0.9562690105208773
 30
0.0
 10
9.979711175994424
 20
-0.9193463227331264
 30
0.0
 10
9.596096096600633
 20
-0.7992335106283761
 30
0.0
 10
9.34623404348261
 20
-0.7071341988484718
 30
0.0
 10
8.961898143278944
 20
-0.5546450904299078
 30
0.0
 10
8.833718335810914
 20
-0.5016105932583841
 30
0.0
 10
8.581326741000254
 20
-0.3928945801801049
 30
0.0
 10
8.455876227182358
 20
-0.3370485482709498
 30
0.0
 10
8.328116963837346
 20
-0.2798512126111845
 30
0.0
  0
CIRCLE
  5
1E1
330
1F
100
AcDbEntity
  8
외형선
100
AcDbCircle
 10
0.0000000000000284
 20
0.0000000000000071
 30
0.0
 40
3.000000000000005
  0
DIMENSION
  5
1E2
330
1F
100
AcDbEntity
  8
치수문자_일반주서
100
AcDbDimension
  2
*D14
 10
-45.55597799969105
 20
-3.000000000000055
 30
0.0
 11
-45.55597799969107
 21
-0.0000000000000213
 31
0.0
 70
   160
  1
%%c<>
 71
     2
 42
5.999999999999986
 52
-270.0
  3
SLDDIMSTYLE0
100
AcDbAlignedDimension
 13
-33.05951997807895
 23
2.999999999999979
 33
0.0
 14
-33.05951997807895
 24
-3.000000000000007
 34
0.0
 50
90.0000000000002
100
AcDbRotatedDimension
  0
DIMENSION
  5
1E3
330
1F
100
AcDbEntity
  8
치수문자_일반주서
100
AcDbDimension
  2
*D15
 10
11.37798002192105
 20
19.89999999999964
 30
0.0
 11
13.62798002192105
 21
19.89999999999964
 31
0.0
 70
   160
  1
<>
 71
     2
 42
4.5
  3
SLDDIMSTYLE1
100
AcDbAlignedDimension
 13
15.87798002192105
 23
1.399999999999984
 33
0.0
 14
11.37798002192105
 24
1.186147856478009
 34
0.0
100
AcDbRotatedDimension
  0
DIMENSION
  5
1E4
330
1F
100
AcDbEntity
  8
치수문자_일반주서
100
AcDbDimension
  2
*D16
 10
-34.12201997807895
 20
41.95832450504428
 30
0.0
 11
-9.122019978078953
 21
41.95832450504428
 31
0.0
 70
   160
  1
<>
 71
     2
 42
50.0
  3
SLDDIMSTYLE2
100
AcDbAlignedDimension
 13
15.87798002192105
 23
1.399999999999984
 33
0.0
 14
-34.12201997807895
 24
1.999999999999979
 34
0.0
100
AcDbRotatedDimension
  0
DIMENSION
  5
1E5
330
1F
100
AcDbEntity
  8
치수문자_일반주서
100
AcDbDimension
  2
*D17
 10
5.87798002192099
 20
30.31999999999868
 30
0.0
 11
10.87798002192099
 21
30.31999999999868
 31
0.0
 70
   160
  1
<>
 71
     2
 42
10.00000000000006
  3
SLDDIMSTYLE0
100
AcDbAlignedDimension
 13
15.87798002192105
 23
1.397798710624151
 33
0.0
 14
5.87798002192099
 24
1.425000000000004
 34
0.0
 50
-0.0000000000022354
100
AcDbRotatedDimension
  0
DIMENSION
  5
1E6
330
1F
100
AcDbEntity
  8
치수문자_일반주서
100
AcDbDimension
  2
*D18
 10
30.28821471618357
 20
-1.495216943397832
 30
0.0
 11
30.28821471618352
 21
14.22421694339793
 31
0.0
 70
   160
  1
%%c<>
 71
     2
 42
2.997121222122316
 52
-270.0
  3
SLDDIMSTYLE3
100
AcDbAlignedDimension
 13
15.87798002192105
 23
1.501904278724432
 33
0.0
 14
15.77798002192102
 24
-1.495216943397885
 34
0.0
 50
90.0000000000002
100
AcDbRotatedDimension
  0
INSERT
  5
1E7
330
1F
100
AcDbEntity
  8
외형선
100
AcDbBlockReference
  2
SW_DOWELSYMBOL_0
 10
0.0000000000000284
 20
0.0000000000000071
 30
0.0
  0
LINE
  5
1E8
330
1F
100
AcDbEntity
  8
0
  6
Continuous
 62
     4
370
    25
100
AcDbLine
 10
0.0000000000000284
 20
3.000000000000007
 30
0.0
 11
0.0000000000000284
 21
-2.999999999999993
 31
0.0
  0
LINE
  5
1E9
330
1F
100
AcDbEntity
  8
중심선
100
AcDbLine
 10
-37.12201997807895
 20
-0.0000000000000213
 30
0.0
 11
18.87798002192105
 21
-0.0000000000000071
 31
0.0
  0
LINE
  5
1EA
330
1F
100
AcDbEntity
  8
0
  6
Continuous
 62
     4
370
    25
100
AcDbLine
 10
-33.12201997807895
 20
2.999999999999979
 30
0.0
 11
-33.12201997807895
 21
-3.000000000000007
 31
0.0
  0
LINE
  5
1EB
330
1F
100
AcDbEntity
  8
0
  6
Continuous
 62
     4
370
    25
100
AcDbLine
 10
-0.0000000000000853
 20
3.000000000000021
 30
0.0
 11
-33.12201997807895
 21
2.999999999999993
 31
0.0
  0
LINE
  5
1EC
330
1F
100
AcDbEntity
  8
0
  6
Continuous
 62
     4
370
    25
100
AcDbLine
 10
-33.12201997807895
 20
-3.000000000000007
 30
0.0
 11
0.0000000000000284
 21
-3.000000000000007
 31
0.0
  0
LINE
  5
1ED
330
1F
100
AcDbEntity
  8
0
  6
Continuous
 62
     4
370
    25
100
AcDbLine
 10
-0.0000000000000284
 20
3.000000000000007
 30
0.0
 11
0.0000000000000284
 21
-3.000000000000007
 31
0.0
  0
LINE
  5
1EE
330
1F
100
AcDbEntity
  8
0
  6
Continuous
 62
     4
370
    25
100
AcDbLine
 10
5.877980021921047
 20
1.42499999999999
 30
0.0
 11
5.877980021921047
 21
-1.425000000000018
 31
0.0
  0
LINE
  5
1EF
330
1F
100
AcDbEntity
  8
0
  6
Continuous
 62
     4
370
    25
100
AcDbLine
 10
5.877980021921047
 20
-1.425000000000004
 30
0.0
 11
8.604492810869857
 21
-1.425000000000004
 31
0.0
  0
LINE
  5
1F0
330
1F
100
AcDbEntity
  8
0
  6
Continuous
 62
     4
370
    25
100
AcDbLine
 10
8.604492810869857
 20
1.42499999999999
 30
0.0
 11
5.877980021921047
 21
1.42499999999999
 31
0.0
  0
LINE
  5
27D
330
1F
100
AcDbEntity
  8
0
  6
Continuous
 62
     1
370
    25
100
AcDbLine
 10
11.99249794115465
 20
0.3863911059838578
 30
0.0
 11
11.57464140797433
 21
0.5945917188055176
 31
0.0
  0
LINE
  5
27E
330
1F
100
AcDbEntity
  8
0
  6
Continuous
 62
     1
370
    25
100
AcDbLine
 10
11.49480478408336
 20
1.193900466003619
 30
0.0
 11
11.37786938279285
 21
1.190037833210638
 31
0.0
  0
SPLINE
  5
27F
330
1F
100
AcDbEntity
  8
0
  6
Continuous
 62
     1
370
    25
100
AcDbSpline
210
0.0
220
0.0
230
1.0
 70
     8
 71
     3
 72
    17
 73
    13
 74
     0
 42
0.000000001
 43
0.00000001
 40
0.0
 40
0.0
 40
0.0
 40
0.0
 40
0.1334917817438933
 40
0.2244732328187496
 40
0.280576081778084
 40
0.3344890092336326
 40
0.3906446422435726
 40
0.4540663663752953
 40
0.5662789782755091
 40
0.6765438931706219
 40
0.8112577588028519
 40
1.0
 40
1.0
 40
1.0
 40
1.0
 10
15.34264462612603
 20
1.029781389602569
 30
0.0
 10
15.22427547888842
 20
1.020469687613229
 30
0.0
 10
15.02523172653676
 20
1.004811586258338
 30
0.0
 10
14.77773884409581
 20
0.9944682047151971
 30
0.0
 10
14.60088794684722
 20
0.9901894544386494
 30
0.0
 10
14.45470254067445
 20
0.9887592696172085
 30
0.0
 10
14.30210141887162
 20
0.9894076233844586
 30
0.0
 10
14.09832375308932
 20
0.9934305973643269
 30
0.0
 10
13.84710634231786
 20
1.004196930075999
 30
0.0
 10
13.53255244742653
 20
1.026386893052287
 30
0.0
 10
13.15182233838632
 20
1.063989093345057
 30
0.0
 10
12.86684016634402
 20
1.105742000912677
 30
0.0
 10
12.70054813253532
 20
1.130105545716518
 30
0.0
  0
SPLINE
  5
280
330
1F
100
AcDbEntity
  8
0
  6
Continuous
 62
     1
370
    25
100
AcDbSpline
210
0.0
220
0.0
230
1.0
 70
     8
 71
     3
 72
    12
 73
     8
 74
     0
 42
0.000000001
 43
0.00000001
 40
0.0
 40
0.0
 40
0.0
 40
0.0
 40
0.3542329868263014
 40
0.571646713658965
 40
0.720892684207345
 40
0.8779634366905859
 40
1.0
 40
1.0
 40
1.0
 40
1.0
 10
12.70054813253532
 20
-1.126186950775192
 30
0.0
 10
12.83264368074802
 20
-1.106608830801331
 30
0.0
 10
13.04581407659762
 20
-1.075014461109923
 30
0.0
 10
13.31326300747625
 20
-1.044362843127963
 30
0.0
 10
13.50827508285883
 20
-1.025716715825123
 30
0.0
 10
13.66769352159886
 20
-1.012667905431293
 30
0.0
 10
13.77154021055046
 20
-1.006449693856791
 30
0.0
 10
13.81694601797162
 20
-1.003730850144912
 30
0.0
  0
LINE
  5
281
330
1F
100
AcDbEntity
  8
0
  6
Continuous
 62
     4
370
    25
100
AcDbLine
 10
11.37782875705986
 20
-1.186117896312233
 30
0.0
 11
11.49480478408336
 21
-1.18998187106229
 31
0.0
  0
SPLINE
  5
282
330
1F
100
AcDbEntity
  8
0
  6
Continuous
 62
     4
370
    25
100
AcDbSpline
210
0.0
220
0.0
230
1.0
 70
    24
 71
     3
 72
     8
 73
     4
 74
     0
 42
0.000000001
 43
0.00000001
 40
0.0
 40
0.0
 40
0.0
 40
0.0
 40
1.0
 40
1.0
 40
1.0
 40
1.0
 10
11.37798002192372
 20
0.3052040594653178
 30
0.0
 10
11.37798002192372
 20
0.3000652564417692
 30
0.0
 10
11.37798002192372
 20
0.2480724993710766
 30
0.0
 10
11.37798002192372
 20
0.1704181944368663
 30
0.0
  0
SPLINE
  5
283
330
1F
100
AcDbEntity
  8
0
  6
Continuous
 62
     4
370
    25
100
AcDbSpline
210
0.0
220
0.0
230
1.0
 70
    24
 71
     3
 72
    10
 73
     6
 74
     0
 42
0.000000001
 43
0.00000001
 40
0.0
 40
0.0
 40
0.0
 40
0.0
 40
0.5
 40
0.5
 40
1.0
 40
1.0
 40
1.0
 40
1.0
 10
11.37798002192372
 20
0.1704181944368592
 30
0.0
 10
11.37798002192372
 20
-0.0949565818413305
 30
0.0
 10
11.37798002192372
 20
-0.3742904732575418
 30
0.0
 10
11.37798002192372
 20
-0.8551941874502731
 30
0.0
 10
11.37798002192372
 20
-1.053037926769981
 30
0.0
 10
11.37798002192372
 20
-1.182495992836611
 30
0.0
  0
SPLINE
  5
284
330
1F
100
AcDbEntity
  8
0
  6
Continuous
 62
     4
370
    25
100
AcDbSpline
210
0.0
220
0.0
230
1.0
 70
    24
 71
     3
 72
    12
 73
     8
 74
     0
 42
0.000000001
 43
0.00000001
 40
0.0
 40
0.0
 40
0.0
 40
0.0
 40
0.1973647600354508
 40
0.4062980397748442
 40
0.6212903987808261
 40
0.8084883287724897
 40
1.0
 40
1.0
 40
1.0
 40
1.0
 10
11.37798002192372
 20
1.178127202112119
 30
0.0
 10
11.37798002192372
 20
1.175756141144728
 30
0.0
 10
11.37798002192372
 20
1.170875039660029
 30
0.0
 10
11.37798002192372
 20
1.092953696970838
 30
0.0
 10
11.37798002192372
 20
0.9806689655432379
 30
0.0
 10
11.37798002192372
 20
0.8355021533235174
 30
0.0
 10
11.37798002192372
 20
0.7189965552902073
 30
0.0
 10
11.37798002192372
 20
0.660080220148739
 30
0.0
  0
SPLINE
  5
285
330
1F
100
AcDbEntity
  8
0
  6
Continuous
 62
     1
370
    25
100
AcDbSpline
210
0.0
220
0.0
230
1.0
 70
     8
 71
     3
 72
     9
 73
     5
 74
     0
 42
0.000000001
 43
0.00000001
 40
0.0
 40
0.0
 40
0.0
 40
0.0
 40
0.0560631360298127
 40
1.0
 40
1.0
 40
1.0
 40
1.0
 10
12.14689521107354
 20
-0.137983419924943
 30
0.0
 10
12.13252487567846
 20
-0.1324712403510233
 30
0.0
 10
11.87620073092373
 20
-0.0341503121215112
 30
0.0
 10
11.61990603420085
 20
0.0710838188576588
 30
0.0
 10
11.37798002192406
 20
0.1704181944367775
 30
0.0
  0
SPLINE
  5
286
330
1F
100
AcDbEntity
  8
0
  6
Continuous
 62
     4
370
    25
100
AcDbSpline
210
0.0
220
0.0
230
1.0
 70
    24
 71
     3
 72
    11
 73
     7
 74
     0
 42
0.000000001
 43
0.00000001
 40
0.0
 40
0.0
 40
0.0
 40
0.0
 40
0.2360693181082624
 40
0.4811108144576596
 40
0.7332585308014953
 40
1.0
 40
1.0
 40
1.0
 40
1.0
 10
11.37798002192372
 20
0.3051307010569175
 30
0.0
 10
11.37798002192372
 20
0.3036776382380175
 30
0.0
 10
11.37798002192372
 20
0.3007162867084574
 30
0.0
 10
11.37798002192372
 20
0.2747607774308278
 30
0.0
 10
11.37798002192372
 20
0.2336180989509096
 30
0.0
 10
11.37798002192372
 20
0.1918761598080572
 30
0.0
 10
11.37798002192372
 20
0.1704181944381986
 30
0.0
  0
LINE
  5
287
330
1F
100
AcDbEntity
  8
0
  6
Continuous
 62
     4
370
    25
100
AcDbLine
 10
11.37798002192372
 20
0.3032708750666089
 30
0.0
 11
11.37798002192372
 21
0.6973786508044171
 31
0.0
  0
SPLINE
  5
288
330
1F
100
AcDbEntity
  8
0
  6
Continuous
 62
     1
370
    25
100
AcDbSpline
210
0.0
220
0.0
230
1.0
 70
     8
 71
     3
 72
    12
 73
     8
 74
     0
 42
0.000000001
 43
0.00000001
 40
0.0
 40
0.0
 40
0.0
 40
0.0
 40
0.2152126109729702
 40
0.430450483078558
 40
0.6457114560085063
 40
0.8609933469573069
 40
1.0
 40
1.0
 40
1.0
 40
1.0
 10
15.87798002192372
 20
0.0019592974706697
 30
0.0
 10
15.56352458610306
 20
0.1471872925350972
 30
0.0
 10
14.93457680444786
 20
0.4376603291726582
 30
0.0
 10
13.99108055551315
 20
0.8174093644255294
 30
0.0
 10
13.04748479218071
 20
1.087092128140757
 30
0.0
 10
12.21521869122583
 20
1.212130429444787
 30
0.0
 10
11.69759056042696
 20
1.194494762439408
 30
0.0
 10
11.49449690921122
 20
1.18757533169244
 30
0.0
  0
SPLINE
  5
289
330
1F
100
AcDbEntity
  8
0
  6
Continuous
 62
     4
370
    25
100
AcDbSpline
210
0.0
220
0.0
230
1.0
 70
    24
 71
     3
 72
    13
 73
     9
 74
     0
 42
0.000000001
 43
0.00000001
 40
0.0
 40
0.0
 40
0.0
 40
0.0
 40
0.0835506619152463
 40
0.2240614790798895
 40
0.4260453591536491
 40
0.633886785432908
 40
0.814858262493214
 40
1.0
 40
1.0
 40
1.0
 40
1.0
 10
11.37798002192372
 20
1.185536774514539
 30
0.0
 10
11.37798002192372
 20
1.18578440961149
 30
0.0
 10
11.37798002192372
 20
1.186448503525558
 30
0.0
 10
11.37798002192372
 20
1.159355001707048
 30
0.0
 10
11.37798002192372
 20
1.094545694557347
 30
0.0
 10
11.37798002192372
 20
0.9803011185212682
 30
0.0
 10
11.37798002192372
 20
0.8355911012052992
 30
0.0
 10
11.37798002192372
 20
0.7190264288819392
 30
0.0
 10
11.37798002192372
 20
0.660080220148739
 30
0.0
  0
SPLINE
  5
28A
330
1F
100
AcDbEntity
  8
0
  6
Continuous
 62
     1
370
    25
100
AcDbSpline
210
0.0
220
0.0
230
1.0
 70
     8
 71
     3
 72
     9
 73
     5
 74
     0
 42
0.000000001
 43
0.00000001
 40
0.0
 40
0.0
 40
0.0
 40
0.0
 40
0.4548294405691402
 40
1.0
 40
1.0
 40
1.0
 40
1.0
 10
12.70938418476155
 20
-1.107664979921044
 30
0.0
 10
12.50751528545456
 20
-1.141696782653703
 30
0.0
 10
12.06368100099311
 20
-1.216520001419113
 30
0.0
 10
11.61991058685723
 20
-1.194500420231243
 30
0.0
 10
11.37798002192395
 20
-1.182495992836621
 30
0.0
  0
SPLINE
  5
28B
330
1F
100
AcDbEntity
  8
0
  6
Continuous
 62
     4
370
    25
100
AcDbSpline
210
0.0
220
0.0
230
1.0
 70
    24
 71
     3
 72
    10
 73
     6
 74
     0
 42
0.000000001
 43
0.00000001
 40
0.0
 40
0.0
 40
0.0
 40
0.0
 40
0.5
 40
0.5
 40
1.0
 40
1.0
 40
1.0
 40
1.0
 10
11.37798002192372
 20
0.1704181944368592
 30
0.0
 10
11.37798002192372
 20
-0.0949565818413305
 30
0.0
 10
11.37798002192372
 20
-0.3742904732575418
 30
0.0
 10
11.37798002192372
 20
-0.8551941874502731
 30
0.0
 10
11.37798002192372
 20
-1.053037926769981
 30
0.0
 10
11.37798002192372
 20
-1.182495992836611
 30
0.0
  0
SPLINE
  5
28C
330
1F
100
AcDbEntity
  8
0
  6
Continuous
 62
     1
370
    25
100
AcDbSpline
210
0.0
220
0.0
230
1.0
 70
    24
 71
     3
 72
     8
 73
     4
 74
     0
 42
0.000000001
 43
0.00000001
 40
0.9929789949741769
 40
0.9929789949741769
 40
0.9929789949741769
 40
0.9929789949741769
 40
1.0
 40
1.0
 40
1.0
 40
1.0
 10
15.87798002192372
 20
1.397176240868539
 30
0.0
 10
15.87798002192372
 20
1.398036980825019
 30
0.0
 10
15.87798002192372
 20
1.398897573298179
 30
0.0
 10
15.87798002192372
 20
1.399758008094828
 30
0.0
  0
LINE
  5
28D
330
1F
100
AcDbEntity
  8
0
  6
Continuous
 62
     1
370
    25
100
AcDbLine
 10
15.87798002192372
 20
-1.393257645927193
 30
0.0
 11
15.87798002192372
 21
-1.395839413154111
 31
0.0
  0
ARC
  5
28E
330
1F
100
AcDbEntity
  8
0
  6
Continuous
 62
     1
370
    25
100
AcDbCircle
 10
14.87798002192372
 20
0.4714238110471491
 30
0.0
 40
0.9999999999999997
100
AcDbArc
 50
359.9999966619105
 51
73.11900455235302
  0
SPLINE
  5
28F
330
1F
100
AcDbEntity
  8
0
  6
Continuous
 62
     1
370
    25
100
AcDbSpline
210
0.0
220
0.0
230
1.0
 70
     8
 71
     3
 72
    11
 73
     7
 74
     0
 42
0.000000001
 43
0.00000001
 40
0.0
 40
0.0
 40
0.0
 40
0.0
 40
0.0132331356419757
 40
0.3415344459744827
 40
0.6700375518903243
 40
0.6893381204095439
 40
0.6893381204095439
 40
0.6893381204095439
 40
0.6893381204095439
 10
13.81693679038582
 20
1.007645031040148
 30
0.0
 10
13.82559088003265
 20
1.011800798681957
 30
0.0
 10
14.04894457282782
 20
1.119057146500438
 30
0.0
 10
14.48653897022015
 20
1.266251787117707
 30
0.0
 10
14.92833281448614
 20
1.386728990734117
 30
0.0
 10
15.15574471436432
 20
1.426208184485347
 30
0.0
 10
15.16836483211475
 20
1.428333766064277
 30
0.0
  0
LINE
  5
290
330
1F
100
AcDbEntity
  8
0
  6
Continuous
 62
     1
370
    25
100
AcDbLine
 10
15.70121640376246
 20
1.039122551240538
 30
0.0
 11
15.33824268018603
 21
1.012763045669068
 31
0.0
  0
SPLINE
  5
291
330
1F
100
AcDbEntity
  8
0
  6
Continuous
 62
     1
370
    25
100
AcDbSpline
210
0.0
220
0.0
230
1.0
 70
    24
 71
     3
 72
     8
 73
     4
 74
     0
 42
0.000000001
 43
0.00000001
 40
0.0
 40
0.0
 40
0.0
 40
0.0
 40
0.3283828249260366
 40
0.3283828249260366
 40
0.3283828249260366
 40
0.3283828249260366
 10
15.87798002192372
 20
0.0019592974706697
 30
0.0
 10
15.87798002192372
 20
0.1660542015736866
 30
0.0
 10
15.87798002192372
 20
0.3272402917184571
 30
0.0
 10
15.87798002192372
 20
0.4714237527864995
 30
0.0
  0
ARC
  5
292
330
1F
100
AcDbEntity
  8
0
  6
Continuous
 62
     1
370
    25
100
AcDbCircle
 10
14.87798002192372
 20
-0.4675052161058133
 30
0.0
 40
0.9999999999999997
100
AcDbArc
 50
286.880995447647
 51
0.0000033380895395
  0
SPLINE
  5
293
330
1F
100
AcDbEntity
  8
0
  6
Continuous
 62
     1
370
    25
100
AcDbSpline
210
0.0
220
0.0
230
1.0
 70
    24
 71
     3
 72
     8
 73
     4
 74
     0
 42
0.000000001
 43
0.00000001
 40
0.6570932991353768
 40
0.6570932991353768
 40
0.6570932991353768
 40
0.6570932991353768
 40
1.0
 40
1.0
 40
1.0
 40
1.0
 10
15.87798002192372
 20
-0.467505157846233
 30
0.0
 10
15.87798002192372
 20
-0.315745246464683
 30
0.0
 10
15.87798002192372
 20
-0.1556507543670307
 30
0.0
 10
15.87798002192372
 20
0.0019592974706697
 30
0.0
  0
SPLINE
  5
294
330
1F
100
AcDbEntity
  8
0
  6
Continuous
 62
     1
370
    25
100
AcDbSpline
210
0.0
220
0.0
230
1.0
 70
     8
 71
     3
 72
    12
 73
     8
 74
     0
 42
0.000000001
 43
0.00000001
 40
0.0628766721884145
 40
0.0628766721884145
 40
0.0628766721884145
 40
0.0628766721884145
 40
0.2412210240886674
 40
0.4824699611798129
 40
0.7237444244961632
 40
0.9650420024851548
 40
1.0
 40
1.0
 40
1.0
 40
1.0
 10
15.63208437483931
 20
-1.124259831554951
 30
0.0
 10
15.39959683920645
 20
-1.069201414431603
 30
0.0
 10
14.85261863341381
 20
-0.9302523079580425
 30
0.0
 10
13.99109607552944
 20
-0.5775971735455023
 30
0.0
 10
13.04751533440984
 20
-0.1312334829177431
 30
0.0
 10
12.37278719266695
 20
0.2142680842470881
 30
0.0
 10
12.01268646402295
 20
0.3750535235675869
 30
0.0
 10
11.96711851356955
 20
0.3953996721582165
 30
0.0
  0
SPLINE
  5
295
330
1F
100
AcDbEntity
  8
0
  6
Continuous
 62
     1
370
    25
100
AcDbSpline
210
0.0
220
0.0
230
1.0
 70
     8
 71
     3
 72
    22
 73
    18
 74
     0
 42
0.000000001
 43
0.00000001
 40
0.0
 40
0.0
 40
0.0
 40
0.0
 40
0.125
 40
0.125
 40
0.25
 40
0.25
 40
0.375
 40
0.375
 40
0.5
 40
0.5
 40
0.625
 40
0.625
 40
0.75
 40
0.75
 40
0.875
 40
0.875
 40
1.0
 40
1.0
 40
1.0
 40
1.0
 10
15.16836483211412
 20
-1.424415171122842
 30
0.0
 10
14.87793887157645
 20
-1.356667601444482
 30
0.0
 10
14.96743806681391
 20
-1.376757953829561
 30
0.0
 10
14.70912518318582
 20
-1.318903619826251
 30
0.0
 10
14.67810030213442
 20
-1.312088282210151
 30
0.0
 10
14.49422285869085
 20
-1.261063790156911
 30
0.0
 10
14.30828352945784
 20
-1.199855622480392
 30
0.0
 10
13.94515859336863
 20
-1.061546819856822
 30
0.0
 10
13.76208231942124
 20
-0.9837666228337909
 30
0.0
 10
13.39278305539361
 20
-0.8141424834250124
 30
0.0
 10
13.21160572007742
 20
-0.7231241210777419
 30
0.0
 10
12.84656455330352
 20
-0.5312787610005429
 30
0.0
 10
12.66039517996822
 20
-0.429989226282661
 30
0.0
 10
12.29314658490696
 20
-0.2233759002759221
 30
0.0
 10
12.11349718079296
 20
-0.1183715126259308
 30
0.0
 10
11.74486351782073
 20
0.0936427588907875
 30
0.0
 10
11.55907932568496
 20
0.2000261418924367
 30
0.0
 10
11.37798002192372
 20
0.3032708750666089
 30
0.0
  0
SPLINE
  5
296
330
1F
100
AcDbEntity
  8
0
  6
Continuous
 62
     1
370
    25
100
AcDbSpline
210
0.0
220
0.0
230
1.0
 70
     8
 71
     3
 72
    22
 73
    18
 74
     0
 42
0.000000001
 43
0.00000001
 40
0.0837117388835083
 40
0.0837117388835083
 40
0.0837117388835083
 40
0.0837117388835083
 40
0.125
 40
0.125
 40
0.25
 40
0.25
 40
0.375
 40
0.375
 40
0.5
 40
0.5
 40
0.625
 40
0.625
 40
0.75
 40
0.75
 40
0.875
 40
0.875
 40
1.0
 40
1.0
 40
1.0
 40
1.0
 10
15.41061189496426
 20
-1.313852241752691
 30
0.0
 10
15.34759510551314
 20
-1.296425281827663
 30
0.0
 10
15.28661909192655
 20
-1.278513651166403
 30
0.0
 10
15.04201534452235
 20
-1.202280516301403
 30
0.0
 10
14.86251724186562
 20
-1.136059465721011
 30
0.0
 10
14.49422285869085
 20
-0.9865507879724333
 30
0.0
 10
14.30828352945784
 20
-0.9035129909468012
 30
0.0
 10
13.94515859336875
 20
-0.7265877532580838
 30
0.0
 10
13.76208231942135
 20
-0.6317955140089531
 30
0.0
 10
13.39278305539361
 20
-0.4335777994792416
 30
0.0
 10
13.21160572007753
 20
-0.3310948761244106
 30
0.0
 10
12.84656455330352
 20
-0.1222299814737013
 30
0.0
 10
12.66039517996833
 20
-0.0153897339162405
 30
0.0
 10
12.29314658490696
 20
0.1960009449974578
 30
0.0
 10
12.11349718079296
 20
0.3002813600811685
 30
0.0
 10
11.74486351782073
 20
0.5046086533258887
 30
0.0
 10
11.55907932568496
 20
0.6039965014444384
 30
0.0
 10
11.37798002192372
 20
0.6973786508044171
 30
0.0
  0
DIMENSION
  5
297
330
1F
100
AcDbEntity
  8
치수문자_일반주서
100
AcDbDimension
  2
*D21
 10
14.87798002192372
 20
-0.4675052161058133
 30
0.0
 11
26.69143893978825
 21
-19.86660591211568
 31
0.0
 70
   164
  1
<>
 71
     5
 42
1.000000000000008
  3
SLDDIMSTYLE3
100
AcDbRadialDimension
 15
15.39809756325181
 25
-1.321599908281591
 35
0.0
 40
0.0
1001
ACAD_DSTYLE_DIMRADIAL_EXTENSION
1070
   387
1070
     1
1070
   388
1040
5.007017931960348
1070
   390
1040
0.0000000582606499
  0
ENDSEC
  0
SECTION
  2
OBJECTS
  0
DICTIONARY
  5
C
330
0
100
AcDbDictionary
281
     1
  3
ACAD_GROUP
350
D
  3
ACAD_IMAGE_VARS
350
13D
  3
ACAD_LAYOUT
350
1A
  3
ACAD_MLINESTYLE
350
17
  3
ACAD_PLOTSETTINGS
350
19
  3
ACAD_PLOTSTYLENAME
350
E
  3
ACAD_SCALELIST
350
47
  3
APPDATA
350
13B
  3
DWGPROPS
350
2A1
  0
DICTIONARY
  5
D
102
{ACAD_REACTORS
330
C
102
}
330
C
100
AcDbDictionary
281
     1
  0
RASTERVARIABLES
  5
13D
102
{ACAD_REACTORS
330
C
102
}
330
C
100
AcDbRasterVariables
 90
        0
 70
     1
 71
     1
 72
     1
  0
DICTIONARY
  5
1A
102
{ACAD_REACTORS
330
C
102
}
330
C
100
AcDbDictionary
281
     1
  3
Layout1
350
1E
  3
Layout2
350
26
  3
Model
350
22
  0
DICTIONARY
  5
17
102
{ACAD_REACTORS
330
C
102
}
330
C
100
AcDbDictionary
281
     1
  3
Standard
350
18
  0
DICTIONARY
  5
19
102
{ACAD_REACTORS
330
C
102
}
330
C
100
AcDbDictionary
281
     1
  0
ACDBDICTIONARYWDFLT
  5
E
102
{ACAD_REACTORS
330
C
102
}
330
C
100
AcDbDictionary
281
     1
  3
Normal
350
F
100
AcDbDictionaryWithDefault
340
F
  0
DICTIONARY
  5
47
102
{ACAD_REACTORS
330
C
102
}
330
C
100
AcDbDictionary
281
     1
  3
A0
350
48
  3
A1
350
49
  3
A2
350
4A
  3
A3
350
4B
  3
A4
350
4C
  3
A5
350
4D
  3
A6
350
4E
  3
A7
350
4F
  3
A8
350
50
  3
A9
350
51
  3
B0
350
52
  3
B1
350
53
  3
B2
350
54
  3
B3
350
55
  3
B4
350
56
  3
B5
350
57
  3
B6
350
58
  3
B7
350
59
  3
B8
350
5A
  3
B9
350
5B
  3
C0
350
5C
  3
C1
350
5D
  3
C2
350
5E
  3
C3
350
5F
  3
C4
350
60
  3
C5
350
61
  3
C6
350
62
  3
C7
350
63
  3
C8
350
64
  3
C9
350
65
  3
D0
350
66
  3
D1
350
67
  3
D2
350
68
  0
DICTIONARY
  5
13B
102
{ACAD_REACTORS
330
C
102
}
330
C
100
AcDbDictionary
281
     1
  0
XRECORD
  5
2A1
102
{ACAD_REACTORS
330
C
102
}
330
C
100
AcDbXrecord
280
     1
  1
DWGPROPS COOKIE
  2

  3

  4

  6

  7

  8
12016016
  9

300
=
301
=
302
=
303
=
304
=
305
=
306
=
307
=
308
=
309
=
 40
0.0
 41
2458263.415181204
 42
2458268.992108357
  1

 90
        0
  0
LAYOUT
  5
1E
102
{ACAD_REACTORS
330
1A
102
}
330
1A
100
AcDbPlotSettings
  1

  2
none_device
  4

  6

 40
0.0
 41
0.0
 42
0.0
 43
0.0
 44
0.0
 45
0.0
 46
0.0
 47
0.0
 48
0.0
 49
0.0
140
0.0
141
0.0
142
1.0
143
1.0
 70
   688
 72
     1
 73
     0
 74
     5
  7

 75
    16
147
1.0
148
0.0
149
0.0
100
AcDbLayout
  1
Layout1
 70
     1
 71
     1
 10
0.0
 20
0.0
 11
420.0
 21
297.0
 12
0.0
 22
0.0
 32
0.0
 14
1.000000000000000E+20
 24
1.000000000000000E+20
 34
1.000000000000000E+20
 15
-1.000000000000000E+20
 25
-1.000000000000000E+20
 35
-1.000000000000000E+20
146
0.0
 13
0.0
 23
0.0
 33
0.0
 16
1.0
 26
0.0
 36
0.0
 17
0.0
 27
1.0
 37
0.0
 76
     0
330
1B
  0
LAYOUT
  5
26
102
{ACAD_REACTORS
330
1A
102
}
330
1A
100
AcDbPlotSettings
  1

  2
none_device
  4

  6

 40
0.0
 41
0.0
 42
0.0
 43
0.0
 44
0.0
 45
0.0
 46
0.0
 47
0.0
 48
0.0
 49
0.0
140
0.0
141
0.0
142
1.0
143
1.0
 70
   688
 72
     1
 73
     0
 74
     5
  7

 75
    16
147
1.0
148
0.0
149
0.0
100
AcDbLayout
  1
Layout2
 70
     1
 71
     2
 10
0.0
 20
0.0
 11
0.0
 21
0.0
 12
0.0
 22
0.0
 32
0.0
 14
0.0
 24
0.0
 34
0.0
 15
0.0
 25
0.0
 35
0.0
146
0.0
 13
0.0
 23
0.0
 33
0.0
 16
1.0
 26
0.0
 36
0.0
 17
0.0
 27
1.0
 37
0.0
 76
     0
330
23
  0
LAYOUT
  5
22
102
{ACAD_REACTORS
330
1A
102
}
330
1A
100
AcDbPlotSettings
  1

  2
none_device
  4
ANSI_A_(11.00_x_8.50_Inches)
  6

 40
6.35
 41
19.05
 42
6.35000508
 43
19.05000254
 44
279.4
 45
215.9
 46
107.2856530897896
 47
94.60899039257822
 48
0.0
 49
0.0
140
0.0
141
0.0
142
0.087396033275827
143
1.0
 70
  1696
 72
     0
 73
     0
 74
     0
  7

 75
     0
147
0.0235690232323232
148
0.0
149
0.0
100
AcDbLayout
  1
Model
 70
     1
 71
     0
 10
0.0
 20
0.0
 11
420.0
 21
297.0
 12
0.0
 22
0.0
 32
0.0
 14
1.000000000000000E+20
 24
1.000000000000000E+20
 34
1.000000000000000E+20
 15
-1.000000000000000E+20
 25
-1.000000000000000E+20
 35
-1.000000000000000E+20
146
0.0
 13
0.0
 23
0.0
 33
0.0
 16
1.0
 26
0.0
 36
0.0
 17
0.0
 27
1.0
 37
0.0
 76
     0
330
1F
331
29
  0
MLINESTYLE
  5
18
102
{ACAD_REACTORS
330
17
102
}
330
17
100
AcDbMlineStyle
  2
Standard
 70
     0
  3

 62
   256
 51
90.0
 52
90.0
 71
     2
 49
0.5
 62
   256
  6
BYLAYER
 49
-0.5
 62
   256
  6
BYLAYER
  0
ACDBPLACEHOLDER
  5
F
102
{ACAD_REACTORS
330
E
102
}
330
E
  0
SCALE
  5
48
102
{ACAD_REACTORS
330
47
102
}
330
47
100
AcDbScale
 70
     0
300
1:1
140
1.0
141
1.0
290
     1
  0
SCALE
  5
49
102
{ACAD_REACTORS
330
47
102
}
330
47
100
AcDbScale
 70
     0
300
1:2
140
1.0
141
2.0
290
     0
  0
SCALE
  5
4A
102
{ACAD_REACTORS
330
47
102
}
330
47
100
AcDbScale
 70
     0
300
1:4
140
1.0
141
4.0
290
     0
  0
SCALE
  5
4B
102
{ACAD_REACTORS
330
47
102
}
330
47
100
AcDbScale
 70
     0
300
1:5
140
1.0
141
5.0
290
     0
  0
SCALE
  5
4C
102
{ACAD_REACTORS
330
47
102
}
330
47
100
AcDbScale
 70
     0
300
1:8
140
1.0
141
8.0
290
     0
  0
SCALE
  5
4D
102
{ACAD_REACTORS
330
47
102
}
330
47
100
AcDbScale
 70
     0
300
1:10
140
1.0
141
10.0
290
     0
  0
SCALE
  5
4E
102
{ACAD_REACTORS
330
47
102
}
330
47
100
AcDbScale
 70
     0
300
1:16
140
1.0
141
16.0
290
     0
  0
SCALE
  5
4F
102
{ACAD_REACTORS
330
47
102
}
330
47
100
AcDbScale
 70
     0
300
1:20
140
1.0
141
20.0
290
     0
  0
SCALE
  5
50
102
{ACAD_REACTORS
330
47
102
}
330
47
100
AcDbScale
 70
     0
300
1:30
140
1.0
141
30.0
290
     0
  0
SCALE
  5
51
102
{ACAD_REACTORS
330
47
102
}
330
47
100
AcDbScale
 70
     0
300
1:40
140
1.0
141
40.0
290
     0
  0
SCALE
  5
52
102
{ACAD_REACTORS
330
47
102
}
330
47
100
AcDbScale
 70
     0
300
1:50
140
1.0
141
50.0
290
     0
  0
SCALE
  5
53
102
{ACAD_REACTORS
330
47
102
}
330
47
100
AcDbScale
 70
     0
300
1:100
140
1.0
141
100.0
290
     0
  0
SCALE
  5
54
102
{ACAD_REACTORS
330
47
102
}
330
47
100
AcDbScale
 70
     0
300
2:1
140
2.0
141
1.0
290
     0
  0
SCALE
  5
55
102
{ACAD_REACTORS
330
47
102
}
330
47
100
AcDbScale
 70
     0
300
4:1
140
4.0
141
1.0
290
     0
  0
SCALE
  5
56
102
{ACAD_REACTORS
330
47
102
}
330
47
100
AcDbScale
 70
     0
300
8:1
140
8.0
141
1.0
290
     0
  0
SCALE
  5
57
102
{ACAD_REACTORS
330
47
102
}
330
47
100
AcDbScale
 70
     0
300
10:1
140
10.0
141
1.0
290
     0
  0
SCALE
  5
58
102
{ACAD_REACTORS
330
47
102
}
330
47
100
AcDbScale
 70
     0
300
100:1
140
100.0
141
1.0
290
     0
  0
SCALE
  5
59
102
{ACAD_REACTORS
330
47
102
}
330
47
100
AcDbScale
 70
     0
300
1/128" = 1'-0"
140
0.0078125
141
12.0
290
     0
  0
SCALE
  5
5A
102
{ACAD_REACTORS
330
47
102
}
330
47
100
AcDbScale
 70
     0
300
1/64" = 1'-0"
140
0.015625
141
12.0
290
     0
  0
SCALE
  5
5B
102
{ACAD_REACTORS
330
47
102
}
330
47
100
AcDbScale
 70
     0
300
1/32" = 1'-0"
140
0.03125
141
12.0
290
     0
  0
SCALE
  5
5C
102
{ACAD_REACTORS
330
47
102
}
330
47
100
AcDbScale
 70
     0
300
1/16" = 1'-0"
140
0.0625
141
12.0
290
     0
  0
SCALE
  5
5D
102
{ACAD_REACTORS
330
47
102
}
330
47
100
AcDbScale
 70
     0
300
3/32" = 1'-0"
140
0.09375
141
12.0
290
     0
  0
SCALE
  5
5E
102
{ACAD_REACTORS
330
47
102
}
330
47
100
AcDbScale
 70
     0
300
1/8" = 1'-0"
140
0.125
141
12.0
290
     0
  0
SCALE
  5
5F
102
{ACAD_REACTORS
330
47
102
}
330
47
100
AcDbScale
 70
     0
300
3/16" = 1'-0"
140
0.1875
141
12.0
290
     0
  0
SCALE
  5
60
102
{ACAD_REACTORS
330
47
102
}
330
47
100
AcDbScale
 70
     0
300
1/4" = 1'-0"
140
0.25
141
12.0
290
     0
  0
SCALE
  5
61
102
{ACAD_REACTORS
330
47
102
}
330
47
100
AcDbScale
 70
     0
300
3/8" = 1'-0"
140
0.375
141
12.0
290
     0
  0
SCALE
  5
62
102
{ACAD_REACTORS
330
47
102
}
330
47
100
AcDbScale
 70
     0
300
1/2" = 1'-0"
140
0.5
141
12.0
290
     0
  0
SCALE
  5
63
102
{ACAD_REACTORS
330
47
102
}
330
47
100
AcDbScale
 70
     0
300
3/4" = 1'-0"
140
0.75
141
12.0
290
     0
  0
SCALE
  5
64
102
{ACAD_REACTORS
330
47
102
}
330
47
100
AcDbScale
 70
     0
300
1" = 1'-0"
140
1.0
141
12.0
290
     0
  0
SCALE
  5
65
102
{ACAD_REACTORS
330
47
102
}
330
47
100
AcDbScale
 70
     0
300
1-1/2" = 1'-0"
140
1.5
141
12.0
290
     0
  0
SCALE
  5
66
102
{ACAD_REACTORS
330
47
102
}
330
47
100
AcDbScale
 70
     0
300
3" = 1'-0"
140
3.0
141
12.0
290
     0
  0
SCALE
  5
67
102
{ACAD_REACTORS
330
47
102
}
330
47
100
AcDbScale
 70
     0
300
6" = 1'-0"
140
6.0
141
12.0
290
     0
  0
SCALE
  5
68
102
{ACAD_REACTORS
330
47
102
}
330
47
100
AcDbScale
 70
     0
300
1'-0" = 1'-0"
140
12.0
141
12.0
290
     0
  0
ENDSEC
  0
EOF
