  0
SECTION
  2
HEADER
  9
$ACADVER
  1
AC1015
  9
$ACADMAINTVER
 70
     6
  9
$DWGCODEPAGE
  3
ANSI_949
  9
$INSBASE
 10
0.0
 20
0.0
 30
0.0
  9
$EXTMIN
 10
1.000000000000000E+20
 20
1.000000000000000E+20
 30
1.000000000000000E+20
  9
$EXTMAX
 10
-1.000000000000000E+20
 20
-1.000000000000000E+20
 30
-1.000000000000000E+20
  9
$LIMMIN
 10
0.0
 20
0.0
  9
$LIMMAX
 10
420.0
 20
297.0
  9
$ORTHOMODE
 70
     0
  9
$REGENMODE
 70
     1
  9
$FILLMODE
 70
     1
  9
$QTEXTMODE
 70
     0
  9
$MIRRTEXT
 70
     1
  9
$LTSCALE
 40
1.0
  9
$ATTMODE
 70
     1
  9
$TEXTSIZE
 40
3.5
  9
$TRACEWID
 40
1.0
  9
$TEXTSTYLE
  7
Standard
  9
$CLAYER
  8
0
  9
$CELTYPE
  6
ByLayer
  9
$CECOLOR
 62
   256
  9
$CELTSCALE
 40
1.0
  9
$DISPSILH
 70
     0
  9
$DIMSCALE
 40
1.0
  9
$DIMASZ
 40
3.302
  9
$DIMEXO
 40
1.0
  9
$DIMDLI
 40
3.75
  9
$DIMRND
 40
0.0
  9
$DIMDLE
 40
0.0
  9
$DIMEXE
 40
1.0
  9
$DIMTP
 40
0.0
  9
$DIMTM
 40
0.0
  9
$DIMTXT
 40
3.5
  9
$DIMCEN
 40
2.5
  9
$DIMTSZ
 40
0.0
  9
$DIMTOL
 70
     0
  9
$DIMLIM
 70
     0
  9
$DIMTIH
 70
     1
  9
$DIMTOH
 70
     1
  9
$DIMSE1
 70
     0
  9
$DIMSE2
 70
     0
  9
$DIMTAD
 70
     1
  9
$DIMZIN
 70
     0
  9
$DIMBLK
  1

  9
$DIMASO
 70
     1
  9
$DIMSHO
 70
     1
  9
$DIMPOST
  1

  9
$DIMAPOST
  1

  9
$DIMALT
 70
     0
  9
$DIMALTD
 70
     3
  9
$DIMALTF
 40
0.0393700787401575
  9
$DIMLFAC
 40
1.0
  9
$DIMTOFL
 70
     1
  9
$DIMTVP
 40
0.0
  9
$DIMTIX
 70
     0
  9
$DIMSOXD
 70
     0
  9
$DIMSAH
 70
     0
  9
$DIMBLK1
  1

  9
$DIMBLK2
  1

  9
$DIMSTYLE
  2
ISO-25
  9
$DIMCLRD
 70
     0
  9
$DIMCLRE
 70
     0
  9
$DIMCLRT
 70
     0
  9
$DIMTFAC
 40
1.0
  9
$DIMGAP
 40
1.524
  9
$DIMJUST
 70
     0
  9
$DIMSD1
 70
     0
  9
$DIMSD2
 70
     0
  9
$DIMTOLJ
 70
     0
  9
$DIMTZIN
 70
     0
  9
$DIMALTZ
 70
     0
  9
$DIMALTTZ
 70
     0
  9
$DIMUPT
 70
     0
  9
$DIMDEC
 70
     2
  9
$DIMTDEC
 70
     2
  9
$DIMALTU
 70
     2
  9
$DIMALTTD
 70
     3
  9
$DIMTXSTY
  7
Standard
  9
$DIMAUNIT
 70
     0
  9
$DIMADEC
 70
     2
  9
$DIMALTRND
 40
0.0
  9
$DIMAZIN
 70
     0
  9
$DIMDSEP
 70
    44
  9
$DIMATFIT
 70
     3
  9
$DIMFRAC
 70
     0
  9
$DIMLDRBLK
  1

  9
$DIMLUNIT
 70
     2
  9
$DIMLWD
 70
    -2
  9
$DIMLWE
 70
    -2
  9
$DIMTMOVE
 70
     0
  9
$LUNITS
 70
     2
  9
$LUPREC
 70
     2
  9
$SKETCHINC
 40
1.0
  9
$FILLETRAD
 40
10.0
  9
$AUNITS
 70
     0
  9
$AUPREC
 70
     2
  9
$MENU
  1
.
  9
$ELEVATION
 40
0.0
  9
$PELEVATION
 40
0.0
  9
$THICKNESS
 40
0.0
  9
$LIMCHECK
 70
     0
  9
$CHAMFERA
 40
0.0
  9
$CHAMFERB
 40
0.0
  9
$CHAMFERC
 40
0.0
  9
$CHAMFERD
 40
0.0
  9
$SKPOLY
 70
     0
  9
$TDCREATE
 40
2458263.786967315
  9
$TDUCREATE
 40
2458263.411967315
  9
$TDUPDATE
 40
2458269.358197384
  9
$TDUUPDATE
 40
2458268.983197384
  9
$TDINDWG
 40
0.0000777315
  9
$TDUSRTIMER
 40
2458268.983119919
  9
$USRTIMER
 70
     1
  9
$ANGBASE
 50
0.0
  9
$ANGDIR
 70
     0
  9
$PDMODE
 70
     0
  9
$PDSIZE
 40
-1.0
  9
$PLINEWID
 40
0.0
  9
$SPLFRAME
 70
     0
  9
$SPLINETYPE
 70
     6
  9
$SPLINESEGS
 70
     8
  9
$HANDSEED
  5
293
  9
$SURFTAB1
 70
     6
  9
$SURFTAB2
 70
     6
  9
$SURFTYPE
 70
     6
  9
$SURFU
 70
     6
  9
$SURFV
 70
     6
  9
$UCSBASE
  2

  9
$UCSNAME
  2

  9
$UCSORG
 10
0.0
 20
0.0
 30
0.0
  9
$UCSXDIR
 10
1.0
 20
0.0
 30
0.0
  9
$UCSYDIR
 10
0.0
 20
1.0
 30
0.0
  9
$UCSORTHOREF
  2

  9
$UCSORTHOVIEW
 70
     0
  9
$UCSORGTOP
 10
0.0
 20
0.0
 30
0.0
  9
$UCSORGBOTTOM
 10
0.0
 20
0.0
 30
0.0
  9
$UCSORGLEFT
 10
0.0
 20
0.0
 30
0.0
  9
$UCSORGRIGHT
 10
0.0
 20
0.0
 30
0.0
  9
$UCSORGFRONT
 10
0.0
 20
0.0
 30
0.0
  9
$UCSORGBACK
 10
0.0
 20
0.0
 30
0.0
  9
$PUCSBASE
  2

  9
$PUCSNAME
  2

  9
$PUCSORG
 10
0.0
 20
0.0
 30
0.0
  9
$PUCSXDIR
 10
1.0
 20
0.0
 30
0.0
  9
$PUCSYDIR
 10
0.0
 20
1.0
 30
0.0
  9
$PUCSORTHOREF
  2

  9
$PUCSORTHOVIEW
 70
     0
  9
$PUCSORGTOP
 10
0.0
 20
0.0
 30
0.0
  9
$PUCSORGBOTTOM
 10
0.0
 20
0.0
 30
0.0
  9
$PUCSORGLEFT
 10
0.0
 20
0.0
 30
0.0
  9
$PUCSORGRIGHT
 10
0.0
 20
0.0
 30
0.0
  9
$PUCSORGFRONT
 10
0.0
 20
0.0
 30
0.0
  9
$PUCSORGBACK
 10
0.0
 20
0.0
 30
0.0
  9
$USERI1
 70
     0
  9
$USERI2
 70
     0
  9
$USERI3
 70
     0
  9
$USERI4
 70
     0
  9
$USERI5
 70
     0
  9
$USERR1
 40
0.0
  9
$USERR2
 40
0.0
  9
$USERR3
 40
0.0
  9
$USERR4
 40
0.0
  9
$USERR5
 40
0.0
  9
$WORLDVIEW
 70
     1
  9
$SHADEDGE
 70
     3
  9
$SHADEDIF
 70
    70
  9
$TILEMODE
 70
     1
  9
$MAXACTVP
 70
    64
  9
$PINSBASE
 10
0.0
 20
0.0
 30
0.0
  9
$PLIMCHECK
 70
     0
  9
$PEXTMIN
 10
1.000000000000000E+20
 20
1.000000000000000E+20
 30
1.000000000000000E+20
  9
$PEXTMAX
 10
-1.000000000000000E+20
 20
-1.000000000000000E+20
 30
-1.000000000000000E+20
  9
$PLIMMIN
 10
0.0
 20
0.0
  9
$PLIMMAX
 10
0.0
 20
0.0
  9
$UNITMODE
 70
     0
  9
$VISRETAIN
 70
     1
  9
$PLINEGEN
 70
     0
  9
$PSLTSCALE
 70
     1
  9
$TREEDEPTH
 70
  3020
  9
$CMLSTYLE
  2
Standard
  9
$CMLJUST
 70
     0
  9
$CMLSCALE
 40
20.0
  9
$PROXYGRAPHICS
 70
     1
  9
$MEASUREMENT
 70
     1
  9
$CELWEIGHT
370
    -1
  9
$ENDCAPS
280
     0
  9
$JOINSTYLE
280
     0
  9
$LWDISPLAY
290
     1
  9
$INSUNITS
 70
     4
  9
$HYPERLINKBASE
  1

  9
$STYLESHEET
  1

  9
$XEDIT
290
     1
  9
$CEPSNTYPE
380
     0
  9
$PSTYLEMODE
290
     1
  9
$FINGERPRINTGUID
  2
{10971E23-C65E-45D3-930B-0E96F559E911}
  9
$VERSIONGUID
  2
{FAEB1C32-E019-11D5-929B-00C0DF256EC4}
  9
$EXTNAMES
290
     1
  9
$PSVPSCALE
 40
0.0
  9
$OLESTARTUP
290
     0
  0
ENDSEC
  0
SECTION
  2
CLASSES
  0
CLASS
  1
ACDBDICTIONARYWDFLT
  2
AcDbDictionaryWithDefault
  3
ObjectDBX Classes
 90
        0
280
     0
281
     0
  0
CLASS
  1
VISUALSTYLE
  2
AcDbVisualStyle
  3
ObjectDBX Classes
 90
     4095
280
     0
281
     0
  0
CLASS
  1
MATERIAL
  2
AcDbMaterial
  3
ObjectDBX Classes
 90
     1153
280
     0
281
     0
  0
CLASS
  1
SCALE
  2
AcDbScale
  3
ObjectDBX Classes
 90
     1153
280
     0
281
     0
  0
CLASS
  1
TABLESTYLE
  2
AcDbTableStyle
  3
ObjectDBX Classes
 90
     4095
280
     0
281
     0
  0
CLASS
  1
MLEADERSTYLE
  2
AcDbMLeaderStyle
  3
ACDB_MLEADERSTYLE_CLASS
 90
     4095
280
     0
281
     0
  0
CLASS
  1
SUN
  2
AcDbSun
  3
SCENEOE
 90
     1153
280
     0
281
     0
  0
CLASS
  1
ACDBPLACEHOLDER
  2
AcDbPlaceHolder
  3
ObjectDBX Classes
 90
        0
280
     0
281
     0
  0
CLASS
  1
LAYOUT
  2
AcDbLayout
  3
ObjectDBX Classes
 90
        0
280
     0
281
     0
  0
CLASS
  1
RASTERVARIABLES
  2
AcDbRasterVariables
  3
ISM
 90
        0
280
     0
281
     0
  0
ENDSEC
  0
SECTION
  2
TABLES
  0
TABLE
  2
VPORT
  5
8
330
0
100
AcDbSymbolTable
 70
     1
  0
VPORT
  5
29
330
8
100
AcDbSymbolTableRecord
100
AcDbViewportTableRecord
  2
*Active
 70
     0
 10
0.0
 20
0.0
 11
1.0
 21
1.0
 12
42.72558781455952
 22
-4.649644632021051
 13
0.0
 23
0.0
 14
10.0
 24
10.0
 15
10.0
 25
10.0
 16
0.0
 26
0.0
 36
1.0
 17
0.0
 27
0.0
 37
0.0
 40
41.0930289719505
 41
1.964636542239686
 42
50.0
 43
0.0
 44
0.0
 50
0.0
 51
0.0
 71
    16
 72
  2000
 73
     1
 74
     3
 75
     0
 76
     0
 77
     0
 78
     0
281
     0
 65
     1
110
0.0
120
0.0
130
0.0
111
1.0
121
0.0
131
0.0
112
0.0
122
1.0
132
0.0
 79
     0
146
0.0
  0
ENDTAB
  0
TABLE
  2
LTYPE
  5
5
330
0
100
AcDbSymbolTable
 70
     6
  0
LTYPE
  5
14
330
5
100
AcDbSymbolTableRecord
100
AcDbLinetypeTableRecord
  2
ByBlock
 70
     0
  3

 72
    65
 73
     0
 40
0.0
  0
LTYPE
  5
15
330
5
100
AcDbSymbolTableRecord
100
AcDbLinetypeTableRecord
  2
ByLayer
 70
     0
  3

 72
    65
 73
     0
 40
0.0
  0
LTYPE
  5
16
330
5
100
AcDbSymbolTableRecord
100
AcDbLinetypeTableRecord
  2
Continuous
 70
     0
  3
Solid line
 72
    65
 73
     0
 40
0.0
  0
LTYPE
  5
6E
330
5
100
AcDbSymbolTableRecord
100
AcDbLinetypeTableRecord
  2
HIDDEN
 70
     0
  3
Hidden __ __ __ __ __ __ __ __ __ __ __ __ __ __
 72
    65
 73
     2
 40
1.905
 49
1.27
 74
     0
 49
-0.635
 74
     0
  0
LTYPE
  5
6F
330
5
100
AcDbSymbolTableRecord
100
AcDbLinetypeTableRecord
  2
PHANTOM
 70
     0
  3
Phantom ______  __  __  ______  __  __  ______
 72
    65
 73
     6
 40
12.7
 49
6.35
 74
     0
 49
-1.27
 74
     0
 49
1.27
 74
     0
 49
-1.27
 74
     0
 49
1.27
 74
     0
 49
-1.27
 74
     0
  0
LTYPE
  5
70
330
5
100
AcDbSymbolTableRecord
100
AcDbLinetypeTableRecord
  2
CENTER
 70
     0
  3
Center ____ _ ____ _ ____ _ ____ _ ____ _ ____
 72
    65
 73
     4
 40
10.16
 49
6.35
 74
     0
 49
-1.27
 74
     0
 49
1.27
 74
     0
 49
-1.27
 74
     0
  0
LTYPE
  5
71
330
5
100
AcDbSymbolTableRecord
100
AcDbLinetypeTableRecord
  2
CENTERX2
 70
     0
  3
Center (2x) ________  __  ________  __  _____
 72
    65
 73
     4
 40
20.32
 49
12.7
 74
     0
 49
-2.54
 74
     0
 49
2.54
 74
     0
 49
-2.54
 74
     0
  0
LTYPE
  5
72
330
5
100
AcDbSymbolTableRecord
100
AcDbLinetypeTableRecord
  2
DOT2
 70
     0
  3
Dot (.5x) ........................................
 72
    65
 73
     2
 40
0.635
 49
0.0
 74
     0
 49
-0.635
 74
     0
  0
ENDTAB
  0
TABLE
  2
LAYER
  5
2
330
0
100
AcDbSymbolTable
 70
    17
  0
LAYER
  5
10
330
2
100
AcDbSymbolTableRecord
100
AcDbLayerTableRecord
  2
0
 70
     0
 62
     7
  6
Continuous
370
    -3
390
F
  0
LAYER
  5
73
330
2
100
AcDbSymbolTableRecord
100
AcDbLayerTableRecord
  2
FORMAT
 70
     0
 62
     2
  6
Continuous
370
    -3
390
F
  0
LAYER
  5
74
330
2
100
AcDbSymbolTableRecord
100
AcDbLayerTableRecord
  2
외형선
 70
     0
 62
   100
  6
Continuous
370
    35
390
F
  0
LAYER
  5
75
330
2
100
AcDbSymbolTableRecord
100
AcDbLayerTableRecord
  2
숨은선
 70
     0
 62
     2
  6
HIDDEN
370
    25
390
F
  0
LAYER
  5
76
330
2
100
AcDbSymbolTableRecord
100
AcDbLayerTableRecord
  2
중심선
 70
     0
 62
     1
  6
CENTERX2
370
    -3
390
F
  0
LAYER
  5
77
330
2
100
AcDbSymbolTableRecord
100
AcDbLayerTableRecord
  2
파단선
 70
     0
 62
     4
  6
Continuous
370
    -3
390
F
  0
LAYER
  5
78
330
2
100
AcDbSymbolTableRecord
100
AcDbLayerTableRecord
  2
해칭선
 70
     0
 62
     4
  6
Continuous
370
    -3
390
F
  0
LAYER
  5
79
330
2
100
AcDbSymbolTableRecord
100
AcDbLayerTableRecord
  2
가는실선
 70
     0
 62
     4
  6
Continuous
370
    -3
390
F
  0
LAYER
  5
7A
330
2
100
AcDbSymbolTableRecord
100
AcDbLayerTableRecord
  2
치수_보조선
 70
     0
 62
     4
  6
Continuous
370
    -3
390
F
  0
LAYER
  5
7B
330
2
100
AcDbSymbolTableRecord
100
AcDbLayerTableRecord
  2
치수문자_일반주서
 70
     0
 62
     7
  6
Continuous
370
    25
390
F
  0
LAYER
  5
7C
330
2
100
AcDbSymbolTableRecord
100
AcDbLayerTableRecord
  2
개별주서
 70
     0
 62
   100
  6
Continuous
370
    35
390
F
  0
LAYER
  5
7D
330
2
100
AcDbSymbolTableRecord
100
AcDbLayerTableRecord
  2
중간선
 70
     0
 62
     2
  6
Continuous
370
    25
390
F
  0
LAYER
  5
7E
330
2
100
AcDbSymbolTableRecord
100
AcDbLayerTableRecord
  2
윤곽선
 70
     0
 62
     3
  6
Continuous
370
    50
390
F
  0
LAYER
  5
7F
330
2
100
AcDbSymbolTableRecord
100
AcDbLayerTableRecord
  2
중심마크
 70
     0
 62
   100
  6
Continuous
370
    35
390
F
  0
LAYER
  5
80
330
2
100
AcDbSymbolTableRecord
100
AcDbLayerTableRecord
  2
가상선
 70
     0
 62
     4
  6
PHANTOM
370
    -3
390
F
  0
LAYER
  5
81
330
2
100
AcDbSymbolTableRecord
100
AcDbLayerTableRecord
  2
특수지정선
 70
     0
 62
     5
  6
CENTERX2
370
    70
390
F
  0
LAYER
  5
12D
330
2
100
AcDbSymbolTableRecord
100
AcDbLayerTableRecord
  2
Defpoints
 70
     0
 62
     7
  6
Continuous
290
     0
370
    -3
390
F
  0
ENDTAB
  0
TABLE
  2
STYLE
  5
3
330
0
100
AcDbSymbolTable
 70
     2
  0
STYLE
  5
11
330
3
100
AcDbSymbolTableRecord
100
AcDbTextStyleTableRecord
  2
Standard
 70
     0
 40
0.0
 41
1.0
 50
0.0
 71
     0
 42
3.5
  3
txt
  4

  0
STYLE
  5
97
330
3
100
AcDbSymbolTableRecord
100
AcDbTextStyleTableRecord
  2
SLDTEXTSTYLE0
 70
     0
 40
0.0
 41
0.75
 50
0.0
 71
     0
 42
3.5
  3
TXT
  4

  0
ENDTAB
  0
TABLE
  2
VIEW
  5
6
330
0
100
AcDbSymbolTable
 70
     0
  0
ENDTAB
  0
TABLE
  2
UCS
  5
7
330
0
100
AcDbSymbolTable
 70
     0
  0
ENDTAB
  0
TABLE
  2
APPID
  5
9
330
0
100
AcDbSymbolTable
 70
     2
  0
APPID
  5
12
330
9
100
AcDbSymbolTableRecord
100
AcDbRegAppTableRecord
  2
ACAD
 70
     0
  0
APPID
  5
224
330
9
100
AcDbSymbolTableRecord
100
AcDbRegAppTableRecord
  2
ACAD_DSTYLE_DIMRADIAL_EXTENSION
 70
     0
  0
ENDTAB
  0
TABLE
  2
DIMSTYLE
  5
A
330
0
100
AcDbSymbolTable
 70
     5
100
AcDbDimStyleTable
  0
DIMSTYLE
105
27
330
A
100
AcDbSymbolTableRecord
100
AcDbDimStyleTableRecord
  2
ISO-25
 70
     0
 41
2.5
 42
0.625
 43
3.75
 44
1.25
 73
     0
 74
     0
 77
     1
 78
     8
140
2.5
141
2.5
143
0.03937007874016
147
0.625
171
     3
172
     1
178
     0
271
     2
272
     2
274
     3
278
    44
283
     0
284
     8
340
11
  0
DIMSTYLE
105
C4
102
{ACAD_REACTORS
330
169
330
191
330
1D0
330
1D3
102
}
330
A
100
AcDbSymbolTableRecord
100
AcDbDimStyleTableRecord
  2
SLDDIMSTYLE0
 70
     0
 41
3.302
 44
0.0
 45
0.000000001
 73
     0
 74
     0
 77
     1
 78
    12
 79
     3
140
3.5
147
0.875
172
     1
173
     1
178
     0
271
     2
272
     2
276
     2
284
    12
289
     0
340
97
  0
DIMSTYLE
105
D2
102
{ACAD_REACTORS
330
176
330
1D1
102
}
330
A
100
AcDbSymbolTableRecord
100
AcDbDimStyleTableRecord
  2
SLDDIMSTYLE1
 70
     0
 41
3.302
 44
0.0
 45
0.000000001
 73
     0
 74
     0
 77
     1
 78
     4
 79
     1
140
3.5
147
0.875
172
     1
173
     1
178
     0
271
     2
272
     2
276
     2
284
    12
289
     0
340
97
  0
DIMSTYLE
105
DF
102
{ACAD_REACTORS
330
184
330
1D2
102
}
330
A
100
AcDbSymbolTableRecord
100
AcDbDimStyleTableRecord
  2
SLDDIMSTYLE2
 70
     0
 41
3.302
 44
0.0
 45
0.000000001
 73
     0
 74
     0
 77
     1
 78
    12
 79
     3
140
3.5
147
0.875
173
     1
178
     0
271
     2
272
     2
276
     2
284
    12
340
97
  0
DIMSTYLE
105
139
102
{ACAD_REACTORS
330
19E
330
1D4
330
25F
330
288
102
}
330
A
100
AcDbSymbolTableRecord
100
AcDbDimStyleTableRecord
  2
SLDDIMSTYLE3
 70
     0
 41
3.302
 44
0.0
 45
0.000000001
 73
     0
 74
     0
 77
     1
 78
     8
 79
     2
140
3.5
147
0.875
172
     1
173
     1
178
     0
271
     2
272
     2
276
     2
284
    12
289
     0
340
97
  0
ENDTAB
  0
TABLE
  2
BLOCK_RECORD
  5
1
330
0
100
AcDbSymbolTable
 70
    22
  0
BLOCK_RECORD
  5
1F
330
1
100
AcDbSymbolTableRecord
100
AcDbBlockTableRecord
  2
*Model_Space
340
22
  0
BLOCK_RECORD
  5
1B
330
1
100
AcDbSymbolTableRecord
100
AcDbBlockTableRecord
  2
*Paper_Space
340
1E
  0
BLOCK_RECORD
  5
23
330
1
100
AcDbSymbolTableRecord
100
AcDbBlockTableRecord
  2
*Paper_Space0
340
26
  0
BLOCK_RECORD
  5
82
330
1
100
AcDbSymbolTableRecord
100
AcDbBlockTableRecord
  2
블럭10
340
0
102
{BLKREFS
331
BC
102
}
  0
BLOCK_RECORD
  5
C5
330
1
100
AcDbSymbolTableRecord
100
AcDbBlockTableRecord
  2
_D
340
0
  0
BLOCK_RECORD
  5
D3
330
1
100
AcDbSymbolTableRecord
100
AcDbBlockTableRecord
  2
_D_1
340
0
  0
BLOCK_RECORD
  5
E0
330
1
100
AcDbSymbolTableRecord
100
AcDbBlockTableRecord
  2
_D_2
340
0
  0
BLOCK_RECORD
  5
EA
330
1
100
AcDbSymbolTableRecord
100
AcDbBlockTableRecord
  2
_D_3
340
0
  0
BLOCK_RECORD
  5
F6
330
1
100
AcDbSymbolTableRecord
100
AcDbBlockTableRecord
  2
_D_4
340
0
  0
BLOCK_RECORD
  5
102
330
1
100
AcDbSymbolTableRecord
100
AcDbBlockTableRecord
  2
SW_DOWELSYMBOL_0
340
0
102
{BLKREFS
331
0
331
1AE
331
1D5
102
}
  0
BLOCK_RECORD
  5
16A
330
1
100
AcDbSymbolTableRecord
100
AcDbBlockTableRecord
  2
*D9
340
0
  0
BLOCK_RECORD
  5
177
330
1
100
AcDbSymbolTableRecord
100
AcDbBlockTableRecord
  2
*D10
340
0
  0
BLOCK_RECORD
  5
185
330
1
100
AcDbSymbolTableRecord
100
AcDbBlockTableRecord
  2
*D11
340
0
  0
BLOCK_RECORD
  5
192
330
1
100
AcDbSymbolTableRecord
100
AcDbBlockTableRecord
  2
*D12
340
0
  0
BLOCK_RECORD
  5
19F
330
1
100
AcDbSymbolTableRecord
100
AcDbBlockTableRecord
  2
*D13
340
0
  0
BLOCK_RECORD
  5
1DE
330
1
100
AcDbSymbolTableRecord
100
AcDbBlockTableRecord
  2
*D14
340
0
  0
BLOCK_RECORD
  5
1EA
330
1
100
AcDbSymbolTableRecord
100
AcDbBlockTableRecord
  2
*D15
340
0
  0
BLOCK_RECORD
  5
1F6
330
1
100
AcDbSymbolTableRecord
100
AcDbBlockTableRecord
  2
*D16
340
0
  0
BLOCK_RECORD
  5
202
330
1
100
AcDbSymbolTableRecord
100
AcDbBlockTableRecord
  2
*D17
340
0
  0
BLOCK_RECORD
  5
20E
330
1
100
AcDbSymbolTableRecord
100
AcDbBlockTableRecord
  2
*D18
340
0
  0
BLOCK_RECORD
  5
260
330
1
100
AcDbSymbolTableRecord
100
AcDbBlockTableRecord
  2
*D20
340
0
  0
BLOCK_RECORD
  5
289
330
1
100
AcDbSymbolTableRecord
100
AcDbBlockTableRecord
  2
*D21
340
0
  0
ENDTAB
  0
ENDSEC
  0
SECTION
  2
BLOCKS
  0
BLOCK
  5
20
330
1F
100
AcDbEntity
  8
0
100
AcDbBlockBegin
  2
*Model_Space
 70
     0
 10
0.0
 20
0.0
 30
0.0
  3
*Model_Space
  1
*Model_Space
  0
ENDBLK
  5
21
330
1F
100
AcDbEntity
  8
0
100
AcDbBlockEnd
  0
BLOCK
  5
1C
330
1B
100
AcDbEntity
 67
     1
  8
0
100
AcDbBlockBegin
  2
*Paper_Space
 70
     0
 10
0.0
 20
0.0
 30
0.0
  3
*Paper_Space
  1
*Paper_Space
  0
ENDBLK
  5
1D
330
1B
100
AcDbEntity
 67
     1
  8
0
100
AcDbBlockEnd
  0
BLOCK
  5
24
330
23
100
AcDbEntity
  8
0
100
AcDbBlockBegin
  2
*Paper_Space0
 70
     0
 10
0.0
 20
0.0
 30
0.0
  3
*Paper_Space0
  1
*Paper_Space0
  0
ENDBLK
  5
25
330
23
100
AcDbEntity
  8
0
100
AcDbBlockEnd
  0
BLOCK
  5
83
330
82
100
AcDbEntity
  8
0
100
AcDbBlockBegin
  2
블럭10
 70
     2
 10
0.0
 20
0.0
 30
0.0
  3
블럭10
  1
블럭10
  0
ELLIPSE
  5
85
330
82
100
AcDbEntity
  8
중심선
100
AcDbEllipse
 10
20.54032771741204
 20
12.0471743016438
 30
0.0
 11
6.600054785286829
 21
-1.261213355974178E-13
 31
0.0
210
0.0
220
0.0
230
1.0
 40
0.636358354079598
 41
0.9219305317359503
 42
6.513795318482858
  0
ELLIPSE
  5
86
330
82
100
AcDbEntity
  8
중심선
100
AcDbEllipse
 10
20.54032771746488
 20
12.04717430159265
 30
0.0
 11
3.960054785062283
 21
1.540847449632565E-10
 31
0.0
210
0.0
220
0.0
230
1.0
 40
0.3939339440162632
 41
1.131841032648279
 42
5.62031148352944
  0
LINE
  5
87
330
82
100
AcDbEntity
  8
중심선
100
AcDbLine
 10
2.268634060543552
 20
16.24717430164393
 30
0.0
 11
5.714909304380834
 21
16.24717430164393
 31
0.0
  0
LINE
  5
88
330
82
100
AcDbEntity
  8
중심선
100
AcDbLine
 10
5.245725140726316
 20
7.84717430164391
 30
0.0
 11
8.692000384563599
 21
7.84717430164391
 31
0.0
  0
LINE
  5
89
330
82
100
AcDbEntity
  8
중심선
100
AcDbLine
 10
15.74043728645272
 20
16.24717430164393
 30
0.0
 11
8.692000384563599
 21
7.84717430164391
 31
0.0
  0
LINE
  5
8A
330
82
100
AcDbEntity
  8
중심선
100
AcDbLine
 10
0.1404042013395286
 20
13.71084872107135
 30
0.0
 11
3.58671253028996
 21
13.71088815037384
 31
0.0
  0
LINE
  5
8B
330
82
100
AcDbEntity
  8
중심선
100
AcDbLine
 10
2.750260043222114
 20
10.84717430164391
 30
0.0
 11
6.196535287059397
 21
10.84717430164391
 31
0.0
  0
LINE
  5
8C
330
82
100
AcDbEntity
  8
중심선
100
AcDbLine
 10
12.29416204261559
 20
16.24717430164393
 30
0.0
 11
5.245725140726316
 21
7.84717430164391
 31
0.0
  0
LINE
  5
8D
330
82
100
AcDbEntity
  8
중심선
100
AcDbLine
 10
10.72767329541681
 20
16.24717430164393
 30
0.0
 11
6.196535287059397
 21
10.84717430164391
 31
0.0
  0
LINE
  5
8E
330
82
100
AcDbEntity
  8
중심선
100
AcDbLine
 10
7.28139805157953
 20
16.24717430164393
 30
0.0
 11
2.750260043222114
 21
10.84717430164391
 31
0.0
  0
LINE
  5
8F
330
82
100
AcDbEntity
  8
중심선
100
AcDbLine
 10
5.714909304380834
 20
16.24717430164393
 30
0.0
 11
3.58671253028996
 21
13.71088815037384
 31
0.0
  0
LINE
  5
90
330
82
100
AcDbEntity
  8
중심선
100
AcDbLine
 10
2.268634060543552
 20
16.24717430164393
 30
0.0
 11
0.1404042013395286
 21
13.71084872107135
 31
0.0
  0
LINE
  5
91
330
82
100
AcDbEntity
  8
중심선
100
AcDbLine
 10
7.28139805157953
 20
16.24717430164393
 30
0.0
 11
10.72767329541681
 21
16.24717430164393
 31
0.0
  0
LINE
  5
92
330
82
100
AcDbEntity
  8
중심선
100
AcDbLine
 10
12.29416204261559
 20
16.24717430164393
 30
0.0
 11
15.74043728645272
 21
16.24717430164393
 31
0.0
  0
LINE
  5
93
330
82
100
AcDbEntity
  8
중심선
100
AcDbLine
 10
19.22036997980202
 20
11.08717430171403
 30
0.0
 11
23.66174974927406
 21
11.08717430171406
 31
0.0
  0
LINE
  5
94
330
82
100
AcDbEntity
  8
중심선
100
AcDbLine
 10
19.22039502424796
 20
13.00717430171391
 30
0.0
 11
19.22036997980202
 21
11.08717430171403
 31
0.0
  0
LINE
  5
95
330
82
100
AcDbEntity
  8
중심선
100
AcDbLine
 10
19.22039502424796
 20
13.00717430171391
 30
0.0
 11
26.96566020931264
 21
13.00717430171391
 31
0.0
  0
LINE
  5
96
330
82
100
AcDbEntity
  8
중심선
100
AcDbLine
 10
22.22332737316547
 20
13.45928029700563
 30
0.0
 11
24.52862924686651
 21
15.39360700705356
 31
0.0
  0
ATTDEF
  5
98
330
82
100
AcDbEntity
  8
FORMAT
 62
     2
100
AcDbText
 10
-19.27858288401334
 20
2.075366912832191
 30
0.0
 40
4.233333333333333
  1
SEME610300316E [ 2 FLUTE ]
 41
0.75
  7
SLDTEXTSTYLE0
 11
-19.27858288401334
 21
-0.0412997538344756
 31
0.0
100
AcDbAttributeDefinition
  3

  2
AUTOATTR0
 70
     0
 74
     1
  0
ENDBLK
  5
84
330
82
100
AcDbEntity
  8
0
100
AcDbBlockEnd
  0
BLOCK
  5
C6
330
C5
100
AcDbEntity
  8
0
100
AcDbBlockBegin
  2
_D
 70
     0
 10
0.0
 20
0.0
 30
0.0
  3
_D
  1
_D
  0
SOLID
  5
C8
330
C5
100
AcDbEntity
  8
치수문자_일반주서
100
AcDbTrace
 10
-45.00250885508846
 20
3.001074928723889
 30
0.0
 11
-44.49450885508846
 21
6.303074928723889
 31
0.0
 12
-45.51050885508847
 22
6.303074928723889
 32
0.0
 13
-45.51050885508847
 23
6.303074928723889
 33
0.0
  0
SOLID
  5
C9
330
C5
100
AcDbEntity
  8
치수문자_일반주서
100
AcDbTrace
 10
-45.00250885508846
 20
-2.998925071276107
 30
0.0
 11
-45.51050885508847
 21
-6.300925071276106
 31
0.0
 12
-44.49450885508846
 22
-6.300925071276106
 32
0.0
 13
-44.49450885508846
 23
-6.300925071276106
 33
0.0
  0
LINE
  5
CA
330
C5
100
AcDbEntity
  8
치수문자_일반주서
100
AcDbLine
 10
-33.50605083347638
 20
3.001074928723889
 30
0.0
 11
-46.00250885508846
 21
3.001074928723889
 31
0.0
  0
LINE
  5
CB
330
C5
100
AcDbEntity
  8
치수문자_일반주서
100
AcDbLine
 10
-33.50605083347638
 20
-2.998925071276107
 30
0.0
 11
-46.00250885508846
 21
-2.998925071276107
 31
0.0
  0
LINE
  5
CC
330
C5
100
AcDbEntity
  8
치수문자_일반주서
100
AcDbLine
 10
-45.00250885508846
 20
3.001074928723889
 30
0.0
 11
-45.00250885508846
 21
9.35107492872389
 31
0.0
  0
LINE
  5
CD
330
C5
100
AcDbEntity
  8
치수문자_일반주서
100
AcDbLine
 10
-45.00250885508846
 20
3.001074928723889
 30
0.0
 11
-45.00250885508846
 21
-2.998925071276107
 31
0.0
  0
LINE
  5
CE
330
C5
100
AcDbEntity
  8
치수문자_일반주서
100
AcDbLine
 10
-45.00250885508846
 20
-2.998925071276107
 30
0.0
 11
-45.00250885508846
 21
-9.348925071276108
 31
0.0
  0
MTEXT
  5
CF
330
C5
100
AcDbEntity
  8
치수문자_일반주서
100
AcDbMText
 10
-49.5142459442903
 20
-3.931199483639909
 30
0.0
 40
3.5
 41
0.0
 71
     1
 72
     1
  1
%%c
  7
SLDTEXTSTYLE0
 11
-7.044195017643634E-15
 21
1.0
 31
0.0
 73
     1
 44
1.0
  0
MTEXT
  5
D0
330
C5
100
AcDbEntity
  8
치수문자_일반주서
100
AcDbMText
 10
-49.56771812095019
 20
1.347237914734172
 30
0.0
 40
3.5
 41
0.0
 71
     1
 72
     1
  1
6
  7
SLDTEXTSTYLE0
 11
-7.044195017643634E-15
 21
1.0
 31
0.0
 73
     1
 44
1.0
  0
ENDBLK
  5
C7
330
C5
100
AcDbEntity
  8
0
100
AcDbBlockEnd
  0
BLOCK
  5
D4
330
D3
100
AcDbEntity
  8
0
100
AcDbBlockBegin
  2
_D_1
 70
     0
 10
0.0
 20
0.0
 30
0.0
  3
_D_1
  1
_D_1
  0
SOLID
  5
D6
330
D3
100
AcDbEntity
  8
치수문자_일반주서
100
AcDbTrace
 10
26.49394916652247
 20
19.70107492872356
 30
0.0
 11
29.7959491665225
 21
19.19307492872376
 31
0.0
 12
29.79594916652244
 22
20.20907492872376
 32
0.0
 13
29.79594916652244
 23
20.20907492872376
 33
0.0
  0
SOLID
  5
D7
330
D3
100
AcDbEntity
  8
치수문자_일반주서
100
AcDbTrace
 10
21.99394916652249
 20
19.70107492872327
 30
0.0
 11
18.69194916652246
 21
20.20907492872307
 31
0.0
 12
18.69194916652252
 22
19.19307492872307
 32
0.0
 13
18.69194916652252
 23
19.19307492872307
 33
0.0
  0
LINE
  5
D8
330
D3
100
AcDbEntity
  8
치수문자_일반주서
100
AcDbLine
 10
26.49394916652355
 20
2.201074928723894
 30
0.0
 11
26.49394916652241
 21
20.70107492872356
 31
0.0
  0
LINE
  5
D9
330
D3
100
AcDbEntity
  8
치수문자_일반주서
100
AcDbLine
 10
21.99394916652356
 20
2.501074928723894
 30
0.0
 11
21.99394916652243
 21
20.70107492872328
 31
0.0
  0
LINE
  5
DA
330
D3
100
AcDbEntity
  8
치수문자_일반주서
100
AcDbLine
 10
26.49394916652247
 20
19.70107492872356
 30
0.0
 11
35.94170690579266
 21
19.70107492872415
 31
0.0
  0
LINE
  5
DB
330
D3
100
AcDbEntity
  8
치수문자_일반주서
100
AcDbLine
 10
26.49394916652247
 20
19.70107492872356
 30
0.0
 11
21.99394916652249
 21
19.70107492872327
 31
0.0
  0
LINE
  5
DC
330
D3
100
AcDbEntity
  8
치수문자_일반주서
100
AcDbLine
 10
21.99394916652249
 20
19.70107492872327
 30
0.0
 11
15.64394916652249
 21
19.70107492872288
 31
0.0
  0
MTEXT
  5
DD
330
D3
100
AcDbEntity
  8
치수문자_일반주서
100
AcDbMText
 10
26.89031784487822
 20
24.21281184330276
 30
0.0
 40
3.5
 41
0.0
 71
     1
 72
     1
  1
4.50
  7
SLDTEXTSTYLE0
 73
     1
 44
1.0
  0
ENDBLK
  5
D5
330
D3
100
AcDbEntity
  8
0
100
AcDbBlockEnd
  0
BLOCK
  5
E1
330
E0
100
AcDbEntity
  8
0
100
AcDbBlockBegin
  2
_D_2
 70
     0
 10
0.0
 20
0.0
 30
0.0
  3
_D_2
  1
_D_2
  0
SOLID
  5
E3
330
E0
100
AcDbEntity
  8
치수문자_일반주서
100
AcDbTrace
 10
26.49394916652361
 20
41.75939943376817
 30
0.0
 11
23.19194916652361
 21
42.26739943376818
 31
0.0
 12
23.19194916652361
 22
41.25139943376817
 32
0.0
 13
23.19194916652361
 23
41.25139943376817
 33
0.0
  0
SOLID
  5
E4
330
E0
100
AcDbEntity
  8
치수문자_일반주서
100
AcDbTrace
 10
-33.50605083347638
 20
41.75939943376817
 30
0.0
 11
-30.20405083347638
 21
41.25139943376817
 31
0.0
 12
-30.20405083347638
 22
42.26739943376818
 32
0.0
 13
-30.20405083347638
 23
42.26739943376818
 33
0.0
  0
LINE
  5
E5
330
E0
100
AcDbEntity
  8
치수문자_일반주서
100
AcDbLine
 10
26.49394916652362
 20
2.201074928723894
 30
0.0
 11
26.49394916652361
 21
42.75939943376818
 31
0.0
  0
LINE
  5
E6
330
E0
100
AcDbEntity
  8
치수문자_일반주서
100
AcDbLine
 10
-33.50605083347638
 20
3.001074928723888
 30
0.0
 11
-33.50605083347638
 21
42.75939943376818
 31
0.0
  0
LINE
  5
E7
330
E0
100
AcDbEntity
  8
치수문자_일반주서
100
AcDbLine
 10
26.49394916652361
 20
41.75939943376817
 30
0.0
 11
-33.50605083347638
 21
41.75939943376817
 31
0.0
  0
MTEXT
  5
E8
330
E0
100
AcDbEntity
  8
치수문자_일반주서
100
AcDbMText
 10
-6.092162026999207
 20
46.27113634834708
 30
0.0
 40
3.5
 41
0.0
 71
     1
 72
     1
  1
60
  7
SLDTEXTSTYLE0
 73
     1
 44
1.0
  0
ENDBLK
  5
E2
330
E0
100
AcDbEntity
  8
0
100
AcDbBlockEnd
  0
BLOCK
  5
EB
330
EA
100
AcDbEntity
  8
0
100
AcDbBlockBegin
  2
_D_3
 70
     0
 10
0.0
 20
0.0
 30
0.0
  3
_D_3
  1
_D_3
  0
SOLID
  5
ED
330
EA
100
AcDbEntity
  8
치수문자_일반주서
100
AcDbTrace
 10
14.49394916652476
 20
30.32107492872395
 30
0.0
 11
17.79594916652475
 21
29.81307492872382
 31
0.0
 12
17.79594916652478
 22
30.82907492872382
 32
0.0
 13
17.79594916652478
 23
30.82907492872382
 33
0.0
  0
SOLID
  5
EE
330
EA
100
AcDbEntity
  8
치수문자_일반주서
100
AcDbTrace
 10
10.2140453559571
 20
30.32107492872411
 30
0.0
 11
6.912045355957115
 21
30.82907492872424
 31
0.0
 12
6.912045355957076
 22
29.81307492872424
 32
0.0
 13
6.912045355957076
 23
29.81307492872424
 33
0.0
  0
LINE
  5
EF
330
EA
100
AcDbEntity
  8
치수문자_일반주서
100
AcDbLine
 10
14.49394916652365
 20
1.401074928723893
 30
0.0
 11
14.4939491665248
 21
31.32107492872394
 31
0.0
  0
LINE
  5
F0
330
EA
100
AcDbEntity
  8
치수문자_일반주서
100
AcDbLine
 10
10.21404535595599
 20
1.551074928723894
 30
0.0
 11
10.21404535595713
 21
31.32107492872411
 31
0.0
  0
LINE
  5
F1
330
EA
100
AcDbEntity
  8
치수문자_일반주서
100
AcDbLine
 10
14.49394916652476
 20
30.32107492872395
 30
0.0
 11
55.42440269528608
 21
30.32107492872239
 31
0.0
  0
LINE
  5
F2
330
EA
100
AcDbEntity
  8
치수문자_일반주서
100
AcDbLine
 10
14.49394916652476
 20
30.32107492872395
 30
0.0
 11
10.2140453559571
 21
30.32107492872411
 31
0.0
  0
LINE
  5
F3
330
EA
100
AcDbEntity
  8
치수문자_일반주서
100
AcDbLine
 10
10.2140453559571
 20
30.32107492872411
 30
0.0
 11
3.864045355957095
 21
30.32107492872435
 31
0.0
  0
MTEXT
  5
F4
330
EA
100
AcDbEntity
  8
치수문자_일반주서
100
AcDbMText
 10
46.3730136343715
 20
34.83281184330144
 30
0.0
 40
3.5
 41
0.0
 71
     1
 72
     1
  1
4.28
  7
SLDTEXTSTYLE0
 73
     1
 44
1.0
  0
ENDBLK
  5
EC
330
EA
100
AcDbEntity
  8
0
100
AcDbBlockEnd
  0
BLOCK
  5
F7
330
F6
100
AcDbEntity
  8
0
100
AcDbBlockBegin
  2
_D_4
 70
     0
 10
0.0
 20
0.0
 30
0.0
  3
_D_4
  1
_D_4
  0
SOLID
  5
F9
330
F6
100
AcDbEntity
  8
치수문자_일반주서
100
AcDbTrace
 10
44.05059833193547
 20
1.501074928723894
 30
0.0
 11
44.55859833193547
 21
4.803074928723894
 31
0.0
 12
43.54259833193547
 22
4.803074928723894
 32
0.0
 13
43.54259833193547
 23
4.803074928723894
 33
0.0
  0
SOLID
  5
FA
330
F6
100
AcDbEntity
  8
치수문자_일반주서
100
AcDbTrace
 10
44.05059833193547
 20
-1.480510821134721
 30
0.0
 11
43.54259833193547
 21
-4.78251082113472
 31
0.0
 12
44.55859833193547
 22
-4.78251082113472
 32
0.0
 13
44.55859833193547
 23
-4.78251082113472
 33
0.0
  0
LINE
  5
FB
330
F6
100
AcDbEntity
  8
치수문자_일반주서
100
AcDbLine
 10
27.19394916652362
 20
1.501074928723895
 30
0.0
 11
45.05059833193547
 21
1.501074928723894
 31
0.0
  0
LINE
  5
FC
330
F6
100
AcDbEntity
  8
치수문자_일반주서
100
AcDbLine
 10
27.19394916652362
 20
-1.48051082113472
 30
0.0
 11
45.05059833193547
 21
-1.480510821134721
 31
0.0
  0
LINE
  5
FD
330
F6
100
AcDbEntity
  8
치수문자_일반주서
100
AcDbLine
 10
44.05059833193547
 20
1.501074928723894
 30
0.0
 11
44.05059833193547
 21
7.851074928723894
 31
0.0
  0
LINE
  5
FE
330
F6
100
AcDbEntity
  8
치수문자_일반주서
100
AcDbLine
 10
44.05059833193547
 20
1.501074928723894
 30
0.0
 11
44.05059833193547
 21
-1.480510821134721
 31
0.0
  0
LINE
  5
FF
330
F6
100
AcDbEntity
  8
치수문자_일반주서
100
AcDbLine
 10
44.05059833193547
 20
-1.480510821134721
 30
0.0
 11
44.05059833193547
 21
-14.32156976103179
 31
0.0
  0
MTEXT
  5
100
330
F6
100
AcDbEntity
  8
치수문자_일반주서
100
AcDbMText
 10
39.53886124273365
 20
-14.32156976103178
 30
0.0
 40
3.5
 41
0.0
 71
     1
 72
     1
  1
%%c
  7
SLDTEXTSTYLE0
 11
-7.044195017643634E-15
 21
1.0
 31
0.0
 73
     1
 44
1.0
  0
MTEXT
  5
101
330
F6
100
AcDbEntity
  8
치수문자_일반주서
100
AcDbMText
 10
39.48538906607376
 20
-9.043132362657696
 30
0.0
 40
3.5
 41
0.0
 71
     1
 72
     1
  1
2.98
  7
SLDTEXTSTYLE0
 11
-7.044195017643634E-15
 21
1.0
 31
0.0
 73
     1
 44
1.0
  0
ENDBLK
  5
F8
330
F6
100
AcDbEntity
  8
0
100
AcDbBlockEnd
  0
BLOCK
  5
103
330
102
100
AcDbEntity
  8
0
100
AcDbBlockBegin
  2
SW_DOWELSYMBOL_0
 70
     0
 10
0.0
 20
0.0
 30
0.0
  3
SW_DOWELSYMBOL_0
  1
SW_DOWELSYMBOL_0
  0
CIRCLE
  5
105
330
102
100
AcDbEntity
  8
외형선
 62
     0
100
AcDbCircle
 10
0.0
 20
0.0
 30
0.0
 40
3.000000000000004
  0
HATCH
  5
106
330
102
100
AcDbEntity
  8
0
  6
Continuous
 62
     0
370
    35
100
AcDbHatch
 10
0.0
 20
0.0
 30
0.0
210
0.0
220
0.0
230
1.0
  2
SOLID
 70
     1
 71
     0
 91
        1
 92
        0
 93
        3
 72
     2
 10
0.0000000000000104
 20
0.0
 40
3.000000000000004
 50
0.0
 51
90.0
 73
     1
 72
     1
 10
0.0000000000000104
 20
3.000000000000004
 11
0.0000000000000104
 21
0.0
 72
     1
 10
0.0000000000000104
 20
0.0
 11
3.000000000000015
 21
0.0
 97
        0
 75
     0
 76
     1
 98
        1
 10
0.0
 20
0.0
  0
HATCH
  5
107
330
102
100
AcDbEntity
  8
0
  6
Continuous
 62
     0
370
    35
100
AcDbHatch
 10
0.0
 20
0.0
 30
0.0
210
0.0
220
0.0
230
1.0
  2
SOLID
 70
     1
 71
     0
 91
        1
 92
        0
 93
        3
 72
     2
 10
0.0000000000000104
 20
0.0
 40
3.000000000000004
 50
180.0
 51
270.0000000000008
 73
     1
 72
     1
 10
0.0000000000000104
 20
-3.000000000000004
 11
0.0000000000000104
 21
0.0
 72
     1
 10
0.0000000000000104
 20
0.0
 11
-2.999999999999994
 21
0.0
 97
        0
 75
     0
 76
     1
 98
        1
 10
0.0
 20
0.0
  0
ENDBLK
  5
104
330
102
100
AcDbEntity
  8
0
100
AcDbBlockEnd
  0
BLOCK
  5
16B
330
16A
100
AcDbEntity
  8
0
100
AcDbBlockBegin
  2
*D9
 70
     1
 10
0.0
 20
0.0
 30
0.0
  3
*D9
  1
*D105
  0
LINE
  5
16C
330
16A
100
AcDbEntity
  8
치수문자_일반주서
 62
     0
370
    -2
100
AcDbLine
 10
16.80895802161211
 20
11.09921694339782
 30
0.0
 11
4.374999999999989
 21
11.09921694339777
 31
0.0
  0
LINE
  5
16D
330
16A
100
AcDbEntity
  8
치수문자_일반주서
 62
     0
370
    -2
100
AcDbLine
 10
16.80895802161211
 20
5.099216943397835
 30
0.0
 11
4.375000000000011
 21
5.099216943397789
 31
0.0
  0
LINE
  5
16E
330
16A
100
AcDbEntity
  8
치수문자_일반주서
 62
     0
370
    -2
100
AcDbLine
 10
4.375000000000001
 20
7.797216943397775
 30
0.0
 11
4.374999999999999
 21
8.401216943397788
 31
0.0
  0
SOLID
  5
16F
330
16A
100
AcDbEntity
  8
치수문자_일반주서
 62
     0
100
AcDbTrace
 10
4.925333333333334
 20
7.797216943397776
 30
0.0
 11
3.824666666666668
 21
7.797216943397773
 31
0.0
 12
4.374999999999989
 22
11.09921694339777
 32
0.0
 13
4.374999999999989
 23
11.09921694339777
 33
0.0
  0
SOLID
  5
170
330
16A
100
AcDbEntity
  8
치수문자_일반주서
 62
     0
100
AcDbTrace
 10
3.824666666666666
 20
8.401216943397786
 30
0.0
 11
4.925333333333333
 21
8.40121694339779
 31
0.0
 12
4.375000000000011
 22
5.099216943397789
 32
0.0
 13
4.375000000000011
 23
5.099216943397789
 33
0.0
  0
MTEXT
  5
171
330
16A
100
AcDbEntity
  8
치수문자_일반주서
 62
     0
100
AcDbMText
 10
0.0
 20
8.099216943397806
 30
0.0
 40
3.5
 41
0.0
 71
     2
 72
     1
  1
\A1;%%c6
  7
SLDTEXTSTYLE0
 11
-3.552713678800509E-15
 21
1.0
 31
0.0
 73
     1
 44
1.0
  0
POINT
  5
172
330
16A
100
AcDbEntity
  8
Defpoints
 62
     0
100
AcDbPoint
 10
16.87145802161211
 20
11.09921694339782
 30
0.0
  0
POINT
  5
173
330
16A
100
AcDbEntity
  8
Defpoints
 62
     0
100
AcDbPoint
 10
16.87145802161211
 20
5.099216943397835
 30
0.0
  0
POINT
  5
174
330
16A
100
AcDbEntity
  8
Defpoints
 62
     0
100
AcDbPoint
 10
4.375
 20
5.099216943397788
 30
0.0
  0
ENDBLK
  5
175
330
16A
100
AcDbEntity
  8
0
100
AcDbBlockEnd
  0
BLOCK
  5
178
330
177
100
AcDbEntity
  8
0
100
AcDbBlockBegin
  2
*D10
 70
     1
 10
0.0
 20
0.0
 30
0.0
  3
*D10
  1
*D106
  0
LINE
  5
179
330
177
100
AcDbEntity
  8
치수문자_일반주서
 62
     0
370
    -2
100
AcDbLine
 10
75.80895802161211
 20
9.561716943397826
 30
0.0
 11
75.80895802161211
 21
27.99921694339749
 31
0.0
  0
LINE
  5
17A
330
177
100
AcDbEntity
  8
치수문자_일반주서
 62
     0
370
    -2
100
AcDbLine
 10
71.30895802161211
 20
9.34786479987585
 30
0.0
 11
71.30895802161211
 21
27.99921694339749
 31
0.0
  0
LINE
  5
17B
330
177
100
AcDbEntity
  8
치수문자_일반주서
 62
     0
370
    -2
100
AcDbLine
 10
72.50695802161212
 20
27.99921694339749
 30
0.0
 11
74.6109580216121
 21
27.99921694339749
 31
0.0
  0
SOLID
  5
17C
330
177
100
AcDbEntity
  8
치수문자_일반주서
 62
     0
100
AcDbTrace
 10
72.50695802161212
 20
27.44888361006415
 30
0.0
 11
72.50695802161212
 21
28.54955027673082
 31
0.0
 12
75.80895802161211
 22
27.99921694339749
 32
0.0
 13
75.80895802161211
 23
27.99921694339749
 33
0.0
  0
SOLID
  5
17D
330
177
100
AcDbEntity
  8
치수문자_일반주서
 62
     0
100
AcDbTrace
 10
74.6109580216121
 20
28.54955027673082
 30
0.0
 11
74.6109580216121
 21
27.44888361006415
 31
0.0
 12
71.30895802161211
 22
27.99921694339749
 32
0.0
 13
71.30895802161211
 23
27.99921694339749
 33
0.0
  0
MTEXT
  5
17E
330
177
100
AcDbEntity
  8
치수문자_일반주서
 62
     0
100
AcDbMText
 10
73.55895802161211
 20
32.37421694339749
 30
0.0
 40
3.5
 41
0.0
 71
     2
 72
     1
  1
\A1;4.50
  7
SLDTEXTSTYLE0
 73
     1
 44
1.0
  0
POINT
  5
17F
330
177
100
AcDbEntity
  8
Defpoints
 62
     0
100
AcDbPoint
 10
75.80895802161211
 20
9.499216943397826
 30
0.0
  0
POINT
  5
180
330
177
100
AcDbEntity
  8
Defpoints
 62
     0
100
AcDbPoint
 10
71.30895802161211
 20
9.28536479987585
 30
0.0
  0
POINT
  5
181
330
177
100
AcDbEntity
  8
Defpoints
 62
     0
100
AcDbPoint
 10
71.30895802161211
 20
27.99921694339749
 30
0.0
  0
ENDBLK
  5
183
330
177
100
AcDbEntity
  8
0
100
AcDbBlockEnd
  0
BLOCK
  5
186
330
185
100
AcDbEntity
  8
0
100
AcDbBlockBegin
  2
*D11
 70
     1
 10
0.0
 20
0.0
 30
0.0
  3
*D11
  1
*D107
  0
LINE
  5
187
330
185
100
AcDbEntity
  8
치수문자_일반주서
 62
     0
370
    -2
100
AcDbLine
 10
75.80895802161211
 20
9.561716943397826
 30
0.0
 11
75.80895802161211
 21
50.05754144844212
 31
0.0
  0
LINE
  5
188
330
185
100
AcDbEntity
  8
치수문자_일반주서
 62
     0
370
    -2
100
AcDbLine
 10
15.80895802161211
 20
10.16171694339782
 30
0.0
 11
15.80895802161211
 21
50.05754144844212
 31
0.0
  0
LINE
  5
189
330
185
100
AcDbEntity
  8
치수문자_일반주서
 62
     0
370
    -2
100
AcDbLine
 10
72.50695802161212
 20
50.05754144844212
 30
0.0
 11
19.11095802161211
 21
50.05754144844212
 31
0.0
  0
SOLID
  5
18A
330
185
100
AcDbEntity
  8
치수문자_일반주서
 62
     0
100
AcDbTrace
 10
72.50695802161212
 20
49.50720811510879
 30
0.0
 11
72.50695802161212
 21
50.60787478177546
 31
0.0
 12
75.80895802161211
 22
50.05754144844212
 32
0.0
 13
75.80895802161211
 23
50.05754144844212
 33
0.0
  0
SOLID
  5
18B
330
185
100
AcDbEntity
  8
치수문자_일반주서
 62
     0
100
AcDbTrace
 10
19.11095802161211
 20
50.60787478177546
 30
0.0
 11
19.11095802161211
 21
49.50720811510879
 31
0.0
 12
15.80895802161211
 22
50.05754144844212
 32
0.0
 13
15.80895802161211
 23
50.05754144844212
 33
0.0
  0
MTEXT
  5
18C
330
185
100
AcDbEntity
  8
치수문자_일반주서
 62
     0
100
AcDbMText
 10
40.80895802161211
 20
54.43254144844212
 30
0.0
 40
3.5
 41
0.0
 71
     2
 72
     1
  1
\A1;60
  7
SLDTEXTSTYLE0
 73
     1
 44
1.0
  0
POINT
  5
18D
330
185
100
AcDbEntity
  8
Defpoints
 62
     0
100
AcDbPoint
 10
75.80895802161211
 20
9.499216943397826
 30
0.0
  0
POINT
  5
18E
330
185
100
AcDbEntity
  8
Defpoints
 62
     0
100
AcDbPoint
 10
15.80895802161211
 20
10.09921694339782
 30
0.0
  0
POINT
  5
18F
330
185
100
AcDbEntity
  8
Defpoints
 62
     0
100
AcDbPoint
 10
15.80895802161211
 20
50.05754144844212
 30
0.0
  0
ENDBLK
  5
190
330
185
100
AcDbEntity
  8
0
100
AcDbBlockEnd
  0
BLOCK
  5
193
330
192
100
AcDbEntity
  8
0
100
AcDbBlockBegin
  2
*D12
 70
     1
 10
0.0
 20
0.0
 30
0.0
  3
*D12
  1
*D108
  0
LINE
  5
194
330
192
100
AcDbEntity
  8
치수문자_일반주서
 62
     0
370
    -2
100
AcDbLine
 10
75.80895802161211
 20
9.559515654021993
 30
0.0
 11
75.80895802161211
 21
38.41921694339652
 31
0.0
  0
LINE
  5
195
330
192
100
AcDbEntity
  8
치수문자_일반주서
 62
     0
370
    -2
100
AcDbLine
 10
59.80895802161206
 20
9.586716943397846
 30
0.0
 11
59.80895802161206
 21
38.41921694339652
 31
0.0
  0
LINE
  5
196
330
192
100
AcDbEntity
  8
치수문자_일반주서
 62
     0
370
    -2
100
AcDbLine
 10
72.50695802161212
 20
38.41921694339652
 30
0.0
 11
63.11095802161206
 21
38.41921694339652
 31
0.0
  0
SOLID
  5
197
330
192
100
AcDbEntity
  8
치수문자_일반주서
 62
     0
100
AcDbTrace
 10
72.50695802161212
 20
37.86888361006319
 30
0.0
 11
72.50695802161212
 21
38.96955027672985
 31
0.0
 12
75.80895802161211
 22
38.41921694339652
 32
0.0
 13
75.80895802161211
 23
38.41921694339652
 33
0.0
  0
SOLID
  5
198
330
192
100
AcDbEntity
  8
치수문자_일반주서
 62
     0
100
AcDbTrace
 10
63.11095802161206
 20
38.96955027672985
 30
0.0
 11
63.11095802161206
 21
37.86888361006319
 31
0.0
 12
59.80895802161206
 22
38.41921694339652
 32
0.0
 13
59.80895802161206
 23
38.41921694339652
 33
0.0
  0
MTEXT
  5
199
330
192
100
AcDbEntity
  8
치수문자_일반주서
 62
     0
100
AcDbMText
 10
67.80895802161206
 20
42.79421694339652
 30
0.0
 40
3.5
 41
0.0
 71
     2
 72
     1
  1
\A1;16
  7
SLDTEXTSTYLE0
 73
     1
 44
1.0
  0
POINT
  5
19A
330
192
100
AcDbEntity
  8
Defpoints
 62
     0
100
AcDbPoint
 10
75.80895802161211
 20
9.497015654021993
 30
0.0
  0
POINT
  5
19B
330
192
100
AcDbEntity
  8
Defpoints
 62
     0
100
AcDbPoint
 10
59.80895802161206
 20
9.524216943397846
 30
0.0
  0
POINT
  5
19C
330
192
100
AcDbEntity
  8
Defpoints
 62
     0
100
AcDbPoint
 10
59.80895802161206
 20
38.41921694339652
 30
0.0
  0
ENDBLK
  5
19D
330
192
100
AcDbEntity
  8
0
100
AcDbBlockEnd
  0
BLOCK
  5
1A0
330
19F
100
AcDbEntity
  8
0
100
AcDbBlockBegin
  2
*D13
 70
     1
 10
0.0
 20
0.0
 30
0.0
  3
*D13
  1
*D109
  0
LINE
  5
1A1
330
19F
100
AcDbEntity
  8
치수문자_일반주서
 62
     0
370
    -2
100
AcDbLine
 10
75.87145802161211
 20
9.601121222122273
 30
0.0
 11
90.21919271587464
 21
9.601121222122327
 31
0.0
  0
LINE
  5
1A2
330
19F
100
AcDbEntity
  8
치수문자_일반주서
 62
     0
370
    -2
100
AcDbLine
 10
75.77145802161209
 20
6.603999999999957
 30
0.0
 11
90.21919271587466
 21
6.60400000000001
 31
0.0
  0
LINE
  5
1A3
330
19F
100
AcDbEntity
  8
치수문자_일반주서
 62
     0
370
    -2
100
AcDbLine
 10
90.21919271587464
 20
9.601121222122327
 30
0.0
 11
90.21919271587457
 21
25.38593388679577
 31
0.0
  0
LINE
  5
1A4
330
19F
100
AcDbEntity
  8
치수문자_일반주서
 62
     0
370
    -2
100
AcDbLine
 10
90.21919271587464
 20
9.601121222122327
 30
0.0
 11
90.21919271587466
 21
6.60400000000001
 31
0.0
  0
LINE
  5
1A5
330
19F
100
AcDbEntity
  8
치수문자_일반주서
 62
     0
370
    -2
100
AcDbLine
 10
90.21919271587463
 20
12.90312122212233
 30
0.0
 11
90.21919271587461
 21
16.20512122212233
 31
0.0
  0
LINE
  5
1A6
330
19F
100
AcDbEntity
  8
치수문자_일반주서
 62
     0
370
    -2
100
AcDbLine
 10
90.21919271587467
 20
3.30200000000001
 30
0.0
 11
90.21919271587468
 21
0.0000000000000098
 31
0.0
  0
SOLID
  5
1A7
330
19F
100
AcDbEntity
  8
치수문자_일반주서
 62
     0
100
AcDbTrace
 10
89.6688593825413
 20
12.90312122212232
 30
0.0
 11
90.76952604920795
 21
12.90312122212233
 31
0.0
 12
90.21919271587464
 22
9.601121222122327
 32
0.0
 13
90.21919271587464
 23
9.601121222122327
 33
0.0
  0
SOLID
  5
1A8
330
19F
100
AcDbEntity
  8
치수문자_일반주서
 62
     0
100
AcDbTrace
 10
90.769526049208
 20
3.302000000000012
 30
0.0
 11
89.66885938254134
 21
3.302000000000007
 31
0.0
 12
90.21919271587466
 22
6.60400000000001
 32
0.0
 13
90.21919271587466
 23
6.60400000000001
 33
0.0
  0
MTEXT
  5
1A9
330
19F
100
AcDbEntity
  8
치수문자_일반주서
 62
     0
100
AcDbMText
 10
85.84419271587458
 20
22.32343388679575
 30
0.0
 40
3.5
 41
0.0
 71
     2
 72
     1
  1
\A1;%%c3
  7
SLDTEXTSTYLE0
 11
-4.741501481591405E-15
 21
1.0
 31
0.0
 73
     1
 44
1.0
  0
POINT
  5
1AA
330
19F
100
AcDbEntity
  8
Defpoints
 62
     0
100
AcDbPoint
 10
75.80895802161211
 20
9.601121222122273
 30
0.0
  0
POINT
  5
1AB
330
19F
100
AcDbEntity
  8
Defpoints
 62
     0
100
AcDbPoint
 10
75.70895802161209
 20
6.603999999999957
 30
0.0
  0
POINT
  5
1AC
330
19F
100
AcDbEntity
  8
Defpoints
 62
     0
100
AcDbPoint
 10
90.21919271587458
 20
6.604000000000011
 30
0.0
  0
ENDBLK
  5
1AD
330
19F
100
AcDbEntity
  8
0
100
AcDbBlockEnd
  0
BLOCK
  5
1DF
330
1DE
100
AcDbEntity
  8
0
100
AcDbBlockBegin
  2
*D14
 70
     1
 10
0.0
 20
0.0
 30
0.0
  3
*D14
  1
*D14
  0
LINE
  5
1E1
330
1DE
100
AcDbEntity
  8
치수문자_일반주서
 62
     0
370
    -2
100
AcDbLine
 10
-37.12201997807892
 20
2.999999999999957
 30
0.0
 11
-49.55597799969104
 21
2.99999999999991
 31
0.0
  0
LINE
  5
1E2
330
1DE
100
AcDbEntity
  8
치수문자_일반주서
 62
     0
370
    -2
100
AcDbLine
 10
-37.12201997807892
 20
-3.000000000000029
 30
0.0
 11
-49.55597799969102
 21
-3.000000000000076
 31
0.0
  0
LINE
  5
1E3
330
1DE
100
AcDbEntity
  8
치수문자_일반주서
 62
     0
370
    -2
100
AcDbLine
 10
-49.55597799969103
 20
-0.3020000000000898
 30
0.0
 11
-49.55597799969104
 21
0.3019999999999237
 31
0.0
  0
SOLID
  5
1E4
330
1DE
100
AcDbEntity
  8
치수문자_일반주서
 62
     0
100
AcDbTrace
 10
-49.0056446663577
 20
-0.3020000000000878
 30
0.0
 11
-50.10631133302437
 21
-0.3020000000000917
 31
0.0
 12
-49.55597799969104
 22
2.99999999999991
 32
0.0
 13
-49.55597799969104
 23
2.99999999999991
 33
0.0
  0
SOLID
  5
1E5
330
1DE
100
AcDbEntity
  8
치수문자_일반주서
 62
     0
100
AcDbTrace
 10
-50.10631133302437
 20
0.3019999999999217
 30
0.0
 11
-49.0056446663577
 21
0.3019999999999256
 31
0.0
 12
-49.55597799969102
 22
-3.000000000000076
 32
0.0
 13
-49.55597799969102
 23
-3.000000000000076
 33
0.0
  0
MTEXT
  5
1E6
330
1DE
100
AcDbEntity
  8
치수문자_일반주서
 62
     0
100
AcDbMText
 10
-53.93097799969104
 20
-0.0000000000000581
 30
0.0
 40
3.5
 41
0.0
 71
     2
 72
     1
  1
\A1;%%c6
  7
SLDTEXTSTYLE0
 11
-3.552713678800510E-15
 21
1.0
 31
0.0
 73
     1
 44
1.0
  0
POINT
  5
1E7
330
1DE
100
AcDbEntity
  8
Defpoints
 62
     0
100
AcDbPoint
 10
-37.05951997807892
 20
2.999999999999957
 30
0.0
  0
POINT
  5
1E8
330
1DE
100
AcDbEntity
  8
Defpoints
 62
     0
100
AcDbPoint
 10
-37.05951997807892
 20
-3.000000000000028
 30
0.0
  0
POINT
  5
1E9
330
1DE
100
AcDbEntity
  8
Defpoints
 62
     0
100
AcDbPoint
 10
-49.55597799969102
 20
-3.000000000000075
 30
0.0
  0
ENDBLK
  5
1E0
330
1DE
100
AcDbEntity
  8
0
100
AcDbBlockEnd
  0
BLOCK
  5
1EB
330
1EA
100
AcDbEntity
  8
0
100
AcDbBlockBegin
  2
*D15
 70
     1
 10
0.0
 20
0.0
 30
0.0
  3
*D15
  1
*D15
  0
LINE
  5
1ED
330
1EA
100
AcDbEntity
  8
치수문자_일반주서
 62
     0
370
    -2
100
AcDbLine
 10
21.87798002192108
 20
1.462499999999963
 30
0.0
 11
21.87798002192108
 21
19.89999999999962
 31
0.0
  0
LINE
  5
1EE
330
1EA
100
AcDbEntity
  8
치수문자_일반주서
 62
     0
370
    -2
100
AcDbLine
 10
17.37798002192108
 20
1.248647856477987
 30
0.0
 11
17.37798002192108
 21
19.89999999999962
 31
0.0
  0
LINE
  5
1EF
330
1EA
100
AcDbEntity
  8
치수문자_일반주서
 62
     0
370
    -2
100
AcDbLine
 10
18.57598002192108
 20
19.89999999999962
 30
0.0
 11
20.67998002192108
 21
19.89999999999962
 31
0.0
  0
SOLID
  5
1F0
330
1EA
100
AcDbEntity
  8
치수문자_일반주서
 62
     0
100
AcDbTrace
 10
18.57598002192108
 20
19.34966666666629
 30
0.0
 11
18.57598002192108
 21
20.45033333333296
 31
0.0
 12
21.87798002192108
 22
19.89999999999962
 32
0.0
 13
21.87798002192108
 23
19.89999999999962
 33
0.0
  0
SOLID
  5
1F1
330
1EA
100
AcDbEntity
  8
치수문자_일반주서
 62
     0
100
AcDbTrace
 10
20.67998002192108
 20
20.45033333333296
 30
0.0
 11
20.67998002192108
 21
19.34966666666629
 31
0.0
 12
17.37798002192108
 22
19.89999999999962
 32
0.0
 13
17.37798002192108
 23
19.89999999999962
 33
0.0
  0
MTEXT
  5
1F2
330
1EA
100
AcDbEntity
  8
치수문자_일반주서
 62
     0
100
AcDbMText
 10
19.62798002192108
 20
24.27499999999962
 30
0.0
 40
3.5
 41
0.0
 71
     2
 72
     1
  1
\A1;4.50
  7
SLDTEXTSTYLE0
 73
     1
 44
1.0
  0
POINT
  5
1F3
330
1EA
100
AcDbEntity
  8
Defpoints
 62
     0
100
AcDbPoint
 10
21.87798002192108
 20
1.399999999999963
 30
0.0
  0
POINT
  5
1F4
330
1EA
100
AcDbEntity
  8
Defpoints
 62
     0
100
AcDbPoint
 10
17.37798002192108
 20
1.186147856477987
 30
0.0
  0
POINT
  5
1F5
330
1EA
100
AcDbEntity
  8
Defpoints
 62
     0
100
AcDbPoint
 10
17.37798002192108
 20
19.89999999999962
 30
0.0
  0
ENDBLK
  5
1EC
330
1EA
100
AcDbEntity
  8
0
100
AcDbBlockEnd
  0
BLOCK
  5
1F7
330
1F6
100
AcDbEntity
  8
0
100
AcDbBlockBegin
  2
*D16
 70
     1
 10
0.0
 20
0.0
 30
0.0
  3
*D16
  1
*D16
  0
LINE
  5
1F9
330
1F6
100
AcDbEntity
  8
치수문자_일반주서
 62
     0
370
    -2
100
AcDbLine
 10
21.87798002192108
 20
1.462499999999963
 30
0.0
 11
21.87798002192108
 21
41.95832450504426
 31
0.0
  0
LINE
  5
1FA
330
1F6
100
AcDbEntity
  8
치수문자_일반주서
 62
     0
370
    -2
100
AcDbLine
 10
-38.12201997807892
 20
2.062499999999957
 30
0.0
 11
-38.12201997807892
 21
41.95832450504426
 31
0.0
  0
LINE
  5
1FB
330
1F6
100
AcDbEntity
  8
치수문자_일반주서
 62
     0
370
    -2
100
AcDbLine
 10
18.57598002192108
 20
41.95832450504426
 30
0.0
 11
-34.82001997807892
 21
41.95832450504426
 31
0.0
  0
SOLID
  5
1FC
330
1F6
100
AcDbEntity
  8
치수문자_일반주서
 62
     0
100
AcDbTrace
 10
18.57598002192108
 20
41.40799117171093
 30
0.0
 11
18.57598002192108
 21
42.50865783837759
 31
0.0
 12
21.87798002192108
 22
41.95832450504426
 32
0.0
 13
21.87798002192108
 23
41.95832450504426
 33
0.0
  0
SOLID
  5
1FD
330
1F6
100
AcDbEntity
  8
치수문자_일반주서
 62
     0
100
AcDbTrace
 10
-34.82001997807892
 20
42.50865783837759
 30
0.0
 11
-34.82001997807892
 21
41.40799117171093
 31
0.0
 12
-38.12201997807892
 22
41.95832450504426
 32
0.0
 13
-38.12201997807892
 23
41.95832450504426
 33
0.0
  0
MTEXT
  5
1FE
330
1F6
100
AcDbEntity
  8
치수문자_일반주서
 62
     0
100
AcDbMText
 10
-13.12201997807892
 20
46.33332450504426
 30
0.0
 40
3.5
 41
0.0
 71
     2
 72
     1
  1
\A1;60
  7
SLDTEXTSTYLE0
 73
     1
 44
1.0
  0
POINT
  5
1FF
330
1F6
100
AcDbEntity
  8
Defpoints
 62
     0
100
AcDbPoint
 10
21.87798002192108
 20
1.399999999999963
 30
0.0
  0
POINT
  5
200
330
1F6
100
AcDbEntity
  8
Defpoints
 62
     0
100
AcDbPoint
 10
-38.12201997807892
 20
1.999999999999957
 30
0.0
  0
POINT
  5
201
330
1F6
100
AcDbEntity
  8
Defpoints
 62
     0
100
AcDbPoint
 10
-38.12201997807892
 20
41.95832450504426
 30
0.0
  0
ENDBLK
  5
1F8
330
1F6
100
AcDbEntity
  8
0
100
AcDbBlockEnd
  0
BLOCK
  5
203
330
202
100
AcDbEntity
  8
0
100
AcDbBlockBegin
  2
*D17
 70
     1
 10
0.0
 20
0.0
 30
0.0
  3
*D17
  1
*D17
  0
LINE
  5
205
330
202
100
AcDbEntity
  8
치수문자_일반주서
 62
     0
370
    -2
100
AcDbLine
 10
21.87798002192108
 20
1.46029871062413
 30
0.0
 11
21.87798002192108
 21
30.31999999999866
 31
0.0
  0
LINE
  5
206
330
202
100
AcDbEntity
  8
치수문자_일반주서
 62
     0
370
    -2
100
AcDbLine
 10
5.877980021921019
 20
1.487499999999983
 30
0.0
 11
5.877980021921019
 21
30.31999999999866
 31
0.0
  0
LINE
  5
207
330
202
100
AcDbEntity
  8
치수문자_일반주서
 62
     0
370
    -2
100
AcDbLine
 10
18.57598002192108
 20
30.31999999999866
 30
0.0
 11
9.179980021921018
 21
30.31999999999866
 31
0.0
  0
SOLID
  5
208
330
202
100
AcDbEntity
  8
치수문자_일반주서
 62
     0
100
AcDbTrace
 10
18.57598002192108
 20
29.76966666666532
 30
0.0
 11
18.57598002192108
 21
30.87033333333199
 31
0.0
 12
21.87798002192108
 22
30.31999999999866
 32
0.0
 13
21.87798002192108
 23
30.31999999999866
 33
0.0
  0
SOLID
  5
209
330
202
100
AcDbEntity
  8
치수문자_일반주서
 62
     0
100
AcDbTrace
 10
9.179980021921018
 20
30.87033333333199
 30
0.0
 11
9.179980021921018
 21
29.76966666666532
 31
0.0
 12
5.877980021921019
 22
30.31999999999866
 32
0.0
 13
5.877980021921019
 23
30.31999999999866
 33
0.0
  0
MTEXT
  5
20A
330
202
100
AcDbEntity
  8
치수문자_일반주서
 62
     0
100
AcDbMText
 10
13.87798002192102
 20
34.69499999999866
 30
0.0
 40
3.5
 41
0.0
 71
     2
 72
     1
  1
\A1;16
  7
SLDTEXTSTYLE0
 73
     1
 44
1.0
  0
POINT
  5
20B
330
202
100
AcDbEntity
  8
Defpoints
 62
     0
100
AcDbPoint
 10
21.87798002192108
 20
1.39779871062413
 30
0.0
  0
POINT
  5
20C
330
202
100
AcDbEntity
  8
Defpoints
 62
     0
100
AcDbPoint
 10
5.877980021921019
 20
1.424999999999983
 30
0.0
  0
POINT
  5
20D
330
202
100
AcDbEntity
  8
Defpoints
 62
     0
100
AcDbPoint
 10
5.877980021921019
 20
30.31999999999866
 30
0.0
  0
ENDBLK
  5
204
330
202
100
AcDbEntity
  8
0
100
AcDbBlockEnd
  0
BLOCK
  5
20F
330
20E
100
AcDbEntity
  8
0
100
AcDbBlockBegin
  2
*D18
 70
     1
 10
0.0
 20
0.0
 30
0.0
  3
*D18
  1
*D18
  0
LINE
  5
211
330
20E
100
AcDbEntity
  8
치수문자_일반주서
 62
     0
370
    -2
100
AcDbLine
 10
21.94048002192108
 20
1.501904278724411
 30
0.0
 11
36.28821471618357
 21
1.501904278724464
 31
0.0
  0
LINE
  5
212
330
20E
100
AcDbEntity
  8
치수문자_일반주서
 62
     0
370
    -2
100
AcDbLine
 10
21.84048002192105
 20
-1.495216943397906
 30
0.0
 11
36.28821471618358
 21
-1.495216943397853
 31
0.0
  0
LINE
  5
213
330
20E
100
AcDbEntity
  8
치수문자_일반주서
 62
     0
370
    -2
100
AcDbLine
 10
36.28821471618357
 20
1.501904278724464
 30
0.0
 11
36.28821471618354
 21
17.28671694339791
 31
0.0
  0
LINE
  5
214
330
20E
100
AcDbEntity
  8
치수문자_일반주서
 62
     0
370
    -2
100
AcDbLine
 10
36.28821471618357
 20
1.501904278724464
 30
0.0
 11
36.28821471618358
 21
-1.495216943397853
 31
0.0
  0
LINE
  5
215
330
20E
100
AcDbEntity
  8
치수문자_일반주서
 62
     0
370
    -2
100
AcDbLine
 10
36.28821471618357
 20
4.803904278724463
 30
0.0
 11
36.28821471618356
 21
8.105904278724463
 31
0.0
  0
LINE
  5
216
330
20E
100
AcDbEntity
  8
치수문자_일반주서
 62
     0
370
    -2
100
AcDbLine
 10
36.28821471618359
 20
-4.797216943397853
 30
0.0
 11
36.2882147161836
 21
-8.099216943397852
 31
0.0
  0
SOLID
  5
217
330
20E
100
AcDbEntity
  8
치수문자_일반주서
 62
     0
100
AcDbTrace
 10
35.73788138285023
 20
4.803904278724462
 30
0.0
 11
36.8385480495169
 21
4.803904278724464
 31
0.0
 12
36.28821471618357
 22
1.501904278724464
 32
0.0
 13
36.28821471618357
 23
1.501904278724464
 33
0.0
  0
SOLID
  5
218
330
20E
100
AcDbEntity
  8
치수문자_일반주서
 62
     0
100
AcDbTrace
 10
36.83854804951692
 20
-4.797216943397852
 30
0.0
 11
35.73788138285025
 21
-4.797216943397854
 31
0.0
 12
36.28821471618358
 22
-1.495216943397853
 32
0.0
 13
36.28821471618358
 23
-1.495216943397853
 33
0.0
  0
MTEXT
  5
219
330
20E
100
AcDbEntity
  8
치수문자_일반주서
 62
     0
100
AcDbMText
 10
31.91321471618355
 20
14.2242169433979
 30
0.0
 40
3.5
 41
0.0
 71
     2
 72
     1
  1
\A1;%%c3
  7
SLDTEXTSTYLE0
 11
-2.370750740795702E-15
 21
1.0
 31
0.0
 73
     1
 44
1.0
  0
POINT
  5
21A
330
20E
100
AcDbEntity
  8
Defpoints
 62
     0
100
AcDbPoint
 10
21.87798002192108
 20
1.50190427872441
 30
0.0
  0
POINT
  5
21B
330
20E
100
AcDbEntity
  8
Defpoints
 62
     0
100
AcDbPoint
 10
21.77798002192105
 20
-1.495216943397907
 30
0.0
  0
POINT
  5
21C
330
20E
100
AcDbEntity
  8
Defpoints
 62
     0
100
AcDbPoint
 10
36.28821471618362
 20
-1.495216943397852
 30
0.0
  0
ENDBLK
  5
210
330
20E
100
AcDbEntity
  8
0
100
AcDbBlockEnd
  0
BLOCK
  5
261
330
260
100
AcDbEntity
  8
0
100
AcDbBlockBegin
  2
*D20
 70
     1
 10
0.0
 20
0.0
 30
0.0
  3
*D20
  1
*D79
  0
LINE
  5
262
330
260
100
AcDbEntity
  8
치수문자_일반주서
 62
     0
370
    -2
100
AcDbLine
 10
5.217552823680522
 20
17.16959742424278
 30
0.0
 11
10.27304117177517
 21
-0.0000000000000036
 31
0.0
  0
MTEXT
  5
263
330
260
100
AcDbEntity
  8
치수문자_일반주서
 62
     0
100
AcDbMText
 10
11.49362697155446
 20
5.148138922744519
 30
0.0
 40
3.5
 41
0.0
 71
     5
 72
     1
  1
\A1;R0.3
  7
SLDTEXTSTYLE0
 11
0.2824546248796608
 21
-0.9592806601219949
 31
0.0
 73
     1
 44
1.0
  0
LINE
  5
264
330
260
100
AcDbEntity
  8
치수문자_일반주서
 62
     0
370
    -2
100
AcDbLine
 10
4.20015126486399
 20
20.62492636200218
 30
0.0
 11
4.284887652327882
 21
20.33714216396561
 31
0.0
  0
SOLID
  5
265
330
260
100
AcDbEntity
  8
치수문자_일반주서
 62
     0
100
AcDbTrace
 10
5.745476946967659
 20
17.32504161946822
 30
0.0
 11
4.689628700393384
 21
17.01415322901734
 31
0.0
 12
4.284887652327882
 22
20.33714216396561
 32
0.0
 13
4.284887652327882
 23
20.33714216396561
 33
0.0
  0
POINT
  5
266
330
260
100
AcDbEntity
  8
Defpoints
 62
     0
100
AcDbPoint
 10
4.284887652327882
 20
20.33714216396561
 30
0.0
  0
POINT
  5
267
330
260
100
AcDbEntity
  8
Defpoints
 62
     0
100
AcDbPoint
 10
4.20015126486399
 20
20.62492636200218
 30
0.0
  0
ENDBLK
  5
268
330
260
100
AcDbEntity
  8
0
100
AcDbBlockEnd
  0
BLOCK
  5
28A
330
289
100
AcDbEntity
  8
0
100
AcDbBlockBegin
  2
*D21
 70
     1
 10
0.0
 20
0.0
 30
0.0
  3
*D21
  1
*D21
  0
LINE
  5
28C
330
289
100
AcDbEntity
  8
치수문자_일반주서
 62
     0
370
    -2
100
AcDbLine
 10
22.59549221987128
 20
-4.648271630799426
 30
0.0
 11
27.65098056796592
 21
-21.81786905504222
 31
0.0
  0
MTEXT
  5
28D
330
289
100
AcDbEntity
  8
치수문자_일반주서
 62
     0
100
AcDbMText
 10
28.87156636774522
 20
-16.66973013229769
 30
0.0
 40
3.5
 41
0.0
 71
     5
 72
     1
  1
\A1;R0.3
  7
SLDTEXTSTYLE0
 11
0.2824546248796608
 21
-0.9592806601219949
 31
0.0
 73
     1
 44
1.0
  0
LINE
  5
28E
330
289
100
AcDbEntity
  8
치수문자_일반주서
 62
     0
370
    -2
100
AcDbLine
 10
21.57809066105474
 20
-1.192942693040024
 30
0.0
 11
21.66282704851864
 21
-1.4807268910766
 31
0.0
  0
SOLID
  5
28F
330
289
100
AcDbEntity
  8
치수문자_일반주서
 62
     0
100
AcDbTrace
 10
23.12341634315841
 20
-4.492827435573986
 30
0.0
 11
22.06756809658414
 21
-4.803715826024867
 31
0.0
 12
21.66282704851864
 22
-1.4807268910766
 32
0.0
 13
21.66282704851864
 23
-1.4807268910766
 33
0.0
  0
POINT
  5
290
330
289
100
AcDbEntity
  8
Defpoints
 62
     0
100
AcDbPoint
 10
21.66282704851864
 20
-1.4807268910766
 30
0.0
  0
POINT
  5
291
330
289
100
AcDbEntity
  8
Defpoints
 62
     0
100
AcDbPoint
 10
21.57809066105474
 20
-1.192942693040024
 30
0.0
  0
ENDBLK
  5
28B
330
289
100
AcDbEntity
  8
0
100
AcDbBlockEnd
  0
ENDSEC
  0
SECTION
  2
ENTITIES
  0
INSERT
  5
BC
330
1F
100
AcDbEntity
  8
0
  6
Continuous
 62
     7
100
AcDbBlockReference
 66
     1
  2
블럭10
 10
-22.93944368806589
 20
-52.04609937292004
 30
0.0
  0
ATTRIB
  5
BD
330
BC
100
AcDbEntity
  8
FORMAT
 62
     2
100
AcDbText
 10
-42.21802657207924
 20
-49.97073246008785
 30
0.0
 40
4.233333333333333
  1
SEME610300316E [ 2 FLUTE ]
 41
0.75
  7
SLDTEXTSTYLE0
 11
-42.21802657207924
 21
-52.08739912675452
 31
0.0
100
AcDbAttribute
  2
AUTOATTR0
 70
     0
 74
     1
  0
SEQEND
  5
BE
330
BC
100
AcDbEntity
  8
0
  6
Continuous
 62
     7
  0
HATCH
  5
BF
330
1F
100
AcDbEntity
  8
중심선
100
AcDbHatch
 10
0.0
 20
0.0
 30
0.0
210
0.0
220
0.0
230
1.0
  2
SOLID
 70
     1
 71
     0
 91
        1
 92
        0
 93
        4
 72
     1
 10
-17.22453438368504
 20
-35.7989250712761
 11
-20.67080962752232
 21
-35.7989250712761
 72
     1
 10
-20.67080962752232
 20
-35.7989250712761
 11
-22.79903948672635
 21
-38.3352506518487
 72
     1
 10
-22.79903948672635
 20
-38.3352506518487
 11
-19.35273115777591
 21
-38.33521122254621
 72
     1
 10
-19.35273115777591
 20
-38.33521122254621
 11
-17.22453438368504
 21
-35.7989250712761
 97
        0
 75
     0
 76
     1
 98
        1
 10
0.0
 20
0.0
  0
HATCH
  5
C0
330
1F
100
AcDbEntity
  8
중심선
100
AcDbHatch
 10
0.0
 20
0.0
 30
0.0
210
0.0
220
0.0
230
1.0
  2
SOLID
 70
     1
 71
     0
 91
        1
 92
        0
 93
        4
 72
     1
 10
-12.21177039264909
 20
-35.7989250712761
 11
-15.65804563648637
 21
-35.7989250712761
 72
     1
 10
-15.65804563648637
 20
-35.7989250712761
 11
-20.18918364484376
 21
-41.19892507127612
 72
     1
 10
-20.18918364484376
 20
-41.19892507127612
 11
-16.74290840100648
 21
-41.19892507127612
 72
     1
 10
-16.74290840100648
 20
-41.19892507127612
 11
-12.21177039264909
 21
-35.7989250712761
 97
        0
 75
     0
 76
     1
 98
        1
 10
0.0
 20
0.0
  0
HATCH
  5
C1
330
1F
100
AcDbEntity
  8
중심선
100
AcDbHatch
 10
0.0
 20
0.0
 30
0.0
210
0.0
220
0.0
230
1.0
  2
SOLID
 70
     1
 71
     0
 91
        1
 92
        0
 93
        4
 72
     1
 10
-7.199006401613195
 20
-35.79892507127613
 11
-10.64528164545031
 21
-35.7989250712761
 72
     1
 10
-10.64528164545031
 20
-35.7989250712761
 11
-17.69371854733956
 21
-44.19892507127612
 72
     1
 10
-17.69371854733956
 20
-44.19892507127612
 11
-14.24744330350228
 21
-44.19892507127612
 72
     1
 10
-14.24744330350228
 20
-44.19892507127612
 11
-7.199006401613195
 21
-35.79892507127613
 97
        0
 75
     0
 76
     1
 98
        1
 10
0.0
 20
0.0
  0
HATCH
  5
C2
330
1F
100
AcDbEntity
  8
중심선
100
AcDbHatch
 10
0.0
 20
0.0
 30
0.0
210
0.0
220
0.0
230
1.0
  2
SOLID
 70
     1
 71
     0
 91
        1
 92
        0
 93
        6
 72
     3
 10
-2.399115970600996
 20
-39.99892507132738
 11
3.960054785062284
 21
1.540850780301639E-10
 40
0.3939339440162633
 50
17.09539180608433
 51
320.0019657685079
 73
     0
 72
     1
 10
-0.7161163149004002
 20
-38.58681907591441
 11
1.589185558800638
 21
-36.65249236586649
 72
     3
 10
-2.399115970653842
 20
-39.99892507127625
 11
6.600054785286829
 21
-1.249000902703301E-13
 40
0.6363583540795982
 50
39.99873849337408
 51
368.4976242363725
 73
     1
 72
     1
 10
4.026216521246767
 20
-39.03892507120613
 11
-3.71904866381792
 21
-39.0389250712061
 72
     1
 10
-3.71904866381792
 20
-39.0389250712061
 11
-3.719073708263854
 21
-40.95892507120602
 72
     1
 10
-3.719073708263854
 20
-40.95892507120602
 11
0.7223060612081831
 21
-40.95892507120599
 97
        0
 75
     0
 76
     1
 98
        1
 10
0.0
 20
0.0
  0
LINE
  5
1C0
330
1F
100
AcDbEntity
  8
0
  6
Continuous
 62
     4
370
    25
100
AcDbLine
 10
0.0
 20
-3.000000000000028
 30
0.0
 11
5.877980021921019
 21
-1.42500000000004
 31
0.0
  0
LINE
  5
1C1
330
1F
100
AcDbEntity
  8
0
  6
Continuous
 62
     4
370
    25
100
AcDbLine
 10
5.877980021921019
 20
1.424999999999983
 30
0.0
 11
0.0
 21
2.999999999999986
 31
0.0
  0
LINE
  5
1C2
330
1F
100
AcDbEntity
  8
0
  6
Continuous
 62
     4
370
    25
100
AcDbLine
 10
-37.12201997807892
 20
2.999999999999957
 30
0.0
 11
-38.12201997807892
 21
1.999999999999957
 31
0.0
  0
LINE
  5
1C3
330
1F
100
AcDbEntity
  8
0
  6
Continuous
 62
     4
370
    25
100
AcDbLine
 10
-38.12201997807892
 20
-2.000000000000028
 30
0.0
 11
-37.12201997807892
 21
-3.000000000000028
 31
0.0
  0
SPLINE
  5
1C4
330
1F
100
AcDbEntity
  8
0
  6
Continuous
 62
     4
370
    25
100
AcDbSpline
210
0.0
220
0.0
230
1.0
 70
     8
 71
     3
 72
    11
 73
     7
 74
     0
 42
0.000000001
 43
0.00000001
 40
0.0
 40
0.0
 40
0.0
 40
0.0
 40
0.4620818500171489
 40
0.6382717798866115
 40
0.7622377342187463
 40
1.0
 40
1.0
 40
1.0
 40
1.0
 10
15.22872731927816
 20
-1.249385338093447
 30
0.0
 10
15.55944570740178
 20
-1.221409739854366
 30
0.0
 10
16.01626567170268
 20
-1.182767159798928
 30
0.0
 10
16.55898300468164
 20
-1.171422626580537
 30
0.0
 10
16.94503628666814
 20
-1.170786841335342
 30
0.0
 10
17.20627140290117
 20
-1.17968684425658
 30
0.0
 10
17.37798002192375
 20
-1.185536774514574
 30
0.0
  0
SPLINE
  5
1C5
330
1F
100
AcDbEntity
  8
0
  6
Continuous
 62
     4
370
    25
100
AcDbSpline
210
0.0
220
0.0
230
1.0
 70
     8
 71
     3
 72
    10
 73
     6
 74
     0
 42
0.000000001
 43
0.00000001
 40
0.0
 40
0.0
 40
0.0
 40
0.0
 40
0.3870787935662618
 40
0.8756474541578245
 40
1.0
 40
1.0
 40
1.0
 40
1.0
 10
17.37798002192375
 20
1.185536774514517
 30
0.0
 10
17.20616199766567
 20
1.180275927980134
 30
0.0
 10
16.81747623646976
 20
1.168374870750654
 30
0.0
 10
16.37962593413687
 20
1.168006935698472
 30
0.0
 10
16.11045252007318
 20
1.188020771135598
 30
0.0
 10
16.05584126015827
 20
1.19208127901581
 30
0.0
  0
LINE
  5
1C6
330
1F
100
AcDbEntity
  8
0
  6
Continuous
 62
     4
370
    25
100
AcDbLine
 10
0.0
 20
3.0
 30
0.0
 11
0.0
 21
-3.0
 31
0.0
  0
LINE
  5
1C7
330
1F
100
AcDbEntity
  8
0
  6
Continuous
 62
     4
370
    25
100
AcDbLine
 10
-38.12201997807892
 20
1.999999999999957
 30
0.0
 11
-38.12201997807892
 21
-2.000000000000028
 31
0.0
  0
SPLINE
  5
1C8
330
1F
100
AcDbEntity
  8
0
  6
Continuous
 62
     4
370
    25
100
AcDbSpline
210
0.0
220
0.0
230
1.0
 70
     8
 71
     3
 72
    11
 73
     7
 74
     0
 42
0.000000001
 43
0.00000001
 40
0.0
 40
0.0
 40
0.0
 40
0.0
 40
0.3081407231133523
 40
0.6162132639756378
 40
0.8580955920846803
 40
1.0
 40
1.0
 40
1.0
 40
1.0
 10
17.37798002192108
 20
0.687081682800212
 30
0.0
 10
17.09303182063024
 20
0.8170536809710427
 30
0.0
 10
16.52319846849394
 20
1.076968918428378
 30
0.0
 10
15.72953459740825
 20
1.308085052955008
 30
0.0
 10
15.09020492472808
 20
1.418469883264791
 30
0.0
 10
14.73560532955878
 20
1.414847141716194
 30
0.0
 10
14.60449281086989
 20
1.413507639992375
 30
0.0
  0
SPLINE
  5
1C9
330
1F
100
AcDbEntity
  8
0
  6
Continuous
 62
     4
370
    25
100
AcDbSpline
210
0.0
220
0.0
230
1.0
 70
     8
 71
     3
 72
    18
 73
    14
 74
     0
 42
0.000000001
 43
0.00000001
 40
0.0
 40
0.0
 40
0.0
 40
0.0
 40
0.2499999999999993
 40
0.2499999999999993
 40
0.374999999999999
 40
0.374999999999999
 40
0.4999999999999987
 40
0.4999999999999987
 40
0.7500000000000007
 40
0.7500000000000007
 40
0.8750000000000003
 40
0.8750000000000003
 40
1.0
 40
1.0
 40
1.0
 40
1.0
 10
17.37798002192108
 20
0.3032447619949465
 30
0.0
 10
17.12670489584303
 20
0.4389837875974365
 30
0.0
 10
16.86835353956184
 20
0.5715685439838012
 30
0.0
 10
16.48722262627558
 20
0.7542920151711456
 30
0.0
 10
16.36271216615984
 20
0.812324928706559
 30
0.0
 10
16.10827595583208
 20
0.9229845021743586
 30
0.0
 10
15.97969371289855
 20
0.9753759846057903
 30
0.0
 10
15.59607410072107
 20
1.121147706477942
 30
0.0
 10
15.34620871936028
 20
1.202864090491246
 30
0.0
 10
14.96186803355477
 20
1.298888962885357
 30
0.0
 10
14.83368678525835
 20
1.326303126177251
 30
0.0
 10
14.58129275290287
 20
1.371202433796938
 30
0.0
 10
14.45584006199329
 20
1.38880468940738
 30
0.0
 10
14.32807904911965
 20
1.401450687889934
 30
0.0
  0
SPLINE
  5
1CA
330
1F
100
AcDbEntity
  8
0
  6
Continuous
 62
     4
370
    25
100
AcDbSpline
210
0.0
220
0.0
230
1.0
 70
     8
 71
     3
 72
    10
 73
     6
 74
     0
 42
0.000000001
 43
0.00000001
 40
0.0
 40
0.0
 40
0.0
 40
0.0
 40
0.2240999493484423
 40
0.6122868967800255
 40
1.0
 40
1.0
 40
1.0
 40
1.0
 10
16.05584126015827
 20
-1.192081279015866
 30
0.0
 10
15.92669988751868
 20
-1.233204133533235
 30
0.0
 10
15.57385924418384
 20
-1.345560182931649
 30
0.0
 10
14.99810377897114
 20
-1.425625308197695
 30
0.0
 10
14.55139894512973
 20
-1.419816081108053
 30
0.0
 10
14.32818293012036
 20
-1.416913241418399
 30
0.0
  0
LINE
  5
1CB
330
1F
100
AcDbEntity
  8
0
  6
Continuous
 62
     4
370
    25
100
AcDbLine
 10
14.32807904911965
 20
-1.416906676188944
 30
0.0
 11
14.32807904911965
 21
1.401509192723793
 31
0.0
  0
SPLINE
  5
1CC
330
1F
100
AcDbEntity
  8
0
  6
Continuous
 62
     4
370
    25
100
AcDbSpline
210
0.0
220
0.0
230
1.0
 70
     8
 71
     3
 72
    18
 73
    14
 74
     0
 42
0.000000001
 43
0.00000001
 40
0.0
 40
0.0
 40
0.0
 40
0.0
 40
0.25
 40
0.25
 40
0.3749999999999986
 40
0.3749999999999986
 40
0.4999999999999971
 40
0.4999999999999971
 40
0.7499999999999971
 40
0.7499999999999971
 40
0.8749999999999986
 40
0.8749999999999986
 40
1.0
 40
1.0
 40
1.0
 40
1.0
 10
17.37798002192125
 20
0.1684588969660581
 30
0.0
 10
17.12670694557164
 20
0.2694949173738905
 30
0.0
 10
16.86835778172775
 20
0.369013381281718
 30
0.0
 10
16.48722983220074
 20
0.5074552679661792
 30
0.0
 10
16.36272040168416
 20
0.5516526251812905
 30
0.0
 10
16.10828639993275
 20
0.6364097992832427
 30
0.0
 10
15.97970523335147
 20
0.6767927361734252
 30
0.0
 10
15.59608861145995
 20
0.7899640884959496
 30
0.0
 10
15.34622542575937
 20
0.8545619771935691
 30
0.0
 10
14.96188789702086
 20
0.932538015234428
 30
0.0
 10
14.83370759923969
 20
0.9552430824268328
 30
0.0
 10
14.58131517493058
 20
0.9934504156936868
 30
0.0
 10
14.45586392027838
 20
1.009046753466421
 30
0.0
 10
14.32810406156943
 20
1.021049093281135
 30
0.0
  0
LINE
  5
1CD
330
1F
100
AcDbEntity
  8
0
  6
Continuous
 62
     4
370
    25
100
AcDbLine
 10
15.22972082026928
 20
-1.245711639323531
 30
0.0
 11
14.32818293012036
 21
-1.26146455560044
 31
0.0
  0
SPLINE
  5
1CE
330
1F
100
AcDbEntity
  8
0
  6
Continuous
 62
     4
370
    25
100
AcDbSpline
210
0.0
220
0.0
230
1.0
 70
     8
 71
     3
 72
    18
 73
    14
 74
     0
 42
0.000000001
 43
0.00000001
 40
0.0
 40
0.0
 40
0.0
 40
0.0
 40
0.2499999999999972
 40
0.2499999999999972
 40
0.3749999999999972
 40
0.3749999999999972
 40
0.4999999999999972
 40
0.4999999999999972
 40
0.7499999999999972
 40
0.7499999999999972
 40
0.8749999999999986
 40
0.8749999999999986
 40
1.0
 40
1.0
 40
1.0
 40
1.0
 10
17.37798002192125
 20
-1.184455290307326
 30
0.0
 10
17.12670800289163
 20
-1.165686616818803
 30
0.0
 10
16.86835996998127
 20
-1.129571594191447
 30
0.0
 10
16.48723354926477
 20
-1.05219190933208
 30
0.0
 10
16.36272464984648
 20
-1.022727742932659
 30
0.0
 10
16.10829178735537
 20
-0.9562690105208986
 30
0.0
 10
15.97971117599445
 20
-0.9193463227331478
 30
0.0
 10
15.59609609660066
 20
-0.7992335106283974
 30
0.0
 10
15.34623404348264
 20
-0.7071341988484932
 30
0.0
 10
14.96189814327897
 20
-0.5546450904299292
 30
0.0
 10
14.83371833581094
 20
-0.5016105932584054
 30
0.0
 10
14.58132674100028
 20
-0.3928945801801262
 30
0.0
 10
14.45587622718239
 20
-0.3370485482709711
 30
0.0
 10
14.32811696383737
 20
-0.2798512126112058
 30
0.0
  0
CIRCLE
  5
1CF
330
1F
100
AcDbEntity
  8
외형선
100
AcDbCircle
 10
0.0
 20
0.0
 30
0.0
 40
3.000000000000005
  0
DIMENSION
  5
1D0
330
1F
100
AcDbEntity
  8
치수문자_일반주서
100
AcDbDimension
  2
*D14
 10
-49.55597799969102
 20
-3.000000000000076
 30
0.0
 11
-49.55597799969104
 21
-0.0000000000000426
 31
0.0
 70
   160
  1
%%c<>
 71
     2
 42
5.999999999999986
 52
-270.0
  3
SLDDIMSTYLE0
100
AcDbAlignedDimension
 13
-37.05951997807892
 23
2.999999999999957
 33
0.0
 14
-37.05951997807892
 24
-3.000000000000028
 34
0.0
 50
90.0000000000002
100
AcDbRotatedDimension
  0
DIMENSION
  5
1D1
330
1F
100
AcDbEntity
  8
치수문자_일반주서
100
AcDbDimension
  2
*D15
 10
17.37798002192108
 20
19.89999999999962
 30
0.0
 11
19.62798002192108
 21
19.89999999999962
 31
0.0
 70
   160
  1
<>
 71
     2
 42
4.5
  3
SLDDIMSTYLE1
100
AcDbAlignedDimension
 13
21.87798002192108
 23
1.399999999999963
 33
0.0
 14
17.37798002192108
 24
1.186147856477987
 34
0.0
100
AcDbRotatedDimension
  0
DIMENSION
  5
1D2
330
1F
100
AcDbEntity
  8
치수문자_일반주서
100
AcDbDimension
  2
*D16
 10
-38.12201997807892
 20
41.95832450504426
 30
0.0
 11
-13.12201997807892
 21
41.95832450504426
 31
0.0
 70
   160
  1
<>
 71
     2
 42
60.0
  3
SLDDIMSTYLE2
100
AcDbAlignedDimension
 13
21.87798002192108
 23
1.399999999999963
 33
0.0
 14
-38.12201997807892
 24
1.999999999999957
 34
0.0
100
AcDbRotatedDimension
  0
DIMENSION
  5
1D3
330
1F
100
AcDbEntity
  8
치수문자_일반주서
100
AcDbDimension
  2
*D17
 10
5.877980021921019
 20
30.31999999999866
 30
0.0
 11
13.87798002192102
 21
30.31999999999866
 31
0.0
 70
   160
  1
<>
 71
     2
 42
16.00000000000006
  3
SLDDIMSTYLE0
100
AcDbAlignedDimension
 13
21.87798002192108
 23
1.39779871062413
 33
0.0
 14
5.877980021921019
 24
1.424999999999983
 34
0.0
 50
-0.0000000000022354
100
AcDbRotatedDimension
  0
DIMENSION
  5
1D4
330
1F
100
AcDbEntity
  8
치수문자_일반주서
100
AcDbDimension
  2
*D18
 10
36.28821471618358
 20
-1.495216943397853
 30
0.0
 11
36.28821471618355
 21
14.22421694339791
 31
0.0
 70
   160
  1
%%c<>
 71
     2
 42
2.997121222122316
 52
-270.0
  3
SLDDIMSTYLE3
100
AcDbAlignedDimension
 13
21.87798002192108
 23
1.50190427872441
 33
0.0
 14
21.77798002192105
 24
-1.495216943397907
 34
0.0
 50
90.0000000000002
100
AcDbRotatedDimension
  0
INSERT
  5
1D5
330
1F
100
AcDbEntity
  8
외형선
100
AcDbBlockReference
  2
SW_DOWELSYMBOL_0
 10
0.0
 20
0.0
 30
0.0
  0
LINE
  5
1D6
330
1F
100
AcDbEntity
  8
0
  6
Continuous
 62
     4
370
    25
100
AcDbLine
 10
0.0
 20
3.0
 30
0.0
 11
0.0
 21
-3.0
 31
0.0
  0
LINE
  5
1D7
330
1F
100
AcDbEntity
  8
0
  6
Continuous
 62
     4
370
    25
100
AcDbLine
 10
-37.12201997807892
 20
2.999999999999957
 30
0.0
 11
-37.12201997807892
 21
-3.000000000000028
 31
0.0
  0
LINE
  5
1D8
330
1F
100
AcDbEntity
  8
0
  6
Continuous
 62
     4
370
    25
100
AcDbLine
 10
0.0
 20
2.999999999999957
 30
0.0
 11
-37.12201997807892
 21
2.999999999999957
 31
0.0
  0
LINE
  5
1D9
330
1F
100
AcDbEntity
  8
0
  6
Continuous
 62
     4
370
    25
100
AcDbLine
 10
-37.12201997807892
 20
-3.000000000000028
 30
0.0
 11
0.0
 21
-3.000000000000028
 31
0.0
  0
LINE
  5
1DA
330
1F
100
AcDbEntity
  8
0
  6
Continuous
 62
     4
370
    25
100
AcDbLine
 10
5.877980021921076
 20
1.424999999999969
 30
0.0
 11
5.877980021921076
 21
-1.42500000000004
 31
0.0
  0
LINE
  5
1DB
330
1F
100
AcDbEntity
  8
0
  6
Continuous
 62
     4
370
    25
100
AcDbLine
 10
5.877980021921076
 20
-1.425000000000026
 30
0.0
 11
14.60449281086989
 21
-1.425000000000026
 31
0.0
  0
LINE
  5
1DC
330
1F
100
AcDbEntity
  8
0
  6
Continuous
 62
     4
370
    25
100
AcDbLine
 10
14.60449281086989
 20
1.424999999999969
 30
0.0
 11
5.877980021921076
 21
1.424999999999969
 31
0.0
  0
LINE
  5
1DD
330
1F
100
AcDbEntity
  8
중심선
100
AcDbLine
 10
-41.12201997807892
 20
-0.0000000000000426
 30
0.0
 11
24.87798002192108
 21
-0.0000000000000284
 31
0.0
  0
LINE
  5
26C
330
1F
100
AcDbEntity
  8
0
  6
Continuous
 62
     1
370
    25
100
AcDbLine
 10
17.99260858028566
 20
0.3818900472877402
 30
0.0
 11
17.57475204710536
 21
0.5900906601093965
 31
0.0
  0
LINE
  5
26D
330
1F
100
AcDbEntity
  8
0
  6
Continuous
 62
     1
370
    25
100
AcDbLine
 10
17.49491542321425
 20
1.189399407307512
 30
0.0
 11
17.37798002192375
 21
1.185536774514517
 31
0.0
  0
SPLINE
  5
26E
330
1F
100
AcDbEntity
  8
0
  6
Continuous
 62
     1
370
    25
100
AcDbSpline
210
0.0
220
0.0
230
1.0
 70
     8
 71
     3
 72
    17
 73
    13
 74
     0
 42
0.000000001
 43
0.00000001
 40
0.0
 40
0.0
 40
0.0
 40
0.0
 40
0.1334917817438933
 40
0.2244732328187496
 40
0.280576081778084
 40
0.3344890092336326
 40
0.3906446422435726
 40
0.4540663663752953
 40
0.5662789782755091
 40
0.6765438931706219
 40
0.8112577588028519
 40
1.0
 40
1.0
 40
1.0
 40
1.0
 10
21.34275526525695
 20
1.025280330906462
 30
0.0
 10
21.22438611801945
 20
1.015968628917122
 30
0.0
 10
21.02534236566774
 20
1.00031052756222
 30
0.0
 10
20.77784948322684
 20
0.989967146019076
 30
0.0
 10
20.60099858597826
 20
0.9856883957425424
 30
0.0
 10
20.45481317980534
 20
0.9842582109210909
 30
0.0
 10
20.30221205800254
 20
0.9849065646883517
 30
0.0
 10
20.09843439222024
 20
0.9889295386682093
 30
0.0
 10
19.84721698144875
 20
0.9996958713798918
 30
0.0
 10
19.53266308655756
 20
1.021885834356169
 30
0.0
 10
19.15193297751736
 20
1.059488034648936
 30
0.0
 10
18.86695080547494
 20
1.101240942216556
 30
0.0
 10
18.70065877166624
 20
1.125604487020397
 30
0.0
  0
SPLINE
  5
26F
330
1F
100
AcDbEntity
  8
0
  6
Continuous
 62
     1
370
    25
100
AcDbSpline
210
0.0
220
0.0
230
1.0
 70
     8
 71
     3
 72
    12
 73
     8
 74
     0
 42
0.000000001
 43
0.00000001
 40
0.0
 40
0.0
 40
0.0
 40
0.0
 40
0.3542329868263014
 40
0.571646713658965
 40
0.720892684207345
 40
0.8779634366905859
 40
1.0
 40
1.0
 40
1.0
 40
1.0
 10
18.70065877166624
 20
-1.130688009471314
 30
0.0
 10
18.83275431987894
 20
-1.111109889497449
 30
0.0
 10
19.04592471572866
 20
-1.079515519806044
 30
0.0
 10
19.31337364660715
 20
-1.048863901824085
 30
0.0
 10
19.50838572198975
 20
-1.03021777452124
 30
0.0
 10
19.66780416072976
 20
-1.017168964127414
 30
0.0
 10
19.77165084968144
 20
-1.010950752552908
 30
0.0
 10
19.81705665710254
 20
-1.008231908841019
 30
0.0
  0
LINE
  5
270
330
1F
100
AcDbEntity
  8
0
  6
Continuous
 62
     4
370
    25
100
AcDbLine
 10
17.37793939619075
 20
-1.190618955008354
 30
0.0
 11
17.49491542321425
 21
-1.194482929758408
 31
0.0
  0
SPLINE
  5
271
330
1F
100
AcDbEntity
  8
0
  6
Continuous
 62
     4
370
    25
100
AcDbSpline
210
0.0
220
0.0
230
1.0
 70
    24
 71
     3
 72
     8
 73
     4
 74
     0
 42
0.000000001
 43
0.00000001
 40
0.0
 40
0.0
 40
0.0
 40
0.0
 40
1.0
 40
1.0
 40
1.0
 40
1.0
 10
17.37809066105476
 20
0.3007030007691966
 30
0.0
 10
17.37809066105476
 20
0.295564197745648
 30
0.0
 10
17.37809066105476
 20
0.2435714406749554
 30
0.0
 10
17.37809066105476
 20
0.1659171357407487
 30
0.0
  0
SPLINE
  5
272
330
1F
100
AcDbEntity
  8
0
  6
Continuous
 62
     4
370
    25
100
AcDbSpline
210
0.0
220
0.0
230
1.0
 70
    24
 71
     3
 72
    10
 73
     6
 74
     0
 42
0.000000001
 43
0.00000001
 40
0.0
 40
0.0
 40
0.0
 40
0.0
 40
0.5
 40
0.5
 40
1.0
 40
1.0
 40
1.0
 40
1.0
 10
17.37809066105476
 20
0.1659171357407416
 30
0.0
 10
17.37809066105476
 20
-0.0994576405374517
 30
0.0
 10
17.37809066105476
 20
-0.3787915319536594
 30
0.0
 10
17.37809066105476
 20
-0.8596952461463943
 30
0.0
 10
17.37809066105476
 20
-1.057538985466088
 30
0.0
 10
17.37809066105476
 20
-1.186997051532728
 30
0.0
  0
SPLINE
  5
273
330
1F
100
AcDbEntity
  8
0
  6
Continuous
 62
     4
370
    25
100
AcDbSpline
210
0.0
220
0.0
230
1.0
 70
    24
 71
     3
 72
    12
 73
     8
 74
     0
 42
0.000000001
 43
0.00000001
 40
0.0
 40
0.0
 40
0.0
 40
0.0
 40
0.1973647600354508
 40
0.4062980397748442
 40
0.6212903987808261
 40
0.8084883287724897
 40
1.0
 40
1.0
 40
1.0
 40
1.0
 10
17.37809066105476
 20
1.173626143416001
 30
0.0
 10
17.37809066105476
 20
1.17125508244861
 30
0.0
 10
17.37809066105464
 20
1.166373980963911
 30
0.0
 10
17.37809066105476
 20
1.088452638274731
 30
0.0
 10
17.37809066105476
 20
0.9761679068471167
 30
0.0
 10
17.37809066105476
 20
0.8310010946273962
 30
0.0
 10
17.37809066105476
 20
0.7144954965940897
 30
0.0
 10
17.37809066105476
 20
0.6555791614526214
 30
0.0
  0
SPLINE
  5
274
330
1F
100
AcDbEntity
  8
0
  6
Continuous
 62
     1
370
    25
100
AcDbSpline
210
0.0
220
0.0
230
1.0
 70
     8
 71
     3
 72
    12
 73
     8
 74
     0
 42
0.000000001
 43
0.00000001
 40
0.0
 40
0.0
 40
0.0
 40
0.0
 40
0.2412210240886674
 40
0.4824699611798129
 40
0.7237444244961632
 40
0.9650420024851548
 40
1.0
 40
1.0
 40
1.0
 40
1.0
 10
21.87809066105476
 20
-1.186000157777784
 30
0.0
 10
21.56363815751456
 20
-1.11343820099836
 30
0.0
 10
20.93469676341704
 20
-0.9683058908991242
 30
0.0
 10
19.99120671466034
 20
-0.5820982322416199
 30
0.0
 10
19.04762597354076
 20
-0.1357345416138642
 30
0.0
 10
18.37289783179796
 20
0.2097670255509811
 30
0.0
 10
18.01279710315384
 20
0.3705524648714658
 30
0.0
 10
17.96722915270044
 20
0.3908986134620989
 30
0.0
  0
SPLINE
  5
275
330
1F
100
AcDbEntity
  8
0
  6
Continuous
 62
     1
370
    25
100
AcDbSpline
210
0.0
220
0.0
230
1.0
 70
     8
 71
     3
 72
    22
 73
    18
 74
     0
 42
0.000000001
 43
0.00000001
 40
0.0
 40
0.0
 40
0.0
 40
0.0
 40
0.125
 40
0.125
 40
0.25
 40
0.25
 40
0.375
 40
0.375
 40
0.5
 40
0.5
 40
0.625
 40
0.625
 40
0.75
 40
0.75
 40
0.875
 40
0.875
 40
1.0
 40
1.0
 40
1.0
 40
1.0
 10
21.64225827089905
 20
-1.485999885149099
 30
0.0
 10
21.59595988365146
 20
-1.489332997473348
 30
0.0
 10
21.40986653515375
 20
-1.469607612019971
 30
0.0
 10
21.04212598365325
 20
-1.408663721406043
 30
0.0
 10
20.86262788099665
 20
-1.367763552552148
 30
0.0
 10
20.49433349782174
 20
-1.265564848853032
 30
0.0
 10
20.30839416858876
 20
-1.204356681176499
 30
0.0
 10
19.94526923249964
 20
-1.066047878552943
 30
0.0
 10
19.76219295855216
 20
-0.9882676815298979
 30
0.0
 10
19.39289369452456
 20
-0.81864354212113
 30
0.0
 10
19.21171635920845
 20
-0.7276251797738595
 30
0.0
 10
18.84667519243456
 20
-0.5357798196966641
 30
0.0
 10
18.66050581909926
 20
-0.4344902849787786
 30
0.0
 10
18.29325722403794
 20
-0.2278769589720397
 30
0.0
 10
18.11360781992386
 20
-0.1228725713220484
 30
0.0
 10
17.74497415695166
 20
0.0891417001946664
 30
0.0
 10
17.55918996481594
 20
0.1955250831963156
 30
0.0
 10
17.37809066105464
 20
0.2987698163705019
 30
0.0
  0
SPLINE
  5
276
330
1F
100
AcDbEntity
  8
0
  6
Continuous
 62
     1
370
    25
100
AcDbSpline
210
0.0
220
0.0
230
1.0
 70
     8
 71
     3
 72
     9
 73
     5
 74
     0
 42
0.000000001
 43
0.00000001
 40
0.0
 40
0.0
 40
0.0
 40
0.0
 40
0.0560631360298127
 40
1.0
 40
1.0
 40
1.0
 40
1.0
 10
18.14700585020444
 20
-0.1424844786210642
 30
0.0
 10
18.13263551480944
 20
-0.1369722990471445
 30
0.0
 10
17.87631137005474
 20
-0.0386513708176182
 30
0.0
 10
17.62001667333175
 20
0.0665827601615518
 30
0.0
 10
17.37809066105496
 20
0.1659171357406564
 30
0.0
  0
SPLINE
  5
277
330
1F
100
AcDbEntity
  8
0
  6
Continuous
 62
     4
370
    25
100
AcDbSpline
210
0.0
220
0.0
230
1.0
 70
    24
 71
     3
 72
    11
 73
     7
 74
     0
 42
0.000000001
 43
0.00000001
 40
0.0
 40
0.0
 40
0.0
 40
0.0
 40
0.2360693181082624
 40
0.4811108144576596
 40
0.7332585308014953
 40
1.0
 40
1.0
 40
1.0
 40
1.0
 10
17.37809066105476
 20
0.3006296423607964
 30
0.0
 10
17.37809066105476
 20
0.2991765795418999
 30
0.0
 10
17.37809066105476
 20
0.2962152280123362
 30
0.0
 10
17.37809066105464
 20
0.2702597187347067
 30
0.0
 10
17.37809066105476
 20
0.229117040254792
 30
0.0
 10
17.37809066105476
 20
0.1873751011119396
 30
0.0
 10
17.37809066105476
 20
0.1659171357420774
 30
0.0
  0
LINE
  5
278
330
1F
100
AcDbEntity
  8
0
  6
Continuous
 62
     4
370
    25
100
AcDbLine
 10
17.37809066105476
 20
0.2987698163704877
 30
0.0
 11
17.37809066105476
 21
0.6928775921082959
 31
0.0
  0
SPLINE
  5
279
330
1F
100
AcDbEntity
  8
0
  6
Continuous
 62
     1
370
    25
100
AcDbSpline
210
0.0
220
0.0
230
1.0
 70
     8
 71
     3
 72
    12
 73
     8
 74
     0
 42
0.000000001
 43
0.00000001
 40
0.0
 40
0.0
 40
0.0
 40
0.0
 40
0.2152126109729702
 40
0.430450483078558
 40
0.6457114560085063
 40
0.8609933469573069
 40
1.0
 40
1.0
 40
1.0
 40
1.0
 10
21.87809066105476
 20
-0.0025417612254515
 30
0.0
 10
21.56363522523404
 20
0.1426862338389796
 30
0.0
 10
20.93468744357875
 20
0.433159270476537
 30
0.0
 10
19.99119119464405
 20
0.8129083057294082
 30
0.0
 10
19.04759543131166
 20
1.082591069444639
 30
0.0
 10
18.21532933035684
 20
1.20762937074867
 30
0.0
 10
17.69770119955786
 20
1.189993703743291
 30
0.0
 10
17.49460754834215
 20
1.183074272996322
 30
0.0
  0
SPLINE
  5
27A
330
1F
100
AcDbEntity
  8
0
  6
Continuous
 62
     1
370
    25
100
AcDbSpline
210
0.0
220
0.0
230
1.0
 70
    24
 71
     3
 72
    10
 73
     6
 74
     0
 42
0.000000001
 43
0.00000001
 40
0.0
 40
0.0
 40
0.0
 40
0.0
 40
0.5000000000000001
 40
0.5000000000000001
 40
1.0
 40
1.0
 40
1.0
 40
1.0
 10
21.87809066105476
 20
-1.186000157777784
 30
0.0
 10
21.87809066105476
 20
-1.057930611978918
 30
0.0
 10
21.87809066105476
 20
-0.8811308836121583
 30
0.0
 10
21.87809066105476
 20
-0.4674535306495784
 30
0.0
 10
21.87809066105476
 20
-0.2323565350987593
 30
0.0
 10
21.87809066105476
 20
-0.0025417612254515
 30
0.0
  0
SPLINE
  5
27B
330
1F
100
AcDbEntity
  8
0
  6
Continuous
 62
     4
370
    25
100
AcDbSpline
210
0.0
220
0.0
230
1.0
 70
    24
 71
     3
 72
    13
 73
     9
 74
     0
 42
0.000000001
 43
0.00000001
 40
0.0
 40
0.0
 40
0.0
 40
0.0
 40
0.0835506619152463
 40
0.2240614790798895
 40
0.4260453591536491
 40
0.633886785432908
 40
0.814858262493214
 40
1.0
 40
1.0
 40
1.0
 40
1.0
 10
17.37809066105476
 20
1.181035715818432
 30
0.0
 10
17.37809066105476
 20
1.181283350915372
 30
0.0
 10
17.37809066105476
 20
1.18194744482944
 30
0.0
 10
17.37809066105464
 20
1.154853943010941
 30
0.0
 10
17.37809066105476
 20
1.090044635861226
 30
0.0
 10
17.37809066105464
 20
0.9758000598251471
 30
0.0
 10
17.37809066105464
 20
0.8310900425091816
 30
0.0
 10
17.37809066105464
 20
0.7145253701858323
 30
0.0
 10
17.37809066105476
 20
0.6555791614526214
 30
0.0
  0
LINE
  5
27C
330
1F
100
AcDbEntity
  8
0
  6
Continuous
 62
     1
370
    25
100
AcDbLine
 10
21.87809066105476
 20
1.047458238774546
 30
0.0
 11
21.33835331931695
 21
1.008261986972961
 31
0.0
  0
SPLINE
  5
27D
330
1F
100
AcDbEntity
  8
0
  6
Continuous
 62
     1
370
    25
100
AcDbSpline
210
0.0
220
0.0
230
1.0
 70
    24
 71
     3
 72
    10
 73
     6
 74
     0
 42
0.000000001
 43
0.00000001
 40
0.0
 40
0.0
 40
0.0
 40
0.0
 40
0.5
 40
0.5
 40
1.0
 40
1.0
 40
1.0
 40
1.0
 10
21.87809066105476
 20
-0.0025417612254515
 30
0.0
 10
21.87809066105476
 20
0.2473112938787381
 30
0.0
 10
21.87809066105476
 20
0.4904206980039021
 30
0.0
 10
21.87809066105464
 20
0.8636512433350916
 30
0.0
 10
21.87809066105476
 20
0.9908805620837171
 30
0.0
 10
21.87809066105476
 20
1.047458238774546
 30
0.0
  0
SPLINE
  5
27E
330
1F
100
AcDbEntity
  8
0
  6
Continuous
 62
     1
370
    25
100
AcDbSpline
210
0.0
220
0.0
230
1.0
 70
     8
 71
     3
 72
     9
 73
     5
 74
     0
 42
0.000000001
 43
0.00000001
 40
0.0
 40
0.0
 40
0.0
 40
0.0
 40
0.4548294405691402
 40
1.0
 40
1.0
 40
1.0
 40
1.0
 10
18.70949482389244
 20
-1.112166038617161
 30
0.0
 10
18.50762592458554
 20
-1.146197841349824
 30
0.0
 10
18.06379164012415
 20
-1.221021060115234
 30
0.0
 10
17.62002122598815
 20
-1.199001478927364
 30
0.0
 10
17.37809066105484
 20
-1.186997051532742
 30
0.0
  0
SPLINE
  5
27F
330
1F
100
AcDbEntity
  8
0
  6
Continuous
 62
     4
370
    25
100
AcDbSpline
210
0.0
220
0.0
230
1.0
 70
    24
 71
     3
 72
    10
 73
     6
 74
     0
 42
0.000000001
 43
0.00000001
 40
0.0
 40
0.0
 40
0.0
 40
0.0
 40
0.5
 40
0.5
 40
1.0
 40
1.0
 40
1.0
 40
1.0
 10
17.37809066105476
 20
0.1659171357407416
 30
0.0
 10
17.37809066105476
 20
-0.0994576405374517
 30
0.0
 10
17.37809066105476
 20
-0.3787915319536594
 30
0.0
 10
17.37809066105476
 20
-0.8596952461463943
 30
0.0
 10
17.37809066105476
 20
-1.057538985466088
 30
0.0
 10
17.37809066105476
 20
-1.186997051532728
 30
0.0
  0
SPLINE
  5
280
330
1F
100
AcDbEntity
  8
0
  6
Continuous
 62
     1
370
    25
100
AcDbSpline
210
0.0
220
0.0
230
1.0
 70
    24
 71
     3
 72
     8
 73
     4
 74
     0
 42
0.000000001
 43
0.00000001
 40
0.9929789949741769
 40
0.9929789949741769
 40
0.9929789949741769
 40
0.9929789949741769
 40
1.0
 40
1.0
 40
1.0
 40
1.0
 10
21.87809066105476
 20
1.392675182172418
 30
0.0
 10
21.87809066105476
 20
1.393535922128898
 30
0.0
 10
21.87809066105476
 20
1.394396514602057
 30
0.0
 10
21.87809066105476
 20
1.395256949398721
 30
0.0
  0
LINE
  5
281
330
1F
100
AcDbEntity
  8
0
  6
Continuous
 62
     1
370
    25
100
AcDbLine
 10
21.87809066105476
 20
-1.397758704623314
 30
0.0
 11
21.87809066105476
 21
-1.400340471850228
 31
0.0
  0
ARC
  5
282
330
1F
100
AcDbEntity
  8
0
  6
Continuous
 62
     1
370
    25
100
AcDbCircle
 10
21.57809066105474
 20
-1.192942693040024
 30
0.0
 40
0.2999999999999999
100
AcDbArc
 50
282.350533429698
 51
359.9999914747116
  0
SPLINE
  5
283
330
1F
100
AcDbEntity
  8
0
  6
Continuous
 62
     1
370
    25
100
AcDbSpline
210
0.0
220
0.0
230
1.0
 70
    24
 71
     3
 72
     8
 73
     4
 74
     0
 42
0.000000001
 43
0.00000001
 40
0.0
 40
0.0
 40
0.0
 40
0.0
 40
0.4295107304220688
 40
0.4295107304220688
 40
0.4295107304220688
 40
0.4295107304220688
 10
21.87809066105476
 20
1.047458238774546
 30
0.0
 10
21.87809066105464
 20
1.090193276456382
 30
0.0
 10
21.87809066105464
 20
1.137771482514722
 30
0.0
 10
21.87809066105476
 20
1.187859215227427
 30
0.0
  0
SPLINE
  5
284
330
1F
100
AcDbEntity
  8
0
  6
Continuous
 62
     1
370
    25
100
AcDbSpline
210
0.0
220
0.0
230
1.0
 70
     8
 71
     3
 72
    11
 73
     7
 74
     0
 42
0.000000001
 43
0.00000001
 40
0.0
 40
0.0
 40
0.0
 40
0.0
 40
0.0132331356419757
 40
0.3415344459744827
 40
0.6700375518903243
 40
0.930790976231331
 40
0.930790976231331
 40
0.930790976231331
 40
0.930790976231331
 10
19.81704742951686
 20
1.003143972344027
 30
0.0
 10
19.82570151916354
 20
1.007299739985839
 30
0.0
 10
20.04905521195874
 20
1.114556087804317
 30
0.0
 10
20.48664960935105
 20
1.261750728421589
 30
0.0
 10
21.08621833737894
 20
1.425253150798376
 30
0.0
 10
21.47167290095504
 20
1.465679462100546
 30
0.0
 10
21.64225827089945
 20
1.480916362698238
 30
0.0
  0
ARC
  5
285
330
1F
100
AcDbEntity
  8
0
  6
Continuous
 62
     1
370
    25
100
AcDbCircle
 10
21.57809066105474
 20
1.187859170589121
 30
0.0
 40
0.2999999999999999
100
AcDbArc
 50
0.0000085252883652
 51
77.64946657030197
  0
SPLINE
  5
286
330
1F
100
AcDbEntity
  8
0
  6
Continuous
 62
     1
370
    25
100
AcDbSpline
210
0.0
220
0.0
230
1.0
 70
    24
 71
     3
 72
     8
 73
     4
 74
     0
 42
0.000000001
 43
0.00000001
 40
0.9472872567923301
 40
0.9472872567923301
 40
0.9472872567923301
 40
0.9472872567923301
 40
1.0
 40
1.0
 40
1.0
 40
1.0
 10
21.87809066105476
 20
-1.192942737678749
 30
0.0
 10
21.87809066105476
 20
-1.19062780035874
 30
0.0
 10
21.87809066105476
 20
-1.188313594557698
 30
0.0
 10
21.87809066105476
 20
-1.186000157777784
 30
0.0
  0
SPLINE
  5
287
330
1F
100
AcDbEntity
  8
0
  6
Continuous
 62
     1
370
    25
100
AcDbSpline
210
0.0
220
0.0
230
1.0
 70
     8
 71
     3
 72
    22
 73
    18
 74
     0
 42
0.000000001
 43
0.00000001
 40
0.0089642393855831
 40
0.0089642393855831
 40
0.0089642393855831
 40
0.0089642393855831
 40
0.125
 40
0.125
 40
0.25
 40
0.25
 40
0.375
 40
0.375
 40
0.5
 40
0.5
 40
0.625
 40
0.625
 40
0.75
 40
0.75
 40
0.875
 40
0.875
 40
1.0
 40
1.0
 40
1.0
 40
1.0
 10
21.78371141686375
 20
-1.41139201160275
 30
0.0
 10
21.56928035147635
 20
-1.36244839623582
 30
0.0
 10
21.39668047781205
 20
-1.317281928557264
 30
0.0
 10
21.04212598365325
 20
-1.206781574997521
 30
0.0
 10
20.86262788099665
 20
-1.140560524417118
 30
0.0
 10
20.49433349782174
 20
-0.9910518466685545
 30
0.0
 10
20.30839416858876
 20
-0.9080140496429223
 30
0.0
 10
19.94526923249964
 20
-0.7310888119542014
 30
0.0
 10
19.76219295855225
 20
-0.6362965727050707
 30
0.0
 10
19.39289369452464
 20
-0.4380788581753592
 30
0.0
 10
19.21171635920845
 20
-0.3355959348205317
 30
0.0
 10
18.84667519243456
 20
-0.1267310401698225
 30
0.0
 10
18.66050581909926
 20
-0.0198907926123582
 30
0.0
 10
18.29325722403794
 20
0.1914998863013366
 30
0.0
 10
18.11360781992386
 20
0.2957803013850508
 30
0.0
 10
17.74497415695166
 20
0.5001075946297817
 30
0.0
 10
17.55918996481594
 20
0.5994954427483208
 30
0.0
 10
17.37809066105476
 20
0.6928775921082959
 30
0.0
  0
DIMENSION
  5
288
330
1F
100
AcDbEntity
  8
치수문자_일반주서
100
AcDbDimension
  2
*D21
 10
21.57809066105474
 20
-1.192942693040024
 30
0.0
 11
26.35345463492498
 21
-17.4111735226068
 31
0.0
 70
   164
  1
<>
 71
     5
 42
0.2999999999999765
  3
SLDDIMSTYLE3
100
AcDbRadialDimension
 15
21.66282704851864
 25
-1.4807268910766
 35
0.0
 40
0.0
1001
ACAD_DSTYLE_DIMRADIAL_EXTENSION
1070
   387
1070
     1
1070
   388
1040
4.927946453110572
1070
   390
1040
6.283185158385245
  0
ENDSEC
  0
SECTION
  2
OBJECTS
  0
DICTIONARY
  5
C
330
0
100
AcDbDictionary
281
     1
  3
ACAD_GROUP
350
D
  3
ACAD_IMAGE_VARS
350
12C
  3
ACAD_LAYOUT
350
1A
  3
ACAD_MLINESTYLE
350
17
  3
ACAD_PLOTSETTINGS
350
19
  3
ACAD_PLOTSTYLENAME
350
E
  3
ACAD_SCALELIST
350
47
  3
APPDATA
350
12A
  3
DWGPROPS
350
292
  0
DICTIONARY
  5
D
102
{ACAD_REACTORS
330
C
102
}
330
C
100
AcDbDictionary
281
     1
  0
RASTERVARIABLES
  5
12C
102
{ACAD_REACTORS
330
C
102
}
330
C
100
AcDbRasterVariables
 90
        0
 70
     1
 71
     1
 72
     1
  0
DICTIONARY
  5
1A
102
{ACAD_REACTORS
330
C
102
}
330
C
100
AcDbDictionary
281
     1
  3
Layout1
350
1E
  3
Layout2
350
26
  3
Model
350
22
  0
DICTIONARY
  5
17
102
{ACAD_REACTORS
330
C
102
}
330
C
100
AcDbDictionary
281
     1
  3
Standard
350
18
  0
DICTIONARY
  5
19
102
{ACAD_REACTORS
330
C
102
}
330
C
100
AcDbDictionary
281
     1
  0
ACDBDICTIONARYWDFLT
  5
E
102
{ACAD_REACTORS
330
C
102
}
330
C
100
AcDbDictionary
281
     1
  3
Normal
350
F
100
AcDbDictionaryWithDefault
340
F
  0
DICTIONARY
  5
47
102
{ACAD_REACTORS
330
C
102
}
330
C
100
AcDbDictionary
281
     1
  3
A0
350
48
  3
A1
350
49
  3
A2
350
4A
  3
A3
350
4B
  3
A4
350
4C
  3
A5
350
4D
  3
A6
350
4E
  3
A7
350
4F
  3
A8
350
50
  3
A9
350
51
  3
B0
350
52
  3
B1
350
53
  3
B2
350
54
  3
B3
350
55
  3
B4
350
56
  3
B5
350
57
  3
B6
350
58
  3
B7
350
59
  3
B8
350
5A
  3
B9
350
5B
  3
C0
350
5C
  3
C1
350
5D
  3
C2
350
5E
  3
C3
350
5F
  3
C4
350
60
  3
C5
350
61
  3
C6
350
62
  3
C7
350
63
  3
C8
350
64
  3
C9
350
65
  3
D0
350
66
  3
D1
350
67
  3
D2
350
68
  0
DICTIONARY
  5
12A
102
{ACAD_REACTORS
330
C
102
}
330
C
100
AcDbDictionary
281
     1
  0
XRECORD
  5
292
102
{ACAD_REACTORS
330
C
102
}
330
C
100
AcDbXrecord
280
     1
  1
DWGPROPS COOKIE
  2

  3

  4

  6

  7

  8
12016016
  9

300
=
301
=
302
=
303
=
304
=
305
=
306
=
307
=
308
=
309
=
 40
0.0
 41
2458263.411967315
 42
2458268.983197384
  1

 90
        0
  0
LAYOUT
  5
1E
102
{ACAD_REACTORS
330
1A
102
}
330
1A
100
AcDbPlotSettings
  1

  2
none_device
  4

  6

 40
0.0
 41
0.0
 42
0.0
 43
0.0
 44
0.0
 45
0.0
 46
0.0
 47
0.0
 48
0.0
 49
0.0
140
0.0
141
0.0
142
1.0
143
1.0
 70
   688
 72
     1
 73
     0
 74
     5
  7

 75
    16
147
1.0
148
0.0
149
0.0
100
AcDbLayout
  1
Layout1
 70
     1
 71
     1
 10
0.0
 20
0.0
 11
420.0
 21
297.0
 12
0.0
 22
0.0
 32
0.0
 14
1.000000000000000E+20
 24
1.000000000000000E+20
 34
1.000000000000000E+20
 15
-1.000000000000000E+20
 25
-1.000000000000000E+20
 35
-1.000000000000000E+20
146
0.0
 13
0.0
 23
0.0
 33
0.0
 16
1.0
 26
0.0
 36
0.0
 17
0.0
 27
1.0
 37
0.0
 76
     0
330
1B
  0
LAYOUT
  5
26
102
{ACAD_REACTORS
330
1A
102
}
330
1A
100
AcDbPlotSettings
  1

  2
none_device
  4

  6

 40
0.0
 41
0.0
 42
0.0
 43
0.0
 44
0.0
 45
0.0
 46
0.0
 47
0.0
 48
0.0
 49
0.0
140
0.0
141
0.0
142
1.0
143
1.0
 70
   688
 72
     1
 73
     0
 74
     5
  7

 75
    16
147
1.0
148
0.0
149
0.0
100
AcDbLayout
  1
Layout2
 70
     1
 71
     2
 10
0.0
 20
0.0
 11
0.0
 21
0.0
 12
0.0
 22
0.0
 32
0.0
 14
0.0
 24
0.0
 34
0.0
 15
0.0
 25
0.0
 35
0.0
146
0.0
 13
0.0
 23
0.0
 33
0.0
 16
1.0
 26
0.0
 36
0.0
 17
0.0
 27
1.0
 37
0.0
 76
     0
330
23
  0
LAYOUT
  5
22
102
{ACAD_REACTORS
330
1A
102
}
330
1A
100
AcDbPlotSettings
  1

  2
none_device
  4
ANSI_A_(11.00_x_8.50_Inches)
  6

 40
6.35
 41
19.05
 42
6.35000508
 43
19.05000254
 44
279.4
 45
215.9
 46
126.8964074926661
 47
93.79644241036566
 48
0.0
 49
0.0
140
0.0
141
0.0
142
0.0867652481350974
143
1.0
 70
  1696
 72
     0
 73
     0
 74
     0
  7

 75
     0
147
0.0235690232323232
148
0.0
149
0.0
100
AcDbLayout
  1
Model
 70
     1
 71
     0
 10
0.0
 20
0.0
 11
420.0
 21
297.0
 12
0.0
 22
0.0
 32
0.0
 14
1.000000000000000E+20
 24
1.000000000000000E+20
 34
1.000000000000000E+20
 15
-1.000000000000000E+20
 25
-1.000000000000000E+20
 35
-1.000000000000000E+20
146
0.0
 13
0.0
 23
0.0
 33
0.0
 16
1.0
 26
0.0
 36
0.0
 17
0.0
 27
1.0
 37
0.0
 76
     0
330
1F
331
29
  0
MLINESTYLE
  5
18
102
{ACAD_REACTORS
330
17
102
}
330
17
100
AcDbMlineStyle
  2
Standard
 70
     0
  3

 62
   256
 51
90.0
 52
90.0
 71
     2
 49
0.5
 62
   256
  6
BYLAYER
 49
-0.5
 62
   256
  6
BYLAYER
  0
ACDBPLACEHOLDER
  5
F
102
{ACAD_REACTORS
330
E
102
}
330
E
  0
SCALE
  5
48
102
{ACAD_REACTORS
330
47
102
}
330
47
100
AcDbScale
 70
     0
300
1:1
140
1.0
141
1.0
290
     1
  0
SCALE
  5
49
102
{ACAD_REACTORS
330
47
102
}
330
47
100
AcDbScale
 70
     0
300
1:2
140
1.0
141
2.0
290
     0
  0
SCALE
  5
4A
102
{ACAD_REACTORS
330
47
102
}
330
47
100
AcDbScale
 70
     0
300
1:4
140
1.0
141
4.0
290
     0
  0
SCALE
  5
4B
102
{ACAD_REACTORS
330
47
102
}
330
47
100
AcDbScale
 70
     0
300
1:5
140
1.0
141
5.0
290
     0
  0
SCALE
  5
4C
102
{ACAD_REACTORS
330
47
102
}
330
47
100
AcDbScale
 70
     0
300
1:8
140
1.0
141
8.0
290
     0
  0
SCALE
  5
4D
102
{ACAD_REACTORS
330
47
102
}
330
47
100
AcDbScale
 70
     0
300
1:10
140
1.0
141
10.0
290
     0
  0
SCALE
  5
4E
102
{ACAD_REACTORS
330
47
102
}
330
47
100
AcDbScale
 70
     0
300
1:16
140
1.0
141
16.0
290
     0
  0
SCALE
  5
4F
102
{ACAD_REACTORS
330
47
102
}
330
47
100
AcDbScale
 70
     0
300
1:20
140
1.0
141
20.0
290
     0
  0
SCALE
  5
50
102
{ACAD_REACTORS
330
47
102
}
330
47
100
AcDbScale
 70
     0
300
1:30
140
1.0
141
30.0
290
     0
  0
SCALE
  5
51
102
{ACAD_REACTORS
330
47
102
}
330
47
100
AcDbScale
 70
     0
300
1:40
140
1.0
141
40.0
290
     0
  0
SCALE
  5
52
102
{ACAD_REACTORS
330
47
102
}
330
47
100
AcDbScale
 70
     0
300
1:50
140
1.0
141
50.0
290
     0
  0
SCALE
  5
53
102
{ACAD_REACTORS
330
47
102
}
330
47
100
AcDbScale
 70
     0
300
1:100
140
1.0
141
100.0
290
     0
  0
SCALE
  5
54
102
{ACAD_REACTORS
330
47
102
}
330
47
100
AcDbScale
 70
     0
300
2:1
140
2.0
141
1.0
290
     0
  0
SCALE
  5
55
102
{ACAD_REACTORS
330
47
102
}
330
47
100
AcDbScale
 70
     0
300
4:1
140
4.0
141
1.0
290
     0
  0
SCALE
  5
56
102
{ACAD_REACTORS
330
47
102
}
330
47
100
AcDbScale
 70
     0
300
8:1
140
8.0
141
1.0
290
     0
  0
SCALE
  5
57
102
{ACAD_REACTORS
330
47
102
}
330
47
100
AcDbScale
 70
     0
300
10:1
140
10.0
141
1.0
290
     0
  0
SCALE
  5
58
102
{ACAD_REACTORS
330
47
102
}
330
47
100
AcDbScale
 70
     0
300
100:1
140
100.0
141
1.0
290
     0
  0
SCALE
  5
59
102
{ACAD_REACTORS
330
47
102
}
330
47
100
AcDbScale
 70
     0
300
1/128" = 1'-0"
140
0.0078125
141
12.0
290
     0
  0
SCALE
  5
5A
102
{ACAD_REACTORS
330
47
102
}
330
47
100
AcDbScale
 70
     0
300
1/64" = 1'-0"
140
0.015625
141
12.0
290
     0
  0
SCALE
  5
5B
102
{ACAD_REACTORS
330
47
102
}
330
47
100
AcDbScale
 70
     0
300
1/32" = 1'-0"
140
0.03125
141
12.0
290
     0
  0
SCALE
  5
5C
102
{ACAD_REACTORS
330
47
102
}
330
47
100
AcDbScale
 70
     0
300
1/16" = 1'-0"
140
0.0625
141
12.0
290
     0
  0
SCALE
  5
5D
102
{ACAD_REACTORS
330
47
102
}
330
47
100
AcDbScale
 70
     0
300
3/32" = 1'-0"
140
0.09375
141
12.0
290
     0
  0
SCALE
  5
5E
102
{ACAD_REACTORS
330
47
102
}
330
47
100
AcDbScale
 70
     0
300
1/8" = 1'-0"
140
0.125
141
12.0
290
     0
  0
SCALE
  5
5F
102
{ACAD_REACTORS
330
47
102
}
330
47
100
AcDbScale
 70
     0
300
3/16" = 1'-0"
140
0.1875
141
12.0
290
     0
  0
SCALE
  5
60
102
{ACAD_REACTORS
330
47
102
}
330
47
100
AcDbScale
 70
     0
300
1/4" = 1'-0"
140
0.25
141
12.0
290
     0
  0
SCALE
  5
61
102
{ACAD_REACTORS
330
47
102
}
330
47
100
AcDbScale
 70
     0
300
3/8" = 1'-0"
140
0.375
141
12.0
290
     0
  0
SCALE
  5
62
102
{ACAD_REACTORS
330
47
102
}
330
47
100
AcDbScale
 70
     0
300
1/2" = 1'-0"
140
0.5
141
12.0
290
     0
  0
SCALE
  5
63
102
{ACAD_REACTORS
330
47
102
}
330
47
100
AcDbScale
 70
     0
300
3/4" = 1'-0"
140
0.75
141
12.0
290
     0
  0
SCALE
  5
64
102
{ACAD_REACTORS
330
47
102
}
330
47
100
AcDbScale
 70
     0
300
1" = 1'-0"
140
1.0
141
12.0
290
     0
  0
SCALE
  5
65
102
{ACAD_REACTORS
330
47
102
}
330
47
100
AcDbScale
 70
     0
300
1-1/2" = 1'-0"
140
1.5
141
12.0
290
     0
  0
SCALE
  5
66
102
{ACAD_REACTORS
330
47
102
}
330
47
100
AcDbScale
 70
     0
300
3" = 1'-0"
140
3.0
141
12.0
290
     0
  0
SCALE
  5
67
102
{ACAD_REACTORS
330
47
102
}
330
47
100
AcDbScale
 70
     0
300
6" = 1'-0"
140
6.0
141
12.0
290
     0
  0
SCALE
  5
68
102
{ACAD_REACTORS
330
47
102
}
330
47
100
AcDbScale
 70
     0
300
1'-0" = 1'-0"
140
12.0
141
12.0
290
     0
  0
ENDSEC
  0
EOF
