  0
SECTION
  2
HEADER
  9
$ACADVER
  1
AC1015
  9
$ACADMAINTVER
 70
     6
  9
$DWGCODEPAGE
  3
ANSI_949
  9
$INSBASE
 10
0.0
 20
0.0
 30
0.0
  9
$EXTMIN
 10
1.000000000000000E+20
 20
1.000000000000000E+20
 30
1.000000000000000E+20
  9
$EXTMAX
 10
-1.000000000000000E+20
 20
-1.000000000000000E+20
 30
-1.000000000000000E+20
  9
$LIMMIN
 10
0.0
 20
0.0
  9
$LIMMAX
 10
420.0
 20
297.0
  9
$ORTHOMODE
 70
     0
  9
$REGENMODE
 70
     1
  9
$FILLMODE
 70
     1
  9
$QTEXTMODE
 70
     0
  9
$MIRRTEXT
 70
     1
  9
$LTSCALE
 40
1.0
  9
$ATTMODE
 70
     1
  9
$TEXTSIZE
 40
3.5
  9
$TRACEWID
 40
1.0
  9
$TEXTSTYLE
  7
Standard
  9
$CLAYER
  8
0
  9
$CELTYPE
  6
ByLayer
  9
$CECOLOR
 62
   256
  9
$CELTSCALE
 40
1.0
  9
$DISPSILH
 70
     0
  9
$DIMSCALE
 40
1.0
  9
$DIMASZ
 40
3.302
  9
$DIMEXO
 40
1.0
  9
$DIMDLI
 40
3.75
  9
$DIMRND
 40
0.0
  9
$DIMDLE
 40
0.0
  9
$DIMEXE
 40
1.0
  9
$DIMTP
 40
0.0
  9
$DIMTM
 40
0.0
  9
$DIMTXT
 40
3.5
  9
$DIMCEN
 40
2.5
  9
$DIMTSZ
 40
0.0
  9
$DIMTOL
 70
     0
  9
$DIMLIM
 70
     0
  9
$DIMTIH
 70
     1
  9
$DIMTOH
 70
     1
  9
$DIMSE1
 70
     0
  9
$DIMSE2
 70
     0
  9
$DIMTAD
 70
     1
  9
$DIMZIN
 70
     0
  9
$DIMBLK
  1

  9
$DIMASO
 70
     1
  9
$DIMSHO
 70
     1
  9
$DIMPOST
  1

  9
$DIMAPOST
  1

  9
$DIMALT
 70
     0
  9
$DIMALTD
 70
     3
  9
$DIMALTF
 40
0.0393700787401575
  9
$DIMLFAC
 40
1.0
  9
$DIMTOFL
 70
     1
  9
$DIMTVP
 40
0.0
  9
$DIMTIX
 70
     0
  9
$DIMSOXD
 70
     0
  9
$DIMSAH
 70
     0
  9
$DIMBLK1
  1

  9
$DIMBLK2
  1

  9
$DIMSTYLE
  2
ISO-25
  9
$DIMCLRD
 70
     0
  9
$DIMCLRE
 70
     0
  9
$DIMCLRT
 70
     0
  9
$DIMTFAC
 40
1.0
  9
$DIMGAP
 40
1.524
  9
$DIMJUST
 70
     0
  9
$DIMSD1
 70
     0
  9
$DIMSD2
 70
     0
  9
$DIMTOLJ
 70
     0
  9
$DIMTZIN
 70
     0
  9
$DIMALTZ
 70
     0
  9
$DIMALTTZ
 70
     0
  9
$DIMUPT
 70
     0
  9
$DIMDEC
 70
     2
  9
$DIMTDEC
 70
     2
  9
$DIMALTU
 70
     2
  9
$DIMALTTD
 70
     3
  9
$DIMTXSTY
  7
Standard
  9
$DIMAUNIT
 70
     0
  9
$DIMADEC
 70
     2
  9
$DIMALTRND
 40
0.0
  9
$DIMAZIN
 70
     0
  9
$DIMDSEP
 70
    44
  9
$DIMATFIT
 70
     3
  9
$DIMFRAC
 70
     0
  9
$DIMLDRBLK
  1

  9
$DIMLUNIT
 70
     2
  9
$DIMLWD
 70
    -2
  9
$DIMLWE
 70
    -2
  9
$DIMTMOVE
 70
     0
  9
$LUNITS
 70
     2
  9
$LUPREC
 70
     2
  9
$SKETCHINC
 40
1.0
  9
$FILLETRAD
 40
10.0
  9
$AUNITS
 70
     0
  9
$AUPREC
 70
     2
  9
$MENU
  1
.
  9
$ELEVATION
 40
0.0
  9
$PELEVATION
 40
0.0
  9
$THICKNESS
 40
0.0
  9
$LIMCHECK
 70
     0
  9
$CHAMFERA
 40
0.0
  9
$CHAMFERB
 40
0.0
  9
$CHAMFERC
 40
0.0
  9
$CHAMFERD
 40
0.0
  9
$SKPOLY
 70
     0
  9
$TDCREATE
 40
2458263.777893472
  9
$TDUCREATE
 40
2458263.402893472
  9
$TDUPDATE
 40
2458269.410964908
  9
$TDUUPDATE
 40
2458269.035964908
  9
$TDINDWG
 40
0.0000654745
  9
$TDUSRTIMER
 40
2458269.035899688
  9
$USRTIMER
 70
     1
  9
$ANGBASE
 50
0.0
  9
$ANGDIR
 70
     0
  9
$PDMODE
 70
     0
  9
$PDSIZE
 40
-1.0
  9
$PLINEWID
 40
0.0
  9
$SPLFRAME
 70
     0
  9
$SPLINETYPE
 70
     6
  9
$SPLINESEGS
 70
     8
  9
$HANDSEED
  5
2C2
  9
$SURFTAB1
 70
     6
  9
$SURFTAB2
 70
     6
  9
$SURFTYPE
 70
     6
  9
$SURFU
 70
     6
  9
$SURFV
 70
     6
  9
$UCSBASE
  2

  9
$UCSNAME
  2

  9
$UCSORG
 10
0.0
 20
0.0
 30
0.0
  9
$UCSXDIR
 10
1.0
 20
0.0
 30
0.0
  9
$UCSYDIR
 10
0.0
 20
1.0
 30
0.0
  9
$UCSORTHOREF
  2

  9
$UCSORTHOVIEW
 70
     0
  9
$UCSORGTOP
 10
0.0
 20
0.0
 30
0.0
  9
$UCSORGBOTTOM
 10
0.0
 20
0.0
 30
0.0
  9
$UCSORGLEFT
 10
0.0
 20
0.0
 30
0.0
  9
$UCSORGRIGHT
 10
0.0
 20
0.0
 30
0.0
  9
$UCSORGFRONT
 10
0.0
 20
0.0
 30
0.0
  9
$UCSORGBACK
 10
0.0
 20
0.0
 30
0.0
  9
$PUCSBASE
  2

  9
$PUCSNAME
  2

  9
$PUCSORG
 10
0.0
 20
0.0
 30
0.0
  9
$PUCSXDIR
 10
1.0
 20
0.0
 30
0.0
  9
$PUCSYDIR
 10
0.0
 20
1.0
 30
0.0
  9
$PUCSORTHOREF
  2

  9
$PUCSORTHOVIEW
 70
     0
  9
$PUCSORGTOP
 10
0.0
 20
0.0
 30
0.0
  9
$PUCSORGBOTTOM
 10
0.0
 20
0.0
 30
0.0
  9
$PUCSORGLEFT
 10
0.0
 20
0.0
 30
0.0
  9
$PUCSORGRIGHT
 10
0.0
 20
0.0
 30
0.0
  9
$PUCSORGFRONT
 10
0.0
 20
0.0
 30
0.0
  9
$PUCSORGBACK
 10
0.0
 20
0.0
 30
0.0
  9
$USERI1
 70
     0
  9
$USERI2
 70
     0
  9
$USERI3
 70
     0
  9
$USERI4
 70
     0
  9
$USERI5
 70
     0
  9
$USERR1
 40
0.0
  9
$USERR2
 40
0.0
  9
$USERR3
 40
0.0
  9
$USERR4
 40
0.0
  9
$USERR5
 40
0.0
  9
$WORLDVIEW
 70
     1
  9
$SHADEDGE
 70
     3
  9
$SHADEDIF
 70
    70
  9
$TILEMODE
 70
     1
  9
$MAXACTVP
 70
    64
  9
$PINSBASE
 10
0.0
 20
0.0
 30
0.0
  9
$PLIMCHECK
 70
     0
  9
$PEXTMIN
 10
1.000000000000000E+20
 20
1.000000000000000E+20
 30
1.000000000000000E+20
  9
$PEXTMAX
 10
-1.000000000000000E+20
 20
-1.000000000000000E+20
 30
-1.000000000000000E+20
  9
$PLIMMIN
 10
0.0
 20
0.0
  9
$PLIMMAX
 10
0.0
 20
0.0
  9
$UNITMODE
 70
     0
  9
$VISRETAIN
 70
     1
  9
$PLINEGEN
 70
     0
  9
$PSLTSCALE
 70
     1
  9
$TREEDEPTH
 70
  3020
  9
$CMLSTYLE
  2
Standard
  9
$CMLJUST
 70
     0
  9
$CMLSCALE
 40
20.0
  9
$PROXYGRAPHICS
 70
     1
  9
$MEASUREMENT
 70
     1
  9
$CELWEIGHT
370
    -1
  9
$ENDCAPS
280
     0
  9
$JOINSTYLE
280
     0
  9
$LWDISPLAY
290
     1
  9
$INSUNITS
 70
     4
  9
$HYPERLINKBASE
  1

  9
$STYLESHEET
  1

  9
$XEDIT
290
     1
  9
$CEPSNTYPE
380
     0
  9
$PSTYLEMODE
290
     1
  9
$FINGERPRINTGUID
  2
{59D8912F-26B6-4A11-BC62-BB8CBFB70314}
  9
$VERSIONGUID
  2
{FAEB1C32-E019-11D5-929B-00C0DF256EC4}
  9
$EXTNAMES
290
     1
  9
$PSVPSCALE
 40
0.0
  9
$OLESTARTUP
290
     0
  0
ENDSEC
  0
SECTION
  2
CLASSES
  0
CLASS
  1
ACDBDICTIONARYWDFLT
  2
AcDbDictionaryWithDefault
  3
ObjectDBX Classes
 90
        0
280
     0
281
     0
  0
CLASS
  1
VISUALSTYLE
  2
AcDbVisualStyle
  3
ObjectDBX Classes
 90
     4095
280
     0
281
     0
  0
CLASS
  1
MATERIAL
  2
AcDbMaterial
  3
ObjectDBX Classes
 90
     1153
280
     0
281
     0
  0
CLASS
  1
SCALE
  2
AcDbScale
  3
ObjectDBX Classes
 90
     1153
280
     0
281
     0
  0
CLASS
  1
TABLESTYLE
  2
AcDbTableStyle
  3
ObjectDBX Classes
 90
     4095
280
     0
281
     0
  0
CLASS
  1
MLEADERSTYLE
  2
AcDbMLeaderStyle
  3
ACDB_MLEADERSTYLE_CLASS
 90
     4095
280
     0
281
     0
  0
CLASS
  1
SUN
  2
AcDbSun
  3
SCENEOE
 90
     1153
280
     0
281
     0
  0
CLASS
  1
ACDBPLACEHOLDER
  2
AcDbPlaceHolder
  3
ObjectDBX Classes
 90
        0
280
     0
281
     0
  0
CLASS
  1
LAYOUT
  2
AcDbLayout
  3
ObjectDBX Classes
 90
        0
280
     0
281
     0
  0
CLASS
  1
RASTERVARIABLES
  2
AcDbRasterVariables
  3
ISM
 90
        0
280
     0
281
     0
  0
CLASS
  1
DIMASSOC
  2
AcDbDimAssoc
  3
"AcDbDimAssoc|Product Desc:     AcDim ARX App For Dimension|Company:          Autodesk, Inc.|WEB Address:      www.autodesk.com"
 90
        0
280
     0
281
     0
  0
ENDSEC
  0
SECTION
  2
TABLES
  0
TABLE
  2
VPORT
  5
8
330
0
100
AcDbSymbolTable
 70
     1
  0
VPORT
  5
29
330
8
100
AcDbSymbolTableRecord
100
AcDbViewportTableRecord
  2
*Active
 70
     0
 10
0.0
 20
0.0
 11
1.0
 21
1.0
 12
25.650827803501
 22
-4.603206343204572
 13
0.0
 23
0.0
 14
10.0
 24
10.0
 15
10.0
 25
10.0
 16
0.0
 26
0.0
 36
1.0
 17
0.0
 27
0.0
 37
0.0
 40
51.2879502149381
 41
1.78957528957529
 42
50.0
 43
0.0
 44
0.0
 50
0.0
 51
0.0
 71
    16
 72
  2000
 73
     1
 74
     3
 75
     0
 76
     0
 77
     0
 78
     0
281
     0
 65
     1
110
0.0
120
0.0
130
0.0
111
1.0
121
0.0
131
0.0
112
0.0
122
1.0
132
0.0
 79
     0
146
0.0
  0
ENDTAB
  0
TABLE
  2
LTYPE
  5
5
330
0
100
AcDbSymbolTable
 70
     6
  0
LTYPE
  5
14
330
5
100
AcDbSymbolTableRecord
100
AcDbLinetypeTableRecord
  2
ByBlock
 70
     0
  3

 72
    65
 73
     0
 40
0.0
  0
LTYPE
  5
15
330
5
100
AcDbSymbolTableRecord
100
AcDbLinetypeTableRecord
  2
ByLayer
 70
     0
  3

 72
    65
 73
     0
 40
0.0
  0
LTYPE
  5
16
330
5
100
AcDbSymbolTableRecord
100
AcDbLinetypeTableRecord
  2
Continuous
 70
     0
  3
Solid line
 72
    65
 73
     0
 40
0.0
  0
LTYPE
  5
6E
330
5
100
AcDbSymbolTableRecord
100
AcDbLinetypeTableRecord
  2
HIDDEN
 70
     0
  3
Hidden __ __ __ __ __ __ __ __ __ __ __ __ __ __
 72
    65
 73
     2
 40
1.905
 49
1.27
 74
     0
 49
-0.635
 74
     0
  0
LTYPE
  5
6F
330
5
100
AcDbSymbolTableRecord
100
AcDbLinetypeTableRecord
  2
PHANTOM
 70
     0
  3
Phantom ______  __  __  ______  __  __  ______
 72
    65
 73
     6
 40
12.7
 49
6.35
 74
     0
 49
-1.27
 74
     0
 49
1.27
 74
     0
 49
-1.27
 74
     0
 49
1.27
 74
     0
 49
-1.27
 74
     0
  0
LTYPE
  5
70
330
5
100
AcDbSymbolTableRecord
100
AcDbLinetypeTableRecord
  2
CENTER
 70
     0
  3
Center ____ _ ____ _ ____ _ ____ _ ____ _ ____
 72
    65
 73
     4
 40
10.16
 49
6.35
 74
     0
 49
-1.27
 74
     0
 49
1.27
 74
     0
 49
-1.27
 74
     0
  0
LTYPE
  5
71
330
5
100
AcDbSymbolTableRecord
100
AcDbLinetypeTableRecord
  2
CENTERX2
 70
     0
  3
Center (2x) ________  __  ________  __  _____
 72
    65
 73
     4
 40
20.32
 49
12.7
 74
     0
 49
-2.54
 74
     0
 49
2.54
 74
     0
 49
-2.54
 74
     0
  0
LTYPE
  5
72
330
5
100
AcDbSymbolTableRecord
100
AcDbLinetypeTableRecord
  2
DOT2
 70
     0
  3
Dot (.5x) ........................................
 72
    65
 73
     2
 40
0.635
 49
0.0
 74
     0
 49
-0.635
 74
     0
  0
ENDTAB
  0
TABLE
  2
LAYER
  5
2
330
0
100
AcDbSymbolTable
 70
    17
  0
LAYER
  5
10
330
2
100
AcDbSymbolTableRecord
100
AcDbLayerTableRecord
  2
0
 70
     0
 62
     7
  6
Continuous
370
    -3
390
F
  0
LAYER
  5
73
330
2
100
AcDbSymbolTableRecord
100
AcDbLayerTableRecord
  2
FORMAT
 70
     0
 62
     2
  6
Continuous
370
    -3
390
F
  0
LAYER
  5
74
330
2
100
AcDbSymbolTableRecord
100
AcDbLayerTableRecord
  2
외형선
 70
     0
 62
   100
  6
Continuous
370
    35
390
F
  0
LAYER
  5
75
330
2
100
AcDbSymbolTableRecord
100
AcDbLayerTableRecord
  2
숨은선
 70
     0
 62
     2
  6
HIDDEN
370
    25
390
F
  0
LAYER
  5
76
330
2
100
AcDbSymbolTableRecord
100
AcDbLayerTableRecord
  2
중심선
 70
     0
 62
     1
  6
CENTERX2
370
    -3
390
F
  0
LAYER
  5
77
330
2
100
AcDbSymbolTableRecord
100
AcDbLayerTableRecord
  2
파단선
 70
     0
 62
     4
  6
Continuous
370
    -3
390
F
  0
LAYER
  5
78
330
2
100
AcDbSymbolTableRecord
100
AcDbLayerTableRecord
  2
해칭선
 70
     0
 62
     4
  6
Continuous
370
    -3
390
F
  0
LAYER
  5
79
330
2
100
AcDbSymbolTableRecord
100
AcDbLayerTableRecord
  2
가는실선
 70
     0
 62
     4
  6
Continuous
370
    -3
390
F
  0
LAYER
  5
7A
330
2
100
AcDbSymbolTableRecord
100
AcDbLayerTableRecord
  2
치수_보조선
 70
     0
 62
     4
  6
Continuous
370
    -3
390
F
  0
LAYER
  5
7B
330
2
100
AcDbSymbolTableRecord
100
AcDbLayerTableRecord
  2
치수문자_일반주서
 70
     0
 62
     7
  6
Continuous
370
    25
390
F
  0
LAYER
  5
7C
330
2
100
AcDbSymbolTableRecord
100
AcDbLayerTableRecord
  2
개별주서
 70
     0
 62
   100
  6
Continuous
370
    35
390
F
  0
LAYER
  5
7D
330
2
100
AcDbSymbolTableRecord
100
AcDbLayerTableRecord
  2
중간선
 70
     0
 62
     2
  6
Continuous
370
    25
390
F
  0
LAYER
  5
7E
330
2
100
AcDbSymbolTableRecord
100
AcDbLayerTableRecord
  2
윤곽선
 70
     0
 62
     3
  6
Continuous
370
    50
390
F
  0
LAYER
  5
7F
330
2
100
AcDbSymbolTableRecord
100
AcDbLayerTableRecord
  2
중심마크
 70
     0
 62
   100
  6
Continuous
370
    35
390
F
  0
LAYER
  5
80
330
2
100
AcDbSymbolTableRecord
100
AcDbLayerTableRecord
  2
가상선
 70
     0
 62
     4
  6
PHANTOM
370
    -3
390
F
  0
LAYER
  5
81
330
2
100
AcDbSymbolTableRecord
100
AcDbLayerTableRecord
  2
특수지정선
 70
     0
 62
     5
  6
CENTERX2
370
    70
390
F
  0
LAYER
  5
141
330
2
100
AcDbSymbolTableRecord
100
AcDbLayerTableRecord
  2
Defpoints
 70
     0
 62
     7
  6
Continuous
290
     0
370
    -3
390
F
  0
ENDTAB
  0
TABLE
  2
STYLE
  5
3
330
0
100
AcDbSymbolTable
 70
     2
  0
STYLE
  5
11
330
3
100
AcDbSymbolTableRecord
100
AcDbTextStyleTableRecord
  2
Standard
 70
     0
 40
0.0
 41
1.0
 50
0.0
 71
     0
 42
3.5
  3
txt
  4

  0
STYLE
  5
97
330
3
100
AcDbSymbolTableRecord
100
AcDbTextStyleTableRecord
  2
SLDTEXTSTYLE0
 70
     0
 40
0.0
 41
0.75
 50
0.0
 71
     0
 42
3.5
  3
TXT
  4

  0
ENDTAB
  0
TABLE
  2
VIEW
  5
6
330
0
100
AcDbSymbolTable
 70
     0
  0
ENDTAB
  0
TABLE
  2
UCS
  5
7
330
0
100
AcDbSymbolTable
 70
     0
  0
ENDTAB
  0
TABLE
  2
APPID
  5
9
330
0
100
AcDbSymbolTable
 70
     4
  0
APPID
  5
12
330
9
100
AcDbSymbolTableRecord
100
AcDbRegAppTableRecord
  2
ACAD
 70
     0
  0
APPID
  5
24A
330
9
100
AcDbSymbolTableRecord
100
AcDbRegAppTableRecord
  2
ACAD_DSTYLE_DIMRADIAL_EXTENSION
 70
     0
  0
APPID
  5
2C0
330
9
100
AcDbSymbolTableRecord
100
AcDbRegAppTableRecord
  2
ACAD_DSTYLE_DIMFLIPARROW_SYMBOL
 70
     0
  0
APPID
  5
2C1
330
9
100
AcDbSymbolTableRecord
100
AcDbRegAppTableRecord
  2
ACAD_DSTYLE_DIMFLIPARROW_WHICH_SYMBOL
 70
     0
  0
ENDTAB
  0
TABLE
  2
DIMSTYLE
  5
A
330
0
100
AcDbSymbolTable
 70
     4
100
AcDbDimStyleTable
  0
DIMSTYLE
105
27
330
A
100
AcDbSymbolTableRecord
100
AcDbDimStyleTableRecord
  2
ISO-25
 70
     0
 41
2.5
 42
0.625
 43
3.75
 44
1.25
 73
     0
 74
     0
 77
     1
 78
     8
140
2.5
141
2.5
143
0.03937007874016
147
0.625
171
     3
172
     1
178
     0
271
     2
272
     2
274
     3
278
    44
283
     0
284
     8
340
11
  0
DIMSTYLE
105
D8
102
{ACAD_REACTORS
330
180
330
18D
330
1AA
330
1EF
330
1F0
330
1F2
102
}
330
A
100
AcDbSymbolTableRecord
100
AcDbDimStyleTableRecord
  2
SLDDIMSTYLE0
 70
     0
 41
3.302
 44
0.0
 45
0.000000001
 73
     0
 74
     0
 77
     1
 78
    12
 79
     3
140
3.5
147
0.875
172
     1
173
     1
178
     0
271
     2
272
     2
276
     2
284
    12
289
     0
340
97
  0
DIMSTYLE
105
F2
102
{ACAD_REACTORS
330
19D
330
1F1
102
}
330
A
100
AcDbSymbolTableRecord
100
AcDbDimStyleTableRecord
  2
SLDDIMSTYLE1
 70
     0
 41
3.302
 44
0.0
 45
0.000000001
 73
     0
 74
     0
 77
     1
 78
    12
 79
     3
140
3.5
147
0.875
173
     1
178
     0
271
     2
272
     2
276
     2
284
    12
340
97
  0
DIMSTYLE
105
109
102
{ACAD_REACTORS
330
1B9
330
1F3
330
27A
330
2A7
102
}
330
A
100
AcDbSymbolTableRecord
100
AcDbDimStyleTableRecord
  2
SLDDIMSTYLE2
 70
     0
 41
3.302
 44
0.0
 45
0.000000001
 73
     0
 74
     0
 77
     1
 78
     8
 79
     2
140
3.5
147
0.875
172
     1
173
     1
178
     0
271
     2
272
     2
276
     2
284
    12
289
     0
340
97
  0
ENDTAB
  0
TABLE
  2
BLOCK_RECORD
  5
1
330
0
100
AcDbSymbolTable
 70
    22
  0
BLOCK_RECORD
  5
1F
330
1
100
AcDbSymbolTableRecord
100
AcDbBlockTableRecord
  2
*Model_Space
340
22
  0
BLOCK_RECORD
  5
1B
330
1
100
AcDbSymbolTableRecord
100
AcDbBlockTableRecord
  2
*Paper_Space
340
1E
  0
BLOCK_RECORD
  5
23
330
1
100
AcDbSymbolTableRecord
100
AcDbBlockTableRecord
  2
*Paper_Space0
340
26
  0
BLOCK_RECORD
  5
82
330
1
100
AcDbSymbolTableRecord
100
AcDbBlockTableRecord
  2
블럭10
340
0
102
{BLKREFS
331
D0
102
}
  0
BLOCK_RECORD
  5
D9
330
1
100
AcDbSymbolTableRecord
100
AcDbBlockTableRecord
  2
_D
340
0
  0
BLOCK_RECORD
  5
E6
330
1
100
AcDbSymbolTableRecord
100
AcDbBlockTableRecord
  2
_D_1
340
0
  0
BLOCK_RECORD
  5
F3
330
1
100
AcDbSymbolTableRecord
100
AcDbBlockTableRecord
  2
_D_2
340
0
  0
BLOCK_RECORD
  5
FD
330
1
100
AcDbSymbolTableRecord
100
AcDbBlockTableRecord
  2
_D_3
340
0
  0
BLOCK_RECORD
  5
10A
330
1
100
AcDbSymbolTableRecord
100
AcDbBlockTableRecord
  2
_D_4
340
0
  0
BLOCK_RECORD
  5
116
330
1
100
AcDbSymbolTableRecord
100
AcDbBlockTableRecord
  2
SW_DOWELSYMBOL_0
340
0
102
{BLKREFS
331
0
331
1C8
331
1F4
102
}
  0
BLOCK_RECORD
  5
181
330
1
100
AcDbSymbolTableRecord
100
AcDbBlockTableRecord
  2
*D9
340
0
  0
BLOCK_RECORD
  5
18E
330
1
100
AcDbSymbolTableRecord
100
AcDbBlockTableRecord
  2
*D10
340
0
  0
BLOCK_RECORD
  5
19E
330
1
100
AcDbSymbolTableRecord
100
AcDbBlockTableRecord
  2
*D11
340
0
  0
BLOCK_RECORD
  5
1AB
330
1
100
AcDbSymbolTableRecord
100
AcDbBlockTableRecord
  2
*D12
340
0
  0
BLOCK_RECORD
  5
1BA
330
1
100
AcDbSymbolTableRecord
100
AcDbBlockTableRecord
  2
*D13
340
0
  0
BLOCK_RECORD
  5
1FD
330
1
100
AcDbSymbolTableRecord
100
AcDbBlockTableRecord
  2
*D14
340
0
  0
BLOCK_RECORD
  5
209
330
1
100
AcDbSymbolTableRecord
100
AcDbBlockTableRecord
  2
*D15
340
0
  0
BLOCK_RECORD
  5
218
330
1
100
AcDbSymbolTableRecord
100
AcDbBlockTableRecord
  2
*D16
340
0
  0
BLOCK_RECORD
  5
224
330
1
100
AcDbSymbolTableRecord
100
AcDbBlockTableRecord
  2
*D17
340
0
  0
BLOCK_RECORD
  5
232
330
1
100
AcDbSymbolTableRecord
100
AcDbBlockTableRecord
  2
*D18
340
0
  0
BLOCK_RECORD
  5
27D
330
1
100
AcDbSymbolTableRecord
100
AcDbBlockTableRecord
  2
*D20
340
0
  0
BLOCK_RECORD
  5
2B6
330
1
100
AcDbSymbolTableRecord
100
AcDbBlockTableRecord
  2
*D21
340
0
  0
ENDTAB
  0
ENDSEC
  0
SECTION
  2
BLOCKS
  0
BLOCK
  5
20
330
1F
100
AcDbEntity
  8
0
100
AcDbBlockBegin
  2
*Model_Space
 70
     0
 10
0.0
 20
0.0
 30
0.0
  3
*Model_Space
  1
*Model_Space
  0
ENDBLK
  5
21
330
1F
100
AcDbEntity
  8
0
100
AcDbBlockEnd
  0
BLOCK
  5
1C
330
1B
100
AcDbEntity
 67
     1
  8
0
100
AcDbBlockBegin
  2
*Paper_Space
 70
     0
 10
0.0
 20
0.0
 30
0.0
  3
*Paper_Space
  1
*Paper_Space
  0
ENDBLK
  5
1D
330
1B
100
AcDbEntity
 67
     1
  8
0
100
AcDbBlockEnd
  0
BLOCK
  5
24
330
23
100
AcDbEntity
  8
0
100
AcDbBlockBegin
  2
*Paper_Space0
 70
     0
 10
0.0
 20
0.0
 30
0.0
  3
*Paper_Space0
  1
*Paper_Space0
  0
ENDBLK
  5
25
330
23
100
AcDbEntity
  8
0
100
AcDbBlockEnd
  0
BLOCK
  5
83
330
82
100
AcDbEntity
  8
0
100
AcDbBlockBegin
  2
블럭10
 70
     2
 10
0.0
 20
0.0
 30
0.0
  3
블럭10
  1
블럭10
  0
ELLIPSE
  5
85
330
82
100
AcDbEntity
  8
중심선
100
AcDbEllipse
 10
20.54032771741204
 20
12.0471743016438
 30
0.0
 11
6.600054785286829
 21
-1.261213355974178E-13
 31
0.0
210
0.0
220
0.0
230
1.0
 40
0.636358354079598
 41
0.9219305317359503
 42
6.513795318482858
  0
ELLIPSE
  5
86
330
82
100
AcDbEntity
  8
중심선
100
AcDbEllipse
 10
20.54032771746488
 20
12.04717430159265
 30
0.0
 11
3.960054785062283
 21
1.540847449632565E-10
 31
0.0
210
0.0
220
0.0
230
1.0
 40
0.3939339440162632
 41
1.131841032648279
 42
5.62031148352944
  0
LINE
  5
87
330
82
100
AcDbEntity
  8
중심선
100
AcDbLine
 10
2.268634060543552
 20
16.24717430164393
 30
0.0
 11
5.714909304380834
 21
16.24717430164393
 31
0.0
  0
LINE
  5
88
330
82
100
AcDbEntity
  8
중심선
100
AcDbLine
 10
5.245725140726316
 20
7.84717430164391
 30
0.0
 11
8.692000384563599
 21
7.84717430164391
 31
0.0
  0
LINE
  5
89
330
82
100
AcDbEntity
  8
중심선
100
AcDbLine
 10
15.74043728645272
 20
16.24717430164393
 30
0.0
 11
8.692000384563599
 21
7.84717430164391
 31
0.0
  0
LINE
  5
8A
330
82
100
AcDbEntity
  8
중심선
100
AcDbLine
 10
0.1404042013395286
 20
13.71084872107135
 30
0.0
 11
3.58671253028996
 21
13.71088815037384
 31
0.0
  0
LINE
  5
8B
330
82
100
AcDbEntity
  8
중심선
100
AcDbLine
 10
2.750260043222114
 20
10.84717430164391
 30
0.0
 11
6.196535287059397
 21
10.84717430164391
 31
0.0
  0
LINE
  5
8C
330
82
100
AcDbEntity
  8
중심선
100
AcDbLine
 10
12.29416204261559
 20
16.24717430164393
 30
0.0
 11
5.245725140726316
 21
7.84717430164391
 31
0.0
  0
LINE
  5
8D
330
82
100
AcDbEntity
  8
중심선
100
AcDbLine
 10
10.72767329541681
 20
16.24717430164393
 30
0.0
 11
6.196535287059397
 21
10.84717430164391
 31
0.0
  0
LINE
  5
8E
330
82
100
AcDbEntity
  8
중심선
100
AcDbLine
 10
7.28139805157953
 20
16.24717430164393
 30
0.0
 11
2.750260043222114
 21
10.84717430164391
 31
0.0
  0
LINE
  5
8F
330
82
100
AcDbEntity
  8
중심선
100
AcDbLine
 10
5.714909304380834
 20
16.24717430164393
 30
0.0
 11
3.58671253028996
 21
13.71088815037384
 31
0.0
  0
LINE
  5
90
330
82
100
AcDbEntity
  8
중심선
100
AcDbLine
 10
2.268634060543552
 20
16.24717430164393
 30
0.0
 11
0.1404042013395286
 21
13.71084872107135
 31
0.0
  0
LINE
  5
91
330
82
100
AcDbEntity
  8
중심선
100
AcDbLine
 10
7.28139805157953
 20
16.24717430164393
 30
0.0
 11
10.72767329541681
 21
16.24717430164393
 31
0.0
  0
LINE
  5
92
330
82
100
AcDbEntity
  8
중심선
100
AcDbLine
 10
12.29416204261559
 20
16.24717430164393
 30
0.0
 11
15.74043728645272
 21
16.24717430164393
 31
0.0
  0
LINE
  5
93
330
82
100
AcDbEntity
  8
중심선
100
AcDbLine
 10
19.22036997980202
 20
11.08717430171403
 30
0.0
 11
23.66174974927406
 21
11.08717430171406
 31
0.0
  0
LINE
  5
94
330
82
100
AcDbEntity
  8
중심선
100
AcDbLine
 10
19.22039502424796
 20
13.00717430171391
 30
0.0
 11
19.22036997980202
 21
11.08717430171403
 31
0.0
  0
LINE
  5
95
330
82
100
AcDbEntity
  8
중심선
100
AcDbLine
 10
19.22039502424796
 20
13.00717430171391
 30
0.0
 11
26.96566020931264
 21
13.00717430171391
 31
0.0
  0
LINE
  5
96
330
82
100
AcDbEntity
  8
중심선
100
AcDbLine
 10
22.22332737316547
 20
13.45928029700563
 30
0.0
 11
24.52862924686651
 21
15.39360700705356
 31
0.0
  0
ATTDEF
  5
98
330
82
100
AcDbEntity
  8
FORMAT
 62
     2
100
AcDbText
 10
-19.27858288401334
 20
2.075366912832191
 30
0.0
 40
4.233333333333333
  1
SEME610250208E [ 2 FLUTE ]
 41
0.75
  7
SLDTEXTSTYLE0
 11
-19.27858288401334
 21
-0.0412997538344756
 31
0.0
100
AcDbAttributeDefinition
  3

  2
AUTOATTR0
 70
     0
 74
     1
  0
ENDBLK
  5
84
330
82
100
AcDbEntity
  8
0
100
AcDbBlockEnd
  0
BLOCK
  5
DA
330
D9
100
AcDbEntity
  8
0
100
AcDbBlockBegin
  2
_D
 70
     0
 10
0.0
 20
0.0
 30
0.0
  3
_D
  1
_D
  0
SOLID
  5
DC
330
D9
100
AcDbEntity
  8
치수문자_일반주서
100
AcDbTrace
 10
-43.00250885508845
 20
2.001074928723888
 30
0.0
 11
-42.49450885508845
 21
5.303074928723888
 31
0.0
 12
-43.51050885508845
 22
5.303074928723888
 32
0.0
 13
-43.51050885508845
 23
5.303074928723888
 33
0.0
  0
SOLID
  5
DD
330
D9
100
AcDbEntity
  8
치수문자_일반주서
100
AcDbTrace
 10
-43.00250885508845
 20
-1.998925071276106
 30
0.0
 11
-43.51050885508845
 21
-5.300925071276106
 31
0.0
 12
-42.49450885508845
 22
-5.300925071276106
 32
0.0
 13
-42.49450885508845
 23
-5.300925071276106
 33
0.0
  0
LINE
  5
DE
330
D9
100
AcDbEntity
  8
치수문자_일반주서
100
AcDbLine
 10
-31.50605083347639
 20
2.001074928723888
 30
0.0
 11
-44.00250885508846
 21
2.001074928723888
 31
0.0
  0
LINE
  5
DF
330
D9
100
AcDbEntity
  8
치수문자_일반주서
100
AcDbLine
 10
-31.50605083347639
 20
-1.998925071276106
 30
0.0
 11
-44.00250885508846
 21
-1.998925071276106
 31
0.0
  0
LINE
  5
E0
330
D9
100
AcDbEntity
  8
치수문자_일반주서
100
AcDbLine
 10
-43.00250885508845
 20
2.001074928723888
 30
0.0
 11
-43.00250885508845
 21
8.351074928723888
 31
0.0
  0
LINE
  5
E1
330
D9
100
AcDbEntity
  8
치수문자_일반주서
100
AcDbLine
 10
-43.00250885508845
 20
2.001074928723888
 30
0.0
 11
-43.00250885508845
 21
-1.998925071276106
 31
0.0
  0
LINE
  5
E2
330
D9
100
AcDbEntity
  8
치수문자_일반주서
100
AcDbLine
 10
-43.00250885508845
 20
-1.998925071276106
 30
0.0
 11
-43.00250885508845
 21
-8.348925071276106
 31
0.0
  0
MTEXT
  5
E3
330
D9
100
AcDbEntity
  8
치수문자_일반주서
100
AcDbMText
 10
-47.5142459442903
 20
-3.931199483639909
 30
0.0
 40
3.5
 41
0.0
 71
     1
 72
     1
  1
%%c
  7
SLDTEXTSTYLE0
 11
-7.044195017643634E-15
 21
1.0
 31
0.0
 73
     1
 44
1.0
  0
MTEXT
  5
E4
330
D9
100
AcDbEntity
  8
치수문자_일반주서
100
AcDbMText
 10
-47.56771812095019
 20
1.347237914734172
 30
0.0
 40
3.5
 41
0.0
 71
     1
 72
     1
  1
4
  7
SLDTEXTSTYLE0
 11
-7.044195017643634E-15
 21
1.0
 31
0.0
 73
     1
 44
1.0
  0
ENDBLK
  5
DB
330
D9
100
AcDbEntity
  8
0
100
AcDbBlockEnd
  0
BLOCK
  5
E7
330
E6
100
AcDbEntity
  8
0
100
AcDbBlockBegin
  2
_D_1
 70
     0
 10
0.0
 20
0.0
 30
0.0
  3
_D_1
  1
_D_1
  0
SOLID
  5
E9
330
E6
100
AcDbEntity
  8
치수문자_일반주서
100
AcDbTrace
 10
18.49394916652362
 20
19.55107492872354
 30
0.0
 11
21.79594916652362
 21
19.04307492872355
 31
0.0
 12
21.79594916652362
 22
20.05907492872354
 32
0.0
 13
21.79594916652362
 23
20.05907492872354
 33
0.0
  0
SOLID
  5
EA
330
E6
100
AcDbEntity
  8
치수문자_일반주서
100
AcDbTrace
 10
14.49394916652362
 20
19.55107492872354
 30
0.0
 11
11.19194916652362
 21
20.05907492872354
 31
0.0
 12
11.19194916652362
 22
19.04307492872355
 32
0.0
 13
11.19194916652362
 23
19.04307492872355
 33
0.0
  0
LINE
  5
EB
330
E6
100
AcDbEntity
  8
치수문자_일반주서
100
AcDbLine
 10
18.49394916652362
 20
2.051074928723894
 30
0.0
 11
18.49394916652362
 21
20.55107492872354
 31
0.0
  0
LINE
  5
EC
330
E6
100
AcDbEntity
  8
치수문자_일반주서
100
AcDbLine
 10
14.49394916652362
 20
1.980772191476624
 30
0.0
 11
14.49394916652362
 21
20.55107492872354
 31
0.0
  0
LINE
  5
ED
330
E6
100
AcDbEntity
  8
치수문자_일반주서
100
AcDbLine
 10
18.49394916652362
 20
19.55107492872354
 30
0.0
 11
24.16217206000795
 21
19.55107492872354
 31
0.0
  0
LINE
  5
EE
330
E6
100
AcDbEntity
  8
치수문자_일반주서
100
AcDbLine
 10
18.49394916652362
 20
19.55107492872354
 30
0.0
 11
14.49394916652362
 21
19.55107492872354
 31
0.0
  0
LINE
  5
EF
330
E6
100
AcDbEntity
  8
치수문자_일반주서
100
AcDbLine
 10
14.49394916652362
 20
19.55107492872354
 30
0.0
 11
8.143949166523619
 21
19.55107492872354
 31
0.0
  0
MTEXT
  5
F0
330
E6
100
AcDbEntity
  8
치수문자_일반주서
100
AcDbMText
 10
21.57606086648513
 20
24.06281184330244
 30
0.0
 40
3.5
 41
0.0
 71
     1
 72
     1
  1
4
  7
SLDTEXTSTYLE0
 73
     1
 44
1.0
  0
ENDBLK
  5
E8
330
E6
100
AcDbEntity
  8
0
100
AcDbBlockEnd
  0
BLOCK
  5
F4
330
F3
100
AcDbEntity
  8
0
100
AcDbBlockBegin
  2
_D_2
 70
     0
 10
0.0
 20
0.0
 30
0.0
  3
_D_2
  1
_D_2
  0
SOLID
  5
F6
330
F3
100
AcDbEntity
  8
치수문자_일반주서
100
AcDbTrace
 10
18.49394916652361
 20
41.60939943376818
 30
0.0
 11
15.19194916652361
 21
42.11739943376818
 31
0.0
 12
15.19194916652361
 22
41.10139943376818
 32
0.0
 13
15.19194916652361
 23
41.10139943376818
 33
0.0
  0
SOLID
  5
F7
330
F3
100
AcDbEntity
  8
치수문자_일반주서
100
AcDbTrace
 10
-31.50605083347639
 20
41.60939943376818
 30
0.0
 11
-28.20405083347639
 21
41.10139943376818
 31
0.0
 12
-28.20405083347639
 22
42.11739943376818
 32
0.0
 13
-28.20405083347639
 23
42.11739943376818
 33
0.0
  0
LINE
  5
F8
330
F3
100
AcDbEntity
  8
치수문자_일반주서
100
AcDbLine
 10
18.49394916652362
 20
2.051074928723894
 30
0.0
 11
18.49394916652361
 21
42.60939943376818
 31
0.0
  0
LINE
  5
F9
330
F3
100
AcDbEntity
  8
치수문자_일반주서
100
AcDbLine
 10
-31.50605083347639
 20
2.001074928723888
 30
0.0
 11
-31.50605083347639
 21
42.60939943376818
 31
0.0
  0
LINE
  5
FA
330
F3
100
AcDbEntity
  8
치수문자_일반주서
100
AcDbLine
 10
18.49394916652361
 20
41.60939943376818
 30
0.0
 11
-31.50605083347639
 21
41.60939943376818
 31
0.0
  0
MTEXT
  5
FB
330
F3
100
AcDbEntity
  8
치수문자_일반주서
100
AcDbMText
 10
-9.092162026999208
 20
46.12113634834707
 30
0.0
 40
3.5
 41
0.0
 71
     1
 72
     1
  1
50
  7
SLDTEXTSTYLE0
 73
     1
 44
1.0
  0
ENDBLK
  5
F5
330
F3
100
AcDbEntity
  8
0
100
AcDbBlockEnd
  0
BLOCK
  5
FE
330
FD
100
AcDbEntity
  8
0
100
AcDbBlockBegin
  2
_D_3
 70
     0
 10
0.0
 20
0.0
 30
0.0
  3
_D_3
  1
_D_3
  0
SOLID
  5
100
330
FD
100
AcDbEntity
  8
치수문자_일반주서
100
AcDbTrace
 10
14.49394916652476
 20
30.32107492872395
 30
0.0
 11
17.79594916652475
 21
29.81307492872382
 31
0.0
 12
17.79594916652478
 22
30.82907492872382
 32
0.0
 13
17.79594916652478
 23
30.82907492872382
 33
0.0
  0
SOLID
  5
101
330
FD
100
AcDbEntity
  8
치수문자_일반주서
100
AcDbTrace
 10
10.2140453559571
 20
30.32107492872411
 30
0.0
 11
6.912045355957115
 21
30.82907492872424
 31
0.0
 12
6.912045355957076
 22
29.81307492872424
 32
0.0
 13
6.912045355957076
 23
29.81307492872424
 33
0.0
  0
LINE
  5
102
330
FD
100
AcDbEntity
  8
치수문자_일반주서
100
AcDbLine
 10
14.49394916652365
 20
1.401074928723893
 30
0.0
 11
14.4939491665248
 21
31.32107492872394
 31
0.0
  0
LINE
  5
103
330
FD
100
AcDbEntity
  8
치수문자_일반주서
100
AcDbLine
 10
10.21404535595599
 20
1.551074928723894
 30
0.0
 11
10.21404535595713
 21
31.32107492872411
 31
0.0
  0
LINE
  5
104
330
FD
100
AcDbEntity
  8
치수문자_일반주서
100
AcDbLine
 10
14.49394916652476
 20
30.32107492872395
 30
0.0
 11
55.42440269528608
 21
30.32107492872239
 31
0.0
  0
LINE
  5
105
330
FD
100
AcDbEntity
  8
치수문자_일반주서
100
AcDbLine
 10
14.49394916652476
 20
30.32107492872395
 30
0.0
 11
10.2140453559571
 21
30.32107492872411
 31
0.0
  0
LINE
  5
106
330
FD
100
AcDbEntity
  8
치수문자_일반주서
100
AcDbLine
 10
10.2140453559571
 20
30.32107492872411
 30
0.0
 11
3.864045355957095
 21
30.32107492872435
 31
0.0
  0
MTEXT
  5
107
330
FD
100
AcDbEntity
  8
치수문자_일반주서
100
AcDbMText
 10
46.3730136343715
 20
34.83281184330144
 30
0.0
 40
3.5
 41
0.0
 71
     1
 72
     1
  1
4.28
  7
SLDTEXTSTYLE0
 73
     1
 44
1.0
  0
ENDBLK
  5
FF
330
FD
100
AcDbEntity
  8
0
100
AcDbBlockEnd
  0
BLOCK
  5
10B
330
10A
100
AcDbEntity
  8
0
100
AcDbBlockBegin
  2
_D_4
 70
     0
 10
0.0
 20
0.0
 30
0.0
  3
_D_4
  1
_D_4
  0
SOLID
  5
10D
330
10A
100
AcDbEntity
  8
치수문자_일반주서
100
AcDbTrace
 10
48.25059833193547
 20
0.5010749287239555
 30
0.0
 11
48.75859833193546
 21
3.803074928723957
 31
0.0
 12
47.74259833193545
 22
3.803074928723953
 32
0.0
 13
47.74259833193545
 23
3.803074928723953
 33
0.0
  0
SOLID
  5
10E
330
10A
100
AcDbEntity
  8
치수문자_일반주서
100
AcDbTrace
 10
48.25059833193547
 20
-0.4927529499587014
 30
0.0
 11
47.74259833193548
 21
-3.794752949958703
 31
0.0
 12
48.75859833193549
 22
-3.794752949958699
 32
0.0
 13
48.75859833193549
 23
-3.794752949958699
 33
0.0
  0
LINE
  5
10F
330
10A
100
AcDbEntity
  8
치수문자_일반주서
100
AcDbLine
 10
31.39394916652361
 20
0.5010749287238977
 30
0.0
 11
49.25059833193547
 21
0.501074928723959
 31
0.0
  0
LINE
  5
110
330
10A
100
AcDbEntity
  8
치수문자_일반주서
100
AcDbLine
 10
31.39394916652362
 20
-0.4927529499587592
 30
0.0
 11
49.25059833193547
 21
-0.4927529499586979
 31
0.0
  0
LINE
  5
111
330
10A
100
AcDbEntity
  8
치수문자_일반주서
100
AcDbLine
 10
48.25059833193547
 20
0.5010749287239555
 30
0.0
 11
48.25059833193547
 21
6.851074928723955
 31
0.0
  0
LINE
  5
112
330
10A
100
AcDbEntity
  8
치수문자_일반주서
100
AcDbLine
 10
48.25059833193547
 20
0.5010749287239555
 30
0.0
 11
48.25059833193547
 21
-0.4927529499587014
 31
0.0
  0
LINE
  5
113
330
10A
100
AcDbEntity
  8
치수문자_일반주서
100
AcDbLine
 10
48.25059833193547
 20
-0.4927529499587014
 30
0.0
 11
48.25059833193547
 21
-9.54965026096094
 31
0.0
  0
MTEXT
  5
114
330
10A
100
AcDbEntity
  8
치수문자_일반주서
100
AcDbMText
 10
43.73886124273367
 20
-9.549650260960929
 30
0.0
 40
3.5
 41
0.0
 71
     1
 72
     1
  1
%%c
  7
SLDTEXTSTYLE0
 11
-1.059690869644414E-14
 21
1.0
 31
0.0
 73
     1
 44
1.0
  0
MTEXT
  5
115
330
10A
100
AcDbEntity
  8
치수문자_일반주서
100
AcDbMText
 10
43.68538906607376
 20
-4.271212862586848
 30
0.0
 40
3.5
 41
0.0
 71
     1
 72
     1
  1
0.99
  7
SLDTEXTSTYLE0
 11
-1.059690869644414E-14
 21
1.0
 31
0.0
 73
     1
 44
1.0
  0
ENDBLK
  5
10C
330
10A
100
AcDbEntity
  8
0
100
AcDbBlockEnd
  0
BLOCK
  5
117
330
116
100
AcDbEntity
  8
0
100
AcDbBlockBegin
  2
SW_DOWELSYMBOL_0
 70
     0
 10
0.0
 20
0.0
 30
0.0
  3
SW_DOWELSYMBOL_0
  1
SW_DOWELSYMBOL_0
  0
CIRCLE
  5
119
330
116
100
AcDbEntity
  8
외형선
 62
     0
100
AcDbCircle
 10
0.0
 20
0.0
 30
0.0
 40
3.000000000000004
  0
HATCH
  5
11A
330
116
100
AcDbEntity
  8
0
  6
Continuous
 62
     0
370
    35
100
AcDbHatch
 10
0.0
 20
0.0
 30
0.0
210
0.0
220
0.0
230
1.0
  2
SOLID
 70
     1
 71
     0
 91
        1
 92
        0
 93
        3
 72
     2
 10
0.0000000000000104
 20
0.0
 40
3.000000000000004
 50
0.0
 51
90.0
 73
     1
 72
     1
 10
0.0000000000000104
 20
3.000000000000004
 11
0.0000000000000104
 21
0.0
 72
     1
 10
0.0000000000000104
 20
0.0
 11
3.000000000000015
 21
0.0
 97
        0
 75
     0
 76
     1
 98
        1
 10
0.0
 20
0.0
  0
HATCH
  5
11B
330
116
100
AcDbEntity
  8
0
  6
Continuous
 62
     0
370
    35
100
AcDbHatch
 10
0.0
 20
0.0
 30
0.0
210
0.0
220
0.0
230
1.0
  2
SOLID
 70
     1
 71
     0
 91
        1
 92
        0
 93
        3
 72
     2
 10
0.0000000000000104
 20
0.0
 40
3.000000000000004
 50
180.0
 51
270.0000000000008
 73
     1
 72
     1
 10
0.0000000000000104
 20
-3.000000000000004
 11
0.0000000000000104
 21
0.0
 72
     1
 10
0.0000000000000104
 20
0.0
 11
-2.999999999999994
 21
0.0
 97
        0
 75
     0
 76
     1
 98
        1
 10
0.0
 20
0.0
  0
ENDBLK
  5
118
330
116
100
AcDbEntity
  8
0
100
AcDbBlockEnd
  0
BLOCK
  5
182
330
181
100
AcDbEntity
  8
0
100
AcDbBlockBegin
  2
*D9
 70
     1
 10
0.0
 20
0.0
 30
0.0
  3
*D9
  1
*D9
  0
LINE
  5
183
330
181
100
AcDbEntity
  8
치수문자_일반주서
 62
     0
370
    -2
100
AcDbLine
 10
16.80895802161217
 20
9.849206306404255
 30
0.0
 11
4.374999999999993
 21
9.84920630640421
 31
0.0
  0
LINE
  5
184
330
181
100
AcDbEntity
  8
치수문자_일반주서
 62
     0
370
    -2
100
AcDbLine
 10
16.80895802161217
 20
5.849206306404255
 30
0.0
 11
4.375000000000007
 21
5.849206306404209
 31
0.0
  0
LINE
  5
185
330
181
100
AcDbEntity
  8
치수문자_일반주서
 62
     0
370
    -2
100
AcDbLine
 10
4.375000000000004
 20
6.54720630640421
 30
0.0
 11
4.374999999999996
 21
9.151206306404209
 31
0.0
  0
SOLID
  5
186
330
181
100
AcDbEntity
  8
치수문자_일반주서
 62
     0
100
AcDbTrace
 10
4.925333333333338
 20
6.547206306404211
 30
0.0
 11
3.824666666666671
 21
6.547206306404208
 31
0.0
 12
4.374999999999993
 22
9.84920630640421
 32
0.0
 13
4.374999999999993
 23
9.84920630640421
 33
0.0
  0
SOLID
  5
187
330
181
100
AcDbEntity
  8
치수문자_일반주서
 62
     0
100
AcDbTrace
 10
3.824666666666662
 20
9.151206306404207
 30
0.0
 11
4.925333333333329
 21
9.15120630640421
 31
0.0
 12
4.375000000000007
 22
5.849206306404209
 32
0.0
 13
4.375000000000007
 23
5.849206306404209
 33
0.0
  0
MTEXT
  5
188
330
181
100
AcDbEntity
  8
치수문자_일반주서
 62
     0
100
AcDbMText
 10
0.0
 20
7.84920630640424
 30
0.0
 40
3.5
 41
0.0
 71
     2
 72
     1
  1
\A1;%%c4
  7
SLDTEXTSTYLE0
 11
-3.552713678800500E-15
 21
1.0
 31
0.0
 73
     1
 44
1.0
  0
POINT
  5
189
330
181
100
AcDbEntity
  8
Defpoints
 62
     0
100
AcDbPoint
 10
16.87145802161217
 20
9.849206306404255
 30
0.0
  0
POINT
  5
18A
330
181
100
AcDbEntity
  8
Defpoints
 62
     0
100
AcDbPoint
 10
16.87145802161217
 20
5.849206306404255
 30
0.0
  0
POINT
  5
18B
330
181
100
AcDbEntity
  8
Defpoints
 62
     0
100
AcDbPoint
 10
4.375
 20
5.849206306404208
 30
0.0
  0
ENDBLK
  5
18C
330
181
100
AcDbEntity
  8
0
100
AcDbBlockEnd
  0
BLOCK
  5
18F
330
18E
100
AcDbEntity
  8
0
100
AcDbBlockBegin
  2
*D10
 70
     1
 10
0.0
 20
0.0
 30
0.0
  3
*D10
  1
*D10
  0
LINE
  5
190
330
18E
100
AcDbEntity
  8
치수문자_일반주서
 62
     0
370
    -2
100
AcDbLine
 10
65.87145802161217
 20
9.061706306404261
 30
0.0
 11
65.87145802161217
 21
27.49920630640392
 31
0.0
  0
LINE
  5
191
330
18E
100
AcDbEntity
  8
치수문자_일반주서
 62
     0
370
    -2
100
AcDbLine
 10
61.87145802161217
 20
8.891403569157006
 30
0.0
 11
61.87145802161217
 21
27.49920630640392
 31
0.0
  0
LINE
  5
192
330
18E
100
AcDbEntity
  8
치수문자_일반주서
 62
     0
370
    -2
100
AcDbLine
 10
65.87145802161217
 20
27.49920630640392
 30
0.0
 11
75.97545802161221
 21
27.49920630640392
 31
0.0
  0
LINE
  5
193
330
18E
100
AcDbEntity
  8
치수문자_일반주서
 62
     0
370
    -2
100
AcDbLine
 10
65.87145802161217
 20
27.49920630640392
 30
0.0
 11
61.87145802161217
 21
27.49920630640392
 31
0.0
  0
LINE
  5
194
330
18E
100
AcDbEntity
  8
치수문자_일반주서
 62
     0
370
    -2
100
AcDbLine
 10
69.17345802161216
 20
27.49920630640392
 30
0.0
 11
72.47545802161216
 21
27.49920630640392
 31
0.0
  0
LINE
  5
195
330
18E
100
AcDbEntity
  8
치수문자_일반주서
 62
     0
370
    -2
100
AcDbLine
 10
58.56945802161217
 20
27.49920630640392
 30
0.0
 11
55.26745802161217
 21
27.49920630640392
 31
0.0
  0
SOLID
  5
196
330
18E
100
AcDbEntity
  8
치수문자_일반주서
 62
     0
100
AcDbTrace
 10
69.17345802161216
 20
28.04953963973725
 30
0.0
 11
69.17345802161216
 21
26.94887297307059
 31
0.0
 12
65.87145802161217
 22
27.49920630640392
 32
0.0
 13
65.87145802161217
 23
27.49920630640392
 33
0.0
  0
SOLID
  5
197
330
18E
100
AcDbEntity
  8
치수문자_일반주서
 62
     0
100
AcDbTrace
 10
58.56945802161217
 20
26.94887297307059
 30
0.0
 11
58.56945802161217
 21
28.04953963973725
 31
0.0
 12
61.87145802161217
 22
27.49920630640392
 32
0.0
 13
61.87145802161217
 23
27.49920630640392
 33
0.0
  0
MTEXT
  5
198
330
18E
100
AcDbEntity
  8
치수문자_일반주서
 62
     0
100
AcDbMText
 10
74.22545802161221
 20
31.87420630640392
 30
0.0
 40
3.5
 41
0.0
 71
     2
 72
     1
  1
\A1;4
  7
SLDTEXTSTYLE0
 73
     1
 44
1.0
  0
POINT
  5
199
330
18E
100
AcDbEntity
  8
Defpoints
 62
     0
100
AcDbPoint
 10
65.87145802161217
 20
8.999206306404261
 30
0.0
  0
POINT
  5
19A
330
18E
100
AcDbEntity
  8
Defpoints
 62
     0
100
AcDbPoint
 10
61.87145802161217
 20
8.828903569157006
 30
0.0
  0
POINT
  5
19B
330
18E
100
AcDbEntity
  8
Defpoints
 62
     0
100
AcDbPoint
 10
61.87145802161217
 20
27.49920630640392
 30
0.0
  0
ENDBLK
  5
19C
330
18E
100
AcDbEntity
  8
0
100
AcDbBlockEnd
  0
BLOCK
  5
19F
330
19E
100
AcDbEntity
  8
0
100
AcDbBlockBegin
  2
*D11
 70
     1
 10
0.0
 20
0.0
 30
0.0
  3
*D11
  1
*D11
  0
LINE
  5
1A0
330
19E
100
AcDbEntity
  8
치수문자_일반주서
 62
     0
370
    -2
100
AcDbLine
 10
65.87145802161217
 20
9.061706306404261
 30
0.0
 11
65.87145802161217
 21
49.55753081144857
 31
0.0
  0
LINE
  5
1A1
330
19E
100
AcDbEntity
  8
치수문자_일반주서
 62
     0
370
    -2
100
AcDbLine
 10
15.87145802161217
 20
8.911706306404255
 30
0.0
 11
15.87145802161217
 21
49.55753081144857
 31
0.0
  0
LINE
  5
1A2
330
19E
100
AcDbEntity
  8
치수문자_일반주서
 62
     0
370
    -2
100
AcDbLine
 10
62.56945802161217
 20
49.55753081144857
 30
0.0
 11
19.17345802161217
 21
49.55753081144857
 31
0.0
  0
SOLID
  5
1A3
330
19E
100
AcDbEntity
  8
치수문자_일반주서
 62
     0
100
AcDbTrace
 10
62.56945802161217
 20
49.00719747811524
 30
0.0
 11
62.56945802161217
 21
50.10786414478191
 31
0.0
 12
65.87145802161217
 22
49.55753081144857
 32
0.0
 13
65.87145802161217
 23
49.55753081144857
 33
0.0
  0
SOLID
  5
1A4
330
19E
100
AcDbEntity
  8
치수문자_일반주서
 62
     0
100
AcDbTrace
 10
19.17345802161217
 20
50.10786414478191
 30
0.0
 11
19.17345802161217
 21
49.00719747811524
 31
0.0
 12
15.87145802161217
 22
49.55753081144857
 32
0.0
 13
15.87145802161217
 23
49.55753081144857
 33
0.0
  0
MTEXT
  5
1A5
330
19E
100
AcDbEntity
  8
치수문자_일반주서
 62
     0
100
AcDbMText
 10
40.87145802161217
 20
53.93253081144857
 30
0.0
 40
3.5
 41
0.0
 71
     2
 72
     1
  1
\A1;50
  7
SLDTEXTSTYLE0
 73
     1
 44
1.0
  0
POINT
  5
1A6
330
19E
100
AcDbEntity
  8
Defpoints
 62
     0
100
AcDbPoint
 10
65.87145802161217
 20
8.999206306404261
 30
0.0
  0
POINT
  5
1A7
330
19E
100
AcDbEntity
  8
Defpoints
 62
     0
100
AcDbPoint
 10
15.87145802161217
 20
8.849206306404255
 30
0.0
  0
POINT
  5
1A8
330
19E
100
AcDbEntity
  8
Defpoints
 62
     0
100
AcDbPoint
 10
15.87145802161217
 20
49.55753081144857
 30
0.0
  0
ENDBLK
  5
1A9
330
19E
100
AcDbEntity
  8
0
100
AcDbBlockEnd
  0
BLOCK
  5
1AC
330
1AB
100
AcDbEntity
  8
0
100
AcDbBlockBegin
  2
*D12
 70
     1
 10
0.0
 20
0.0
 30
0.0
  3
*D12
  1
*D12
  0
LINE
  5
1AD
330
1AB
100
AcDbEntity
  8
치수문자_일반주서
 62
     0
370
    -2
100
AcDbLine
 10
65.87145802161217
 20
9.05978461905275
 30
0.0
 11
65.87145802161217
 21
38.16920630640291
 31
0.0
  0
LINE
  5
1AE
330
1AB
100
AcDbEntity
  8
치수문자_일반주서
 62
     0
370
    -2
100
AcDbLine
 10
57.87145802161217
 20
9.111706306404272
 30
0.0
 11
57.87145802161217
 21
38.16920630640291
 31
0.0
  0
LINE
  5
1AF
330
1AB
100
AcDbEntity
  8
치수문자_일반주서
 62
     0
370
    -2
100
AcDbLine
 10
65.87145802161217
 20
38.16920630640291
 30
0.0
 11
57.87145802161217
 21
38.16920630640291
 31
0.0
  0
LINE
  5
1B0
330
1AB
100
AcDbEntity
  8
치수문자_일반주서
 62
     0
370
    -2
100
AcDbLine
 10
69.17345802161216
 20
38.16920630640291
 30
0.0
 11
72.47545802161216
 21
38.16920630640291
 31
0.0
  0
LINE
  5
1B1
330
1AB
100
AcDbEntity
  8
치수문자_일반주서
 62
     0
370
    -2
100
AcDbLine
 10
54.56945802161217
 20
38.16920630640291
 30
0.0
 11
51.26745802161217
 21
38.16920630640291
 31
0.0
  0
SOLID
  5
1B2
330
1AB
100
AcDbEntity
  8
치수문자_일반주서
 62
     0
100
AcDbTrace
 10
69.17345802161216
 20
38.71953963973625
 30
0.0
 11
69.17345802161216
 21
37.61887297306958
 31
0.0
 12
65.87145802161217
 22
38.16920630640291
 32
0.0
 13
65.87145802161217
 23
38.16920630640291
 33
0.0
  0
SOLID
  5
1B3
330
1AB
100
AcDbEntity
  8
치수문자_일반주서
 62
     0
100
AcDbTrace
 10
54.56945802161217
 20
37.61887297306958
 30
0.0
 11
54.56945802161217
 21
38.71953963973625
 31
0.0
 12
57.87145802161217
 22
38.16920630640291
 32
0.0
 13
57.87145802161217
 23
38.16920630640291
 33
0.0
  0
MTEXT
  5
1B4
330
1AB
100
AcDbEntity
  8
치수문자_일반주서
 62
     0
100
AcDbMText
 10
61.87145802161217
 20
42.54420630640291
 30
0.0
 40
3.5
 41
0.0
 71
     2
 72
     1
  1
\A1;8
  7
SLDTEXTSTYLE0
 73
     1
 44
1.0
  0
POINT
  5
1B5
330
1AB
100
AcDbEntity
  8
Defpoints
 62
     0
100
AcDbPoint
 10
65.87145802161217
 20
8.99728461905275
 30
0.0
  0
POINT
  5
1B6
330
1AB
100
AcDbEntity
  8
Defpoints
 62
     0
100
AcDbPoint
 10
57.87145802161217
 20
9.049206306404272
 30
0.0
  0
POINT
  5
1B7
330
1AB
100
AcDbEntity
  8
Defpoints
 62
     0
100
AcDbPoint
 10
57.87145802161217
 20
38.16920630640291
 30
0.0
  0
ENDBLK
  5
1B8
330
1AB
100
AcDbEntity
  8
0
100
AcDbBlockEnd
  0
BLOCK
  5
1BB
330
1BA
100
AcDbEntity
  8
0
100
AcDbBlockBegin
  2
*D13
 70
     1
 10
0.0
 20
0.0
 30
0.0
  3
*D13
  1
*D13
  0
LINE
  5
1BC
330
1BA
100
AcDbEntity
  8
치수문자_일반주서
 62
     0
370
    -2
100
AcDbLine
 10
65.93395802161217
 20
9.102785657410152
 30
0.0
 11
77.38204590604398
 21
9.102785657410195
 31
0.0
  0
LINE
  5
1BD
330
1BA
100
AcDbEntity
  8
치수문자_일반주서
 62
     0
370
    -2
100
AcDbLine
 10
65.83395802161203
 20
6.603999999999928
 30
0.0
 11
77.382045906044
 21
6.603999999999971
 31
0.0
  0
LINE
  5
1BE
330
1BA
100
AcDbEntity
  8
치수문자_일반주서
 62
     0
370
    -2
100
AcDbLine
 10
77.38204590604398
 20
9.102785657410195
 30
0.0
 11
77.38204590604388
 21
26.63591261280865
 31
0.0
  0
LINE
  5
1BF
330
1BA
100
AcDbEntity
  8
치수문자_일반주서
 62
     0
370
    -2
100
AcDbLine
 10
77.38204590604398
 20
9.102785657410195
 30
0.0
 11
77.382045906044
 21
6.603999999999971
 31
0.0
  0
LINE
  5
1C0
330
1BA
100
AcDbEntity
  8
치수문자_일반주서
 62
     0
370
    -2
100
AcDbLine
 10
77.38204590604397
 20
12.40478565741019
 30
0.0
 11
77.38204590604396
 21
15.70678565741019
 31
0.0
  0
LINE
  5
1C1
330
1BA
100
AcDbEntity
  8
치수문자_일반주서
 62
     0
370
    -2
100
AcDbLine
 10
77.38204590604401
 20
3.301999999999971
 30
0.0
 11
77.38204590604403
 21
-0.0000000000000284
 31
0.0
  0
SOLID
  5
1C2
330
1BA
100
AcDbEntity
  8
치수문자_일반주서
 62
     0
100
AcDbTrace
 10
76.83171257271064
 20
12.40478565741019
 30
0.0
 11
77.9323792393773
 21
12.4047856574102
 31
0.0
 12
77.38204590604398
 22
9.102785657410195
 32
0.0
 13
77.38204590604398
 23
9.102785657410195
 33
0.0
  0
SOLID
  5
1C3
330
1BA
100
AcDbEntity
  8
치수문자_일반주서
 62
     0
100
AcDbTrace
 10
77.93237923937734
 20
3.301999999999974
 30
0.0
 11
76.83171257271069
 21
3.301999999999968
 31
0.0
 12
77.382045906044
 22
6.603999999999971
 32
0.0
 13
77.382045906044
 23
6.603999999999971
 33
0.0
  0
MTEXT
  5
1C4
330
1BA
100
AcDbEntity
  8
치수문자_일반주서
 62
     0
100
AcDbMText
 10
73.00704590604391
 20
21.82341261280863
 30
0.0
 40
3.5
 41
0.0
 71
     2
 72
     1
  1
\A1;%%c2.5
  7
SLDTEXTSTYLE0
 11
-5.687104323277706E-15
 21
1.0
 31
0.0
 73
     1
 44
1.0
  0
POINT
  5
1C5
330
1BA
100
AcDbEntity
  8
Defpoints
 62
     0
100
AcDbPoint
 10
65.87145802161217
 20
9.102785657410152
 30
0.0
  0
POINT
  5
1C6
330
1BA
100
AcDbEntity
  8
Defpoints
 62
     0
100
AcDbPoint
 10
65.77145802161203
 20
6.603999999999928
 30
0.0
  0
POINT
  5
1D9
330
1BA
100
AcDbEntity
  8
Defpoints
 62
     0
100
AcDbPoint
 10
77.38204590604391
 20
6.603999999999972
 30
0.0
  0
ENDBLK
  5
1C7
330
1BA
100
AcDbEntity
  8
0
100
AcDbBlockEnd
  0
BLOCK
  5
1FE
330
1FD
100
AcDbEntity
  8
0
100
AcDbBlockBegin
  2
*D14
 70
     1
 10
0.0
 20
0.0
 30
0.0
  3
*D14
  1
*D14
  0
LINE
  5
200
330
1FD
100
AcDbEntity
  8
치수문자_일반주서
 62
     0
370
    -2
100
AcDbLine
 10
-38.07685935394488
 20
2.0
 30
0.0
 11
-50.51081737555706
 21
1.999999999999953
 31
0.0
  0
LINE
  5
201
330
1FD
100
AcDbEntity
  8
치수문자_일반주서
 62
     0
370
    -2
100
AcDbLine
 10
-38.07685935394488
 20
-2.0
 30
0.0
 11
-50.51081737555705
 21
-2.000000000000047
 31
0.0
  0
LINE
  5
202
330
1FD
100
AcDbEntity
  8
치수문자_일반주서
 62
     0
370
    -2
100
AcDbLine
 10
-50.51081737555705
 20
-1.302000000000047
 30
0.0
 11
-50.51081737555706
 21
1.301999999999953
 31
0.0
  0
SOLID
  5
203
330
1FD
100
AcDbEntity
  8
치수문자_일반주서
 62
     0
100
AcDbTrace
 10
-49.96048404222371
 20
-1.302000000000045
 30
0.0
 11
-51.06115070889038
 21
-1.302000000000049
 31
0.0
 12
-50.51081737555706
 22
1.999999999999953
 32
0.0
 13
-50.51081737555706
 23
1.999999999999953
 33
0.0
  0
SOLID
  5
204
330
1FD
100
AcDbEntity
  8
치수문자_일반주서
 62
     0
100
AcDbTrace
 10
-51.06115070889039
 20
1.301999999999951
 30
0.0
 11
-49.96048404222373
 21
1.301999999999955
 31
0.0
 12
-50.51081737555705
 22
-2.000000000000047
 32
0.0
 13
-50.51081737555705
 23
-2.000000000000047
 33
0.0
  0
MTEXT
  5
205
330
1FD
100
AcDbEntity
  8
치수문자_일반주서
 62
     0
100
AcDbMText
 10
-54.88581737555705
 20
-0.0000000000000154
 30
0.0
 40
3.5
 41
0.0
 71
     2
 72
     1
  1
\A1;%%c4
  7
SLDTEXTSTYLE0
 11
-3.552713678800502E-15
 21
1.0
 31
0.0
 73
     1
 44
1.0
  0
POINT
  5
206
330
1FD
100
AcDbEntity
  8
Defpoints
 62
     0
100
AcDbPoint
 10
-38.01435935394488
 20
2.0
 30
0.0
  0
POINT
  5
207
330
1FD
100
AcDbEntity
  8
Defpoints
 62
     0
100
AcDbPoint
 10
-38.01435935394488
 20
-2.0
 30
0.0
  0
POINT
  5
208
330
1FD
100
AcDbEntity
  8
Defpoints
 62
     0
100
AcDbPoint
 10
-50.51081737555705
 20
-2.000000000000047
 30
0.0
  0
ENDBLK
  5
1FF
330
1FD
100
AcDbEntity
  8
0
100
AcDbBlockEnd
  0
BLOCK
  5
20A
330
209
100
AcDbEntity
  8
0
100
AcDbBlockBegin
  2
*D15
 70
     1
 10
0.0
 20
0.0
 30
0.0
  3
*D15
  1
*D15
  0
LINE
  5
20C
330
209
100
AcDbEntity
  8
치수문자_일반주서
 62
     0
370
    -2
100
AcDbLine
 10
10.98564064605512
 20
1.212500000000006
 30
0.0
 11
10.98564064605512
 21
19.64999999999966
 31
0.0
  0
LINE
  5
20D
330
209
100
AcDbEntity
  8
치수문자_일반주서
 62
     0
370
    -2
100
AcDbLine
 10
6.985640646055117
 20
1.042197262752751
 30
0.0
 11
6.985640646055117
 21
19.64999999999966
 31
0.0
  0
LINE
  5
20E
330
209
100
AcDbEntity
  8
치수문자_일반주서
 62
     0
370
    -2
100
AcDbLine
 10
10.98564064605512
 20
19.64999999999966
 30
0.0
 11
21.08964064605516
 21
19.64999999999966
 31
0.0
  0
LINE
  5
20F
330
209
100
AcDbEntity
  8
치수문자_일반주서
 62
     0
370
    -2
100
AcDbLine
 10
10.98564064605512
 20
19.64999999999966
 30
0.0
 11
6.985640646055117
 21
19.64999999999966
 31
0.0
  0
LINE
  5
210
330
209
100
AcDbEntity
  8
치수문자_일반주서
 62
     0
370
    -2
100
AcDbLine
 10
14.28764064605512
 20
19.64999999999966
 30
0.0
 11
17.58964064605512
 21
19.64999999999966
 31
0.0
  0
LINE
  5
211
330
209
100
AcDbEntity
  8
치수문자_일반주서
 62
     0
370
    -2
100
AcDbLine
 10
3.683640646055117
 20
19.64999999999966
 30
0.0
 11
0.3816406460551178
 21
19.64999999999966
 31
0.0
  0
SOLID
  5
212
330
209
100
AcDbEntity
  8
치수문자_일반주서
 62
     0
100
AcDbTrace
 10
14.28764064605512
 20
20.200333333333
 30
0.0
 11
14.28764064605512
 21
19.09966666666633
 31
0.0
 12
10.98564064605512
 22
19.64999999999966
 32
0.0
 13
10.98564064605512
 23
19.64999999999966
 33
0.0
  0
SOLID
  5
213
330
209
100
AcDbEntity
  8
치수문자_일반주서
 62
     0
100
AcDbTrace
 10
3.683640646055117
 20
19.09966666666633
 30
0.0
 11
3.683640646055117
 21
20.200333333333
 31
0.0
 12
6.985640646055117
 22
19.64999999999966
 32
0.0
 13
6.985640646055117
 23
19.64999999999966
 33
0.0
  0
MTEXT
  5
214
330
209
100
AcDbEntity
  8
치수문자_일반주서
 62
     0
100
AcDbMText
 10
19.33964064605516
 20
24.02499999999966
 30
0.0
 40
3.5
 41
0.0
 71
     2
 72
     1
  1
\A1;4
  7
SLDTEXTSTYLE0
 73
     1
 44
1.0
  0
POINT
  5
215
330
209
100
AcDbEntity
  8
Defpoints
 62
     0
100
AcDbPoint
 10
10.98564064605512
 20
1.150000000000006
 30
0.0
  0
POINT
  5
216
330
209
100
AcDbEntity
  8
Defpoints
 62
     0
100
AcDbPoint
 10
6.985640646055117
 20
0.9796972627527509
 30
0.0
  0
POINT
  5
217
330
209
100
AcDbEntity
  8
Defpoints
 62
     0
100
AcDbPoint
 10
6.985640646055117
 20
19.64999999999966
 30
0.0
  0
ENDBLK
  5
20B
330
209
100
AcDbEntity
  8
0
100
AcDbBlockEnd
  0
BLOCK
  5
219
330
218
100
AcDbEntity
  8
0
100
AcDbBlockBegin
  2
*D16
 70
     1
 10
0.0
 20
0.0
 30
0.0
  3
*D16
  1
*D16
  0
LINE
  5
21B
330
218
100
AcDbEntity
  8
치수문자_일반주서
 62
     0
370
    -2
100
AcDbLine
 10
10.98564064605512
 20
1.212500000000006
 30
0.0
 11
10.98564064605512
 21
41.70832450504432
 31
0.0
  0
LINE
  5
21C
330
218
100
AcDbEntity
  8
치수문자_일반주서
 62
     0
370
    -2
100
AcDbLine
 10
-39.01435935394488
 20
1.0625
 30
0.0
 11
-39.01435935394488
 21
41.70832450504432
 31
0.0
  0
LINE
  5
21D
330
218
100
AcDbEntity
  8
치수문자_일반주서
 62
     0
370
    -2
100
AcDbLine
 10
7.683640646055117
 20
41.70832450504432
 30
0.0
 11
-35.71235935394488
 21
41.70832450504432
 31
0.0
  0
SOLID
  5
21E
330
218
100
AcDbEntity
  8
치수문자_일반주서
 62
     0
100
AcDbTrace
 10
7.683640646055117
 20
41.15799117171098
 30
0.0
 11
7.683640646055117
 21
42.25865783837765
 31
0.0
 12
10.98564064605512
 22
41.70832450504432
 32
0.0
 13
10.98564064605512
 23
41.70832450504432
 33
0.0
  0
SOLID
  5
21F
330
218
100
AcDbEntity
  8
치수문자_일반주서
 62
     0
100
AcDbTrace
 10
-35.71235935394488
 20
42.25865783837765
 30
0.0
 11
-35.71235935394488
 21
41.15799117171098
 31
0.0
 12
-39.01435935394488
 22
41.70832450504432
 32
0.0
 13
-39.01435935394488
 23
41.70832450504432
 33
0.0
  0
MTEXT
  5
220
330
218
100
AcDbEntity
  8
치수문자_일반주서
 62
     0
100
AcDbMText
 10
-14.01435935394488
 20
46.08332450504432
 30
0.0
 40
3.5
 41
0.0
 71
     2
 72
     1
  1
\A1;50
  7
SLDTEXTSTYLE0
 73
     1
 44
1.0
  0
POINT
  5
221
330
218
100
AcDbEntity
  8
Defpoints
 62
     0
100
AcDbPoint
 10
10.98564064605512
 20
1.150000000000006
 30
0.0
  0
POINT
  5
222
330
218
100
AcDbEntity
  8
Defpoints
 62
     0
100
AcDbPoint
 10
-39.01435935394488
 20
1.0
 30
0.0
  0
POINT
  5
223
330
218
100
AcDbEntity
  8
Defpoints
 62
     0
100
AcDbPoint
 10
-39.01435935394488
 20
41.70832450504432
 30
0.0
  0
ENDBLK
  5
21A
330
218
100
AcDbEntity
  8
0
100
AcDbBlockEnd
  0
BLOCK
  5
225
330
224
100
AcDbEntity
  8
0
100
AcDbBlockBegin
  2
*D17
 70
     1
 10
0.0
 20
0.0
 30
0.0
  3
*D17
  1
*D17
  0
LINE
  5
227
330
224
100
AcDbEntity
  8
치수문자_일반주서
 62
     0
370
    -2
100
AcDbLine
 10
10.98564064605512
 20
1.210578312648494
 30
0.0
 11
10.98564064605512
 21
30.31999999999866
 31
0.0
  0
LINE
  5
228
330
224
100
AcDbEntity
  8
치수문자_일반주서
 62
     0
370
    -2
100
AcDbLine
 10
2.985640646055117
 20
1.262500000000017
 30
0.0
 11
2.985640646055117
 21
30.31999999999866
 31
0.0
  0
LINE
  5
229
330
224
100
AcDbEntity
  8
치수문자_일반주서
 62
     0
370
    -2
100
AcDbLine
 10
10.98564064605512
 20
30.31999999999866
 30
0.0
 11
2.985640646055117
 21
30.31999999999866
 31
0.0
  0
LINE
  5
22A
330
224
100
AcDbEntity
  8
치수문자_일반주서
 62
     0
370
    -2
100
AcDbLine
 10
14.28764064605512
 20
30.31999999999866
 30
0.0
 11
17.58964064605512
 21
30.31999999999866
 31
0.0
  0
LINE
  5
22B
330
224
100
AcDbEntity
  8
치수문자_일반주서
 62
     0
370
    -2
100
AcDbLine
 10
-0.3163593539448826
 20
30.31999999999866
 30
0.0
 11
-3.618359353944882
 21
30.31999999999866
 31
0.0
  0
SOLID
  5
22C
330
224
100
AcDbEntity
  8
치수문자_일반주서
 62
     0
100
AcDbTrace
 10
14.28764064605512
 20
30.87033333333199
 30
0.0
 11
14.28764064605512
 21
29.76966666666532
 31
0.0
 12
10.98564064605512
 22
30.31999999999866
 32
0.0
 13
10.98564064605512
 23
30.31999999999866
 33
0.0
  0
SOLID
  5
22D
330
224
100
AcDbEntity
  8
치수문자_일반주서
 62
     0
100
AcDbTrace
 10
-0.3163593539448826
 20
29.76966666666532
 30
0.0
 11
-0.3163593539448826
 21
30.87033333333199
 31
0.0
 12
2.985640646055117
 22
30.31999999999866
 32
0.0
 13
2.985640646055117
 23
30.31999999999866
 33
0.0
  0
MTEXT
  5
22E
330
224
100
AcDbEntity
  8
치수문자_일반주서
 62
     0
100
AcDbMText
 10
6.985640646055117
 20
34.69499999999866
 30
0.0
 40
3.5
 41
0.0
 71
     2
 72
     1
  1
\A1;8
  7
SLDTEXTSTYLE0
 73
     1
 44
1.0
  0
POINT
  5
22F
330
224
100
AcDbEntity
  8
Defpoints
 62
     0
100
AcDbPoint
 10
10.98564064605512
 20
1.148078312648494
 30
0.0
  0
POINT
  5
230
330
224
100
AcDbEntity
  8
Defpoints
 62
     0
100
AcDbPoint
 10
2.985640646055117
 20
1.200000000000017
 30
0.0
  0
POINT
  5
231
330
224
100
AcDbEntity
  8
Defpoints
 62
     0
100
AcDbPoint
 10
2.985640646055117
 20
30.31999999999866
 30
0.0
  0
ENDBLK
  5
226
330
224
100
AcDbEntity
  8
0
100
AcDbBlockEnd
  0
BLOCK
  5
233
330
232
100
AcDbEntity
  8
0
100
AcDbBlockBegin
  2
*D18
 70
     1
 10
0.0
 20
0.0
 30
0.0
  3
*D18
  1
*D18
  0
LINE
  5
235
330
232
100
AcDbEntity
  8
치수문자_일반주서
 62
     0
370
    -2
100
AcDbLine
 10
11.04814064605512
 20
1.253579351005897
 30
0.0
 11
22.4962285304869
 21
1.253579351005939
 31
0.0
  0
LINE
  5
236
330
232
100
AcDbEntity
  8
치수문자_일반주서
 62
     0
370
    -2
100
AcDbLine
 10
10.94814064605498
 20
-1.245206306404327
 30
0.0
 11
22.4962285304869
 21
-1.245206306404285
 31
0.0
  0
LINE
  5
237
330
232
100
AcDbEntity
  8
치수문자_일반주서
 62
     0
370
    -2
100
AcDbLine
 10
22.4962285304869
 20
1.253579351005939
 30
0.0
 11
22.49622853048685
 21
18.7867063064044
 31
0.0
  0
LINE
  5
238
330
232
100
AcDbEntity
  8
치수문자_일반주서
 62
     0
370
    -2
100
AcDbLine
 10
22.4962285304869
 20
1.253579351005939
 30
0.0
 11
22.4962285304869
 21
-1.245206306404285
 31
0.0
  0
LINE
  5
239
330
232
100
AcDbEntity
  8
치수문자_일반주서
 62
     0
370
    -2
100
AcDbLine
 10
22.49622853048688
 20
4.555579351005939
 30
0.0
 11
22.49622853048687
 21
7.857579351005938
 31
0.0
  0
LINE
  5
23A
330
232
100
AcDbEntity
  8
치수문자_일반주서
 62
     0
370
    -2
100
AcDbLine
 10
22.49622853048691
 20
-4.547206306404284
 30
0.0
 11
22.49622853048692
 21
-7.849206306404284
 31
0.0
  0
SOLID
  5
23B
330
232
100
AcDbEntity
  8
치수문자_일반주서
 62
     0
100
AcDbTrace
 10
21.94589519715355
 20
4.555579351005937
 30
0.0
 11
23.04656186382022
 21
4.555579351005941
 31
0.0
 12
22.4962285304869
 22
1.253579351005939
 32
0.0
 13
22.4962285304869
 23
1.253579351005939
 33
0.0
  0
SOLID
  5
23C
330
232
100
AcDbEntity
  8
치수문자_일반주서
 62
     0
100
AcDbTrace
 10
23.04656186382025
 20
-4.547206306404282
 30
0.0
 11
21.94589519715358
 21
-4.547206306404286
 31
0.0
 12
22.4962285304869
 22
-1.245206306404285
 32
0.0
 13
22.4962285304869
 23
-1.245206306404285
 33
0.0
  0
MTEXT
  5
23D
330
232
100
AcDbEntity
  8
치수문자_일반주서
 62
     0
100
AcDbMText
 10
18.12122853048686
 20
13.97420630640439
 30
0.0
 40
3.5
 41
0.0
 71
     2
 72
     1
  1
\A1;%%c2.5
  7
SLDTEXTSTYLE0
 11
-2.843552161638852E-15
 21
1.0
 31
0.0
 73
     1
 44
1.0
  0
POINT
  5
23E
330
232
100
AcDbEntity
  8
Defpoints
 62
     0
100
AcDbPoint
 10
10.98564064605512
 20
1.253579351005897
 30
0.0
  0
POINT
  5
23F
330
232
100
AcDbEntity
  8
Defpoints
 62
     0
100
AcDbPoint
 10
10.88564064605498
 20
-1.245206306404327
 30
0.0
  0
POINT
  5
240
330
232
100
AcDbEntity
  8
Defpoints
 62
     0
100
AcDbPoint
 10
22.49622853048695
 20
-1.245206306404284
 30
0.0
  0
ENDBLK
  5
234
330
232
100
AcDbEntity
  8
0
100
AcDbBlockEnd
  0
BLOCK
  5
27E
330
27D
100
AcDbEntity
  8
0
100
AcDbBlockBegin
  2
*D20
 70
     1
 10
0.0
 20
0.0
 30
0.0
  3
*D20
  1
*D20
  0
LINE
  5
27F
330
27D
100
AcDbEntity
  8
치수문자_일반주서
 62
     0
370
    -2
100
AcDbLine
 10
5.595525302020568
 20
20.22394615717176
 30
0.0
 11
17.67056306838999
 21
-0.0000000000000253
 31
0.0
  0
MTEXT
  5
280
330
27D
100
AcDbEntity
  8
치수문자_일반주서
 62
     0
100
AcDbMText
 10
17.56944243593301
 20
5.28989023328379
 30
0.0
 40
3.5
 41
0.0
 71
     5
 72
     1
  1
\A1;R0.2
  7
SLDTEXTSTYLE0
 11
0.5126424699858549
 21
-0.8586021767773488
 31
0.0
 73
     1
 44
1.0
  0
LINE
  5
281
330
27D
100
AcDbEntity
  8
치수문자_일반주서
 62
     0
370
    -2
100
AcDbLine
 10
3.800251372130106
 20
23.23077098024604
 30
0.0
 11
3.902779866127275
 21
23.05905054489057
 31
0.0
  0
SOLID
  5
282
330
27D
100
AcDbEntity
  8
치수문자_일반주서
 62
     0
100
AcDbTrace
 10
6.068042699973702
 20
20.50607039648731
 30
0.0
 11
5.123007904067434
 21
19.94182191785621
 31
0.0
 12
3.902779866127275
 22
23.05905054489057
 32
0.0
 13
3.902779866127275
 23
23.05905054489057
 33
0.0
  0
POINT
  5
283
330
27D
100
AcDbEntity
  8
Defpoints
 62
     0
100
AcDbPoint
 10
3.902779866127275
 20
23.05905054489057
 30
0.0
  0
POINT
  5
284
330
27D
100
AcDbEntity
  8
Defpoints
 62
     0
100
AcDbPoint
 10
3.800251372130106
 20
23.23077098024604
 30
0.0
  0
ENDBLK
  5
286
330
27D
100
AcDbEntity
  8
0
100
AcDbBlockEnd
  0
BLOCK
  5
2B7
330
2B6
100
AcDbEntity
  8
0
100
AcDbBlockBegin
  2
*D21
 70
     1
 10
0.0
 20
0.0
 30
0.0
  3
*D21
  1
*D21
  0
LINE
  5
2B9
330
2B6
100
AcDbEntity
  8
치수문자_일반주서
 62
     0
370
    -2
100
AcDbLine
 10
12.58096694237081
 20
-4.052370737617528
 30
0.0
 11
24.65600470874024
 21
-24.27631689478931
 31
0.0
  0
MTEXT
  5
2BA
330
2B6
100
AcDbEntity
  8
치수문자_일반주서
 62
     0
100
AcDbMText
 10
24.55488407628325
 20
-18.9864266615055
 30
0.0
 40
3.5
 41
0.0
 71
     5
 72
     1
  1
\A1;R0.2
  7
SLDTEXTSTYLE0
 11
0.5126424699858549
 21
-0.8586021767773488
 31
0.0
 73
     1
 44
1.0
  0
LINE
  5
2BB
330
2B6
100
AcDbEntity
  8
치수문자_일반주서
 62
     0
370
    -2
100
AcDbLine
 10
10.78569301248035
 20
-1.045545914543254
 30
0.0
 11
10.88822150647752
 21
-1.217266349898722
 31
0.0
  0
SOLID
  5
2BC
330
2B6
100
AcDbEntity
  8
치수문자_일반주서
 62
     0
100
AcDbTrace
 10
13.05348434032395
 20
-3.770246498301979
 30
0.0
 11
12.10844954441768
 21
-4.334494976933077
 31
0.0
 12
10.88822150647752
 22
-1.217266349898722
 32
0.0
 13
10.88822150647752
 23
-1.217266349898722
 33
0.0
  0
POINT
  5
2BD
330
2B6
100
AcDbEntity
  8
Defpoints
 62
     0
100
AcDbPoint
 10
10.88822150647752
 20
-1.217266349898722
 30
0.0
  0
POINT
  5
2BE
330
2B6
100
AcDbEntity
  8
Defpoints
 62
     0
100
AcDbPoint
 10
10.78569301248035
 20
-1.045545914543254
 30
0.0
  0
ENDBLK
  5
2B8
330
2B6
100
AcDbEntity
  8
0
100
AcDbBlockEnd
  0
ENDSEC
  0
SECTION
  2
ENTITIES
  0
INSERT
  5
D0
330
1F
100
AcDbEntity
  8
0
  6
Continuous
 62
     7
100
AcDbBlockReference
 66
     1
  2
블럭10
 10
-22.93944368806589
 20
-52.04609937292004
 30
0.0
  0
ATTRIB
  5
D1
330
D0
100
AcDbEntity
  8
FORMAT
 62
     2
100
AcDbText
 10
-42.21802657207924
 20
-49.97073246008785
 30
0.0
 40
4.233333333333333
  1
SEME610250208E [ 2 FLUTE ]
 41
0.75
  7
SLDTEXTSTYLE0
 11
-42.21802657207924
 21
-52.08739912675452
 31
0.0
100
AcDbAttribute
  2
AUTOATTR0
 70
     0
 74
     1
  0
SEQEND
  5
D2
330
D0
100
AcDbEntity
  8
0
  6
Continuous
 62
     7
  0
HATCH
  5
D3
330
1F
100
AcDbEntity
  8
중심선
100
AcDbHatch
 10
0.0
 20
0.0
 30
0.0
210
0.0
220
0.0
230
1.0
  2
SOLID
 70
     1
 71
     0
 91
        1
 92
        0
 93
        4
 72
     1
 10
-17.22453438368504
 20
-35.7989250712761
 11
-20.67080962752232
 21
-35.7989250712761
 72
     1
 10
-20.67080962752232
 20
-35.7989250712761
 11
-22.79903948672635
 21
-38.3352506518487
 72
     1
 10
-22.79903948672635
 20
-38.3352506518487
 11
-19.35273115777591
 21
-38.33521122254621
 72
     1
 10
-19.35273115777591
 20
-38.33521122254621
 11
-17.22453438368504
 21
-35.7989250712761
 97
        0
 75
     0
 76
     1
 98
        1
 10
0.0
 20
0.0
  0
HATCH
  5
D4
330
1F
100
AcDbEntity
  8
중심선
100
AcDbHatch
 10
0.0
 20
0.0
 30
0.0
210
0.0
220
0.0
230
1.0
  2
SOLID
 70
     1
 71
     0
 91
        1
 92
        0
 93
        4
 72
     1
 10
-12.21177039264909
 20
-35.7989250712761
 11
-15.65804563648637
 21
-35.7989250712761
 72
     1
 10
-15.65804563648637
 20
-35.7989250712761
 11
-20.18918364484376
 21
-41.19892507127612
 72
     1
 10
-20.18918364484376
 20
-41.19892507127612
 11
-16.74290840100648
 21
-41.19892507127612
 72
     1
 10
-16.74290840100648
 20
-41.19892507127612
 11
-12.21177039264909
 21
-35.7989250712761
 97
        0
 75
     0
 76
     1
 98
        1
 10
0.0
 20
0.0
  0
HATCH
  5
D5
330
1F
100
AcDbEntity
  8
중심선
100
AcDbHatch
 10
0.0
 20
0.0
 30
0.0
210
0.0
220
0.0
230
1.0
  2
SOLID
 70
     1
 71
     0
 91
        1
 92
        0
 93
        4
 72
     1
 10
-7.199006401613195
 20
-35.79892507127613
 11
-10.64528164545031
 21
-35.7989250712761
 72
     1
 10
-10.64528164545031
 20
-35.7989250712761
 11
-17.69371854733956
 21
-44.19892507127612
 72
     1
 10
-17.69371854733956
 20
-44.19892507127612
 11
-14.24744330350228
 21
-44.19892507127612
 72
     1
 10
-14.24744330350228
 20
-44.19892507127612
 11
-7.199006401613195
 21
-35.79892507127613
 97
        0
 75
     0
 76
     1
 98
        1
 10
0.0
 20
0.0
  0
HATCH
  5
D6
330
1F
100
AcDbEntity
  8
중심선
100
AcDbHatch
 10
0.0
 20
0.0
 30
0.0
210
0.0
220
0.0
230
1.0
  2
SOLID
 70
     1
 71
     0
 91
        1
 92
        0
 93
        6
 72
     3
 10
-2.399115970600996
 20
-39.99892507132738
 11
3.960054785062284
 21
1.540850780301639E-10
 40
0.3939339440162633
 50
17.09539180608433
 51
320.0019657685079
 73
     0
 72
     1
 10
-0.7161163149004002
 20
-38.58681907591441
 11
1.589185558800638
 21
-36.65249236586649
 72
     3
 10
-2.399115970653842
 20
-39.99892507127625
 11
6.600054785286829
 21
-1.249000902703301E-13
 40
0.6363583540795982
 50
39.99873849337408
 51
368.4976242363725
 73
     1
 72
     1
 10
4.026216521246767
 20
-39.03892507120613
 11
-3.71904866381792
 21
-39.0389250712061
 72
     1
 10
-3.71904866381792
 20
-39.0389250712061
 11
-3.719073708263854
 21
-40.95892507120602
 72
     1
 10
-3.719073708263854
 20
-40.95892507120602
 11
0.7223060612081831
 21
-40.95892507120599
 97
        0
 75
     0
 76
     1
 98
        1
 10
0.0
 20
0.0
  0
LINE
  5
1DB
330
1F
100
AcDbEntity
  8
0
  6
Continuous
 62
     4
370
    25
100
AcDbLine
 10
0.0
 20
-2.0
 30
0.0
 11
2.985640646055117
 21
-1.199999999999989
 31
0.0
  0
LINE
  5
1DC
330
1F
100
AcDbEntity
  8
0
  6
Continuous
 62
     4
370
    25
100
AcDbLine
 10
2.985640646055117
 20
1.200000000000017
 30
0.0
 11
0.0
 21
2.0
 31
0.0
  0
LINE
  5
1DD
330
1F
100
AcDbEntity
  8
0
  6
Continuous
 62
     4
370
    25
100
AcDbLine
 10
-38.01435935394488
 20
2.0
 30
0.0
 11
-39.01435935394488
 21
1.0
 31
0.0
  0
LINE
  5
1DE
330
1F
100
AcDbEntity
  8
0
  6
Continuous
 62
     4
370
    25
100
AcDbLine
 10
-39.01435935394488
 20
-1.0
 30
0.0
 11
-38.01435935394488
 21
-2.0
 31
0.0
  0
LINE
  5
1DF
330
1F
100
AcDbEntity
  8
0
  6
Continuous
 62
     4
370
    25
100
AcDbLine
 10
4.915280541677703
 20
1.200000000000017
 30
0.0
 11
4.295256538791818
 21
1.200000000000017
 31
0.0
  0
LINE
  5
1E0
330
1F
100
AcDbEntity
  8
0
  6
Continuous
 62
     4
370
    25
100
AcDbLine
 10
4.295256538791818
 20
-1.199999999999989
 30
0.0
 11
4.91528054167793
 21
-1.199999999999989
 31
0.0
  0
SPLINE
  5
1E1
330
1F
100
AcDbEntity
  8
0
  6
Continuous
 62
     4
370
    25
100
AcDbSpline
210
0.0
220
0.0
230
1.0
 70
     8
 71
     3
 72
    10
 73
     6
 74
     0
 42
0.000000001
 43
0.00000001
 40
0.0
 40
0.0
 40
0.0
 40
0.0
 40
0.395752995086612
 40
0.601048425030928
 40
1.0
 40
1.0
 40
1.0
 40
1.0
 10
5.454521295969244
 20
-1.040175359036027
 30
0.0
 10
5.656547565056826
 20
-1.022475264235396
 30
0.0
 10
5.963374228045041
 20
-0.9955933094936711
 30
0.0
 10
6.473633852841886
 20
-0.9748013466658563
 30
0.0
 10
6.782026007195554
 20
-0.9777502386464221
 30
0.0
 10
6.985640646055117
 20
-0.9796972323269699
 30
0.0
  0
SPLINE
  5
1E2
330
1F
100
AcDbEntity
  8
0
  6
Continuous
 62
     4
370
    25
100
AcDbSpline
210
0.0
220
0.0
230
1.0
 70
     8
 71
     3
 72
    10
 73
     6
 74
     0
 42
0.000000001
 43
0.00000001
 40
0.0
 40
0.0
 40
0.0
 40
0.0
 40
0.6217214447702688
 40
0.9078013444028284
 40
1.0
 40
1.0
 40
1.0
 40
1.0
 10
6.985640646055117
 20
0.9796972323269983
 30
0.0
 10
6.823394698418042
 20
0.9776797572336591
 30
0.0
 10
6.586492641029054
 20
0.9747339579252525
 30
0.0
 10
6.321553810725618
 20
0.9813790790184385
 30
0.0
 10
6.222179798808838
 20
0.9861035179037856
 30
0.0
 10
6.197959154594628
 20
0.987255015676169
 30
0.0
  0
LINE
  5
1E3
330
1F
100
AcDbEntity
  8
0
  6
Continuous
 62
     4
370
    25
100
AcDbLine
 10
0.0
 20
2.0
 30
0.0
 11
0.0
 21
-2.0
 31
0.0
  0
LINE
  5
1E4
330
1F
100
AcDbEntity
  8
0
  6
Continuous
 62
     4
370
    25
100
AcDbLine
 10
-39.01435935394488
 20
1.0
 30
0.0
 11
-39.01435935394488
 21
-1.0
 31
0.0
  0
SPLINE
  5
1E5
330
1F
100
AcDbEntity
  8
0
  6
Continuous
 62
     4
370
    25
100
AcDbSpline
210
0.0
220
0.0
230
1.0
 70
     8
 71
     3
 72
    11
 73
     7
 74
     0
 42
0.000000001
 43
0.00000001
 40
0.0
 40
0.0
 40
0.0
 40
0.0
 40
0.2752104466126208
 40
0.5508521728807279
 40
0.8255256485910576
 40
0.9999999999999999
 40
0.9999999999999999
 40
0.9999999999999999
 40
0.9999999999999999
 10
6.98564064605489
 20
0.692231317977047
 30
0.0
 10
6.795732780817843
 20
0.7737827000381117
 30
0.0
 10
6.415619447546533
 20
0.9370132625501242
 30
0.0
 10
5.845516102739566
 20
1.099932843881646
 30
0.0
 10
5.345700441866256
 20
1.194552116627506
 30
0.0
 10
5.035701584265098
 20
1.188191266409035
 30
0.0
 10
4.915280541677703
 20
1.185720353383829
 30
0.0
  0
SPLINE
  5
1E6
330
1F
100
AcDbEntity
  8
0
  6
Continuous
 62
     4
370
    25
100
AcDbSpline
210
0.0
220
0.0
230
1.0
 70
     8
 71
     3
 72
    22
 73
    18
 74
     0
 42
0.000000001
 43
0.00000001
 40
0.0
 40
0.0
 40
0.0
 40
0.0
 40
0.125
 40
0.125
 40
0.25
 40
0.25
 40
0.375
 40
0.375
 40
0.5
 40
0.5
 40
0.625
 40
0.625
 40
0.75
 40
0.75
 40
0.875
 40
0.875
 40
1.0
 40
1.0
 40
1.0
 40
1.0
 10
6.98564064605489
 20
0.3869867346625711
 30
0.0
 10
6.858090631970754
 20
0.4537390014439779
 30
0.0
 10
6.72932379301119
 20
0.5186799309948071
 30
0.0
 10
6.475314735055463
 20
0.6419547384038538
 30
0.0
 10
6.350755986892864
 20
0.7002218951408565
 30
0.0
 10
6.095572256880359
 20
0.8098562489181802
 30
0.0
 10
5.96681619585911
 20
0.8608948411900599
 30
0.0
 10
5.712932317824652
 20
0.9530964658319192
 30
0.0
 10
5.588317327818686
 20
0.9942653331710574
 30
0.0
 10
5.333053550373052
 20
1.06656552046519
 30
0.0
 10
5.204310150272931
 20
1.097437170110879
 30
0.0
 10
4.950555044468729
 20
1.147260637955014
 30
0.0
 10
4.825874777396848
 20
1.16627339321883
 30
0.0
 10
4.570534610766799
 20
1.192356116834702
 30
0.0
 10
4.441805753948529
 20
1.199272497994457
 30
0.0
 10
4.188183006551981
 20
1.200617884329688
 30
0.0
 10
4.063428430293925
 20
1.195133051664811
 30
0.0
 10
3.935721983342319
 20
1.183460201079328
 30
0.0
  0
SPLINE
  5
1E7
330
1F
100
AcDbEntity
  8
0
  6
Continuous
 62
     4
370
    25
100
AcDbSpline
210
0.0
220
0.0
230
1.0
 70
     8
 71
     3
 72
    11
 73
     7
 74
     0
 42
0.000000001
 43
0.00000001
 40
0.0
 40
0.0
 40
0.0
 40
0.0
 40
0.1552341042363882
 40
0.4068344623718642
 40
0.7033980729484494
 40
1.0
 40
1.0
 40
1.0
 40
1.0
 10
6.195958646314239
 20
-0.9878424341214611
 30
0.0
 10
6.078949597630526
 20
-1.024687725480788
 30
0.0
 10
5.772294602917555
 20
-1.1212511345
 30
0.0
 10
5.242732411381439
 20
-1.199404396369403
 30
0.0
 10
4.606154132700112
 20
-1.212188642953379
 30
0.0
 10
4.159265873773847
 20
-1.123478896459261
 30
0.0
 10
3.935807310580458
 20
-1.079121158038362
 30
0.0
  0
LINE
  5
1E8
330
1F
100
AcDbEntity
  8
0
  6
Continuous
 62
     4
370
    25
100
AcDbLine
 10
3.935721983342319
 20
-1.183460201079299
 30
0.0
 11
4.295256538791818
 21
-1.190393950052055
 31
0.0
  0
LINE
  5
1E9
330
1F
100
AcDbEntity
  8
0
  6
Continuous
 62
     4
370
    25
100
AcDbLine
 10
3.935721983342319
 20
-1.199999999999989
 30
0.0
 11
3.935721983342319
 21
-1.183406774863727
 31
0.0
  0
LINE
  5
1EA
330
1F
100
AcDbEntity
  8
0
  6
Continuous
 62
     4
370
    25
100
AcDbLine
 10
3.935721983342319
 20
-1.079097254572417
 30
0.0
 11
3.935721983342319
 21
1.200000000000017
 31
0.0
  0
SPLINE
  5
1EB
330
1F
100
AcDbEntity
  8
0
  6
Continuous
 62
     4
370
    25
100
AcDbSpline
210
0.0
220
0.0
230
1.0
 70
     8
 71
     3
 72
    22
 73
    18
 74
     0
 42
0.000000001
 43
0.00000001
 40
0.0
 40
0.0
 40
0.0
 40
0.0
 40
0.125
 40
0.125
 40
0.25
 40
0.25
 40
0.375
 40
0.375
 40
0.5
 40
0.5
 40
0.625
 40
0.625
 40
0.75
 40
0.75
 40
0.875
 40
0.875
 40
1.0
 40
1.0
 40
1.0
 40
1.0
 10
6.98564064605489
 20
0.2393117131254314
 30
0.0
 10
6.858091486962167
 20
0.2887715973280365
 30
0.0
 10
6.729325519207805
 20
0.3371369720622681
 30
0.0
 10
6.475318116868038
 20
0.4294539311565302
 30
0.0
 10
6.350760232026005
 20
0.4733516272098939
 30
0.0
 10
6.095578275007483
 20
0.5565079145654295
 30
0.0
 10
5.966823075819548
 20
0.595521676410101
 30
0.0
 10
5.712940754343208
 20
0.666645013380986
 30
0.0
 10
5.588326679094962
 20
0.6987539227807815
 30
0.0
 10
5.333064732054709
 20
0.7559351055663797
 30
0.0
 10
5.204322181531552
 20
0.7808085928226944
 30
0.0
 10
4.95056852773223
 20
0.822016954760187
 30
0.0
 10
4.825889240618153
 20
0.8383928691563938
 30
0.0
 10
4.57055095619603
 20
0.8625741009115018
 30
0.0
 10
4.441822933816638
 20
0.8702549252274139
 30
0.0
 10
4.188201528391119
 20
0.8765014344284339
 30
0.0
 10
4.063448011045693
 20
0.8751288724131712
 30
0.0
 10
3.93574252829103
 20
0.8692320595876311
 30
0.0
  0
SPLINE
  5
1EC
330
1F
100
AcDbEntity
  8
0
  6
Continuous
 62
     4
370
    25
100
AcDbSpline
210
0.0
220
0.0
230
1.0
 70
     8
 71
     3
 72
     9
 73
     5
 74
     0
 42
0.000000001
 43
0.00000001
 40
0.0
 40
0.0
 40
0.0
 40
0.0
 40
0.4211786002252838
 40
1.0
 40
1.0
 40
1.0
 40
1.0
 10
5.458656755212814
 20
-1.022569123033378
 30
0.0
 10
5.24489126493404
 20
-1.043313369567812
 30
0.0
 10
4.737350069431159
 20
-1.092566219839284
 30
0.0
 10
4.229665819037109
 20
-0.9923939282365097
 30
0.0
 10
3.935807310580458
 20
-0.9344120621923651
 30
0.0
  0
SPLINE
  5
1ED
330
1F
100
AcDbEntity
  8
0
  6
Continuous
 62
     4
370
    25
100
AcDbSpline
210
0.0
220
0.0
230
1.0
 70
     8
 71
     3
 72
    22
 73
    18
 74
     0
 42
0.000000001
 43
0.00000001
 40
0.0
 40
0.0
 40
0.0
 40
0.0
 40
0.125
 40
0.125
 40
0.25
 40
0.25
 40
0.375
 40
0.375
 40
0.5
 40
0.5
 40
0.625
 40
0.625
 40
0.75
 40
0.75
 40
0.875
 40
0.875
 40
1.0
 40
1.0
 40
1.0
 40
1.0
 10
6.985640646054662
 20
-0.961872258622833
 30
0.0
 10
6.858091928006615
 20
-0.9457998100894258
 30
0.0
 10
6.729326409660871
 20
-0.9246557592381919
 30
0.0
 10
6.475319861365506
 20
-0.8732440969021127
 30
0.0
 10
6.350762421863692
 20
-0.8430913536270168
 30
0.0
 10
6.095581379438954
 20
-0.7739173748786072
 30
0.0
 10
5.966826624825444
 20
-0.7350053924716633
 30
0.0
 10
5.712945106296957
 20
-0.6503716902877841
 30
0.0
 10
5.588331502917526
 20
-0.6047591273463127
 30
0.0
 10
5.333070500088752
 20
-0.5070398466056929
 30
0.0
 10
5.204328387819487
 20
-0.4551377236513474
 30
0.0
 10
4.950575483038619
 20
-0.3476794513377399
 30
0.0
 10
4.825896701417378
 20
-0.2921997445436659
 30
0.0
 10
4.570559387932462
 20
-0.1779251880996924
 30
0.0
 10
4.441831796000542
 20
-0.1194051428136618
 30
0.0
 10
4.188211082838279
 20
-0.0023174842514493
 30
0.0
 10
4.063458111700811
 20
0.0562243150125425
 30
0.0
 10
3.935753126330155
 20
0.1146267816887985
 30
0.0
  0
CIRCLE
  5
1EE
330
1F
100
AcDbEntity
  8
외형선
100
AcDbCircle
 10
0.0
 20
0.0
 30
0.0
 40
3.000000000000005
  0
DIMENSION
  5
1EF
330
1F
100
AcDbEntity
  8
치수문자_일반주서
100
AcDbDimension
  2
*D14
 10
-50.51081737555705
 20
-2.000000000000047
 30
0.0
 11
-50.51081737555705
 21
0.0
 31
0.0
 70
   160
  1
%%c<>
 71
     2
 42
4.0
 52
-270.0
  3
SLDDIMSTYLE0
100
AcDbAlignedDimension
 13
-38.01435935394488
 23
2.0
 33
0.0
 14
-38.01435935394488
 24
-2.0
 34
0.0
 50
90.0000000000002
100
AcDbRotatedDimension
  0
DIMENSION
  5
1F0
330
1F
100
AcDbEntity
  8
치수문자_일반주서
100
AcDbDimension
  2
*D15
 10
6.985640646055117
 20
19.64999999999966
 30
0.0
 11
19.33964064605516
 21
19.64999999999966
 31
0.0
 70
   160
  1
<>
 71
     2
 42
4.0
  3
SLDDIMSTYLE0
100
AcDbAlignedDimension
 13
10.98564064605512
 23
1.150000000000006
 33
0.0
 14
6.985640646055117
 24
0.9796972627527509
 34
0.0
100
AcDbRotatedDimension
  0
DIMENSION
  5
1F1
330
1F
100
AcDbEntity
  8
치수문자_일반주서
100
AcDbDimension
  2
*D16
 10
-39.01435935394488
 20
41.70832450504432
 30
0.0
 11
-14.01435935394488
 21
41.70832450504432
 31
0.0
 70
   160
  1
<>
 71
     2
 42
50.0
  3
SLDDIMSTYLE1
100
AcDbAlignedDimension
 13
10.98564064605512
 23
1.150000000000006
 33
0.0
 14
-39.01435935394488
 24
1.0
 34
0.0
100
AcDbRotatedDimension
  0
DIMENSION
  5
1F2
330
1F
100
AcDbEntity
  8
치수문자_일반주서
100
AcDbDimension
  2
*D17
 10
2.985640646055117
 20
30.31999999999866
 30
0.0
 11
6.985640646055117
 21
30.31999999999866
 31
0.0
 70
   160
  1
<>
 71
     2
 42
8.000000000000002
  3
SLDDIMSTYLE0
100
AcDbAlignedDimension
 13
10.98564064605512
 23
1.148078312648494
 33
0.0
 14
2.985640646055117
 24
1.200000000000017
 34
0.0
 50
-0.0000000000022354
100
AcDbRotatedDimension
1001
ACAD_DSTYLE_DIMFLIPARROW_SYMBOL
1070
   385
1070
     0
1001
ACAD_DSTYLE_DIMFLIPARROW_WHICH_SYMBOL
1070
   386
1070
     3
  0
DIMENSION
  5
1F3
330
1F
100
AcDbEntity
  8
치수문자_일반주서
100
AcDbDimension
  2
*D18
 10
22.4962285304869
 20
-1.245206306404285
 30
0.0
 11
22.49622853048686
 21
13.9742063064044
 31
0.0
 70
   160
  1
%%c<>
 71
     2
 42
2.498785657410223
 52
-270.0
  3
SLDDIMSTYLE2
100
AcDbAlignedDimension
 13
10.98564064605512
 23
1.253579351005897
 33
0.0
 14
10.88564064605498
 24
-1.245206306404327
 34
0.0
 50
90.0000000000002
100
AcDbRotatedDimension
  0
INSERT
  5
1F4
330
1F
100
AcDbEntity
  8
외형선
100
AcDbBlockReference
  2
SW_DOWELSYMBOL_0
 10
0.0
 20
0.0
 30
0.0
  0
LINE
  5
1F5
330
1F
100
AcDbEntity
  8
0
  6
Continuous
 62
     4
370
    25
100
AcDbLine
 10
-38.01435935394488
 20
2.0
 30
0.0
 11
-38.01435935394488
 21
-2.0
 31
0.0
  0
LINE
  5
1F6
330
1F
100
AcDbEntity
  8
0
  6
Continuous
 62
     4
370
    25
100
AcDbLine
 10
0.0
 20
2.0
 30
0.0
 11
-38.07685935394488
 21
2.0
 31
0.0
  0
LINE
  5
1F7
330
1F
100
AcDbEntity
  8
중심선
100
AcDbLine
 10
-40.51435935394488
 20
0.0
 30
0.0
 11
12.48564064605512
 21
0.0
 31
0.0
  0
LINE
  5
1F8
330
1F
100
AcDbEntity
  8
0
  6
Continuous
 62
     4
370
    25
100
AcDbLine
 10
-38.07685935394488
 20
-2.0
 30
0.0
 11
0.0
 21
-2.0
 31
0.0
  0
LINE
  5
1F9
330
1F
100
AcDbEntity
  8
중심선
100
AcDbLine
 10
-50.51435935394488
 20
0.0
 30
0.0
 11
-50.1774840422238
 21
0.0
 31
0.0
  0
LINE
  5
1FA
330
1F
100
AcDbEntity
  8
0
  6
Continuous
 62
     4
370
    25
100
AcDbLine
 10
2.985640646055117
 20
1.200000000000017
 30
0.0
 11
2.985640646055117
 21
-1.199999999999989
 31
0.0
  0
LINE
  5
1FB
330
1F
100
AcDbEntity
  8
0
  6
Continuous
 62
     4
370
    25
100
AcDbLine
 10
2.985640646055117
 20
-1.199999999999989
 30
0.0
 11
3.935721983342319
 21
-1.199999999999989
 31
0.0
  0
LINE
  5
1FC
330
1F
100
AcDbEntity
  8
0
  6
Continuous
 62
     4
370
    25
100
AcDbLine
 10
3.935721983342319
 20
1.200000000000017
 30
0.0
 11
2.985640646055117
 21
1.200000000000017
 31
0.0
  0
SPLINE
  5
296
330
1F
100
AcDbEntity
  8
0
  6
Continuous
 62
     1
370
    25
100
AcDbSpline
210
0.0
220
0.0
230
1.0
 70
     8
 71
     3
 72
    16
 73
    12
 74
     0
 42
0.000000001
 43
0.00000001
 40
0.0
 40
0.0
 40
0.0
 40
0.0
 40
0.1508609501170305
 40
0.2483595557395655
 40
0.3284227896026152
 40
0.4398516062789565
 40
0.564675720343201
 40
0.6786462013136902
 40
0.7574008534807387
 40
0.8531752607892693
 40
1.0
 40
1.0
 40
1.0
 40
1.0
 10
10.52817660953838
 20
0.8552290429927893
 30
0.0
 10
10.41758841580645
 20
0.8467552144953174
 30
0.0
 10
10.23552914437823
 20
0.8328049094003802
 30
0.0
 10
9.995977403363895
 20
0.8243761656208051
 30
0.0
 10
9.784944563598856
 20
0.8213705403985045
 30
0.0
 10
9.553995508036905
 20
0.8238109704979308
 30
0.0
 10
9.298923884841543
 20
0.8344018586368236
 30
0.0
 10
9.066979736219082
 20
0.8507904370790413
 30
0.0
 10
8.85627408582377
 20
0.8706570780022105
 30
0.0
 10
8.622435203331634
 20
0.8975452223407387
 30
0.0
 10
8.44494019123431
 20
0.9238883969591996
 30
0.0
 10
8.337517476701805
 20
0.9398316918917544
 30
0.0
  0
SPLINE
  5
297
330
1F
100
AcDbEntity
  8
0
  6
Continuous
 62
     1
370
    25
100
AcDbSpline
210
0.0
220
0.0
230
1.0
 70
     8
 71
     3
 72
    11
 73
     7
 74
     0
 42
0.000000001
 43
0.00000001
 40
0.0
 40
0.0
 40
0.0
 40
0.0
 40
0.3479646837603573
 40
0.5724944803669476
 40
0.7628122130462922
 40
0.9999999999999999
 40
0.9999999999999999
 40
0.9999999999999999
 40
0.9999999999999999
 10
8.337517476701805
 20
-0.9405109081695002
 30
0.0
 10
8.446535073413315
 20
-0.9243277023872736
 30
0.0
 10
8.625898024002936
 20
-0.897702023353304
 30
0.0
 10
8.863594075317451
 20
-0.8706272933898163
 30
0.0
 10
9.06757174970926
 20
-0.8512267616672204
 30
0.0
 10
9.201198323753488
 20
-0.8428111796500559
 30
0.0
 10
9.27533676155167
 20
-0.8381420626845397
 30
0.0
  0
SPLINE
  5
298
330
1F
100
AcDbEntity
  8
0
  6
Continuous
 62
     1
370
    25
100
AcDbSpline
210
0.0
220
0.0
230
1.0
 70
     8
 71
     3
 72
    11
 73
     7
 74
     0
 42
0.000000001
 43
0.00000001
 40
0.0
 40
0.0
 40
0.0
 40
0.0
 40
0.2708200417755412
 40
0.5419812790130001
 40
0.8133152955561709
 40
1.0
 40
1.0
 40
1.0
 40
1.0
 10
10.9856930124804
 20
-0.9865549385991415
 30
0.0
 10
10.69228186693863
 20
-0.9168948809677602
 30
0.0
 10
10.10508991875463
 20
-0.7774870037528956
 30
0.0
 10
9.223701776413918
 20
-0.3999678038097443
 30
0.0
 10
8.433425803722912
 20
-0.0076476231417359
 30
0.0
 10
7.937040547599054
 20
0.2256762287912295
 30
0.0
 10
7.734717955566111
 20
0.3207771326231637
 30
0.0
  0
SPLINE
  5
299
330
1F
100
AcDbEntity
  8
0
  6
Continuous
 62
     1
370
    25
100
AcDbSpline
210
0.0
220
0.0
230
1.0
 70
     8
 71
     3
 72
    22
 73
    18
 74
     0
 42
0.000000001
 43
0.00000001
 40
0.0
 40
0.0
 40
0.0
 40
0.0
 40
0.125
 40
0.125
 40
0.25
 40
0.25
 40
0.375
 40
0.375
 40
0.5
 40
0.5
 40
0.625
 40
0.625
 40
0.75
 40
0.75
 40
0.875
 40
0.875
 40
1.0
 40
1.0
 40
1.0
 40
1.0
 10
10.88569301248026
 20
-1.166909288748172
 30
0.0
 10
10.72395398513322
 20
-1.133260563562828
 30
0.0
 10
10.5586865902751
 20
-1.08941899262831
 30
0.0
 10
10.23352476001401
 20
-0.9845525160856425
 30
0.0
 10
10.07380067493887
 20
-0.9237054553746873
 30
0.0
 10
9.746487103291201
 20
-0.7864660351563941
 30
0.0
 10
9.583821057690784
 20
-0.7106994800775226
 30
0.0
 10
9.261873270912702
 20
-0.5491035850836568
 30
0.0
 10
9.096759173279452
 20
-0.4622673300331996
 30
0.0
 10
8.770642922212346
 20
-0.2829370656233721
 30
0.0
 10
8.611404947623896
 20
-0.190838184237208
 30
0.0
 10
8.284514734555387
 20
-0.0034000024757859
 30
0.0
 10
8.119841989557699
 20
0.0913692244934623
 30
0.0
 10
7.799663162965999
 20
0.2760447899321719
 30
0.0
 10
7.634832238131139
 20
0.3677254692776444
 30
0.0
 10
7.308010843617467
 20
0.5427835804617871
 30
0.0
 10
7.148800809196928
 20
0.6257245099065756
 30
0.0
 10
6.985693012480397
 20
0.7033615502741952
 30
0.0
  0
SPLINE
  5
29A
330
1F
100
AcDbEntity
  8
0
  6
Continuous
 62
     1
370
    25
100
AcDbSpline
210
0.0
220
0.0
230
1.0
 70
     8
 71
     3
 72
    22
 73
    18
 74
     0
 42
0.000000001
 43
0.00000001
 40
0.0
 40
0.0
 40
0.0
 40
0.0
 40
0.125
 40
0.125
 40
0.25
 40
0.25
 40
0.375
 40
0.375
 40
0.5
 40
0.5
 40
0.625
 40
0.625
 40
0.75
 40
0.75
 40
0.875
 40
0.875
 40
1.0
 40
1.0
 40
1.0
 40
1.0
 10
10.83121927956813
 20
-1.240295392090815
 30
0.0
 10
10.72395398513322
 20
-1.237350038785053
 30
0.0
 10
10.5586865902751
 20
-1.21847267774038
 30
0.0
 10
10.23352476001401
 20
-1.160669314732473
 30
0.0
 10
10.07380067493887
 20
-1.121933706412875
 30
0.0
 10
9.746487103291201
 20
-1.025552000831311
 30
0.0
 10
9.583821057690557
 20
-0.9683047102137152
 30
0.0
 10
9.261873270912702
 20
-0.839012618747006
 30
0.0
 10
9.096759173279452
 20
-0.7661369213485614
 30
0.0
 10
8.770642922212346
 20
-0.6092324724523053
 30
0.0
 10
8.611404947623896
 20
-0.5256085568785522
 30
0.0
 10
8.284514734555387
 20
-0.3494806908622081
 30
0.0
 10
8.119841989557699
 20
-0.2574573528951021
 30
0.0
 10
7.799663162965999
 20
-0.0723721974102318
 30
0.0
 10
7.634832238131139
 20
0.0224693061946937
 30
0.0
 10
7.308010843617467
 20
0.209641862720531
 30
0.0
 10
7.148800809196928
 20
0.301445452242092
 30
0.0
 10
6.985693012480397
 20
0.3906680200143171
 30
0.0
  0
SPLINE
  5
29B
330
1F
100
AcDbEntity
  8
0
  6
Continuous
 62
     1
370
    25
100
AcDbSpline
210
0.0
220
0.0
230
1.0
 70
     8
 71
     3
 72
    12
 73
     8
 74
     0
 42
0.000000001
 43
0.00000001
 40
0.0
 40
0.0
 40
0.0
 40
0.0
 40
0.2409944158333813
 40
0.482296715383111
 40
0.723754915869486
 40
0.9652144611134214
 40
1.0
 40
1.0
 40
1.0
 40
1.0
 10
10.9856930124804
 20
-0.0003396081388871
 30
0.0
 10
10.69228212458597
 20
0.1351916873708205
 30
0.0
 10
10.10508550013424
 20
0.4064274271281363
 30
0.0
 10
9.223640078226026
 20
0.748431208701021
 30
0.0
 10
8.341828843808116
 20
0.9606893617919923
 30
0.0
 10
7.710771452106655
 20
1.020188149939145
 30
0.0
 10
7.37485242453954
 20
0.9918051928000011
 30
0.0
 10
7.332552578976674
 20
0.988231132966888
 30
0.0
  0
SPLINE
  5
29C
330
1F
100
AcDbEntity
  8
0
  6
Continuous
 62
     1
370
    25
100
AcDbSpline
210
0.0
220
0.0
230
1.0
 70
    24
 71
     3
 72
    10
 73
     6
 74
     0
 42
0.000000001
 43
0.00000001
 40
0.0
 40
0.0
 40
0.0
 40
0.0
 40
0.5
 40
0.5
 40
1.0
 40
1.0
 40
1.0
 40
1.0
 10
10.9856930124804
 20
-0.9865549385991415
 30
0.0
 10
10.9856930124804
 20
-0.879830317100101
 30
0.0
 10
10.9856930124804
 20
-0.7324972101278036
 30
0.0
 10
10.9856930124804
 20
-0.3877660826589988
 30
0.0
 10
10.9856930124804
 20
-0.1918519196999569
 30
0.0
 10
10.9856930124804
 20
-0.0003396081388871
 30
0.0
  0
LINE
  5
29D
330
1F
100
AcDbEntity
  8
0
  6
Continuous
 62
     1
370
    25
100
AcDbLine
 10
10.9856930124804
 20
0.8746603918611413
 30
0.0
 11
10.52380992737676
 21
0.8371725639780152
 31
0.0
  0
SPLINE
  5
29E
330
1F
100
AcDbEntity
  8
0
  6
Continuous
 62
     1
370
    25
100
AcDbSpline
210
0.0
220
0.0
230
1.0
 70
    24
 71
     3
 72
    10
 73
     6
 74
     0
 42
0.000000001
 43
0.00000001
 40
0.0
 40
0.0
 40
0.0
 40
0.0
 40
0.5
 40
0.5
 40
1.0
 40
1.0
 40
1.0
 40
1.0
 10
10.9856930124804
 20
-0.0003396081388871
 30
0.0
 10
10.9856930124804
 20
0.2078712711146125
 30
0.0
 10
10.9856930124804
 20
0.4104624412189253
 30
0.0
 10
10.9856930124804
 20
0.7214878956615678
 30
0.0
 10
10.9856930124804
 20
0.8275123279520926
 30
0.0
 10
10.9856930124804
 20
0.8746603918611413
 30
0.0
  0
ARC
  5
29F
330
1F
100
AcDbEntity
  8
0
  6
Continuous
 62
     1
370
    25
100
AcDbCircle
 10
10.78569301248035
 20
1.04486669826548
 30
0.0
 40
0.1999999999999999
100
AcDbArc
 50
359.9999936840718
 51
76.84234143833774
  0
SPLINE
  5
2A0
330
1F
100
AcDbEntity
  8
0
  6
Continuous
 62
     1
370
    25
100
AcDbSpline
210
0.0
220
0.0
230
1.0
 70
    24
 71
     3
 72
     8
 73
     4
 74
     0
 42
0.000000001
 43
0.00000001
 40
0.9901170314567325
 40
0.9901170314567325
 40
0.9901170314567325
 40
0.9901170314567325
 40
1.0
 40
1.0
 40
1.0
 40
1.0
 10
10.9856930124804
 20
1.144866698265474
 30
0.0
 10
10.9856930124804
 20
1.145824115663686
 30
0.0
 10
10.9856930124804
 20
1.146781457648245
 30
0.0
 10
10.9856930124804
 20
1.147738704509607
 30
0.0
  0
SPLINE
  5
2A1
330
1F
100
AcDbEntity
  8
0
  6
Continuous
 62
     1
370
    25
100
AcDbSpline
210
0.0
220
0.0
230
1.0
 70
     8
 71
     3
 72
    10
 73
     6
 74
     0
 42
0.000000001
 43
0.00000001
 40
0.0
 40
0.0
 40
0.0
 40
0.0
 40
0.2888658799321777
 40
0.6439273153134707
 40
0.9662037388359638
 40
0.9662037388359638
 40
0.9662037388359638
 40
0.9662037388359638
 10
9.274819324700047
 20
0.8372598704197003
 30
0.0
 10
9.429849848480444
 20
0.9013843014295162
 30
0.0
 10
9.775437181234565
 20
1.044327707261459
 30
0.0
 10
10.29416381625583
 20
1.184836018972106
 30
0.0
 10
10.65806837103742
 20
1.222835876082286
 30
0.0
 10
10.83121927956859
 20
1.239616175813097
 30
0.0
  0
ARC
  5
2A2
102
{ACAD_REACTORS
102
}
330
1F
100
AcDbEntity
  8
0
  6
Continuous
 62
     1
370
    25
100
AcDbCircle
 10
10.78569301248035
 20
-1.045545914543254
 30
0.0
 40
0.1999999999999999
100
AcDbArc
 50
283.1576585616623
 51
0.0000063159281842
  0
SPLINE
  5
2A3
330
1F
100
AcDbEntity
  8
0
  6
Continuous
 62
     1
370
    25
100
AcDbSpline
210
0.0
220
0.0
230
1.0
 70
    24
 71
     3
 72
     8
 73
     4
 74
     0
 42
0.000000001
 43
0.00000001
 40
0.0
 40
0.0
 40
0.0
 40
0.0
 40
0.6440758996574779
 40
0.6440758996574779
 40
0.6440758996574779
 40
0.6440758996574779
 10
10.9856930124804
 20
0.8746603918611413
 30
0.0
 10
10.9856930124804
 20
0.9251481841034206
 30
0.0
 10
10.9856930124804
 20
0.9837020753085994
 30
0.0
 10
10.9856930124804
 20
1.044866676218732
 30
0.0
  0
LINE
  5
2A4
330
1F
100
AcDbEntity
  8
0
  6
Continuous
 62
     1
370
    25
100
AcDbLine
 10
10.9856930124804
 20
-1.14554591454322
 30
0.0
 11
10.9856930124804
 21
-1.14841792078758
 31
0.0
  0
SPLINE
  5
2A5
330
1F
100
AcDbEntity
  8
0
  6
Continuous
 62
     1
370
    25
100
AcDbSpline
210
0.0
220
0.0
230
1.0
 70
     8
 71
     3
 72
    17
 73
    13
 74
     0
 42
0.000000001
 43
0.00000001
 40
0.0000788883373437
 40
0.0000788883373437
 40
0.0000788883373437
 40
0.0000788883373437
 40
0.0000915902257372
 40
0.0000915902257372
 40
0.0000915902257372
 40
0.0001195436267018
 40
0.0001195436267018
 40
0.0001195436267018
 40
0.000149787857045
 40
0.000149787857045
 40
0.000149787857045
 40
0.0001633756503055
 40
0.0001633756503055
 40
0.0001633756503055
 40
0.0001633756503055
 10
10.95701841539039
 20
-1.148733153665631
 30
0.0
 10
10.95404805635462
 20
-1.151431239651572
 30
0.0
 10
10.95090402959067
 20
-1.153879226949357
 30
0.0
 10
10.94764116690612
 20
-1.156032793488009
 30
0.0
 10
10.94044302207772
 20
-1.160783739311114
 30
0.0
 10
10.93249698899558
 20
-1.164238195814875
 30
0.0
 10
10.92441857518384
 20
-1.166313041148129
 30
0.0
 10
10.91567382614994
 20
-1.168559026826358
 30
0.0
 10
10.90657806177319
 20
-1.169258606681069
 30
0.0
 10
10.89769083967099
 20
-1.168602745935118
 30
0.0
 10
10.89366519332521
 20
-1.168305660593376
 30
0.0
 10
10.88965372690723
 20
-1.167733288950785
 30
0.0
 10
10.88569301248049
 20
-1.166909288748315
 30
0.0
  0
SPLINE
  5
2A6
330
1F
100
AcDbEntity
  8
0
  6
Continuous
 62
     1
370
    25
100
AcDbSpline
210
0.0
220
0.0
230
1.0
 70
    24
 71
     3
 72
     8
 73
     4
 74
     0
 42
0.000000001
 43
0.00000001
 40
0.3609094623881154
 40
0.3609094623881154
 40
0.3609094623881154
 40
0.3609094623881154
 40
1.0
 40
1.0
 40
1.0
 40
1.0
 10
10.9856930124804
 20
-1.045545892495682
 30
0.0
 10
10.9856930124804
 20
-1.025837860205087
 30
0.0
 10
10.9856930124804
 20
-1.006163272478346
 30
0.0
 10
10.9856930124804
 20
-0.9865549385991415
 30
0.0
  0
DIMENSION
  5
2A7
102
{ACAD_REACTORS
102
}
102
{ACAD_XDICTIONARY
360
2A8
102
}
330
1F
100
AcDbEntity
  8
치수문자_일반주서
100
AcDbDimension
  2
*D21
 10
10.78569301248035
 20
-1.045545914543254
 30
0.0
 11
22.30105336224272
 21
-20.33211314521837
 31
0.0
 70
   164
  1
<>
 71
     5
 42
0.1999999999999977
  3
SLDDIMSTYLE2
100
AcDbRadialDimension
 15
10.88822150647752
 25
-1.217266349898722
 35
0.0
 40
0.0
1001
ACAD_DSTYLE_DIMRADIAL_EXTENSION
1070
   387
1070
     1
1070
   388
1040
4.942033444138698
1070
   390
1040
0.0000001102336722
1001
ACAD
1000
DSTYLE
1002
{
1070
    78
1070
     8
1002
}
  0
LINE
  5
2AA
330
1F
100
AcDbEntity
  8
0
  6
Continuous
 62
     1
370
    25
100
AcDbLine
 10
7.74812161771365
 20
0.3198660094489298
 30
0.0
 11
7.399457123934781
 21
0.493584495502688
 31
0.0
  0
SPLINE
  5
2AB
330
1F
100
AcDbEntity
  8
0
  6
Continuous
 62
     1
370
    25
100
AcDbSpline
210
0.0
220
0.0
230
1.0
 70
     8
 71
     3
 72
     9
 73
     5
 74
     0
 42
0.000000001
 43
0.00000001
 40
0.0
 40
0.0
 40
0.0
 40
0.0
 40
0.7904451447900543
 40
0.9999999999999999
 40
0.9999999999999999
 40
0.9999999999999999
 40
0.9999999999999999
 10
7.332847729464447
 20
0.9929340292182189
 30
0.0
 10
7.241322155668286
 20
0.9883676920980236
 30
0.0
 10
7.125532243617727
 20
0.982590773673877
 30
0.0
 10
7.009876804792384
 20
0.9801985371131252
 30
0.0
 10
6.985640646055117
 20
0.9796972323269983
 30
0.0
  0
SPLINE
  5
2AC
330
1F
100
AcDbEntity
  8
0
  6
Continuous
 62
     1
370
    25
100
AcDbSpline
210
0.0
220
0.0
230
1.0
 70
     8
 71
     3
 72
     9
 73
     5
 74
     0
 42
0.000000001
 43
0.00000001
 40
0.0
 40
0.0
 40
0.0
 40
0.0
 40
0.2218543792615698
 40
1.0
 40
1.0
 40
1.0
 40
1.0
 10
6.985441640350246
 20
-0.9803751543172154
 30
0.0
 10
7.01111496726071
 20
-0.9809135430999731
 30
0.0
 10
7.126836491423774
 20
-0.9833403096327515
 30
0.0
 10
7.242693840584479
 20
-0.989117640658634
 30
0.0
 10
7.332847729464447
 20
-0.9936132454959647
 30
0.0
  0
SPLINE
  5
2AD
330
1F
100
AcDbEntity
  8
0
  6
Continuous
 62
     4
370
    25
100
AcDbSpline
210
0.0
220
0.0
230
1.0
 70
    24
 71
     3
 72
     8
 73
     4
 74
     0
 42
0.000000001
 43
0.00000001
 40
0.0
 40
0.0
 40
0.0
 40
0.0
 40
1.0
 40
1.0
 40
1.0
 40
1.0
 10
6.985693012480169
 20
0.3866471265236271
 30
0.0
 10
6.985693012480169
 20
0.3719974044622347
 30
0.0
 10
6.985693012480169
 20
0.3152674721030451
 30
0.0
 10
6.985693012480169
 20
0.2389721049865159
 30
0.0
  0
SPLINE
  5
2AE
330
1F
100
AcDbEntity
  8
0
  6
Continuous
 62
     4
370
    25
100
AcDbSpline
210
0.0
220
0.0
230
1.0
 70
    24
 71
     3
 72
    10
 73
     6
 74
     0
 42
0.000000001
 43
0.00000001
 40
0.0
 40
0.0
 40
0.0
 40
0.0
 40
0.5
 40
0.5
 40
1.0
 40
1.0
 40
1.0
 40
1.0
 10
6.985693012480397
 20
0.2389721049864875
 30
0.0
 10
6.985693012480397
 20
0.0179430216958849
 30
0.0
 10
6.985693012480397
 20
-0.2213195721681416
 30
0.0
 10
6.985693012480397
 20
-0.6482896186620906
 30
0.0
 10
6.985693012480397
 20
-0.832688870544473
 30
0.0
 10
6.985693012480397
 20
-0.9622118667617485
 30
0.0
  0
SPLINE
  5
2AF
330
1F
100
AcDbEntity
  8
0
  6
Continuous
 62
     4
370
    25
100
AcDbSpline
210
0.0
220
0.0
230
1.0
 70
    24
 71
     3
 72
    12
 73
     8
 74
     0
 42
0.000000001
 43
0.00000001
 40
0.0
 40
0.0
 40
0.0
 40
0.0
 40
0.1068995878542636
 40
0.3663070480061807
 40
0.6332373420760127
 40
0.8656586185016956
 40
1.0
 40
1.0
 40
1.0
 40
1.0
 10
6.985693012480397
 20
0.971774165124117
 30
0.0
 10
6.985693012480397
 20
0.9740463354357018
 30
0.0
 10
6.985693012480397
 20
0.98183225880652
 30
0.0
 10
6.985693012480397
 20
0.9454458528788052
 30
0.0
 10
6.985693012480397
 20
0.8767302363892213
 30
0.0
 10
6.985693012480397
 20
0.7929553845043813
 30
0.0
 10
6.985693012480397
 20
0.7273808327331608
 30
0.0
 10
6.985693012480397
 20
0.7033615502741952
 30
0.0
  0
SPLINE
  5
2B0
330
1F
100
AcDbEntity
  8
0
  6
Continuous
 62
     1
370
    25
100
AcDbSpline
210
0.0
220
0.0
230
1.0
 70
     8
 71
     3
 72
     9
 73
     5
 74
     0
 42
0.000000001
 43
0.00000001
 40
0.0
 40
0.0
 40
0.0
 40
0.0
 40
0.4695273762041745
 40
0.9999999999999999
 40
0.9999999999999999
 40
0.9999999999999999
 40
0.9999999999999999
 10
7.879272868589396
 20
-0.1165288109588687
 30
0.0
 10
7.739297820933189
 20
-0.0610443091657089
 30
0.0
 10
7.441178787304352
 20
0.0571266529658772
 30
0.0
 10
7.14356759992188
 20
0.175943186625716
 30
0.0
 10
6.985693012480169
 20
0.2389721049865727
 30
0.0
  0
SPLINE
  5
2B1
330
1F
100
AcDbEntity
  8
0
  6
Continuous
 62
     4
370
    25
100
AcDbSpline
210
0.0
220
0.0
230
1.0
 70
    24
 71
     3
 72
    10
 73
     6
 74
     0
 42
0.000000001
 43
0.00000001
 40
0.0
 40
0.0
 40
0.0
 40
0.0
 40
0.5
 40
0.5
 40
1.0
 40
1.0
 40
1.0
 40
1.0
 10
6.985693012480169
 20
0.390668020014374
 30
0.0
 10
6.985693012480169
 20
0.3889538686016749
 30
0.0
 10
6.985693012480169
 20
0.374188898180364
 30
0.0
 10
6.985693012480169
 20
0.3210637645792644
 30
0.0
 10
6.985693012480169
 20
0.2829338488351709
 30
0.0
 10
6.985693012480169
 20
0.2389721049865159
 30
0.0
  0
LINE
  5
2B2
330
1F
100
AcDbEntity
  8
0
  6
Continuous
 62
     4
370
    25
100
AcDbLine
 10
6.985693012480397
 20
0.3906680200143171
 30
0.0
 11
6.985693012480397
 21
0.7033615502741952
 31
0.0
  0
SPLINE
  5
2B3
330
1F
100
AcDbEntity
  8
0
  6
Continuous
 62
     4
370
    25
100
AcDbSpline
210
0.0
220
0.0
230
1.0
 70
    24
 71
     3
 72
    12
 73
     8
 74
     0
 42
0.000000001
 43
0.00000001
 40
0.0
 40
0.0
 40
0.0
 40
0.0
 40
0.1075443694340667
 40
0.3667645481227833
 40
0.6335021295542947
 40
0.8657556074259136
 40
1.0
 40
1.0
 40
1.0
 40
1.0
 10
6.985693012480397
 20
0.9771468605424047
 30
0.0
 10
6.985693012480397
 20
0.9773460452081792
 30
0.0
 10
6.985693012480397
 20
0.9780253357589004
 30
0.0
 10
6.985693012480397
 20
0.9468670702691213
 30
0.0
 10
6.985693012480397
 20
0.8763949973587444
 30
0.0
 10
6.985693012480397
 20
0.7929968092208242
 30
0.0
 10
6.985693012480397
 20
0.7273919383184193
 30
0.0
 10
6.985693012480397
 20
0.7033615502741952
 30
0.0
  0
SPLINE
  5
2B4
330
1F
100
AcDbEntity
  8
0
  6
Continuous
 62
     1
370
    25
100
AcDbSpline
210
0.0
220
0.0
230
1.0
 70
     8
 71
     3
 72
     9
 73
     5
 74
     0
 42
0.000000001
 43
0.00000001
 40
0.0
 40
0.0
 40
0.0
 40
0.0
 40
0.6492550303629355
 40
1.0
 40
1.0
 40
1.0
 40
1.0
 10
8.337701610063277
 20
-0.9401239160598038
 30
0.0
 10
8.044820864203757
 20
-0.973282993441444
 30
0.0
 10
7.593718089234244
 20
-1.024355493200289
 30
0.0
 10
7.143577544259642
 20
-0.9783485652934871
 30
0.0
 10
6.985693012479942
 20
-0.9622118667617201
 30
0.0
  0
SPLINE
  5
2B5
330
1F
100
AcDbEntity
  8
0
  6
Continuous
 62
     4
370
    25
100
AcDbSpline
210
0.0
220
0.0
230
1.0
 70
    24
 71
     3
 72
    10
 73
     6
 74
     0
 42
0.000000001
 43
0.00000001
 40
0.0
 40
0.0
 40
0.0
 40
0.0
 40
0.5
 40
0.5
 40
1.0
 40
1.0
 40
1.0
 40
1.0
 10
6.985693012480397
 20
0.238972104986459
 30
0.0
 10
6.985693012480397
 20
0.0179430216958849
 30
0.0
 10
6.985693012480397
 20
-0.2213195721681416
 30
0.0
 10
6.985693012480397
 20
-0.648289618662119
 30
0.0
 10
6.985693012480397
 20
-0.832688870544473
 30
0.0
 10
6.985693012480397
 20
-0.9622118667617485
 30
0.0
  0
ENDSEC
  0
SECTION
  2
OBJECTS
  0
DICTIONARY
  5
C
330
0
100
AcDbDictionary
281
     1
  3
ACAD_GROUP
350
D
  3
ACAD_IMAGE_VARS
350
140
  3
ACAD_LAYOUT
350
1A
  3
ACAD_MLINESTYLE
350
17
  3
ACAD_PLOTSETTINGS
350
19
  3
ACAD_PLOTSTYLENAME
350
E
  3
ACAD_SCALELIST
350
47
  3
APPDATA
350
13E
  3
DWGPROPS
350
2BF
  0
DICTIONARY
  5
2A8
330
2A7
100
AcDbDictionary
280
     1
281
     1
  0
DICTIONARY
  5
D
102
{ACAD_REACTORS
330
C
102
}
330
C
100
AcDbDictionary
281
     1
  0
RASTERVARIABLES
  5
140
102
{ACAD_REACTORS
330
C
102
}
330
C
100
AcDbRasterVariables
 90
        0
 70
     1
 71
     1
 72
     1
  0
DICTIONARY
  5
1A
102
{ACAD_REACTORS
330
C
102
}
330
C
100
AcDbDictionary
281
     1
  3
Layout1
350
1E
  3
Layout2
350
26
  3
Model
350
22
  0
DICTIONARY
  5
17
102
{ACAD_REACTORS
330
C
102
}
330
C
100
AcDbDictionary
281
     1
  3
Standard
350
18
  0
DICTIONARY
  5
19
102
{ACAD_REACTORS
330
C
102
}
330
C
100
AcDbDictionary
281
     1
  0
ACDBDICTIONARYWDFLT
  5
E
102
{ACAD_REACTORS
330
C
102
}
330
C
100
AcDbDictionary
281
     1
  3
Normal
350
F
100
AcDbDictionaryWithDefault
340
F
  0
DICTIONARY
  5
47
102
{ACAD_REACTORS
330
C
102
}
330
C
100
AcDbDictionary
281
     1
  3
A0
350
48
  3
A1
350
49
  3
A2
350
4A
  3
A3
350
4B
  3
A4
350
4C
  3
A5
350
4D
  3
A6
350
4E
  3
A7
350
4F
  3
A8
350
50
  3
A9
350
51
  3
B0
350
52
  3
B1
350
53
  3
B2
350
54
  3
B3
350
55
  3
B4
350
56
  3
B5
350
57
  3
B6
350
58
  3
B7
350
59
  3
B8
350
5A
  3
B9
350
5B
  3
C0
350
5C
  3
C1
350
5D
  3
C2
350
5E
  3
C3
350
5F
  3
C4
350
60
  3
C5
350
61
  3
C6
350
62
  3
C7
350
63
  3
C8
350
64
  3
C9
350
65
  3
D0
350
66
  3
D1
350
67
  3
D2
350
68
  0
DICTIONARY
  5
13E
102
{ACAD_REACTORS
330
C
102
}
330
C
100
AcDbDictionary
281
     1
  0
XRECORD
  5
2BF
102
{ACAD_REACTORS
330
C
102
}
330
C
100
AcDbXrecord
280
     1
  1
DWGPROPS COOKIE
  2

  3

  4

  6

  7

  8
12016016
  9

300
=
301
=
302
=
303
=
304
=
305
=
306
=
307
=
308
=
309
=
 40
0.0
 41
2458263.402893472
 42
2458269.035964908
  1

 90
        0
  0
LAYOUT
  5
1E
102
{ACAD_REACTORS
330
1A
102
}
330
1A
100
AcDbPlotSettings
  1

  2
none_device
  4

  6

 40
0.0
 41
0.0
 42
0.0
 43
0.0
 44
0.0
 45
0.0
 46
0.0
 47
0.0
 48
0.0
 49
0.0
140
0.0
141
0.0
142
1.0
143
1.0
 70
   688
 72
     1
 73
     0
 74
     5
  7

 75
    16
147
1.0
148
0.0
149
0.0
100
AcDbLayout
  1
Layout1
 70
     1
 71
     1
 10
0.0
 20
0.0
 11
420.0
 21
297.0
 12
0.0
 22
0.0
 32
0.0
 14
1.000000000000000E+20
 24
1.000000000000000E+20
 34
1.000000000000000E+20
 15
-1.000000000000000E+20
 25
-1.000000000000000E+20
 35
-1.000000000000000E+20
146
0.0
 13
0.0
 23
0.0
 33
0.0
 16
1.0
 26
0.0
 36
0.0
 17
0.0
 27
1.0
 37
0.0
 76
     0
330
1B
  0
LAYOUT
  5
26
102
{ACAD_REACTORS
330
1A
102
}
330
1A
100
AcDbPlotSettings
  1

  2
none_device
  4

  6

 40
0.0
 41
0.0
 42
0.0
 43
0.0
 44
0.0
 45
0.0
 46
0.0
 47
0.0
 48
0.0
 49
0.0
140
0.0
141
0.0
142
1.0
143
1.0
 70
   688
 72
     1
 73
     0
 74
     5
  7

 75
    16
147
1.0
148
0.0
149
0.0
100
AcDbLayout
  1
Layout2
 70
     1
 71
     2
 10
0.0
 20
0.0
 11
0.0
 21
0.0
 12
0.0
 22
0.0
 32
0.0
 14
0.0
 24
0.0
 34
0.0
 15
0.0
 25
0.0
 35
0.0
146
0.0
 13
0.0
 23
0.0
 33
0.0
 16
1.0
 26
0.0
 36
0.0
 17
0.0
 27
1.0
 37
0.0
 76
     0
330
23
  0
LAYOUT
  5
22
102
{ACAD_REACTORS
330
1A
102
}
330
1A
100
AcDbPlotSettings
  1

  2
none_device
  4
ANSI_A_(11.00_x_8.50_Inches)
  6

 40
6.35
 41
19.05
 42
6.35000508
 43
19.05000254
 44
279.4
 45
215.9
 46
124.6752970302759
 47
93.96957089767207
 48
0.0
 49
0.0
140
0.0
141
0.0
142
0.086899648662353
143
1.0
 70
  1696
 72
     0
 73
     0
 74
     0
  7

 75
     0
147
0.0235690232323232
148
0.0
149
0.0
100
AcDbLayout
  1
Model
 70
     1
 71
     0
 10
0.0
 20
0.0
 11
420.0
 21
297.0
 12
0.0
 22
0.0
 32
0.0
 14
1.000000000000000E+20
 24
1.000000000000000E+20
 34
1.000000000000000E+20
 15
-1.000000000000000E+20
 25
-1.000000000000000E+20
 35
-1.000000000000000E+20
146
0.0
 13
0.0
 23
0.0
 33
0.0
 16
1.0
 26
0.0
 36
0.0
 17
0.0
 27
1.0
 37
0.0
 76
     0
330
1F
331
29
  0
MLINESTYLE
  5
18
102
{ACAD_REACTORS
330
17
102
}
330
17
100
AcDbMlineStyle
  2
Standard
 70
     0
  3

 62
   256
 51
90.0
 52
90.0
 71
     2
 49
0.5
 62
   256
  6
BYLAYER
 49
-0.5
 62
   256
  6
BYLAYER
  0
ACDBPLACEHOLDER
  5
F
102
{ACAD_REACTORS
330
E
102
}
330
E
  0
SCALE
  5
48
102
{ACAD_REACTORS
330
47
102
}
330
47
100
AcDbScale
 70
     0
300
1:1
140
1.0
141
1.0
290
     1
  0
SCALE
  5
49
102
{ACAD_REACTORS
330
47
102
}
330
47
100
AcDbScale
 70
     0
300
1:2
140
1.0
141
2.0
290
     0
  0
SCALE
  5
4A
102
{ACAD_REACTORS
330
47
102
}
330
47
100
AcDbScale
 70
     0
300
1:4
140
1.0
141
4.0
290
     0
  0
SCALE
  5
4B
102
{ACAD_REACTORS
330
47
102
}
330
47
100
AcDbScale
 70
     0
300
1:5
140
1.0
141
5.0
290
     0
  0
SCALE
  5
4C
102
{ACAD_REACTORS
330
47
102
}
330
47
100
AcDbScale
 70
     0
300
1:8
140
1.0
141
8.0
290
     0
  0
SCALE
  5
4D
102
{ACAD_REACTORS
330
47
102
}
330
47
100
AcDbScale
 70
     0
300
1:10
140
1.0
141
10.0
290
     0
  0
SCALE
  5
4E
102
{ACAD_REACTORS
330
47
102
}
330
47
100
AcDbScale
 70
     0
300
1:16
140
1.0
141
16.0
290
     0
  0
SCALE
  5
4F
102
{ACAD_REACTORS
330
47
102
}
330
47
100
AcDbScale
 70
     0
300
1:20
140
1.0
141
20.0
290
     0
  0
SCALE
  5
50
102
{ACAD_REACTORS
330
47
102
}
330
47
100
AcDbScale
 70
     0
300
1:30
140
1.0
141
30.0
290
     0
  0
SCALE
  5
51
102
{ACAD_REACTORS
330
47
102
}
330
47
100
AcDbScale
 70
     0
300
1:40
140
1.0
141
40.0
290
     0
  0
SCALE
  5
52
102
{ACAD_REACTORS
330
47
102
}
330
47
100
AcDbScale
 70
     0
300
1:50
140
1.0
141
50.0
290
     0
  0
SCALE
  5
53
102
{ACAD_REACTORS
330
47
102
}
330
47
100
AcDbScale
 70
     0
300
1:100
140
1.0
141
100.0
290
     0
  0
SCALE
  5
54
102
{ACAD_REACTORS
330
47
102
}
330
47
100
AcDbScale
 70
     0
300
2:1
140
2.0
141
1.0
290
     0
  0
SCALE
  5
55
102
{ACAD_REACTORS
330
47
102
}
330
47
100
AcDbScale
 70
     0
300
4:1
140
4.0
141
1.0
290
     0
  0
SCALE
  5
56
102
{ACAD_REACTORS
330
47
102
}
330
47
100
AcDbScale
 70
     0
300
8:1
140
8.0
141
1.0
290
     0
  0
SCALE
  5
57
102
{ACAD_REACTORS
330
47
102
}
330
47
100
AcDbScale
 70
     0
300
10:1
140
10.0
141
1.0
290
     0
  0
SCALE
  5
58
102
{ACAD_REACTORS
330
47
102
}
330
47
100
AcDbScale
 70
     0
300
100:1
140
100.0
141
1.0
290
     0
  0
SCALE
  5
59
102
{ACAD_REACTORS
330
47
102
}
330
47
100
AcDbScale
 70
     0
300
1/128" = 1'-0"
140
0.0078125
141
12.0
290
     0
  0
SCALE
  5
5A
102
{ACAD_REACTORS
330
47
102
}
330
47
100
AcDbScale
 70
     0
300
1/64" = 1'-0"
140
0.015625
141
12.0
290
     0
  0
SCALE
  5
5B
102
{ACAD_REACTORS
330
47
102
}
330
47
100
AcDbScale
 70
     0
300
1/32" = 1'-0"
140
0.03125
141
12.0
290
     0
  0
SCALE
  5
5C
102
{ACAD_REACTORS
330
47
102
}
330
47
100
AcDbScale
 70
     0
300
1/16" = 1'-0"
140
0.0625
141
12.0
290
     0
  0
SCALE
  5
5D
102
{ACAD_REACTORS
330
47
102
}
330
47
100
AcDbScale
 70
     0
300
3/32" = 1'-0"
140
0.09375
141
12.0
290
     0
  0
SCALE
  5
5E
102
{ACAD_REACTORS
330
47
102
}
330
47
100
AcDbScale
 70
     0
300
1/8" = 1'-0"
140
0.125
141
12.0
290
     0
  0
SCALE
  5
5F
102
{ACAD_REACTORS
330
47
102
}
330
47
100
AcDbScale
 70
     0
300
3/16" = 1'-0"
140
0.1875
141
12.0
290
     0
  0
SCALE
  5
60
102
{ACAD_REACTORS
330
47
102
}
330
47
100
AcDbScale
 70
     0
300
1/4" = 1'-0"
140
0.25
141
12.0
290
     0
  0
SCALE
  5
61
102
{ACAD_REACTORS
330
47
102
}
330
47
100
AcDbScale
 70
     0
300
3/8" = 1'-0"
140
0.375
141
12.0
290
     0
  0
SCALE
  5
62
102
{ACAD_REACTORS
330
47
102
}
330
47
100
AcDbScale
 70
     0
300
1/2" = 1'-0"
140
0.5
141
12.0
290
     0
  0
SCALE
  5
63
102
{ACAD_REACTORS
330
47
102
}
330
47
100
AcDbScale
 70
     0
300
3/4" = 1'-0"
140
0.75
141
12.0
290
     0
  0
SCALE
  5
64
102
{ACAD_REACTORS
330
47
102
}
330
47
100
AcDbScale
 70
     0
300
1" = 1'-0"
140
1.0
141
12.0
290
     0
  0
SCALE
  5
65
102
{ACAD_REACTORS
330
47
102
}
330
47
100
AcDbScale
 70
     0
300
1-1/2" = 1'-0"
140
1.5
141
12.0
290
     0
  0
SCALE
  5
66
102
{ACAD_REACTORS
330
47
102
}
330
47
100
AcDbScale
 70
     0
300
3" = 1'-0"
140
3.0
141
12.0
290
     0
  0
SCALE
  5
67
102
{ACAD_REACTORS
330
47
102
}
330
47
100
AcDbScale
 70
     0
300
6" = 1'-0"
140
6.0
141
12.0
290
     0
  0
SCALE
  5
68
102
{ACAD_REACTORS
330
47
102
}
330
47
100
AcDbScale
 70
     0
300
1'-0" = 1'-0"
140
12.0
141
12.0
290
     0
  0
ENDSEC
  0
EOF
