  0
SECTION
  2
HEADER
  9
$ACADVER
  1
AC1015
  9
$ACADMAINTVER
 70
     6
  9
$DWGCODEPAGE
  3
ANSI_949
  9
$INSBASE
 10
0.0
 20
0.0
 30
0.0
  9
$EXTMIN
 10
1.000000000000000E+20
 20
1.000000000000000E+20
 30
1.000000000000000E+20
  9
$EXTMAX
 10
-1.000000000000000E+20
 20
-1.000000000000000E+20
 30
-1.000000000000000E+20
  9
$LIMMIN
 10
0.0
 20
0.0
  9
$LIMMAX
 10
420.0
 20
297.0
  9
$ORTHOMODE
 70
     0
  9
$REGENMODE
 70
     1
  9
$FILLMODE
 70
     1
  9
$QTEXTMODE
 70
     0
  9
$MIRRTEXT
 70
     1
  9
$LTSCALE
 40
1.0
  9
$ATTMODE
 70
     1
  9
$TEXTSIZE
 40
3.5
  9
$TRACEWID
 40
1.0
  9
$TEXTSTYLE
  7
Standard
  9
$CLAYER
  8
0
  9
$CELTYPE
  6
ByLayer
  9
$CECOLOR
 62
   256
  9
$CELTSCALE
 40
1.0
  9
$DISPSILH
 70
     0
  9
$DIMSCALE
 40
1.0
  9
$DIMASZ
 40
3.302
  9
$DIMEXO
 40
1.0
  9
$DIMDLI
 40
3.75
  9
$DIMRND
 40
0.0
  9
$DIMDLE
 40
0.0
  9
$DIMEXE
 40
1.0
  9
$DIMTP
 40
0.0
  9
$DIMTM
 40
0.0
  9
$DIMTXT
 40
3.5
  9
$DIMCEN
 40
2.5
  9
$DIMTSZ
 40
0.0
  9
$DIMTOL
 70
     0
  9
$DIMLIM
 70
     0
  9
$DIMTIH
 70
     1
  9
$DIMTOH
 70
     1
  9
$DIMSE1
 70
     0
  9
$DIMSE2
 70
     0
  9
$DIMTAD
 70
     1
  9
$DIMZIN
 70
     0
  9
$DIMBLK
  1

  9
$DIMASO
 70
     1
  9
$DIMSHO
 70
     1
  9
$DIMPOST
  1

  9
$DIMAPOST
  1

  9
$DIMALT
 70
     0
  9
$DIMALTD
 70
     3
  9
$DIMALTF
 40
0.0393700787401575
  9
$DIMLFAC
 40
1.0
  9
$DIMTOFL
 70
     1
  9
$DIMTVP
 40
0.0
  9
$DIMTIX
 70
     0
  9
$DIMSOXD
 70
     0
  9
$DIMSAH
 70
     0
  9
$DIMBLK1
  1

  9
$DIMBLK2
  1

  9
$DIMSTYLE
  2
ISO-25
  9
$DIMCLRD
 70
     0
  9
$DIMCLRE
 70
     0
  9
$DIMCLRT
 70
     0
  9
$DIMTFAC
 40
1.0
  9
$DIMGAP
 40
1.524
  9
$DIMJUST
 70
     0
  9
$DIMSD1
 70
     0
  9
$DIMSD2
 70
     0
  9
$DIMTOLJ
 70
     0
  9
$DIMTZIN
 70
     0
  9
$DIMALTZ
 70
     0
  9
$DIMALTTZ
 70
     0
  9
$DIMUPT
 70
     0
  9
$DIMDEC
 70
     2
  9
$DIMTDEC
 70
     2
  9
$DIMALTU
 70
     2
  9
$DIMALTTD
 70
     3
  9
$DIMTXSTY
  7
Standard
  9
$DIMAUNIT
 70
     0
  9
$DIMADEC
 70
     2
  9
$DIMALTRND
 40
0.0
  9
$DIMAZIN
 70
     0
  9
$DIMDSEP
 70
    44
  9
$DIMATFIT
 70
     3
  9
$DIMFRAC
 70
     0
  9
$DIMLDRBLK
  1

  9
$DIMLUNIT
 70
     2
  9
$DIMLWD
 70
    -2
  9
$DIMLWE
 70
    -2
  9
$DIMTMOVE
 70
     0
  9
$LUNITS
 70
     2
  9
$LUPREC
 70
     2
  9
$SKETCHINC
 40
1.0
  9
$FILLETRAD
 40
10.0
  9
$AUNITS
 70
     0
  9
$AUPREC
 70
     2
  9
$MENU
  1
.
  9
$ELEVATION
 40
0.0
  9
$PELEVATION
 40
0.0
  9
$THICKNESS
 40
0.0
  9
$LIMCHECK
 70
     0
  9
$CHAMFERA
 40
0.0
  9
$CHAMFERB
 40
0.0
  9
$CHAMFERC
 40
0.0
  9
$CHAMFERD
 40
0.0
  9
$SKPOLY
 70
     0
  9
$TDCREATE
 40
2458263.745179467
  9
$TDUCREATE
 40
2458263.370179467
  9
$TDUPDATE
 40
2458269.59369088
  9
$TDUUPDATE
 40
2458269.21869088
  9
$TDINDWG
 40
0.0001572338
  9
$TDUSRTIMER
 40
2458269.218533866
  9
$USRTIMER
 70
     1
  9
$ANGBASE
 50
0.0
  9
$ANGDIR
 70
     0
  9
$PDMODE
 70
     0
  9
$PDSIZE
 40
-1.0
  9
$PLINEWID
 40
0.0
  9
$SPLFRAME
 70
     0
  9
$SPLINETYPE
 70
     6
  9
$SPLINESEGS
 70
     8
  9
$HANDSEED
  5
2C5
  9
$SURFTAB1
 70
     6
  9
$SURFTAB2
 70
     6
  9
$SURFTYPE
 70
     6
  9
$SURFU
 70
     6
  9
$SURFV
 70
     6
  9
$UCSBASE
  2

  9
$UCSNAME
  2

  9
$UCSORG
 10
0.0
 20
0.0
 30
0.0
  9
$UCSXDIR
 10
1.0
 20
0.0
 30
0.0
  9
$UCSYDIR
 10
0.0
 20
1.0
 30
0.0
  9
$UCSORTHOREF
  2

  9
$UCSORTHOVIEW
 70
     0
  9
$UCSORGTOP
 10
0.0
 20
0.0
 30
0.0
  9
$UCSORGBOTTOM
 10
0.0
 20
0.0
 30
0.0
  9
$UCSORGLEFT
 10
0.0
 20
0.0
 30
0.0
  9
$UCSORGRIGHT
 10
0.0
 20
0.0
 30
0.0
  9
$UCSORGFRONT
 10
0.0
 20
0.0
 30
0.0
  9
$UCSORGBACK
 10
0.0
 20
0.0
 30
0.0
  9
$PUCSBASE
  2

  9
$PUCSNAME
  2

  9
$PUCSORG
 10
0.0
 20
0.0
 30
0.0
  9
$PUCSXDIR
 10
1.0
 20
0.0
 30
0.0
  9
$PUCSYDIR
 10
0.0
 20
1.0
 30
0.0
  9
$PUCSORTHOREF
  2

  9
$PUCSORTHOVIEW
 70
     0
  9
$PUCSORGTOP
 10
0.0
 20
0.0
 30
0.0
  9
$PUCSORGBOTTOM
 10
0.0
 20
0.0
 30
0.0
  9
$PUCSORGLEFT
 10
0.0
 20
0.0
 30
0.0
  9
$PUCSORGRIGHT
 10
0.0
 20
0.0
 30
0.0
  9
$PUCSORGFRONT
 10
0.0
 20
0.0
 30
0.0
  9
$PUCSORGBACK
 10
0.0
 20
0.0
 30
0.0
  9
$USERI1
 70
     0
  9
$USERI2
 70
     0
  9
$USERI3
 70
     0
  9
$USERI4
 70
     0
  9
$USERI5
 70
     0
  9
$USERR1
 40
0.0
  9
$USERR2
 40
0.0
  9
$USERR3
 40
0.0
  9
$USERR4
 40
0.0
  9
$USERR5
 40
0.0
  9
$WORLDVIEW
 70
     1
  9
$SHADEDGE
 70
     3
  9
$SHADEDIF
 70
    70
  9
$TILEMODE
 70
     1
  9
$MAXACTVP
 70
    64
  9
$PINSBASE
 10
0.0
 20
0.0
 30
0.0
  9
$PLIMCHECK
 70
     0
  9
$PEXTMIN
 10
1.000000000000000E+20
 20
1.000000000000000E+20
 30
1.000000000000000E+20
  9
$PEXTMAX
 10
-1.000000000000000E+20
 20
-1.000000000000000E+20
 30
-1.000000000000000E+20
  9
$PLIMMIN
 10
0.0
 20
0.0
  9
$PLIMMAX
 10
0.0
 20
0.0
  9
$UNITMODE
 70
     0
  9
$VISRETAIN
 70
     1
  9
$PLINEGEN
 70
     0
  9
$PSLTSCALE
 70
     1
  9
$TREEDEPTH
 70
  3020
  9
$CMLSTYLE
  2
Standard
  9
$CMLJUST
 70
     0
  9
$CMLSCALE
 40
20.0
  9
$PROXYGRAPHICS
 70
     1
  9
$MEASUREMENT
 70
     1
  9
$CELWEIGHT
370
    -1
  9
$ENDCAPS
280
     0
  9
$JOINSTYLE
280
     0
  9
$LWDISPLAY
290
     1
  9
$INSUNITS
 70
     4
  9
$HYPERLINKBASE
  1

  9
$STYLESHEET
  1

  9
$XEDIT
290
     1
  9
$CEPSNTYPE
380
     0
  9
$PSTYLEMODE
290
     1
  9
$FINGERPRINTGUID
  2
{97445C59-61FA-44EC-AEF0-B2FCADA9329D}
  9
$VERSIONGUID
  2
{FAEB1C32-E019-11D5-929B-00C0DF256EC4}
  9
$EXTNAMES
290
     1
  9
$PSVPSCALE
 40
0.0
  9
$OLESTARTUP
290
     0
  0
ENDSEC
  0
SECTION
  2
CLASSES
  0
CLASS
  1
ACDBDICTIONARYWDFLT
  2
AcDbDictionaryWithDefault
  3
ObjectDBX Classes
 90
        0
280
     0
281
     0
  0
CLASS
  1
VISUALSTYLE
  2
AcDbVisualStyle
  3
ObjectDBX Classes
 90
     4095
280
     0
281
     0
  0
CLASS
  1
MATERIAL
  2
AcDbMaterial
  3
ObjectDBX Classes
 90
     1153
280
     0
281
     0
  0
CLASS
  1
SCALE
  2
AcDbScale
  3
ObjectDBX Classes
 90
     1153
280
     0
281
     0
  0
CLASS
  1
TABLESTYLE
  2
AcDbTableStyle
  3
ObjectDBX Classes
 90
     4095
280
     0
281
     0
  0
CLASS
  1
MLEADERSTYLE
  2
AcDbMLeaderStyle
  3
ACDB_MLEADERSTYLE_CLASS
 90
     4095
280
     0
281
     0
  0
CLASS
  1
SUN
  2
AcDbSun
  3
SCENEOE
 90
     1153
280
     0
281
     0
  0
CLASS
  1
ACDBPLACEHOLDER
  2
AcDbPlaceHolder
  3
ObjectDBX Classes
 90
        0
280
     0
281
     0
  0
CLASS
  1
LAYOUT
  2
AcDbLayout
  3
ObjectDBX Classes
 90
        0
280
     0
281
     0
  0
CLASS
  1
RASTERVARIABLES
  2
AcDbRasterVariables
  3
ISM
 90
        0
280
     0
281
     0
  0
CLASS
  1
DIMASSOC
  2
AcDbDimAssoc
  3
"AcDbDimAssoc|Product Desc:     AcDim ARX App For Dimension|Company:          Autodesk, Inc.|WEB Address:      www.autodesk.com"
 90
        0
280
     0
281
     0
  0
ENDSEC
  0
SECTION
  2
TABLES
  0
TABLE
  2
VPORT
  5
8
330
0
100
AcDbSymbolTable
 70
     1
  0
VPORT
  5
29
330
8
100
AcDbSymbolTableRecord
100
AcDbViewportTableRecord
  2
*Active
 70
     0
 10
0.0
 20
0.0
 11
1.0
 21
1.0
 12
10.38243053929991
 22
-0.2663304836761309
 13
0.0
 23
0.0
 14
10.0
 24
10.0
 15
10.0
 25
10.0
 16
0.0
 26
0.0
 36
1.0
 17
0.0
 27
0.0
 37
0.0
 40
1.793509512148071
 41
1.78957528957529
 42
50.0
 43
0.0
 44
0.0
 50
0.0
 51
0.0
 71
    16
 72
  2000
 73
     1
 74
     3
 75
     0
 76
     0
 77
     0
 78
     0
281
     0
 65
     1
110
0.0
120
0.0
130
0.0
111
1.0
121
0.0
131
0.0
112
0.0
122
1.0
132
0.0
 79
     0
146
0.0
  0
ENDTAB
  0
TABLE
  2
LTYPE
  5
5
330
0
100
AcDbSymbolTable
 70
     6
  0
LTYPE
  5
14
330
5
100
AcDbSymbolTableRecord
100
AcDbLinetypeTableRecord
  2
ByBlock
 70
     0
  3

 72
    65
 73
     0
 40
0.0
  0
LTYPE
  5
15
330
5
100
AcDbSymbolTableRecord
100
AcDbLinetypeTableRecord
  2
ByLayer
 70
     0
  3

 72
    65
 73
     0
 40
0.0
  0
LTYPE
  5
16
330
5
100
AcDbSymbolTableRecord
100
AcDbLinetypeTableRecord
  2
Continuous
 70
     0
  3
Solid line
 72
    65
 73
     0
 40
0.0
  0
LTYPE
  5
6E
330
5
100
AcDbSymbolTableRecord
100
AcDbLinetypeTableRecord
  2
HIDDEN
 70
     0
  3
Hidden __ __ __ __ __ __ __ __ __ __ __ __ __ __
 72
    65
 73
     2
 40
1.905
 49
1.27
 74
     0
 49
-0.635
 74
     0
  0
LTYPE
  5
6F
330
5
100
AcDbSymbolTableRecord
100
AcDbLinetypeTableRecord
  2
PHANTOM
 70
     0
  3
Phantom ______  __  __  ______  __  __  ______
 72
    65
 73
     6
 40
12.7
 49
6.35
 74
     0
 49
-1.27
 74
     0
 49
1.27
 74
     0
 49
-1.27
 74
     0
 49
1.27
 74
     0
 49
-1.27
 74
     0
  0
LTYPE
  5
70
330
5
100
AcDbSymbolTableRecord
100
AcDbLinetypeTableRecord
  2
CENTER
 70
     0
  3
Center ____ _ ____ _ ____ _ ____ _ ____ _ ____
 72
    65
 73
     4
 40
10.16
 49
6.35
 74
     0
 49
-1.27
 74
     0
 49
1.27
 74
     0
 49
-1.27
 74
     0
  0
LTYPE
  5
71
330
5
100
AcDbSymbolTableRecord
100
AcDbLinetypeTableRecord
  2
CENTERX2
 70
     0
  3
Center (2x) ________  __  ________  __  _____
 72
    65
 73
     4
 40
20.32
 49
12.7
 74
     0
 49
-2.54
 74
     0
 49
2.54
 74
     0
 49
-2.54
 74
     0
  0
LTYPE
  5
72
330
5
100
AcDbSymbolTableRecord
100
AcDbLinetypeTableRecord
  2
DOT2
 70
     0
  3
Dot (.5x) ........................................
 72
    65
 73
     2
 40
0.635
 49
0.0
 74
     0
 49
-0.635
 74
     0
  0
ENDTAB
  0
TABLE
  2
LAYER
  5
2
330
0
100
AcDbSymbolTable
 70
    17
  0
LAYER
  5
10
330
2
100
AcDbSymbolTableRecord
100
AcDbLayerTableRecord
  2
0
 70
     0
 62
     7
  6
Continuous
370
    -3
390
F
  0
LAYER
  5
73
330
2
100
AcDbSymbolTableRecord
100
AcDbLayerTableRecord
  2
FORMAT
 70
     0
 62
     2
  6
Continuous
370
    -3
390
F
  0
LAYER
  5
74
330
2
100
AcDbSymbolTableRecord
100
AcDbLayerTableRecord
  2
외형선
 70
     0
 62
   100
  6
Continuous
370
    35
390
F
  0
LAYER
  5
75
330
2
100
AcDbSymbolTableRecord
100
AcDbLayerTableRecord
  2
숨은선
 70
     0
 62
     2
  6
HIDDEN
370
    25
390
F
  0
LAYER
  5
76
330
2
100
AcDbSymbolTableRecord
100
AcDbLayerTableRecord
  2
중심선
 70
     0
 62
     1
  6
CENTERX2
370
    -3
390
F
  0
LAYER
  5
77
330
2
100
AcDbSymbolTableRecord
100
AcDbLayerTableRecord
  2
파단선
 70
     0
 62
     4
  6
Continuous
370
    -3
390
F
  0
LAYER
  5
78
330
2
100
AcDbSymbolTableRecord
100
AcDbLayerTableRecord
  2
해칭선
 70
     0
 62
     4
  6
Continuous
370
    -3
390
F
  0
LAYER
  5
79
330
2
100
AcDbSymbolTableRecord
100
AcDbLayerTableRecord
  2
가는실선
 70
     0
 62
     4
  6
Continuous
370
    -3
390
F
  0
LAYER
  5
7A
330
2
100
AcDbSymbolTableRecord
100
AcDbLayerTableRecord
  2
치수_보조선
 70
     0
 62
     4
  6
Continuous
370
    -3
390
F
  0
LAYER
  5
7B
330
2
100
AcDbSymbolTableRecord
100
AcDbLayerTableRecord
  2
치수문자_일반주서
 70
     0
 62
     7
  6
Continuous
370
    25
390
F
  0
LAYER
  5
7C
330
2
100
AcDbSymbolTableRecord
100
AcDbLayerTableRecord
  2
개별주서
 70
     0
 62
   100
  6
Continuous
370
    35
390
F
  0
LAYER
  5
7D
330
2
100
AcDbSymbolTableRecord
100
AcDbLayerTableRecord
  2
중간선
 70
     0
 62
     2
  6
Continuous
370
    25
390
F
  0
LAYER
  5
7E
330
2
100
AcDbSymbolTableRecord
100
AcDbLayerTableRecord
  2
윤곽선
 70
     0
 62
     3
  6
Continuous
370
    50
390
F
  0
LAYER
  5
7F
330
2
100
AcDbSymbolTableRecord
100
AcDbLayerTableRecord
  2
중심마크
 70
     0
 62
   100
  6
Continuous
370
    35
390
F
  0
LAYER
  5
80
330
2
100
AcDbSymbolTableRecord
100
AcDbLayerTableRecord
  2
가상선
 70
     0
 62
     4
  6
PHANTOM
370
    -3
390
F
  0
LAYER
  5
81
330
2
100
AcDbSymbolTableRecord
100
AcDbLayerTableRecord
  2
특수지정선
 70
     0
 62
     5
  6
CENTERX2
370
    70
390
F
  0
LAYER
  5
150
330
2
100
AcDbSymbolTableRecord
100
AcDbLayerTableRecord
  2
Defpoints
 70
     0
 62
     7
  6
Continuous
290
     0
370
    -3
390
F
  0
ENDTAB
  0
TABLE
  2
STYLE
  5
3
330
0
100
AcDbSymbolTable
 70
     2
  0
STYLE
  5
11
330
3
100
AcDbSymbolTableRecord
100
AcDbTextStyleTableRecord
  2
Standard
 70
     0
 40
0.0
 41
1.0
 50
0.0
 71
     0
 42
3.5
  3
txt
  4

  0
STYLE
  5
97
330
3
100
AcDbSymbolTableRecord
100
AcDbTextStyleTableRecord
  2
SLDTEXTSTYLE0
 70
     0
 40
0.0
 41
0.75
 50
0.0
 71
     0
 42
3.5
  3
TXT
  4

  0
ENDTAB
  0
TABLE
  2
VIEW
  5
6
330
0
100
AcDbSymbolTable
 70
     0
  0
ENDTAB
  0
TABLE
  2
UCS
  5
7
330
0
100
AcDbSymbolTable
 70
     0
  0
ENDTAB
  0
TABLE
  2
APPID
  5
9
330
0
100
AcDbSymbolTable
 70
     4
  0
APPID
  5
12
330
9
100
AcDbSymbolTableRecord
100
AcDbRegAppTableRecord
  2
ACAD
 70
     0
  0
APPID
  5
24A
330
9
100
AcDbSymbolTableRecord
100
AcDbRegAppTableRecord
  2
ACAD_DSTYLE_DIMRADIAL_EXTENSION
 70
     0
  0
APPID
  5
2C3
330
9
100
AcDbSymbolTableRecord
100
AcDbRegAppTableRecord
  2
ACAD_DSTYLE_DIMFLIPARROW_SYMBOL
 70
     0
  0
APPID
  5
2C4
330
9
100
AcDbSymbolTableRecord
100
AcDbRegAppTableRecord
  2
ACAD_DSTYLE_DIMFLIPARROW_WHICH_SYMBOL
 70
     0
  0
ENDTAB
  0
TABLE
  2
DIMSTYLE
  5
A
330
0
100
AcDbSymbolTable
 70
     5
100
AcDbDimStyleTable
  0
DIMSTYLE
105
27
330
A
100
AcDbSymbolTableRecord
100
AcDbDimStyleTableRecord
  2
ISO-25
 70
     0
 41
2.5
 42
0.625
 43
3.75
 44
1.25
 73
     0
 74
     0
 77
     1
 78
     8
140
2.5
141
2.5
143
0.03937007874016
147
0.625
171
     3
172
     1
178
     0
271
     2
272
     2
274
     3
278
    44
283
     0
284
     8
340
11
  0
DIMSTYLE
105
E6
102
{ACAD_REACTORS
330
186
330
1AF
330
1EE
330
1F1
102
}
330
A
100
AcDbSymbolTableRecord
100
AcDbDimStyleTableRecord
  2
SLDDIMSTYLE0
 70
     0
 41
3.302
 44
0.0
 45
0.000000001
 73
     0
 74
     0
 77
     1
 78
    12
 79
     3
140
3.5
147
0.875
172
     1
173
     1
178
     0
271
     2
272
     2
276
     2
284
    12
289
     0
340
97
  0
DIMSTYLE
105
F4
102
{ACAD_REACTORS
330
193
330
1EF
102
}
330
A
100
AcDbSymbolTableRecord
100
AcDbDimStyleTableRecord
  2
SLDDIMSTYLE1
 70
     0
 41
3.302
 44
0.0
 45
0.000000001
 73
     0
 74
     0
 77
     1
 78
     4
 79
     1
140
3.5
147
0.875
172
     1
173
     1
178
     0
271
     2
272
     2
276
     2
284
    12
289
     0
340
97
  0
DIMSTYLE
105
101
102
{ACAD_REACTORS
330
1A2
330
1F0
102
}
330
A
100
AcDbSymbolTableRecord
100
AcDbDimStyleTableRecord
  2
SLDDIMSTYLE2
 70
     0
 41
3.302
 44
0.0
 45
0.000000001
 73
     0
 74
     0
 77
     1
 78
    12
 79
     3
140
3.5
147
0.875
173
     1
178
     0
271
     2
272
     2
276
     2
284
    12
340
97
  0
DIMSTYLE
105
118
102
{ACAD_REACTORS
330
1BE
330
1F2
330
288
330
2B6
102
}
330
A
100
AcDbSymbolTableRecord
100
AcDbDimStyleTableRecord
  2
SLDDIMSTYLE3
 70
     0
 41
3.302
 44
0.0
 45
0.000000001
 73
     0
 74
     0
 77
     1
140
3.5
147
0.875
172
     1
173
     1
178
     0
271
     2
272
     2
276
     2
284
    12
289
     0
340
97
  0
ENDTAB
  0
TABLE
  2
BLOCK_RECORD
  5
1
330
0
100
AcDbSymbolTable
 70
    22
  0
BLOCK_RECORD
  5
1F
330
1
100
AcDbSymbolTableRecord
100
AcDbBlockTableRecord
  2
*Model_Space
340
22
  0
BLOCK_RECORD
  5
1B
330
1
100
AcDbSymbolTableRecord
100
AcDbBlockTableRecord
  2
*Paper_Space
340
1E
  0
BLOCK_RECORD
  5
23
330
1
100
AcDbSymbolTableRecord
100
AcDbBlockTableRecord
  2
*Paper_Space0
340
26
  0
BLOCK_RECORD
  5
82
330
1
100
AcDbSymbolTableRecord
100
AcDbBlockTableRecord
  2
블럭10
340
0
102
{BLKREFS
331
DE
102
}
  0
BLOCK_RECORD
  5
E7
330
1
100
AcDbSymbolTableRecord
100
AcDbBlockTableRecord
  2
_D
340
0
  0
BLOCK_RECORD
  5
F5
330
1
100
AcDbSymbolTableRecord
100
AcDbBlockTableRecord
  2
_D_1
340
0
  0
BLOCK_RECORD
  5
102
330
1
100
AcDbSymbolTableRecord
100
AcDbBlockTableRecord
  2
_D_2
340
0
  0
BLOCK_RECORD
  5
10C
330
1
100
AcDbSymbolTableRecord
100
AcDbBlockTableRecord
  2
_D_3
340
0
  0
BLOCK_RECORD
  5
119
330
1
100
AcDbSymbolTableRecord
100
AcDbBlockTableRecord
  2
_D_4
340
0
  0
BLOCK_RECORD
  5
125
330
1
100
AcDbSymbolTableRecord
100
AcDbBlockTableRecord
  2
SW_DOWELSYMBOL_0
340
0
102
{BLKREFS
331
0
331
1CE
331
1F3
102
}
  0
BLOCK_RECORD
  5
187
330
1
100
AcDbSymbolTableRecord
100
AcDbBlockTableRecord
  2
*D9
340
0
  0
BLOCK_RECORD
  5
194
330
1
100
AcDbSymbolTableRecord
100
AcDbBlockTableRecord
  2
*D10
340
0
  0
BLOCK_RECORD
  5
1A3
330
1
100
AcDbSymbolTableRecord
100
AcDbBlockTableRecord
  2
*D11
340
0
  0
BLOCK_RECORD
  5
1B0
330
1
100
AcDbSymbolTableRecord
100
AcDbBlockTableRecord
  2
*D12
340
0
  0
BLOCK_RECORD
  5
1BF
330
1
100
AcDbSymbolTableRecord
100
AcDbBlockTableRecord
  2
*D13
340
0
  0
BLOCK_RECORD
  5
1FF
330
1
100
AcDbSymbolTableRecord
100
AcDbBlockTableRecord
  2
*D14
340
0
  0
BLOCK_RECORD
  5
20B
330
1
100
AcDbSymbolTableRecord
100
AcDbBlockTableRecord
  2
*D15
340
0
  0
BLOCK_RECORD
  5
21A
330
1
100
AcDbSymbolTableRecord
100
AcDbBlockTableRecord
  2
*D16
340
0
  0
BLOCK_RECORD
  5
226
330
1
100
AcDbSymbolTableRecord
100
AcDbBlockTableRecord
  2
*D17
340
0
  0
BLOCK_RECORD
  5
234
330
1
100
AcDbSymbolTableRecord
100
AcDbBlockTableRecord
  2
*D18
340
0
  0
BLOCK_RECORD
  5
28B
330
1
100
AcDbSymbolTableRecord
100
AcDbBlockTableRecord
  2
*D20
340
0
  0
BLOCK_RECORD
  5
2B9
330
1
100
AcDbSymbolTableRecord
100
AcDbBlockTableRecord
  2
*D21
340
0
  0
ENDTAB
  0
ENDSEC
  0
SECTION
  2
BLOCKS
  0
BLOCK
  5
20
330
1F
100
AcDbEntity
  8
0
100
AcDbBlockBegin
  2
*Model_Space
 70
     0
 10
0.0
 20
0.0
 30
0.0
  3
*Model_Space
  1
*Model_Space
  0
ENDBLK
  5
21
330
1F
100
AcDbEntity
  8
0
100
AcDbBlockEnd
  0
BLOCK
  5
1C
330
1B
100
AcDbEntity
 67
     1
  8
0
100
AcDbBlockBegin
  2
*Paper_Space
 70
     0
 10
0.0
 20
0.0
 30
0.0
  3
*Paper_Space
  1
*Paper_Space
  0
ENDBLK
  5
1D
330
1B
100
AcDbEntity
 67
     1
  8
0
100
AcDbBlockEnd
  0
BLOCK
  5
24
330
23
100
AcDbEntity
  8
0
100
AcDbBlockBegin
  2
*Paper_Space0
 70
     0
 10
0.0
 20
0.0
 30
0.0
  3
*Paper_Space0
  1
*Paper_Space0
  0
ENDBLK
  5
25
330
23
100
AcDbEntity
  8
0
100
AcDbBlockEnd
  0
BLOCK
  5
83
330
82
100
AcDbEntity
  8
0
100
AcDbBlockBegin
  2
블럭10
 70
     2
 10
0.0
 20
0.0
 30
0.0
  3
블럭10
  1
블럭10
  0
ELLIPSE
  5
85
330
82
100
AcDbEntity
  8
중심선
100
AcDbEllipse
 10
20.54032771741204
 20
12.0471743016438
 30
0.0
 11
6.600054785286829
 21
-1.261213355974178E-13
 31
0.0
210
0.0
220
0.0
230
1.0
 40
0.636358354079598
 41
0.9219305317359503
 42
6.513795318482858
  0
ELLIPSE
  5
86
330
82
100
AcDbEntity
  8
중심선
100
AcDbEllipse
 10
20.54032771746488
 20
12.04717430159265
 30
0.0
 11
3.960054785062283
 21
1.540847449632565E-10
 31
0.0
210
0.0
220
0.0
230
1.0
 40
0.3939339440162632
 41
1.131841032648279
 42
5.62031148352944
  0
LINE
  5
87
330
82
100
AcDbEntity
  8
중심선
100
AcDbLine
 10
2.268634060543552
 20
16.24717430164393
 30
0.0
 11
5.714909304380834
 21
16.24717430164393
 31
0.0
  0
LINE
  5
88
330
82
100
AcDbEntity
  8
중심선
100
AcDbLine
 10
5.245725140726316
 20
7.84717430164391
 30
0.0
 11
8.692000384563599
 21
7.84717430164391
 31
0.0
  0
LINE
  5
89
330
82
100
AcDbEntity
  8
중심선
100
AcDbLine
 10
15.74043728645272
 20
16.24717430164393
 30
0.0
 11
8.692000384563599
 21
7.84717430164391
 31
0.0
  0
LINE
  5
8A
330
82
100
AcDbEntity
  8
중심선
100
AcDbLine
 10
0.1404042013395286
 20
13.71084872107135
 30
0.0
 11
3.58671253028996
 21
13.71088815037384
 31
0.0
  0
LINE
  5
8B
330
82
100
AcDbEntity
  8
중심선
100
AcDbLine
 10
2.750260043222114
 20
10.84717430164391
 30
0.0
 11
6.196535287059397
 21
10.84717430164391
 31
0.0
  0
LINE
  5
8C
330
82
100
AcDbEntity
  8
중심선
100
AcDbLine
 10
12.29416204261559
 20
16.24717430164393
 30
0.0
 11
5.245725140726316
 21
7.84717430164391
 31
0.0
  0
LINE
  5
8D
330
82
100
AcDbEntity
  8
중심선
100
AcDbLine
 10
10.72767329541681
 20
16.24717430164393
 30
0.0
 11
6.196535287059397
 21
10.84717430164391
 31
0.0
  0
LINE
  5
8E
330
82
100
AcDbEntity
  8
중심선
100
AcDbLine
 10
7.28139805157953
 20
16.24717430164393
 30
0.0
 11
2.750260043222114
 21
10.84717430164391
 31
0.0
  0
LINE
  5
8F
330
82
100
AcDbEntity
  8
중심선
100
AcDbLine
 10
5.714909304380834
 20
16.24717430164393
 30
0.0
 11
3.58671253028996
 21
13.71088815037384
 31
0.0
  0
LINE
  5
90
330
82
100
AcDbEntity
  8
중심선
100
AcDbLine
 10
2.268634060543552
 20
16.24717430164393
 30
0.0
 11
0.1404042013395286
 21
13.71084872107135
 31
0.0
  0
LINE
  5
91
330
82
100
AcDbEntity
  8
중심선
100
AcDbLine
 10
7.28139805157953
 20
16.24717430164393
 30
0.0
 11
10.72767329541681
 21
16.24717430164393
 31
0.0
  0
LINE
  5
92
330
82
100
AcDbEntity
  8
중심선
100
AcDbLine
 10
12.29416204261559
 20
16.24717430164393
 30
0.0
 11
15.74043728645272
 21
16.24717430164393
 31
0.0
  0
LINE
  5
93
330
82
100
AcDbEntity
  8
중심선
100
AcDbLine
 10
19.22036997980202
 20
11.08717430171403
 30
0.0
 11
23.66174974927406
 21
11.08717430171406
 31
0.0
  0
LINE
  5
94
330
82
100
AcDbEntity
  8
중심선
100
AcDbLine
 10
19.22039502424796
 20
13.00717430171391
 30
0.0
 11
19.22036997980202
 21
11.08717430171403
 31
0.0
  0
LINE
  5
95
330
82
100
AcDbEntity
  8
중심선
100
AcDbLine
 10
19.22039502424796
 20
13.00717430171391
 30
0.0
 11
26.96566020931264
 21
13.00717430171391
 31
0.0
  0
LINE
  5
96
330
82
100
AcDbEntity
  8
중심선
100
AcDbLine
 10
22.22332737316547
 20
13.45928029700563
 30
0.0
 11
24.52862924686651
 21
15.39360700705356
 31
0.0
  0
ATTDEF
  5
98
330
82
100
AcDbEntity
  8
FORMAT
 62
     2
100
AcDbText
 10
-20.85824753159254
 20
2.075366912832191
 30
0.0
 40
4.233333333333333
  1
SEME6101000506E [ 2 FLUTE ]
 41
0.75
  7
SLDTEXTSTYLE0
 11
-20.85824753159254
 21
-0.0412997538344756
 31
0.0
100
AcDbAttributeDefinition
  3

  2
AUTOATTR0
 70
     0
 74
     1
  0
ENDBLK
  5
84
330
82
100
AcDbEntity
  8
0
100
AcDbBlockEnd
  0
BLOCK
  5
E8
330
E7
100
AcDbEntity
  8
0
100
AcDbBlockBegin
  2
_D
 70
     0
 10
0.0
 20
0.0
 30
0.0
  3
_D
  1
_D
  0
SOLID
  5
EA
330
E7
100
AcDbEntity
  8
치수문자_일반주서
100
AcDbTrace
 10
-45.00250885508846
 20
2.001074928723889
 30
0.0
 11
-44.49450885508846
 21
5.303074928723889
 31
0.0
 12
-45.51050885508847
 22
5.303074928723889
 32
0.0
 13
-45.51050885508847
 23
5.303074928723889
 33
0.0
  0
SOLID
  5
EB
330
E7
100
AcDbEntity
  8
치수문자_일반주서
100
AcDbTrace
 10
-45.00250885508846
 20
-1.998925071276107
 30
0.0
 11
-45.51050885508847
 21
-5.300925071276106
 31
0.0
 12
-44.49450885508846
 22
-5.300925071276106
 32
0.0
 13
-44.49450885508846
 23
-5.300925071276106
 33
0.0
  0
LINE
  5
EC
330
E7
100
AcDbEntity
  8
치수문자_일반주서
100
AcDbLine
 10
-33.50605083347639
 20
2.001074928723889
 30
0.0
 11
-46.00250885508846
 21
2.001074928723889
 31
0.0
  0
LINE
  5
ED
330
E7
100
AcDbEntity
  8
치수문자_일반주서
100
AcDbLine
 10
-33.50605083347639
 20
-1.998925071276107
 30
0.0
 11
-46.00250885508846
 21
-1.998925071276107
 31
0.0
  0
LINE
  5
EE
330
E7
100
AcDbEntity
  8
치수문자_일반주서
100
AcDbLine
 10
-45.00250885508846
 20
2.001074928723889
 30
0.0
 11
-45.00250885508846
 21
8.35107492872389
 31
0.0
  0
LINE
  5
EF
330
E7
100
AcDbEntity
  8
치수문자_일반주서
100
AcDbLine
 10
-45.00250885508846
 20
2.001074928723889
 30
0.0
 11
-45.00250885508846
 21
-1.998925071276107
 31
0.0
  0
LINE
  5
F0
330
E7
100
AcDbEntity
  8
치수문자_일반주서
100
AcDbLine
 10
-45.00250885508846
 20
-1.998925071276107
 30
0.0
 11
-45.00250885508846
 21
-8.348925071276106
 31
0.0
  0
MTEXT
  5
F1
330
E7
100
AcDbEntity
  8
치수문자_일반주서
100
AcDbMText
 10
-49.5142459442903
 20
-3.931199483639881
 30
0.0
 40
3.5
 41
0.0
 71
     1
 72
     1
  1
%%c
  7
SLDTEXTSTYLE0
 11
-7.044195017643634E-15
 21
1.0
 31
0.0
 73
     1
 44
1.0
  0
MTEXT
  5
F2
330
E7
100
AcDbEntity
  8
치수문자_일반주서
100
AcDbMText
 10
-49.56771812095019
 20
1.3472379147342
 30
0.0
 40
3.5
 41
0.0
 71
     1
 72
     1
  1
4
  7
SLDTEXTSTYLE0
 11
-7.044195017643634E-15
 21
1.0
 31
0.0
 73
     1
 44
1.0
  0
ENDBLK
  5
E9
330
E7
100
AcDbEntity
  8
0
100
AcDbBlockEnd
  0
BLOCK
  5
F6
330
F5
100
AcDbEntity
  8
0
100
AcDbBlockBegin
  2
_D_1
 70
     0
 10
0.0
 20
0.0
 30
0.0
  3
_D_1
  1
_D_1
  0
SOLID
  5
F8
330
F5
100
AcDbEntity
  8
치수문자_일반주서
100
AcDbTrace
 10
16.49394916652362
 20
18.95107492872355
 30
0.0
 11
19.79594916652362
 21
18.44307492872355
 31
0.0
 12
19.79594916652362
 22
19.45907492872355
 32
0.0
 13
19.79594916652362
 23
19.45907492872355
 33
0.0
  0
SOLID
  5
F9
330
F5
100
AcDbEntity
  8
치수문자_일반주서
100
AcDbTrace
 10
14.99394916652362
 20
18.95107492872355
 30
0.0
 11
11.69194916652362
 21
19.45907492872355
 31
0.0
 12
11.69194916652362
 22
18.44307492872355
 32
0.0
 13
11.69194916652362
 23
18.44307492872355
 33
0.0
  0
LINE
  5
FA
330
F5
100
AcDbEntity
  8
치수문자_일반주서
100
AcDbLine
 10
16.49394916652362
 20
1.451074928723894
 30
0.0
 11
16.49394916652362
 21
19.95107492872356
 31
0.0
  0
LINE
  5
FB
330
F5
100
AcDbEntity
  8
치수문자_일반주서
100
AcDbLine
 10
14.99394916652362
 20
1.396478754098032
 30
0.0
 11
14.99394916652362
 21
19.95107492872356
 31
0.0
  0
LINE
  5
FC
330
F5
100
AcDbEntity
  8
치수문자_일반주서
100
AcDbLine
 10
16.49394916652362
 20
18.95107492872355
 30
0.0
 11
22.66033142469786
 21
18.95107492872355
 31
0.0
  0
LINE
  5
FD
330
F5
100
AcDbEntity
  8
치수문자_일반주서
100
AcDbLine
 10
16.49394916652362
 20
18.95107492872355
 30
0.0
 11
14.99394916652362
 21
18.95107492872355
 31
0.0
  0
LINE
  5
FE
330
F5
100
AcDbEntity
  8
치수문자_일반주서
100
AcDbLine
 10
14.99394916652362
 20
18.95107492872355
 30
0.0
 11
8.643949166523615
 21
18.95107492872355
 31
0.0
  0
MTEXT
  5
FF
330
F5
100
AcDbEntity
  8
치수문자_일반주서
100
AcDbMText
 10
13.60894236378333
 20
23.46281184330245
 30
0.0
 40
3.5
 41
0.0
 71
     1
 72
     1
  1
1.50
  7
SLDTEXTSTYLE0
 73
     1
 44
1.0
  0
ENDBLK
  5
F7
330
F5
100
AcDbEntity
  8
0
100
AcDbBlockEnd
  0
BLOCK
  5
103
330
102
100
AcDbEntity
  8
0
100
AcDbBlockBegin
  2
_D_2
 70
     0
 10
0.0
 20
0.0
 30
0.0
  3
_D_2
  1
_D_2
  0
SOLID
  5
105
330
102
100
AcDbEntity
  8
치수문자_일반주서
100
AcDbTrace
 10
16.49394916652361
 20
41.00939943376819
 30
0.0
 11
13.19194916652361
 21
41.51739943376819
 31
0.0
 12
13.19194916652361
 22
40.50139943376819
 32
0.0
 13
13.19194916652361
 23
40.50139943376819
 33
0.0
  0
SOLID
  5
106
330
102
100
AcDbEntity
  8
치수문자_일반주서
100
AcDbTrace
 10
-33.50605083347639
 20
41.00939943376819
 30
0.0
 11
-30.20405083347639
 21
40.50139943376819
 31
0.0
 12
-30.20405083347639
 22
41.51739943376819
 32
0.0
 13
-30.20405083347639
 23
41.51739943376819
 33
0.0
  0
LINE
  5
107
330
102
100
AcDbEntity
  8
치수문자_일반주서
100
AcDbLine
 10
16.49394916652362
 20
1.451074928723894
 30
0.0
 11
16.49394916652361
 21
42.00939943376819
 31
0.0
  0
LINE
  5
108
330
102
100
AcDbEntity
  8
치수문자_일반주서
100
AcDbLine
 10
-33.50605083347639
 20
2.001074928723888
 30
0.0
 11
-33.50605083347639
 21
42.00939943376819
 31
0.0
  0
LINE
  5
109
330
102
100
AcDbEntity
  8
치수문자_일반주서
100
AcDbLine
 10
16.49394916652361
 20
41.00939943376819
 30
0.0
 11
-33.50605083347639
 21
41.00939943376819
 31
0.0
  0
MTEXT
  5
10A
330
102
100
AcDbEntity
  8
치수문자_일반주서
100
AcDbMText
 10
-11.09216202699921
 20
45.52113634834708
 30
0.0
 40
3.5
 41
0.0
 71
     1
 72
     1
  1
50
  7
SLDTEXTSTYLE0
 73
     1
 44
1.0
  0
ENDBLK
  5
104
330
102
100
AcDbEntity
  8
0
100
AcDbBlockEnd
  0
BLOCK
  5
10D
330
10C
100
AcDbEntity
  8
0
100
AcDbBlockBegin
  2
_D_3
 70
     0
 10
0.0
 20
0.0
 30
0.0
  3
_D_3
  1
_D_3
  0
SOLID
  5
10F
330
10C
100
AcDbEntity
  8
치수문자_일반주서
100
AcDbTrace
 10
13.49394916652351
 20
30.12107492872394
 30
0.0
 11
16.79594916652351
 21
29.61307492872395
 31
0.0
 12
16.79594916652351
 22
30.62907492872395
 32
0.0
 13
16.79594916652351
 23
30.62907492872395
 33
0.0
  0
SOLID
  5
110
330
10C
100
AcDbEntity
  8
치수문자_일반주서
100
AcDbTrace
 10
10.30734662614507
 20
30.12107492872393
 30
0.0
 11
7.005346626145066
 21
30.62907492872392
 31
0.0
 12
7.005346626145069
 22
29.61307492872392
 32
0.0
 13
7.005346626145069
 23
29.61307492872392
 33
0.0
  0
LINE
  5
111
330
10C
100
AcDbEntity
  8
치수문자_일반주서
100
AcDbLine
 10
13.49394916652361
 20
1.201074928723894
 30
0.0
 11
13.49394916652351
 21
31.12107492872394
 31
0.0
  0
LINE
  5
112
330
10C
100
AcDbEntity
  8
치수문자_일반주서
100
AcDbLine
 10
10.30734662614517
 20
1.061199803428677
 30
0.0
 11
10.30734662614506
 21
31.12107492872393
 31
0.0
  0
LINE
  5
113
330
10C
100
AcDbEntity
  8
치수문자_일반주서
100
AcDbLine
 10
13.49394916652351
 20
30.12107492872394
 30
0.0
 11
45.12480835498598
 21
30.12107492872405
 31
0.0
  0
LINE
  5
114
330
10C
100
AcDbEntity
  8
치수문자_일반주서
100
AcDbLine
 10
13.49394916652351
 20
30.12107492872394
 30
0.0
 11
10.30734662614507
 21
30.12107492872393
 31
0.0
  0
LINE
  5
115
330
10C
100
AcDbEntity
  8
치수문자_일반주서
100
AcDbLine
 10
10.30734662614507
 20
30.12107492872393
 30
0.0
 11
3.957346626145067
 21
30.12107492872391
 31
0.0
  0
MTEXT
  5
116
330
10C
100
AcDbEntity
  8
치수문자_일반주서
100
AcDbMText
 10
36.07341929407147
 20
34.63281184330295
 30
0.0
 40
3.5
 41
0.0
 71
     1
 72
     1
  1
3.19
  7
SLDTEXTSTYLE0
 73
     1
 44
1.0
  0
ENDBLK
  5
10E
330
10C
100
AcDbEntity
  8
0
100
AcDbBlockEnd
  0
BLOCK
  5
11A
330
119
100
AcDbEntity
  8
0
100
AcDbBlockBegin
  2
_D_4
 70
     0
 10
0.0
 20
0.0
 30
0.0
  3
_D_4
  1
_D_4
  0
SOLID
  5
11C
330
119
100
AcDbEntity
  8
치수문자_일반주서
100
AcDbTrace
 10
34.30059833193547
 20
0.2510749287239238
 30
0.0
 11
34.80859833193546
 21
3.553074928723924
 31
0.0
 12
33.79259833193546
 22
3.553074928723922
 32
0.0
 13
33.79259833193546
 23
3.553074928723922
 33
0.0
  0
SOLID
  5
11D
330
119
100
AcDbEntity
  8
치수문자_일반주서
100
AcDbTrace
 10
34.30059833193548
 20
-0.2457884678290603
 30
0.0
 11
33.79259833193548
 21
-3.547788467829061
 31
0.0
 12
34.80859833193549
 22
-3.547788467829059
 32
0.0
 13
34.80859833193549
 23
-3.547788467829059
 33
0.0
  0
LINE
  5
11E
330
119
100
AcDbEntity
  8
치수문자_일반주서
100
AcDbLine
 10
17.44394916652362
 20
0.2510749287238954
 30
0.0
 11
35.30059833193547
 21
0.2510749287239255
 31
0.0
  0
LINE
  5
11F
330
119
100
AcDbEntity
  8
치수문자_일반주서
100
AcDbLine
 10
17.44394916652362
 20
-0.2457884678290887
 30
0.0
 11
35.30059833193548
 21
-0.2457884678290586
 31
0.0
  0
LINE
  5
120
330
119
100
AcDbEntity
  8
치수문자_일반주서
100
AcDbLine
 10
34.30059833193547
 20
0.2510749287239238
 30
0.0
 11
34.30059833193538
 21
6.601074928723923
 31
0.0
  0
LINE
  5
121
330
119
100
AcDbEntity
  8
치수문자_일반주서
100
AcDbLine
 10
34.30059833193547
 20
0.2510749287239238
 30
0.0
 11
34.30059833193548
 21
-0.2457884678290603
 31
0.0
  0
LINE
  5
122
330
119
100
AcDbEntity
  8
치수문자_일반주서
100
AcDbLine
 10
34.30059833193548
 20
-0.2457884678290603
 30
0.0
 11
34.30059833193558
 21
-8.35659775097388
 31
0.0
  0
MTEXT
  5
123
330
119
100
AcDbEntity
  8
치수문자_일반주서
100
AcDbMText
 10
29.78886124273366
 20
-8.356597750973934
 30
0.0
 40
3.5
 41
0.0
 71
     1
 72
     1
  1
%%c
  7
SLDTEXTSTYLE0
 11
-8.820551857043885E-15
 21
1.0
 31
0.0
 73
     1
 44
1.0
  0
MTEXT
  5
124
330
119
100
AcDbEntity
  8
치수문자_일반주서
100
AcDbMText
 10
29.73538906607376
 20
-3.078160352599854
 30
0.0
 40
3.5
 41
0.0
 71
     1
 72
     1
  1
0.50
  7
SLDTEXTSTYLE0
 11
-8.820551857043885E-15
 21
1.0
 31
0.0
 73
     1
 44
1.0
  0
ENDBLK
  5
11B
330
119
100
AcDbEntity
  8
0
100
AcDbBlockEnd
  0
BLOCK
  5
126
330
125
100
AcDbEntity
  8
0
100
AcDbBlockBegin
  2
SW_DOWELSYMBOL_0
 70
     0
 10
0.0
 20
0.0
 30
0.0
  3
SW_DOWELSYMBOL_0
  1
SW_DOWELSYMBOL_0
  0
CIRCLE
  5
128
330
125
100
AcDbEntity
  8
외형선
 62
     0
100
AcDbCircle
 10
0.0
 20
0.0
 30
0.0
 40
3.000000000000004
  0
HATCH
  5
129
330
125
100
AcDbEntity
  8
0
  6
Continuous
 62
     0
370
    35
100
AcDbHatch
 10
0.0
 20
0.0
 30
0.0
210
0.0
220
0.0
230
1.0
  2
SOLID
 70
     1
 71
     0
 91
        1
 92
        0
 93
        3
 72
     2
 10
0.0000000000000104
 20
0.0
 40
3.000000000000004
 50
0.0
 51
90.0
 73
     1
 72
     1
 10
0.0000000000000104
 20
3.000000000000004
 11
0.0000000000000104
 21
0.0
 72
     1
 10
0.0000000000000104
 20
0.0
 11
3.000000000000015
 21
0.0
 97
        0
 75
     0
 76
     1
 98
        1
 10
0.0
 20
0.0
  0
HATCH
  5
12A
330
125
100
AcDbEntity
  8
0
  6
Continuous
 62
     0
370
    35
100
AcDbHatch
 10
0.0
 20
0.0
 30
0.0
210
0.0
220
0.0
230
1.0
  2
SOLID
 70
     1
 71
     0
 91
        1
 92
        0
 93
        3
 72
     2
 10
0.0000000000000104
 20
0.0
 40
3.000000000000004
 50
180.0
 51
270.0000000000008
 73
     1
 72
     1
 10
0.0000000000000104
 20
-3.000000000000004
 11
0.0000000000000104
 21
0.0
 72
     1
 10
0.0000000000000104
 20
0.0
 11
-2.999999999999994
 21
0.0
 97
        0
 75
     0
 76
     1
 98
        1
 10
0.0
 20
0.0
  0
ENDBLK
  5
127
330
125
100
AcDbEntity
  8
0
100
AcDbBlockEnd
  0
BLOCK
  5
188
330
187
100
AcDbEntity
  8
0
100
AcDbBlockBegin
  2
*D9
 70
     1
 10
0.0
 20
0.0
 30
0.0
  3
*D9
  1
*D9
  0
LINE
  5
189
330
187
100
AcDbEntity
  8
치수문자_일반주서
 62
     0
370
    -2
100
AcDbLine
 10
16.80895802161217
 20
9.101527699657481
 30
0.0
 11
4.374999999999993
 21
9.101527699657435
 31
0.0
  0
LINE
  5
18A
330
187
100
AcDbEntity
  8
치수문자_일반주서
 62
     0
370
    -2
100
AcDbLine
 10
16.80895802161217
 20
5.101527699657481
 30
0.0
 11
4.375000000000007
 21
5.101527699657435
 31
0.0
  0
LINE
  5
18B
330
187
100
AcDbEntity
  8
치수문자_일반주서
 62
     0
370
    -2
100
AcDbLine
 10
4.375000000000004
 20
5.799527699657435
 30
0.0
 11
4.374999999999996
 21
8.403527699657435
 31
0.0
  0
SOLID
  5
18C
330
187
100
AcDbEntity
  8
치수문자_일반주서
 62
     0
100
AcDbTrace
 10
4.925333333333338
 20
5.799527699657437
 30
0.0
 11
3.824666666666671
 21
5.799527699657434
 31
0.0
 12
4.374999999999993
 22
9.101527699657435
 32
0.0
 13
4.374999999999993
 23
9.101527699657435
 33
0.0
  0
SOLID
  5
18D
330
187
100
AcDbEntity
  8
치수문자_일반주서
 62
     0
100
AcDbTrace
 10
3.824666666666662
 20
8.403527699657433
 30
0.0
 11
4.925333333333329
 21
8.403527699657436
 31
0.0
 12
4.375000000000007
 22
5.101527699657435
 32
0.0
 13
4.375000000000007
 23
5.101527699657435
 33
0.0
  0
MTEXT
  5
18E
330
187
100
AcDbEntity
  8
치수문자_일반주서
 62
     0
100
AcDbMText
 10
0.0
 20
7.101527699657466
 30
0.0
 40
3.5
 41
0.0
 71
     2
 72
     1
  1
\A1;%%c4
  7
SLDTEXTSTYLE0
 11
-3.552713678800500E-15
 21
1.0
 31
0.0
 73
     1
 44
1.0
  0
POINT
  5
18F
330
187
100
AcDbEntity
  8
Defpoints
 62
     0
100
AcDbPoint
 10
16.87145802161217
 20
9.101527699657481
 30
0.0
  0
POINT
  5
190
330
187
100
AcDbEntity
  8
Defpoints
 62
     0
100
AcDbPoint
 10
16.87145802161217
 20
5.101527699657481
 30
0.0
  0
POINT
  5
191
330
187
100
AcDbEntity
  8
Defpoints
 62
     0
100
AcDbPoint
 10
4.375
 20
5.101527699657434
 30
0.0
  0
ENDBLK
  5
192
330
187
100
AcDbEntity
  8
0
100
AcDbBlockEnd
  0
BLOCK
  5
195
330
194
100
AcDbEntity
  8
0
100
AcDbBlockBegin
  2
*D10
 70
     1
 10
0.0
 20
0.0
 30
0.0
  3
*D10
  1
*D10
  0
LINE
  5
196
330
194
100
AcDbEntity
  8
치수문자_일반주서
 62
     0
370
    -2
100
AcDbLine
 10
65.87145802161217
 20
7.61402769965747
 30
0.0
 11
65.87145802161217
 21
26.05152769965713
 31
0.0
  0
LINE
  5
197
330
194
100
AcDbEntity
  8
치수문자_일반주서
 62
     0
370
    -2
100
AcDbLine
 10
64.37145802161217
 20
7.559431525031613
 30
0.0
 11
64.37145802161217
 21
26.05152769965713
 31
0.0
  0
LINE
  5
198
330
194
100
AcDbEntity
  8
치수문자_일반주서
 62
     0
370
    -2
100
AcDbLine
 10
65.87145802161217
 20
26.05152769965713
 30
0.0
 11
80.78795802161217
 21
26.05152769965713
 31
0.0
  0
LINE
  5
199
330
194
100
AcDbEntity
  8
치수문자_일반주서
 62
     0
370
    -2
100
AcDbLine
 10
65.87145802161217
 20
26.05152769965713
 30
0.0
 11
64.37145802161217
 21
26.05152769965713
 31
0.0
  0
LINE
  5
19A
330
194
100
AcDbEntity
  8
치수문자_일반주서
 62
     0
370
    -2
100
AcDbLine
 10
69.17345802161216
 20
26.05152769965713
 30
0.0
 11
72.47545802161216
 21
26.05152769965713
 31
0.0
  0
LINE
  5
19B
330
194
100
AcDbEntity
  8
치수문자_일반주서
 62
     0
370
    -2
100
AcDbLine
 10
61.06945802161217
 20
26.05152769965713
 30
0.0
 11
57.76745802161217
 21
26.05152769965713
 31
0.0
  0
SOLID
  5
19C
330
194
100
AcDbEntity
  8
치수문자_일반주서
 62
     0
100
AcDbTrace
 10
69.17345802161216
 20
26.60186103299046
 30
0.0
 11
69.17345802161216
 21
25.50119436632379
 31
0.0
 12
65.87145802161217
 22
26.05152769965713
 32
0.0
 13
65.87145802161217
 23
26.05152769965713
 33
0.0
  0
SOLID
  5
19D
330
194
100
AcDbEntity
  8
치수문자_일반주서
 62
     0
100
AcDbTrace
 10
61.06945802161217
 20
25.50119436632379
 30
0.0
 11
61.06945802161217
 21
26.60186103299046
 31
0.0
 12
64.37145802161217
 22
26.05152769965713
 32
0.0
 13
64.37145802161217
 23
26.05152769965713
 33
0.0
  0
MTEXT
  5
19E
330
194
100
AcDbEntity
  8
치수문자_일반주서
 62
     0
100
AcDbMText
 10
76.63170802161217
 20
30.42652769965713
 30
0.0
 40
3.5
 41
0.0
 71
     2
 72
     1
  1
\A1;1.50
  7
SLDTEXTSTYLE0
 73
     1
 44
1.0
  0
POINT
  5
19F
330
194
100
AcDbEntity
  8
Defpoints
 62
     0
100
AcDbPoint
 10
65.87145802161217
 20
7.55152769965747
 30
0.0
  0
POINT
  5
1A0
330
194
100
AcDbEntity
  8
Defpoints
 62
     0
100
AcDbPoint
 10
64.37145802161217
 20
7.496931525031613
 30
0.0
  0
POINT
  5
1E2
330
194
100
AcDbEntity
  8
Defpoints
 62
     0
100
AcDbPoint
 10
64.37145802161217
 20
26.05152769965713
 30
0.0
  0
ENDBLK
  5
1A1
330
194
100
AcDbEntity
  8
0
100
AcDbBlockEnd
  0
BLOCK
  5
1A4
330
1A3
100
AcDbEntity
  8
0
100
AcDbBlockBegin
  2
*D11
 70
     1
 10
0.0
 20
0.0
 30
0.0
  3
*D11
  1
*D11
  0
LINE
  5
1A5
330
1A3
100
AcDbEntity
  8
치수문자_일반주서
 62
     0
370
    -2
100
AcDbLine
 10
65.87145802161217
 20
7.61402769965747
 30
0.0
 11
65.87145802161217
 21
48.10985220470178
 31
0.0
  0
LINE
  5
1A6
330
1A3
100
AcDbEntity
  8
치수문자_일반주서
 62
     0
370
    -2
100
AcDbLine
 10
15.87145802161217
 20
8.164027699657481
 30
0.0
 11
15.87145802161217
 21
48.10985220470178
 31
0.0
  0
LINE
  5
1A7
330
1A3
100
AcDbEntity
  8
치수문자_일반주서
 62
     0
370
    -2
100
AcDbLine
 10
62.56945802161217
 20
48.10985220470178
 30
0.0
 11
19.17345802161217
 21
48.10985220470178
 31
0.0
  0
SOLID
  5
1A8
330
1A3
100
AcDbEntity
  8
치수문자_일반주서
 62
     0
100
AcDbTrace
 10
62.56945802161217
 20
47.55951887136845
 30
0.0
 11
62.56945802161217
 21
48.66018553803512
 31
0.0
 12
65.87145802161217
 22
48.10985220470178
 32
0.0
 13
65.87145802161217
 23
48.10985220470178
 33
0.0
  0
SOLID
  5
1A9
330
1A3
100
AcDbEntity
  8
치수문자_일반주서
 62
     0
100
AcDbTrace
 10
19.17345802161217
 20
48.66018553803512
 30
0.0
 11
19.17345802161217
 21
47.55951887136845
 31
0.0
 12
15.87145802161217
 22
48.10985220470178
 32
0.0
 13
15.87145802161217
 23
48.10985220470178
 33
0.0
  0
MTEXT
  5
1AA
330
1A3
100
AcDbEntity
  8
치수문자_일반주서
 62
     0
100
AcDbMText
 10
40.87145802161217
 20
52.48485220470178
 30
0.0
 40
3.5
 41
0.0
 71
     2
 72
     1
  1
\A1;50
  7
SLDTEXTSTYLE0
 73
     1
 44
1.0
  0
POINT
  5
1AB
330
1A3
100
AcDbEntity
  8
Defpoints
 62
     0
100
AcDbPoint
 10
65.87145802161217
 20
7.55152769965747
 30
0.0
  0
POINT
  5
1AC
330
1A3
100
AcDbEntity
  8
Defpoints
 62
     0
100
AcDbPoint
 10
15.87145802161217
 20
8.101527699657481
 30
0.0
  0
POINT
  5
1AD
330
1A3
100
AcDbEntity
  8
Defpoints
 62
     0
100
AcDbPoint
 10
15.87145802161217
 20
48.10985220470178
 30
0.0
  0
ENDBLK
  5
1AE
330
1A3
100
AcDbEntity
  8
0
100
AcDbBlockEnd
  0
BLOCK
  5
1B1
330
1B0
100
AcDbEntity
  8
0
100
AcDbBlockBegin
  2
*D12
 70
     1
 10
0.0
 20
0.0
 30
0.0
  3
*D12
  1
*D12
  0
LINE
  5
1B2
330
1B0
100
AcDbEntity
  8
치수문자_일반주서
 62
     0
370
    -2
100
AcDbLine
 10
65.87145802161217
 20
7.613229344458688
 30
0.0
 11
65.87145802161217
 21
37.22152769965763
 31
0.0
  0
LINE
  5
1B3
330
1B0
100
AcDbEntity
  8
치수문자_일반주서
 62
     0
370
    -2
100
AcDbLine
 10
59.87145802161217
 20
7.639027699657476
 30
0.0
 11
59.87145802161217
 21
37.22152769965763
 31
0.0
  0
LINE
  5
1B4
330
1B0
100
AcDbEntity
  8
치수문자_일반주서
 62
     0
370
    -2
100
AcDbLine
 10
65.87145802161217
 20
37.22152769965763
 30
0.0
 11
59.87145802161217
 21
37.22152769965763
 31
0.0
  0
LINE
  5
1B5
330
1B0
100
AcDbEntity
  8
치수문자_일반주서
 62
     0
370
    -2
100
AcDbLine
 10
69.17345802161216
 20
37.22152769965763
 30
0.0
 11
72.47545802161216
 21
37.22152769965763
 31
0.0
  0
LINE
  5
1B6
330
1B0
100
AcDbEntity
  8
치수문자_일반주서
 62
     0
370
    -2
100
AcDbLine
 10
56.56945802161217
 20
37.22152769965763
 30
0.0
 11
53.26745802161217
 21
37.22152769965763
 31
0.0
  0
SOLID
  5
1B7
330
1B0
100
AcDbEntity
  8
치수문자_일반주서
 62
     0
100
AcDbTrace
 10
69.17345802161216
 20
37.77186103299096
 30
0.0
 11
69.17345802161216
 21
36.67119436632429
 31
0.0
 12
65.87145802161217
 22
37.22152769965763
 32
0.0
 13
65.87145802161217
 23
37.22152769965763
 33
0.0
  0
SOLID
  5
1B8
330
1B0
100
AcDbEntity
  8
치수문자_일반주서
 62
     0
100
AcDbTrace
 10
56.56945802161217
 20
36.67119436632429
 30
0.0
 11
56.56945802161217
 21
37.77186103299096
 31
0.0
 12
59.87145802161217
 22
37.22152769965763
 32
0.0
 13
59.87145802161217
 23
37.22152769965763
 33
0.0
  0
MTEXT
  5
1B9
330
1B0
100
AcDbEntity
  8
치수문자_일반주서
 62
     0
100
AcDbMText
 10
61.87145802161217
 20
41.59652769965763
 30
0.0
 40
3.5
 41
0.0
 71
     2
 72
     1
  1
\A1;6
  7
SLDTEXTSTYLE0
 73
     1
 44
1.0
  0
POINT
  5
1BA
330
1B0
100
AcDbEntity
  8
Defpoints
 62
     0
100
AcDbPoint
 10
65.87145802161217
 20
7.550729344458688
 30
0.0
  0
POINT
  5
1BB
330
1B0
100
AcDbEntity
  8
Defpoints
 62
     0
100
AcDbPoint
 10
59.87145802161217
 20
7.576527699657476
 30
0.0
  0
POINT
  5
1BC
330
1B0
100
AcDbEntity
  8
Defpoints
 62
     0
100
AcDbPoint
 10
59.87145802161217
 20
37.22152769965763
 30
0.0
  0
ENDBLK
  5
1BD
330
1B0
100
AcDbEntity
  8
0
100
AcDbBlockEnd
  0
BLOCK
  5
1C0
330
1BF
100
AcDbEntity
  8
0
100
AcDbBlockBegin
  2
*D13
 70
     1
 10
0.0
 20
0.0
 30
0.0
  3
*D13
  1
*D13
  0
LINE
  5
1C1
330
1BF
100
AcDbEntity
  8
치수문자_일반주서
 62
     0
370
    -2
100
AcDbLine
 10
65.88395802161199
 20
7.599055399315034
 30
0.0
 11
80.39290691488145
 21
7.599055399315089
 31
0.0
  0
LINE
  5
1C2
330
1BF
100
AcDbEntity
  8
치수문자_일반주서
 62
     0
370
    -2
100
AcDbLine
 10
65.88395802161199
 20
6.603999999999928
 30
0.0
 11
80.39290691488145
 21
6.603999999999983
 31
0.0
  0
LINE
  5
1C3
330
1BF
100
AcDbEntity
  8
치수문자_일반주서
 62
     0
370
    -2
100
AcDbLine
 10
80.39290691488145
 20
7.599055399315089
 30
0.0
 11
80.39290691488145
 21
24.70305539931509
 31
0.0
  0
LINE
  5
1C4
330
1BF
100
AcDbEntity
  8
치수문자_일반주서
 62
     0
370
    -2
100
AcDbLine
 10
80.39290691488145
 20
7.599055399315089
 30
0.0
 11
80.39290691488145
 21
6.603999999999983
 31
0.0
  0
LINE
  5
1C5
330
1BF
100
AcDbEntity
  8
치수문자_일반주서
 62
     0
370
    -2
100
AcDbLine
 10
80.39290691488145
 20
10.90105539931509
 30
0.0
 11
80.39290691488145
 21
14.20305539931509
 31
0.0
  0
LINE
  5
1C6
330
1BF
100
AcDbEntity
  8
치수문자_일반주서
 62
     0
370
    -2
100
AcDbLine
 10
80.39290691488145
 20
3.301999999999984
 30
0.0
 11
80.39290691488145
 21
-0.000000000000016
 31
0.0
  0
SOLID
  5
1C7
330
1BF
100
AcDbEntity
  8
치수문자_일반주서
 62
     0
100
AcDbTrace
 10
79.84257358154812
 20
10.90105539931509
 30
0.0
 11
80.94324024821478
 21
10.90105539931509
 31
0.0
 12
80.39290691488145
 22
7.599055399315089
 32
0.0
 13
80.39290691488145
 23
7.599055399315089
 33
0.0
  0
SOLID
  5
1C8
330
1BF
100
AcDbEntity
  8
치수문자_일반주서
 62
     0
100
AcDbTrace
 10
80.94324024821478
 20
3.301999999999984
 30
0.0
 11
79.84257358154812
 21
3.301999999999984
 31
0.0
 12
80.39290691488145
 22
6.603999999999983
 32
0.0
 13
80.39290691488145
 23
6.603999999999983
 33
0.0
  0
MTEXT
  5
1C9
330
1BF
100
AcDbEntity
  8
치수문자_일반주서
 62
     0
100
AcDbMText
 10
76.01790691488145
 20
19.45305539931509
 30
0.0
 40
3.5
 41
0.0
 71
     2
 72
     1
  1
\A1;%%c1.00
  7
SLDTEXTSTYLE0
 11
0.0
 21
1.0
 31
0.0
 73
     1
 44
1.0
  0
POINT
  5
1CA
330
1BF
100
AcDbEntity
  8
Defpoints
 62
     0
100
AcDbPoint
 10
65.82145802161199
 20
7.599055399315034
 30
0.0
  0
POINT
  5
1CB
330
1BF
100
AcDbEntity
  8
Defpoints
 62
     0
100
AcDbPoint
 10
65.82145802161199
 20
6.603999999999928
 30
0.0
  0
POINT
  5
1CC
330
1BF
100
AcDbEntity
  8
Defpoints
 62
     0
100
AcDbPoint
 10
80.39290691488145
 20
6.603999999999982
 30
0.0
  0
ENDBLK
  5
1CD
330
1BF
100
AcDbEntity
  8
0
100
AcDbBlockEnd
  0
BLOCK
  5
200
330
1FF
100
AcDbEntity
  8
0
100
AcDbBlockBegin
  2
*D14
 70
     1
 10
0.0
 20
0.0
 30
0.0
  3
*D14
  1
*D14
  0
LINE
  5
202
330
1FF
100
AcDbEntity
  8
치수문자_일반주서
 62
     0
370
    -2
100
AcDbLine
 10
-37.37112251845747
 20
2.0
 30
0.0
 11
-49.80508054006965
 21
1.999999999999953
 31
0.0
  0
LINE
  5
203
330
1FF
100
AcDbEntity
  8
치수문자_일반주서
 62
     0
370
    -2
100
AcDbLine
 10
-37.37112251845747
 20
-2.0
 30
0.0
 11
-49.80508054006963
 21
-2.000000000000047
 31
0.0
  0
LINE
  5
204
330
1FF
100
AcDbEntity
  8
치수문자_일반주서
 62
     0
370
    -2
100
AcDbLine
 10
-49.80508054006963
 20
-1.302000000000047
 30
0.0
 11
-49.80508054006965
 21
1.301999999999953
 31
0.0
  0
SOLID
  5
205
330
1FF
100
AcDbEntity
  8
치수문자_일반주서
 62
     0
100
AcDbTrace
 10
-49.2547472067363
 20
-1.302000000000045
 30
0.0
 11
-50.35541387340297
 21
-1.302000000000049
 31
0.0
 12
-49.80508054006965
 22
1.999999999999953
 32
0.0
 13
-49.80508054006965
 23
1.999999999999953
 33
0.0
  0
SOLID
  5
206
330
1FF
100
AcDbEntity
  8
치수문자_일반주서
 62
     0
100
AcDbTrace
 10
-50.35541387340298
 20
1.301999999999951
 30
0.0
 11
-49.25474720673631
 21
1.301999999999955
 31
0.0
 12
-49.80508054006963
 22
-2.000000000000047
 32
0.0
 13
-49.80508054006963
 23
-2.000000000000047
 33
0.0
  0
MTEXT
  5
207
330
1FF
100
AcDbEntity
  8
치수문자_일반주서
 62
     0
100
AcDbMText
 10
-54.18008054006964
 20
-0.0000000000000154
 30
0.0
 40
3.5
 41
0.0
 71
     2
 72
     1
  1
\A1;%%c4
  7
SLDTEXTSTYLE0
 11
-3.552713678800502E-15
 21
1.0
 31
0.0
 73
     1
 44
1.0
  0
POINT
  5
208
330
1FF
100
AcDbEntity
  8
Defpoints
 62
     0
100
AcDbPoint
 10
-37.30862251845747
 20
2.0
 30
0.0
  0
POINT
  5
209
330
1FF
100
AcDbEntity
  8
Defpoints
 62
     0
100
AcDbPoint
 10
-37.30862251845747
 20
-2.0
 30
0.0
  0
POINT
  5
20A
330
1FF
100
AcDbEntity
  8
Defpoints
 62
     0
100
AcDbPoint
 10
-49.80508054006963
 20
-2.000000000000047
 30
0.0
  0
ENDBLK
  5
201
330
1FF
100
AcDbEntity
  8
0
100
AcDbBlockEnd
  0
BLOCK
  5
20C
330
20B
100
AcDbEntity
  8
0
100
AcDbBlockBegin
  2
*D15
 70
     1
 10
0.0
 20
0.0
 30
0.0
  3
*D15
  1
*D15
  0
LINE
  5
20E
330
20B
100
AcDbEntity
  8
치수문자_일반주서
 62
     0
370
    -2
100
AcDbLine
 10
11.69137748154253
 20
0.5124999999999886
 30
0.0
 11
11.69137748154253
 21
18.94999999999965
 31
0.0
  0
LINE
  5
20F
330
20B
100
AcDbEntity
  8
치수문자_일반주서
 62
     0
370
    -2
100
AcDbLine
 10
10.19137748154253
 20
0.4579038253741317
 30
0.0
 11
10.19137748154253
 21
18.94999999999965
 31
0.0
  0
LINE
  5
210
330
20B
100
AcDbEntity
  8
치수문자_일반주서
 62
     0
370
    -2
100
AcDbLine
 10
11.69137748154253
 20
18.94999999999965
 30
0.0
 11
26.60787748154253
 21
18.94999999999965
 31
0.0
  0
LINE
  5
211
330
20B
100
AcDbEntity
  8
치수문자_일반주서
 62
     0
370
    -2
100
AcDbLine
 10
11.69137748154253
 20
18.94999999999965
 30
0.0
 11
10.19137748154253
 21
18.94999999999965
 31
0.0
  0
LINE
  5
212
330
20B
100
AcDbEntity
  8
치수문자_일반주서
 62
     0
370
    -2
100
AcDbLine
 10
14.99337748154253
 20
18.94999999999965
 30
0.0
 11
18.29537748154253
 21
18.94999999999965
 31
0.0
  0
LINE
  5
213
330
20B
100
AcDbEntity
  8
치수문자_일반주서
 62
     0
370
    -2
100
AcDbLine
 10
6.889377481542532
 20
18.94999999999965
 30
0.0
 11
3.587377481542532
 21
18.94999999999965
 31
0.0
  0
SOLID
  5
214
330
20B
100
AcDbEntity
  8
치수문자_일반주서
 62
     0
100
AcDbTrace
 10
14.99337748154253
 20
19.50033333333298
 30
0.0
 11
14.99337748154253
 21
18.39966666666631
 31
0.0
 12
11.69137748154253
 22
18.94999999999965
 32
0.0
 13
11.69137748154253
 23
18.94999999999965
 33
0.0
  0
SOLID
  5
215
330
20B
100
AcDbEntity
  8
치수문자_일반주서
 62
     0
100
AcDbTrace
 10
6.889377481542532
 20
18.39966666666631
 30
0.0
 11
6.889377481542532
 21
19.50033333333298
 31
0.0
 12
10.19137748154253
 22
18.94999999999965
 32
0.0
 13
10.19137748154253
 23
18.94999999999965
 33
0.0
  0
MTEXT
  5
216
330
20B
100
AcDbEntity
  8
치수문자_일반주서
 62
     0
100
AcDbMText
 10
22.45162748154253
 20
23.32499999999965
 30
0.0
 40
3.5
 41
0.0
 71
     2
 72
     1
  1
\A1;1.50
  7
SLDTEXTSTYLE0
 73
     1
 44
1.0
  0
POINT
  5
217
330
20B
100
AcDbEntity
  8
Defpoints
 62
     0
100
AcDbPoint
 10
11.69137748154253
 20
0.4499999999999886
 30
0.0
  0
POINT
  5
218
330
20B
100
AcDbEntity
  8
Defpoints
 62
     0
100
AcDbPoint
 10
10.19137748154253
 20
0.3954038253741317
 30
0.0
  0
POINT
  5
219
330
20B
100
AcDbEntity
  8
Defpoints
 62
     0
100
AcDbPoint
 10
10.19137748154253
 20
18.94999999999965
 30
0.0
  0
ENDBLK
  5
20D
330
20B
100
AcDbEntity
  8
0
100
AcDbBlockEnd
  0
BLOCK
  5
21B
330
21A
100
AcDbEntity
  8
0
100
AcDbBlockBegin
  2
*D16
 70
     1
 10
0.0
 20
0.0
 30
0.0
  3
*D16
  1
*D16
  0
LINE
  5
21D
330
21A
100
AcDbEntity
  8
치수문자_일반주서
 62
     0
370
    -2
100
AcDbLine
 10
11.69137748154253
 20
0.5124999999999886
 30
0.0
 11
11.69137748154253
 21
41.0083245050443
 31
0.0
  0
LINE
  5
21E
330
21A
100
AcDbEntity
  8
치수문자_일반주서
 62
     0
370
    -2
100
AcDbLine
 10
-38.30862251845747
 20
1.0625
 30
0.0
 11
-38.30862251845747
 21
41.0083245050443
 31
0.0
  0
LINE
  5
21F
330
21A
100
AcDbEntity
  8
치수문자_일반주서
 62
     0
370
    -2
100
AcDbLine
 10
8.389377481542532
 20
41.0083245050443
 30
0.0
 11
-35.00662251845747
 21
41.0083245050443
 31
0.0
  0
SOLID
  5
220
330
21A
100
AcDbEntity
  8
치수문자_일반주서
 62
     0
100
AcDbTrace
 10
8.389377481542532
 20
40.45799117171097
 30
0.0
 11
8.389377481542532
 21
41.55865783837763
 31
0.0
 12
11.69137748154253
 22
41.0083245050443
 32
0.0
 13
11.69137748154253
 23
41.0083245050443
 33
0.0
  0
SOLID
  5
221
330
21A
100
AcDbEntity
  8
치수문자_일반주서
 62
     0
100
AcDbTrace
 10
-35.00662251845747
 20
41.55865783837763
 30
0.0
 11
-35.00662251845747
 21
40.45799117171097
 31
0.0
 12
-38.30862251845747
 22
41.0083245050443
 32
0.0
 13
-38.30862251845747
 23
41.0083245050443
 33
0.0
  0
MTEXT
  5
222
330
21A
100
AcDbEntity
  8
치수문자_일반주서
 62
     0
100
AcDbMText
 10
-13.30862251845747
 20
45.3833245050443
 30
0.0
 40
3.5
 41
0.0
 71
     2
 72
     1
  1
\A1;50
  7
SLDTEXTSTYLE0
 73
     1
 44
1.0
  0
POINT
  5
223
330
21A
100
AcDbEntity
  8
Defpoints
 62
     0
100
AcDbPoint
 10
11.69137748154253
 20
0.4499999999999886
 30
0.0
  0
POINT
  5
224
330
21A
100
AcDbEntity
  8
Defpoints
 62
     0
100
AcDbPoint
 10
-38.30862251845747
 20
1.0
 30
0.0
  0
POINT
  5
225
330
21A
100
AcDbEntity
  8
Defpoints
 62
     0
100
AcDbPoint
 10
-38.30862251845747
 20
41.0083245050443
 30
0.0
  0
ENDBLK
  5
21C
330
21A
100
AcDbEntity
  8
0
100
AcDbBlockEnd
  0
BLOCK
  5
227
330
226
100
AcDbEntity
  8
0
100
AcDbBlockBegin
  2
*D17
 70
     1
 10
0.0
 20
0.0
 30
0.0
  3
*D17
  1
*D17
  0
LINE
  5
229
330
226
100
AcDbEntity
  8
치수문자_일반주서
 62
     0
370
    -2
100
AcDbLine
 10
11.69137748154253
 20
0.5117016448012066
 30
0.0
 11
11.69137748154253
 21
30.12000000000015
 31
0.0
  0
LINE
  5
22A
330
226
100
AcDbEntity
  8
치수문자_일반주서
 62
     0
370
    -2
100
AcDbLine
 10
5.691377481542531
 20
0.5374999999999943
 30
0.0
 11
5.691377481542531
 21
30.12000000000015
 31
0.0
  0
LINE
  5
22B
330
226
100
AcDbEntity
  8
치수문자_일반주서
 62
     0
370
    -2
100
AcDbLine
 10
11.69137748154253
 20
30.12000000000015
 30
0.0
 11
5.691377481542531
 21
30.12000000000015
 31
0.0
  0
LINE
  5
22C
330
226
100
AcDbEntity
  8
치수문자_일반주서
 62
     0
370
    -2
100
AcDbLine
 10
14.99337748154253
 20
30.12000000000015
 30
0.0
 11
18.29537748154253
 21
30.12000000000015
 31
0.0
  0
LINE
  5
22D
330
226
100
AcDbEntity
  8
치수문자_일반주서
 62
     0
370
    -2
100
AcDbLine
 10
2.389377481542532
 20
30.12000000000015
 30
0.0
 11
-0.9126225184574679
 21
30.12000000000015
 31
0.0
  0
SOLID
  5
22E
330
226
100
AcDbEntity
  8
치수문자_일반주서
 62
     0
100
AcDbTrace
 10
14.99337748154253
 20
30.67033333333348
 30
0.0
 11
14.99337748154253
 21
29.56966666666681
 31
0.0
 12
11.69137748154253
 22
30.12000000000015
 32
0.0
 13
11.69137748154253
 23
30.12000000000015
 33
0.0
  0
SOLID
  5
22F
330
226
100
AcDbEntity
  8
치수문자_일반주서
 62
     0
100
AcDbTrace
 10
2.389377481542532
 20
29.56966666666681
 30
0.0
 11
2.389377481542532
 21
30.67033333333348
 31
0.0
 12
5.691377481542531
 22
30.12000000000015
 32
0.0
 13
5.691377481542531
 23
30.12000000000015
 33
0.0
  0
MTEXT
  5
230
330
226
100
AcDbEntity
  8
치수문자_일반주서
 62
     0
100
AcDbMText
 10
7.691377481542531
 20
34.49500000000015
 30
0.0
 40
3.5
 41
0.0
 71
     2
 72
     1
  1
\A1;6
  7
SLDTEXTSTYLE0
 73
     1
 44
1.0
  0
POINT
  5
231
330
226
100
AcDbEntity
  8
Defpoints
 62
     0
100
AcDbPoint
 10
11.69137748154253
 20
0.4492016448012066
 30
0.0
  0
POINT
  5
232
330
226
100
AcDbEntity
  8
Defpoints
 62
     0
100
AcDbPoint
 10
5.691377481542531
 20
0.4749999999999943
 30
0.0
  0
POINT
  5
233
330
226
100
AcDbEntity
  8
Defpoints
 62
     0
100
AcDbPoint
 10
5.691377481542531
 20
30.12000000000015
 30
0.0
  0
ENDBLK
  5
228
330
226
100
AcDbEntity
  8
0
100
AcDbBlockEnd
  0
BLOCK
  5
235
330
234
100
AcDbEntity
  8
0
100
AcDbBlockBegin
  2
*D18
 70
     1
 10
0.0
 20
0.0
 30
0.0
  3
*D18
  1
*D18
  0
LINE
  5
237
330
234
100
AcDbEntity
  8
치수문자_일반주서
 62
     0
370
    -2
100
AcDbLine
 10
11.70387748154235
 20
0.4975276996575533
 30
0.0
 11
26.21282637481185
 21
0.4975276996576081
 31
0.0
  0
LINE
  5
238
330
234
100
AcDbEntity
  8
치수문자_일반주서
 62
     0
370
    -2
100
AcDbLine
 10
11.70387748154235
 20
-0.4975276996575528
 30
0.0
 11
26.21282637481186
 21
-0.497527699657498
 31
0.0
  0
LINE
  5
239
330
234
100
AcDbEntity
  8
치수문자_일반주서
 62
     0
370
    -2
100
AcDbLine
 10
26.21282637481185
 20
0.4975276996576081
 30
0.0
 11
26.21282637481179
 21
17.60152769965761
 31
0.0
  0
LINE
  5
23A
330
234
100
AcDbEntity
  8
치수문자_일반주서
 62
     0
370
    -2
100
AcDbLine
 10
26.21282637481185
 20
0.4975276996576081
 30
0.0
 11
26.21282637481186
 21
-0.497527699657498
 31
0.0
  0
LINE
  5
23B
330
234
100
AcDbEntity
  8
치수문자_일반주서
 62
     0
370
    -2
100
AcDbLine
 10
26.21282637481184
 20
3.799527699657608
 30
0.0
 11
26.21282637481183
 21
7.101527699657607
 31
0.0
  0
LINE
  5
23C
330
234
100
AcDbEntity
  8
치수문자_일반주서
 62
     0
370
    -2
100
AcDbLine
 10
26.21282637481187
 20
-3.799527699657498
 30
0.0
 11
26.21282637481188
 21
-7.101527699657497
 31
0.0
  0
SOLID
  5
23D
330
234
100
AcDbEntity
  8
치수문자_일반주서
 62
     0
100
AcDbTrace
 10
25.66249304147851
 20
3.799527699657606
 30
0.0
 11
26.76315970814518
 21
3.79952769965761
 31
0.0
 12
26.21282637481185
 22
0.4975276996576081
 32
0.0
 13
26.21282637481185
 23
0.4975276996576081
 33
0.0
  0
SOLID
  5
23E
330
234
100
AcDbEntity
  8
치수문자_일반주서
 62
     0
100
AcDbTrace
 10
26.7631597081452
 20
-3.799527699657496
 30
0.0
 11
25.66249304147853
 21
-3.799527699657499
 31
0.0
 12
26.21282637481186
 22
-0.497527699657498
 32
0.0
 13
26.21282637481186
 23
-0.497527699657498
 33
0.0
  0
MTEXT
  5
23F
330
234
100
AcDbEntity
  8
치수문자_일반주서
 62
     0
100
AcDbMText
 10
21.83782637481181
 20
12.35152769965759
 30
0.0
 40
3.5
 41
0.0
 71
     2
 72
     1
  1
\A1;%%c1.00
  7
SLDTEXTSTYLE0
 11
-3.570367721481461E-15
 21
1.0
 31
0.0
 73
     1
 44
1.0
  0
POINT
  5
240
330
234
100
AcDbEntity
  8
Defpoints
 62
     0
100
AcDbPoint
 10
11.64137748154235
 20
0.4975276996575531
 30
0.0
  0
POINT
  5
241
330
234
100
AcDbEntity
  8
Defpoints
 62
     0
100
AcDbPoint
 10
11.64137748154235
 20
-0.4975276996575531
 30
0.0
  0
POINT
  5
242
330
234
100
AcDbEntity
  8
Defpoints
 62
     0
100
AcDbPoint
 10
26.21282637481181
 20
-0.4975276996574986
 30
0.0
  0
ENDBLK
  5
236
330
234
100
AcDbEntity
  8
0
100
AcDbBlockEnd
  0
BLOCK
  5
28C
330
28B
100
AcDbEntity
  8
0
100
AcDbBlockBegin
  2
*D20
 70
     1
 10
0.0
 20
0.0
 30
0.0
  3
*D20
  1
*D20
  0
LINE
  5
28D
330
28B
100
AcDbEntity
  8
치수문자_일반주서
 62
     0
370
    -2
100
AcDbLine
 10
2.330009914998979
 20
19.56834395126898
 30
0.0
 11
7.65409439646898
 21
0.0000000000000284
 31
0.0
  0
MTEXT
  5
28E
330
28B
100
AcDbEntity
  8
치수문자_일반주서
 62
     0
100
AcDbMText
 10
8.693862210812995
 20
6.177148544616247
 30
0.0
 40
3.5
 41
0.0
 71
     5
 72
     1
  1
\A1;R0.05
  7
SLDTEXTSTYLE0
 11
0.2625327908708026
 21
-0.9649230713987449
 31
0.0
 73
     1
 44
1.0
  0
LINE
  5
28F
330
28B
100
AcDbEntity
  8
치수문자_일반주서
 62
     0
370
    -2
100
AcDbLine
 10
1.450000000000045
 20
22.80276608659759
 30
0.0
 11
1.463126639543589
 21
22.75451993302764
 31
0.0
  0
SOLID
  5
290
330
28B
100
AcDbEntity
  8
치수문자_일반주서
 62
     0
100
AcDbTrace
 10
2.861039245292088
 20
19.71282449717821
 30
0.0
 11
1.79898058470587
 21
19.42386340535975
 31
0.0
 12
1.463126639543589
 22
22.75451993302764
 32
0.0
 13
1.463126639543589
 23
22.75451993302764
 33
0.0
  0
POINT
  5
291
330
28B
100
AcDbEntity
  8
Defpoints
 62
     0
100
AcDbPoint
 10
1.463126639543589
 20
22.75451993302764
 30
0.0
  0
POINT
  5
292
330
28B
100
AcDbEntity
  8
Defpoints
 62
     0
100
AcDbPoint
 10
1.450000000000045
 20
22.80276608659759
 30
0.0
  0
ENDBLK
  5
293
330
28B
100
AcDbEntity
  8
0
100
AcDbBlockEnd
  0
BLOCK
  5
2BA
330
2B9
100
AcDbEntity
  8
0
100
AcDbBlockBegin
  2
*D21
 70
     1
 10
0.0
 20
0.0
 30
0.0
  3
*D21
  1
*D21
  0
LINE
  5
2BC
330
2B9
100
AcDbEntity
  8
치수문자_일반주서
 62
     0
370
    -2
100
AcDbLine
 10
12.52138740436157
 20
-3.681949834701843
 30
0.0
 11
17.84547188583158
 21
-23.2502937859708
 31
0.0
  0
MTEXT
  5
2BD
330
2B9
100
AcDbEntity
  8
치수문자_일반주서
 62
     0
100
AcDbMText
 10
18.88523970017559
 20
-17.07314524135458
 30
0.0
 40
3.5
 41
0.0
 71
     5
 72
     1
  1
\A1;R0.05
  7
SLDTEXTSTYLE0
 11
0.2625327908708026
 21
-0.9649230713987449
 31
0.0
 73
     1
 44
1.0
  0
LINE
  5
2BE
330
2B9
100
AcDbEntity
  8
치수문자_일반주서
 62
     0
370
    -2
100
AcDbLine
 10
11.64137748936264
 20
-0.4475276993732393
 30
0.0
 11
11.65450412890618
 21
-0.4957738529431879
 31
0.0
  0
SOLID
  5
2BF
330
2B9
100
AcDbEntity
  8
치수문자_일반주서
 62
     0
100
AcDbTrace
 10
13.05241673465468
 20
-3.537469288792611
 30
0.0
 11
11.99035807406846
 21
-3.826430380611075
 31
0.0
 12
11.65450412890618
 22
-0.4957738529431879
 32
0.0
 13
11.65450412890618
 23
-0.4957738529431879
 33
0.0
  0
POINT
  5
2C0
330
2B9
100
AcDbEntity
  8
Defpoints
 62
     0
100
AcDbPoint
 10
11.65450412890618
 20
-0.4957738529431879
 30
0.0
  0
POINT
  5
2C1
330
2B9
100
AcDbEntity
  8
Defpoints
 62
     0
100
AcDbPoint
 10
11.64137748936264
 20
-0.4475276993732393
 30
0.0
  0
ENDBLK
  5
2BB
330
2B9
100
AcDbEntity
  8
0
100
AcDbBlockEnd
  0
ENDSEC
  0
SECTION
  2
ENTITIES
  0
INSERT
  5
DE
330
1F
100
AcDbEntity
  8
0
  6
Continuous
 62
     7
100
AcDbBlockReference
 66
     1
  2
블럭10
 10
-22.93944368806589
 20
-52.04609937292004
 30
0.0
  0
ATTRIB
  5
DF
330
DE
100
AcDbEntity
  8
FORMAT
 62
     2
100
AcDbText
 10
-43.79769121965843
 20
-49.97073246008785
 30
0.0
 40
4.233333333333333
  1
SEME6101000506E [ 2 FLUTE ]
 41
0.75
  7
SLDTEXTSTYLE0
 11
-43.79769121965843
 21
-52.08739912675452
 31
0.0
100
AcDbAttribute
  2
AUTOATTR0
 70
     0
 74
     1
  0
SEQEND
  5
E0
330
DE
100
AcDbEntity
  8
0
  6
Continuous
 62
     7
  0
HATCH
  5
E1
330
1F
100
AcDbEntity
  8
중심선
100
AcDbHatch
 10
0.0
 20
0.0
 30
0.0
210
0.0
220
0.0
230
1.0
  2
SOLID
 70
     1
 71
     0
 91
        1
 92
        0
 93
        4
 72
     1
 10
-17.22453438368504
 20
-35.7989250712761
 11
-20.67080962752232
 21
-35.7989250712761
 72
     1
 10
-20.67080962752232
 20
-35.7989250712761
 11
-22.79903948672635
 21
-38.3352506518487
 72
     1
 10
-22.79903948672635
 20
-38.3352506518487
 11
-19.35273115777591
 21
-38.33521122254621
 72
     1
 10
-19.35273115777591
 20
-38.33521122254621
 11
-17.22453438368504
 21
-35.7989250712761
 97
        0
 75
     0
 76
     1
 98
        1
 10
0.0
 20
0.0
  0
HATCH
  5
E2
330
1F
100
AcDbEntity
  8
중심선
100
AcDbHatch
 10
0.0
 20
0.0
 30
0.0
210
0.0
220
0.0
230
1.0
  2
SOLID
 70
     1
 71
     0
 91
        1
 92
        0
 93
        4
 72
     1
 10
-12.21177039264909
 20
-35.7989250712761
 11
-15.65804563648637
 21
-35.7989250712761
 72
     1
 10
-15.65804563648637
 20
-35.7989250712761
 11
-20.18918364484376
 21
-41.19892507127612
 72
     1
 10
-20.18918364484376
 20
-41.19892507127612
 11
-16.74290840100648
 21
-41.19892507127612
 72
     1
 10
-16.74290840100648
 20
-41.19892507127612
 11
-12.21177039264909
 21
-35.7989250712761
 97
        0
 75
     0
 76
     1
 98
        1
 10
0.0
 20
0.0
  0
HATCH
  5
E3
330
1F
100
AcDbEntity
  8
중심선
100
AcDbHatch
 10
0.0
 20
0.0
 30
0.0
210
0.0
220
0.0
230
1.0
  2
SOLID
 70
     1
 71
     0
 91
        1
 92
        0
 93
        4
 72
     1
 10
-7.199006401613195
 20
-35.79892507127613
 11
-10.64528164545031
 21
-35.7989250712761
 72
     1
 10
-10.64528164545031
 20
-35.7989250712761
 11
-17.69371854733956
 21
-44.19892507127612
 72
     1
 10
-17.69371854733956
 20
-44.19892507127612
 11
-14.24744330350228
 21
-44.19892507127612
 72
     1
 10
-14.24744330350228
 20
-44.19892507127612
 11
-7.199006401613195
 21
-35.79892507127613
 97
        0
 75
     0
 76
     1
 98
        1
 10
0.0
 20
0.0
  0
HATCH
  5
E4
330
1F
100
AcDbEntity
  8
중심선
100
AcDbHatch
 10
0.0
 20
0.0
 30
0.0
210
0.0
220
0.0
230
1.0
  2
SOLID
 70
     1
 71
     0
 91
        1
 92
        0
 93
        6
 72
     3
 10
-2.399115970600996
 20
-39.99892507132738
 11
3.960054785062284
 21
1.540850780301639E-10
 40
0.3939339440162633
 50
17.09539180608433
 51
320.0019657685079
 73
     0
 72
     1
 10
-0.7161163149004002
 20
-38.58681907591441
 11
1.589185558800638
 21
-36.65249236586649
 72
     3
 10
-2.399115970653842
 20
-39.99892507127625
 11
6.600054785286829
 21
-1.249000902703301E-13
 40
0.6363583540795982
 50
39.99873849337408
 51
368.4976242363725
 73
     1
 72
     1
 10
4.026216521246767
 20
-39.03892507120613
 11
-3.71904866381792
 21
-39.0389250712061
 72
     1
 10
-3.71904866381792
 20
-39.0389250712061
 11
-3.719073708263854
 21
-40.95892507120602
 72
     1
 10
-3.719073708263854
 20
-40.95892507120602
 11
0.7223060612081831
 21
-40.95892507120599
 97
        0
 75
     0
 76
     1
 98
        1
 10
0.0
 20
0.0
  0
LINE
  5
1E4
330
1F
100
AcDbEntity
  8
0
  6
Continuous
 62
     4
370
    25
100
AcDbLine
 10
0.0
 20
2.0
 30
0.0
 11
-37.30862251845747
 21
2.0
 31
0.0
  0
LINE
  5
1E5
330
1F
100
AcDbEntity
  8
0
  6
Continuous
 62
     4
370
    25
100
AcDbLine
 10
-37.30862251845747
 20
-2.0
 30
0.0
 11
0.0
 21
-2.0
 31
0.0
  0
LINE
  5
1E6
330
1F
100
AcDbEntity
  8
0
  6
Continuous
 62
     4
370
    25
100
AcDbLine
 10
-37.30862251845747
 20
2.0
 30
0.0
 11
-38.30862251845747
 21
1.0
 31
0.0
  0
LINE
  5
1E7
330
1F
100
AcDbEntity
  8
0
  6
Continuous
 62
     4
370
    25
100
AcDbLine
 10
-38.30862251845747
 20
-1.0
 30
0.0
 11
-37.30862251845747
 21
-2.0
 31
0.0
  0
LINE
  5
1E8
330
1F
100
AcDbEntity
  8
0
  6
Continuous
 62
     4
370
    25
100
AcDbLine
 10
9.266563053240588
 20
0.4749999999999943
 30
0.0
 11
9.016839560549442
 21
0.4749999999999943
 31
0.0
  0
LINE
  5
1E9
330
1F
100
AcDbEntity
  8
0
  6
Continuous
 62
     4
370
    25
100
AcDbLine
 10
0.0
 20
2.0
 30
0.0
 11
0.0
 21
-2.0
 31
0.0
  0
LINE
  5
1EA
330
1F
100
AcDbEntity
  8
0
  6
Continuous
 62
     4
370
    25
100
AcDbLine
 10
-37.30862251845747
 20
2.0
 30
0.0
 11
-37.30862251845747
 21
-2.0
 31
0.0
  0
LINE
  5
1EB
330
1F
100
AcDbEntity
  8
0
  6
Continuous
 62
     4
370
    25
100
AcDbLine
 10
-38.30862251845747
 20
1.0
 30
0.0
 11
-38.30862251845747
 21
-1.0
 31
0.0
  0
LINE
  5
1EC
330
1F
100
AcDbEntity
  8
중심선
100
AcDbLine
 10
-41.30862251845747
 20
0.0
 30
0.0
 11
13.19137748154253
 21
0.0
 31
0.0
  0
CIRCLE
  5
1ED
330
1F
100
AcDbEntity
  8
외형선
100
AcDbCircle
 10
0.0
 20
0.0
 30
0.0
 40
3.000000000000005
  0
DIMENSION
  5
1EE
330
1F
100
AcDbEntity
  8
치수문자_일반주서
100
AcDbDimension
  2
*D14
 10
-49.80508054006963
 20
-2.000000000000047
 30
0.0
 11
-49.80508054006964
 21
0.0
 31
0.0
 70
   160
  1
%%c<>
 71
     2
 42
4.0
 52
-270.0
  3
SLDDIMSTYLE0
100
AcDbAlignedDimension
 13
-37.30862251845747
 23
2.0
 33
0.0
 14
-37.30862251845747
 24
-2.0
 34
0.0
 50
90.0000000000002
100
AcDbRotatedDimension
  0
DIMENSION
  5
1EF
330
1F
100
AcDbEntity
  8
치수문자_일반주서
100
AcDbDimension
  2
*D15
 10
10.19137748154253
 20
18.94999999999965
 30
0.0
 11
22.45162748154253
 21
18.94999999999965
 31
0.0
 70
   160
  1
<>
 71
     2
 42
1.5
  3
SLDDIMSTYLE1
100
AcDbAlignedDimension
 13
11.69137748154253
 23
0.4499999999999886
 33
0.0
 14
10.19137748154253
 24
0.3954038253741317
 34
0.0
100
AcDbRotatedDimension
  0
DIMENSION
  5
1F0
330
1F
100
AcDbEntity
  8
치수문자_일반주서
100
AcDbDimension
  2
*D16
 10
-38.30862251845747
 20
41.0083245050443
 30
0.0
 11
-13.30862251845747
 21
41.0083245050443
 31
0.0
 70
   160
  1
<>
 71
     2
 42
50.0
  3
SLDDIMSTYLE2
100
AcDbAlignedDimension
 13
11.69137748154253
 23
0.4499999999999886
 33
0.0
 14
-38.30862251845747
 24
1.0
 34
0.0
100
AcDbRotatedDimension
  0
DIMENSION
  5
1F1
330
1F
100
AcDbEntity
  8
치수문자_일반주서
100
AcDbDimension
  2
*D17
 10
5.691377481542531
 20
30.12000000000015
 30
0.0
 11
7.691377481542531
 21
30.12000000000015
 31
0.0
 70
   160
  1
<>
 71
     2
 42
6.0
  3
SLDDIMSTYLE0
100
AcDbAlignedDimension
 13
11.69137748154253
 23
0.4492016448012066
 33
0.0
 14
5.691377481542531
 24
0.4749999999999943
 34
0.0
 50
0.0000000000001916
100
AcDbRotatedDimension
1001
ACAD_DSTYLE_DIMFLIPARROW_SYMBOL
1070
   385
1070
     0
1001
ACAD_DSTYLE_DIMFLIPARROW_WHICH_SYMBOL
1070
   386
1070
     3
  0
DIMENSION
  5
1F2
330
1F
100
AcDbEntity
  8
치수문자_일반주서
100
AcDbDimension
  2
*D18
 10
26.21282637481186
 20
-0.497527699657498
 30
0.0
 11
26.21282637481181
 21
12.35152769965761
 31
0.0
 70
   160
  1
%%c<>
 71
     2
 42
0.9950553993151061
 52
-270.0
  3
SLDDIMSTYLE3
100
AcDbAlignedDimension
 13
11.64137748154235
 23
0.4975276996575531
 33
0.0
 14
11.64137748154235
 24
-0.4975276996575531
 34
0.0
 50
90.0000000000002
100
AcDbRotatedDimension
  0
INSERT
  5
1F3
330
1F
100
AcDbEntity
  8
외형선
100
AcDbBlockReference
  2
SW_DOWELSYMBOL_0
 10
0.0
 20
0.0
 30
0.0
  0
SPLINE
  5
1F4
330
1F
100
AcDbEntity
  8
0
  6
Continuous
 62
     4
370
    25
100
AcDbSpline
210
0.0
220
0.0
230
1.0
 70
     8
 71
     3
 72
    10
 73
     6
 74
     0
 42
0.000000001
 43
0.00000001
 40
0.0
 40
0.0
 40
0.0
 40
0.0
 40
0.4192851963710834
 40
0.8385701827882849
 40
1.0
 40
1.0
 40
1.0
 40
1.0
 10
10.19137748154253
 20
0.2288027052700272
 30
0.0
 10
10.06212326322907
 20
0.285319496006025
 30
0.0
 10
9.803614891325196
 20
0.3983530491776719
 30
0.0
 10
9.495329782092313
 20
0.4764329508135461
 30
0.0
 10
9.316323935669288
 20
0.4749999999999943
 30
0.0
 10
9.266563053240588
 20
0.4749999999999943
 30
0.0
  0
SPLINE
  5
1F5
330
1F
100
AcDbEntity
  8
0
  6
Continuous
 62
     4
370
    25
100
AcDbSpline
210
0.0
220
0.0
230
1.0
 70
     8
 71
     3
 72
    11
 73
     7
 74
     0
 42
0.000000001
 43
0.00000001
 40
0.0
 40
0.0
 40
0.0
 40
0.0
 40
0.3379031320936398
 40
0.5952654967328777
 40
0.7702397390746698
 40
0.8649171365636716
 40
0.8649171365636716
 40
0.8649171365636716
 40
0.8649171365636716
 10
10.19137748936282
 20
0.3951958350956772
 30
0.0
 10
10.14142947662845
 20
0.3934432459806487
 30
0.0
 10
10.05343878998724
 20
0.3903558054361724
 30
0.0
 10
9.939573952277442
 20
0.3892806879310911
 30
0.0
 10
9.862476386724893
 20
0.3912831088279063
 30
0.0
 10
9.828354387834906
 20
0.3924774090536403
 30
0.0
 10
9.755302367579361
 20
0.4025652374450317
 30
0.0
  0
LINE
  5
1F6
330
1F
100
AcDbEntity
  8
0
  6
Continuous
 62
     4
370
    25
100
AcDbLine
 10
10.19137748154253
 20
-0.3943126134469139
 30
0.0
 11
9.53698350488753
 21
-0.4749999999999943
 31
0.0
  0
LINE
  5
1F7
330
1F
100
AcDbEntity
  8
0
  6
Continuous
 62
     4
370
    25
100
AcDbLine
 10
5.691377481542531
 20
0.4749999999999943
 30
0.0
 11
2.778978634832811
 21
0.9885344952591311
 31
0.0
  0
LINE
  5
1F8
330
1F
100
AcDbEntity
  8
0
  6
Continuous
 62
     4
370
    25
100
AcDbLine
 10
0.0
 20
2.0
 30
0.0
 11
2.778978634832811
 21
0.9885344952591311
 31
0.0
  0
LINE
  5
1F9
330
1F
100
AcDbEntity
  8
0
  6
Continuous
 62
     4
370
    25
100
AcDbLine
 10
2.778978634832811
 20
0.9885344952591311
 30
0.0
 11
2.778978634832811
 21
-0.9885344952591311
 31
0.0
  0
LINE
  5
1FA
330
1F
100
AcDbEntity
  8
0
  6
Continuous
 62
     4
370
    25
100
AcDbLine
 10
5.691377481542531
 20
-0.4749999999999943
 30
0.0
 11
2.778978634832811
 21
-0.9885344952591311
 31
0.0
  0
LINE
  5
1FB
330
1F
100
AcDbEntity
  8
0
  6
Continuous
 62
     4
370
    25
100
AcDbLine
 10
0.0
 20
-2.0
 30
0.0
 11
2.778978634832811
 21
-0.9885344952591311
 31
0.0
  0
LINE
  5
1FC
330
1F
100
AcDbEntity
  8
0
  6
Continuous
 62
     4
370
    25
100
AcDbLine
 10
5.691377481542531
 20
0.4749999999999943
 30
0.0
 11
5.691377481542531
 21
-0.4749999999999943
 31
0.0
  0
LINE
  5
1FD
330
1F
100
AcDbEntity
  8
0
  6
Continuous
 62
     4
370
    25
100
AcDbLine
 10
9.311018400828289
 20
0.4749999999999943
 30
0.0
 11
5.691377481542531
 21
0.4749999999999943
 31
0.0
  0
LINE
  5
1FE
330
1F
100
AcDbEntity
  8
0
  6
Continuous
 62
     4
370
    25
100
AcDbLine
 10
5.691377481542531
 20
-0.4749999999999943
 30
0.0
 11
9.53698350488753
 21
-0.4749999999999943
 31
0.0
  0
SPLINE
  5
297
330
1F
100
AcDbEntity
  8
0
  6
Continuous
 62
     1
370
    25
100
AcDbSpline
210
0.0
220
0.0
230
1.0
 70
     8
 71
     3
 72
     9
 73
     5
 74
     0
 42
0.000000001
 43
0.00000001
 40
0.0
 40
0.0
 40
0.0
 40
0.0
 40
0.499991690827091
 40
1.0
 40
1.0
 40
1.0
 40
1.0
 10
10.39731625550189
 20
0.1277332862967739
 30
0.0
 10
10.37385614410914
 20
0.1388262953588821
 30
0.0
 10
10.32693514157381
 20
0.1610126821841504
 30
0.0
 10
10.28005622585556
 20
0.1853908381043823
 30
0.0
 10
10.25661637847134
 20
0.1975801186268313
 30
0.0
  0
SPLINE
  5
298
330
1F
100
AcDbEntity
  8
0
  6
Continuous
 62
     1
370
    25
100
AcDbSpline
210
0.0
220
0.0
230
1.0
 70
     8
 71
     3
 72
     9
 73
     5
 74
     0
 42
0.000000001
 43
0.00000001
 40
0.0
 40
0.0
 40
0.0
 40
0.0
 40
0.5021059262004874
 40
1.0
 40
1.0
 40
1.0
 40
1.0
 10
10.39617822220066
 20
0.3988854374885307
 30
0.0
 10
10.36192210557988
 20
0.3986699284645283
 30
0.0
 10
10.29369722546357
 20
0.3982407181868837
 30
0.0
 10
10.22538816550355
 20
0.3962079422086049
 30
0.0
 10
10.19137748936282
 20
0.3951958350956772
 30
0.0
  0
SPLINE
  5
299
330
1F
100
AcDbEntity
  8
0
  6
Continuous
 62
     1
370
    25
100
AcDbSpline
210
0.0
220
0.0
230
1.0
 70
     8
 71
     3
 72
    14
 73
    10
 74
     0
 42
0.000000001
 43
0.00000001
 40
0.0
 40
0.0
 40
0.0
 40
0.0
 40
0.1867405892990973
 40
0.3022788847264652
 40
0.3926914143159609
 40
0.4811445065527474
 40
0.594439828565089
 40
0.7645212701786366
 40
1.0
 40
1.0
 40
1.0
 40
1.0
 10
11.42233964122806
 20
0.3333124049155458
 30
0.0
 10
11.37720403645517
 20
0.3320225117814459
 30
0.0
 10
11.30414257550865
 20
0.3299345486907725
 30
0.0
 10
11.20181379477822
 20
0.3285948361585156
 30
0.0
 10
11.1184634529975
 20
0.329953274336674
 30
0.0
 10
11.03815749690057
 20
0.3328849490854964
 30
0.0
 10
10.93588110700057
 20
0.339154626116084
 30
0.0
 10
10.79298398604374
 20
0.3525148398224189
 30
0.0
 10
10.6804695426938
 20
0.3690012922531594
 30
0.0
 10
10.61514074545789
 20
0.3785737531383688
 30
0.0
  0
SPLINE
  5
29A
330
1F
100
AcDbEntity
  8
0
  6
Continuous
 62
     1
370
    25
100
AcDbSpline
210
0.0
220
0.0
230
1.0
 70
     8
 71
     3
 72
     9
 73
     5
 74
     0
 42
0.000000001
 43
0.00000001
 40
0.0
 40
0.0
 40
0.0
 40
0.0
 40
0.9287437447665948
 40
1.0
 40
1.0
 40
1.0
 40
1.0
 10
10.61514074545789
 20
-0.3785737525697641
 30
0.0
 10
10.73839156010285
 20
-0.3606316081831267
 30
0.0
 10
10.87109858003123
 20
-0.3413128838442105
 30
0.0
 10
11.00122042516455
 20
-0.33551704021923
 30
0.0
 10
11.01049242057275
 20
-0.3351040501066223
 30
0.0
  0
SPLINE
  5
29B
330
1F
100
AcDbEntity
  8
0
  6
Continuous
 62
     4
370
    25
100
AcDbSpline
210
0.0
220
0.0
230
1.0
 70
     8
 71
     3
 72
     9
 73
     5
 74
     0
 42
0.000000001
 43
0.00000001
 40
0.0
 40
0.0
 40
0.0
 40
0.0
 40
0.4978940737995045
 40
1.0
 40
1.0
 40
1.0
 40
1.0
 10
10.19137748936282
 20
-0.3951958345270725
 30
0.0
 10
10.22538816550355
 20
-0.3962079416400002
 30
0.0
 10
10.29369722546357
 20
-0.3982407176182789
 30
0.0
 10
10.36192210557988
 20
-0.3986699278959236
 30
0.0
 10
10.39617822220066
 20
-0.398885436919926
 30
0.0
  0
SPLINE
  5
29C
330
1F
100
AcDbEntity
  8
0
  6
Continuous
 62
     4
370
    25
100
AcDbSpline
210
0.0
220
0.0
230
1.0
 70
    24
 71
     3
 72
     8
 73
     4
 74
     0
 42
0.000000001
 43
0.00000001
 40
0.0
 40
0.0
 40
0.0
 40
0.0
 40
1.0
 40
1.0
 40
1.0
 40
1.0
 10
10.19137748936328
 20
0.1008312000460307
 30
0.0
 10
10.19137748936328
 20
0.0991418233704167
 30
0.0
 10
10.19137748936328
 20
0.0818342566532237
 30
0.0
 10
10.19137748936328
 20
0.0559665936503109
 30
0.0
  0
LINE
  5
29D
330
1F
100
AcDbEntity
  8
0
  6
Continuous
 62
     4
370
    25
100
AcDbLine
 10
10.19137748936282
 20
-0.3948529919237558
 30
0.0
 11
10.19137748936282
 21
-0.3943421435244545
 31
0.0
  0
SPLINE
  5
29E
330
1F
100
AcDbEntity
  8
0
  6
Continuous
 62
     4
370
    25
100
AcDbSpline
210
0.0
220
0.0
230
1.0
 70
    24
 71
     3
 72
    10
 73
     6
 74
     0
 42
0.000000001
 43
0.00000001
 40
0.0
 40
0.0
 40
0.0
 40
0.0
 40
0.5
 40
0.5
 40
1.0
 40
1.0
 40
1.0
 40
1.0
 10
10.19137748936282
 20
0.0559665936504814
 30
0.0
 10
10.19137748936282
 20
-0.0324891014170703
 30
0.0
 10
10.19137748936282
 20
-0.1255853709468511
 30
0.0
 10
10.19137748936282
 20
-0.2858326469181236
 30
0.0
 10
10.19137748936282
 20
-0.351742043643668
 30
0.0
 10
10.19137748936282
 20
-0.3948529919237558
 30
0.0
  0
SPLINE
  5
29F
330
1F
100
AcDbEntity
  8
0
  6
Continuous
 62
     4
370
    25
100
AcDbSpline
210
0.0
220
0.0
230
1.0
 70
    24
 71
     3
 72
    13
 73
     9
 74
     0
 42
0.000000001
 43
0.00000001
 40
0.0
 40
0.0
 40
0.0
 40
0.0
 40
0.0539992117578034
 40
0.2007811518846059
 40
0.4095986178743081
 40
0.6244718045241541
 40
0.8101307814899319
 40
0.9999999999999999
 40
0.9999999999999999
 40
0.9999999999999999
 40
0.9999999999999999
 10
10.19137748936282
 20
0.3943421440930592
 30
0.0
 10
10.19137748936282
 20
0.3943471885028771
 30
0.0
 10
10.19137748936282
 20
0.3943659447473067
 30
0.0
 10
10.19137748936282
 20
0.3854104760688699
 30
0.0
 10
10.19137748936282
 20
0.3637056084239987
 30
0.0
 10
10.19137748936282
 20
0.3254221639119237
 30
0.0
 10
10.19137748936282
 20
0.2772712268156852
 30
0.0
 10
10.19137748936282
 20
0.2386861040815518
 30
0.0
 10
10.19137748936282
 20
0.2191772437938084
 30
0.0
  0
SPLINE
  5
2A0
330
1F
100
AcDbEntity
  8
0
  6
Continuous
 62
     1
370
    25
100
AcDbSpline
210
0.0
220
0.0
230
1.0
 70
     8
 71
     3
 72
    14
 73
    10
 74
     0
 42
0.000000001
 43
0.00000001
 40
0.0
 40
0.0
 40
0.0
 40
0.0
 40
0.25
 40
0.25
 40
0.5
 40
0.5
 40
0.75
 40
0.75
 40
1.0
 40
1.0
 40
1.0
 40
1.0
 10
10.19137748937555
 20
0.1001729475708544
 30
0.0
 10
10.31125402830389
 20
0.0320565840678171
 30
0.0
 10
10.4348362300484
 20
-0.0396822700799078
 30
0.0
 10
10.67264657736996
 20
-0.1751224698616625
 30
0.0
 10
10.79856183160064
 20
-0.240846591187136
 30
0.0
 10
11.03411198048047
 20
-0.3521572157148967
 30
0.0
 10
11.16025900929685
 20
-0.4001824354803034
 30
0.0
 10
11.39769104533548
 20
-0.4687756795280507
 30
0.0
 10
11.52166158195723
 20
-0.4906253488089476
 30
0.0
 10
11.64137748936264
 20
-0.4975276993732223
 30
0.0
  0
LINE
  5
2A1
330
1F
100
AcDbEntity
  8
0
  6
Continuous
 62
     1
370
    25
100
AcDbLine
 10
10.44838096833291
 20
-0.0469707186798303
 30
0.0
 11
10.1913774917814
 21
0.055966592681159
 31
0.0
  0
SPLINE
  5
2A2
330
1F
100
AcDbEntity
  8
0
  6
Continuous
 62
     4
370
    25
100
AcDbSpline
210
0.0
220
0.0
230
1.0
 70
    24
 71
     3
 72
     9
 73
     5
 74
     0
 42
0.000000001
 43
0.00000001
 40
0.0
 40
0.0
 40
0.0
 40
0.0
 40
0.3544913300585601
 40
1.0
 40
1.0
 40
1.0
 40
1.0
 10
10.19137748936282
 20
0.1001729475790967
 30
0.0
 10
10.19137748936259
 20
0.1005695459983258
 30
0.0
 10
10.19137748936259
 20
0.1016883277162322
 30
0.0
 10
10.19137748936373
 20
0.0997466138586276
 30
0.0
 10
10.19137748936464
 20
0.098493220728983
 30
0.0
  0
SPLINE
  5
2A3
330
1F
100
AcDbEntity
  8
0
  6
Continuous
 62
     4
370
    25
100
AcDbSpline
210
0.0
220
0.0
230
1.0
 70
    24
 71
     3
 72
     9
 73
     5
 74
     0
 42
0.000000001
 43
0.00000001
 40
0.0
 40
0.0
 40
0.0
 40
0.0
 40
0.0898993253783457
 40
1.0
 40
1.0
 40
1.0
 40
1.0
 10
10.19137748936396
 20
0.0776144647281001
 30
0.0
 10
10.19137748936396
 20
0.0771402536676362
 30
0.0
 10
10.19137748936441
 20
0.0718653413313746
 30
0.0
 10
10.1913774893635
 20
0.0635418283921751
 30
0.0
 10
10.19137748936282
 20
0.055966593650993
 30
0.0
  0
SPLINE
  5
2A4
330
1F
100
AcDbEntity
  8
0
  6
Continuous
 62
     1
370
    25
100
AcDbSpline
210
0.0
220
0.0
230
1.0
 70
     8
 71
     3
 72
    12
 73
     8
 74
     0
 42
0.000000001
 43
0.00000001
 40
0.0
 40
0.0
 40
0.0
 40
0.0
 40
0.2190257577374087
 40
0.4367328884338123
 40
0.6546519022785872
 40
0.8740892990622582
 40
1.0
 40
1.0
 40
1.0
 40
1.0
 10
11.69137748936282
 20
-0.3944861318998107
 30
0.0
 10
11.59627965353911
 20
-0.3730753816733454
 30
0.0
 10
11.40665651080008
 20
-0.3303827829282113
 30
0.0
 10
11.12280860043393
 20
-0.2191610264467272
 30
0.0
 10
10.83873960157234
 20
-0.0882897975083097
 30
0.0
 10
10.59407357656733
 20
0.0351093227075125
 30
0.0
 10
10.4441367446193
 20
0.1031929465391954
 30
0.0
 10
10.38947117173348
 20
0.1280156018704304
 30
0.0
  0
SPLINE
  5
2A5
330
1F
100
AcDbEntity
  8
0
  6
Continuous
 62
     1
370
    25
100
AcDbSpline
210
0.0
220
0.0
230
1.0
 70
    24
 71
     3
 72
     8
 73
     4
 74
     0
 42
0.000000001
 43
0.00000001
 40
0.0
 40
0.0
 40
0.0
 40
0.0
 40
1.0
 40
1.0
 40
1.0
 40
1.0
 10
11.69137748936282
 20
-0.4208173729528824
 30
0.0
 10
11.69137748936282
 20
-0.4120194377733242
 30
0.0
 10
11.69137748936282
 20
-0.4032363070218707
 30
0.0
 10
11.69137748936282
 20
-0.3944861318998107
 30
0.0
  0
SPLINE
  5
2A6
330
1F
100
AcDbEntity
  8
0
  6
Continuous
 62
     1
370
    25
100
AcDbSpline
210
0.0
220
0.0
230
1.0
 70
     8
 71
     3
 72
    23
 73
    19
 74
     0
 42
0.000000001
 43
0.00000001
 40
0.0
 40
0.0
 40
0.0
 40
0.0
 40
0.0000156739157787
 40
0.0000156739157787
 40
0.0000156739157787
 40
0.0000314516527596
 40
0.0000314516527596
 40
0.0000314516527596
 40
0.0000459777570401
 40
0.0000459777570401
 40
0.0000459777570401
 40
0.000060004006526
 40
0.000060004006526
 40
0.000060004006526
 40
0.0000751546583419
 40
0.0000751546583419
 40
0.0000751546583419
 40
0.0000816504625781
 40
0.0000816504625781
 40
0.0000816504625781
 40
0.0000816504625781
 10
11.69137748936282
 20
-0.4208173729528824
 30
0.0
 10
11.69137748936282
 20
-0.426040715086117
 30
0.0
 10
11.69062891009753
 20
-0.4313334815497285
 30
0.0
 10
11.68909874754081
 20
-0.4362727163712918
 30
0.0
 10
11.68756255230346
 20
-0.4412314241741626
 30
0.0
 10
11.68518100959704
 20
-0.4459692141880964
 30
0.0
 10
11.68214404503055
 20
-0.4499856313201178
 30
0.0
 10
11.67934233771302
 20
-0.4536909183006514
 30
0.0
 10
11.67590660031306
 20
-0.4568855423603679
 30
0.0
 10
11.6721650723357
 20
-0.4593082283718672
 30
0.0
 10
11.66854347924982
 20
-0.4616532550459453
 30
0.0
 10
11.66454986018744
 20
-0.4633426075163527
 30
0.0
 10
11.66049390280978
 20
-0.4643368375913894
 30
0.0
 10
11.65611056733133
 20
-0.4654113173149028
 30
0.0
 10
11.65155591461166
 20
-0.465708046129464
 30
0.0
 10
11.64710869127816
 20
-0.4653251580573681
 30
0.0
 10
11.64518590970806
 20
-0.4651596142847723
 30
0.0
 10
11.64327021941449
 20
-0.4648682027641939
 30
0.0
 10
11.64137748936287
 20
-0.4644613722900601
 30
0.0
  0
SPLINE
  5
2A7
330
1F
100
AcDbEntity
  8
0
  6
Continuous
 62
     1
370
    25
100
AcDbSpline
210
0.0
220
0.0
230
1.0
 70
     8
 71
     3
 72
    14
 73
    10
 74
     0
 42
0.000000001
 43
0.00000001
 40
0.0
 40
0.0
 40
0.0
 40
0.0
 40
0.25
 40
0.25
 40
0.5
 40
0.5
 40
0.75
 40
0.75
 40
1.0
 40
1.0
 40
1.0
 40
1.0
 10
11.64137748936264
 20
-0.4644613722899749
 30
0.0
 10
11.52166158195632
 20
-0.4387291875406447
 30
0.0
 10
11.39769104533343
 20
-0.3988358134713224
 30
0.0
 10
11.16025900929253
 20
-0.2996468910352235
 30
0.0
 10
11.03411198047502
 20
-0.2385901738834093
 30
0.0
 10
10.79856183159359
 20
-0.108968504220968
 30
0.0
 10
10.67264657736109
 20
-0.0375577720681406
 30
0.0
 10
10.43483623003817
 20
0.1008416018777893
 30
0.0
 10
10.31125402829161
 20
0.169947392298667
 30
0.0
 10
10.19137748936282
 20
0.2315674280070823
 30
0.0
  0
LINE
  5
2A8
330
1F
100
AcDbEntity
  8
0
  6
Continuous
 62
     4
370
    25
100
AcDbLine
 10
10.19137748936282
 20
0.1001729475781588
 30
0.0
 11
10.19137748936282
 21
0.2315674280070823
 31
0.0
  0
SPLINE
  5
2A9
330
1F
100
AcDbEntity
  8
0
  6
Continuous
 62
     1
370
    25
100
AcDbSpline
210
0.0
220
0.0
230
1.0
 70
     8
 71
     3
 72
    12
 73
     8
 74
     0
 42
0.000000001
 43
0.00000001
 40
0.0
 40
0.0
 40
0.0
 40
0.0
 40
0.218863407424146
 40
0.4363907374593402
 40
0.6541328694649551
 40
0.8734134578594899
 40
1.0
 40
1.0
 40
1.0
 40
1.0
 10
11.69137748936282
 20
0.0000000002843024
 30
0.0
 10
11.59628280525567
 20
0.0437395129384299
 30
0.0
 10
11.40667395371497
 20
0.130951525251902
 30
0.0
 10
11.12281316772874
 20
0.2491113100615507
 30
0.0
 10
10.83873268178104
 20
0.337759339970404
 30
0.0
 10
10.5937543839284
 20
0.3915747104036598
 30
0.0
 10
10.44348504394929
 20
0.3907778173851852
 30
0.0
 10
10.3884868251007
 20
0.3904861564473379
 30
0.0
  0
SPLINE
  5
2AA
330
1F
100
AcDbEntity
  8
0
  6
Continuous
 62
     1
370
    25
100
AcDbSpline
210
0.0
220
0.0
230
1.0
 70
    24
 71
     3
 72
    10
 73
     6
 74
     0
 42
0.000000001
 43
0.00000001
 40
0.0
 40
0.0
 40
0.0
 40
0.0
 40
0.5
 40
0.5
 40
1.0
 40
1.0
 40
1.0
 40
1.0
 10
11.69137748936282
 20
-0.3944861318998107
 30
0.0
 10
11.69137748936282
 20
-0.3517962833001889
 30
0.0
 10
11.69137748936282
 20
-0.2928630405112642
 30
0.0
 10
11.69137748936282
 20
-0.1549705895237423
 30
0.0
 10
11.69137748936282
 20
-0.0766049243401312
 30
0.0
 10
11.69137748936282
 20
0.0000000002843024
 30
0.0
  0
SPLINE
  5
2AB
330
1F
100
AcDbEntity
  8
0
  6
Continuous
 62
     4
370
    25
100
AcDbSpline
210
0.0
220
0.0
230
1.0
 70
    24
 71
     3
 72
    13
 73
     9
 74
     0
 42
0.000000001
 43
0.00000001
 40
0.0
 40
0.0
 40
0.0
 40
0.0
 40
0.049006740382889
 40
0.1965633147843622
 40
0.4064828044028968
 40
0.6224899734414692
 40
0.8091287562800498
 40
0.9999999999999999
 40
0.9999999999999999
 40
0.9999999999999999
 40
0.9999999999999999
 10
10.19137748936282
 20
0.3943126137312163
 30
0.0
 10
10.19137748936282
 20
0.3943103777941417
 30
0.0
 10
10.19137748936282
 20
0.3943014095745525
 30
0.0
 10
10.19137748936282
 20
0.3853831099274885
 30
0.0
 10
10.19137748936282
 20
0.3637143007624957
 30
0.0
 10
10.19137748936282
 20
0.3254201726245753
 30
0.0
 10
10.19137748936282
 20
0.2772717064528649
 30
0.0
 10
10.19137748936282
 20
0.2386862651511592
 30
0.0
 10
10.19137748936282
 20
0.2191772437938084
 30
0.0
  0
LINE
  5
2AC
330
1F
100
AcDbEntity
  8
0
  6
Continuous
 62
     1
370
    25
100
AcDbLine
 10
11.69137748936282
 20
0.3500000002842967
 30
0.0
 11
11.42218023032342
 21
0.3323193085858804
 31
0.0
  0
SPLINE
  5
2AD
330
1F
100
AcDbEntity
  8
0
  6
Continuous
 62
     1
370
    25
100
AcDbSpline
210
0.0
220
0.0
230
1.0
 70
    24
 71
     3
 72
    10
 73
     6
 74
     0
 42
0.000000001
 43
0.00000001
 40
0.0
 40
0.0
 40
0.0
 40
0.0
 40
0.5000000000000001
 40
0.5000000000000001
 40
1.0
 40
1.0
 40
1.0
 40
1.0
 10
11.69137748936282
 20
0.0000000002843024
 30
0.0
 10
11.69137748936282
 20
0.0832843519856965
 30
0.0
 10
11.69137748936282
 20
0.1643208200274273
 30
0.0
 10
11.69137748936282
 20
0.2887310018044786
 30
0.0
 10
11.69137748936282
 20
0.3311407747206943
 30
0.0
 10
11.69137748936282
 20
0.3500000002842967
 30
0.0
  0
SPLINE
  5
2AE
330
1F
100
AcDbEntity
  8
0
  6
Continuous
 62
     1
370
    25
100
AcDbSpline
210
0.0
220
0.0
230
1.0
 70
     8
 71
     3
 72
     9
 73
     5
 74
     0
 42
0.000000001
 43
0.00000001
 40
0.0
 40
0.0
 40
0.0
 40
0.0
 40
0.149072864170519
 40
0.9999999999999999
 40
0.9999999999999999
 40
0.9999999999999999
 40
0.9999999999999999
 10
10.61693074406617
 20
-0.3749313336338105
 30
0.0
 10
10.59578384040265
 20
-0.3791584824703307
 30
0.0
 10
10.453927683139
 20
-0.4075147420755911
 30
0.0
 10
10.31207975143298
 20
-0.4006739813959825
 30
0.0
 10
10.19137749718334
 20
-0.394852992503985
 30
0.0
  0
SPLINE
  5
2AF
330
1F
100
AcDbEntity
  8
0
  6
Continuous
 62
     4
370
    25
100
AcDbSpline
210
0.0
220
0.0
230
1.0
 70
    24
 71
     3
 72
    10
 73
     6
 74
     0
 42
0.000000001
 43
0.00000001
 40
0.0
 40
0.0
 40
0.0
 40
0.0
 40
0.5
 40
0.5
 40
1.0
 40
1.0
 40
1.0
 40
1.0
 10
10.19137748936282
 20
0.0559665936504814
 30
0.0
 10
10.19137748936282
 20
-0.0324891014170703
 30
0.0
 10
10.19137748936282
 20
-0.1255853709468511
 30
0.0
 10
10.19137748936282
 20
-0.2858326469181236
 30
0.0
 10
10.19137748936282
 20
-0.351742043643668
 30
0.0
 10
10.19137748936282
 20
-0.3948529919237558
 30
0.0
  0
LINE
  5
2B0
330
1F
100
AcDbEntity
  8
0
  6
Continuous
 62
     1
370
    25
100
AcDbLine
 10
11.69137748936282
 20
-0.4208173729528824
 30
0.0
 11
11.69137748936282
 21
-0.4492016445169327
 31
0.0
  0
LINE
  5
2B1
330
1F
100
AcDbEntity
  8
0
  6
Continuous
 62
     4
370
    25
100
AcDbLine
 10
10.19137748936282
 20
-0.3948529919237558
 30
0.0
 11
10.19137748936282
 21
-0.3943126131626116
 31
0.0
  0
SPLINE
  5
2B2
330
1F
100
AcDbEntity
  8
0
  6
Continuous
 62
     1
370
    25
100
AcDbSpline
210
0.0
220
0.0
230
1.0
 70
     8
 71
     3
 72
    10
 73
     6
 74
     0
 42
0.000000001
 43
0.00000001
 40
0.0
 40
0.0
 40
0.0
 40
0.0
 40
0.1157050983967875
 40
0.5522652999681528
 40
1.0
 40
1.0
 40
1.0
 40
1.0
 10
11.01029583868672
 20
0.3350146496872242
 30
0.0
 10
11.03461657175558
 20
0.3463450854237351
 30
0.0
 10
11.1507004533637
 20
0.4004257316311737
 30
0.0
 10
11.36085143950481
 20
0.4649267235576531
 30
0.0
 10
11.54708435456291
 20
0.4865695437835882
 30
0.0
 10
11.64137748936264
 20
0.4975276999418554
 30
0.0
  0
SPLINE
  5
2B3
330
1F
100
AcDbEntity
  8
0
  6
Continuous
 62
     1
370
    25
100
AcDbSpline
210
0.0
220
0.0
230
1.0
 70
    24
 71
     3
 72
     8
 73
     4
 74
     0
 42
0.000000001
 43
0.00000001
 40
0.0
 40
0.0
 40
0.0
 40
0.0
 40
1.0
 40
1.0
 40
1.0
 40
1.0
 10
11.69137748936282
 20
0.3500000002842967
 30
0.0
 10
11.69137748936282
 20
0.3786524858401492
 30
0.0
 10
11.69137748936282
 20
0.4137416293323213
 30
0.0
 10
11.69137748936282
 20
0.4492016450855658
 30
0.0
  0
ARC
  5
2B4
330
1F
100
AcDbEntity
  8
0
  6
Continuous
 62
     1
370
    25
100
AcDbCircle
 10
11.64137748936264
 20
0.447527699941844
 30
0.0
 40
0.05
100
AcDbArc
 50
0.0
 51
90.0
  0
ARC
  5
2B5
102
{ACAD_REACTORS
102
}
330
1F
100
AcDbEntity
  8
0
  6
Continuous
 62
     1
370
    25
100
AcDbCircle
 10
11.64137748936264
 20
-0.4475276993732393
 30
0.0
 40
0.05
100
AcDbArc
 50
270.0
 51
0.0
  0
DIMENSION
  5
2B6
102
{ACAD_REACTORS
102
}
102
{ACAD_XDICTIONARY
360
2B7
102
}
330
1F
100
AcDbEntity
  8
치수문자_일반주서
100
AcDbDimension
  2
*D21
 10
11.64137748936264
 20
-0.4475276993732393
 30
0.0
 11
16.35231663775388
 21
-17.76229381739044
 31
0.0
 70
   164
  1
<>
 71
     5
 42
0.0500000000000117
  3
SLDDIMSTYLE3
100
AcDbRadialDimension
 15
11.65450412890618
 25
-0.4957738529431879
 35
0.0
 40
0.0
1001
ACAD_DSTYLE_DIMRADIAL_EXTENSION
1070
   387
1070
     1
1070
   388
1040
4.71238898038469
1070
   390
1040
0.0
  0
ENDSEC
  0
SECTION
  2
OBJECTS
  0
DICTIONARY
  5
C
330
0
100
AcDbDictionary
281
     1
  3
ACAD_GROUP
350
D
  3
ACAD_IMAGE_VARS
350
14F
  3
ACAD_LAYOUT
350
1A
  3
ACAD_MLINESTYLE
350
17
  3
ACAD_PLOTSETTINGS
350
19
  3
ACAD_PLOTSTYLENAME
350
E
  3
ACAD_SCALELIST
350
47
  3
APPDATA
350
14D
  3
DWGPROPS
350
2C2
  0
DICTIONARY
  5
2B7
330
2B6
100
AcDbDictionary
280
     1
281
     1
  0
DICTIONARY
  5
D
102
{ACAD_REACTORS
330
C
102
}
330
C
100
AcDbDictionary
281
     1
  0
RASTERVARIABLES
  5
14F
102
{ACAD_REACTORS
330
C
102
}
330
C
100
AcDbRasterVariables
 90
        0
 70
     1
 71
     1
 72
     1
  0
DICTIONARY
  5
1A
102
{ACAD_REACTORS
330
C
102
}
330
C
100
AcDbDictionary
281
     1
  3
Layout1
350
1E
  3
Layout2
350
26
  3
Model
350
22
  0
DICTIONARY
  5
17
102
{ACAD_REACTORS
330
C
102
}
330
C
100
AcDbDictionary
281
     1
  3
Standard
350
18
  0
DICTIONARY
  5
19
102
{ACAD_REACTORS
330
C
102
}
330
C
100
AcDbDictionary
281
     1
  0
ACDBDICTIONARYWDFLT
  5
E
102
{ACAD_REACTORS
330
C
102
}
330
C
100
AcDbDictionary
281
     1
  3
Normal
350
F
100
AcDbDictionaryWithDefault
340
F
  0
DICTIONARY
  5
47
102
{ACAD_REACTORS
330
C
102
}
330
C
100
AcDbDictionary
281
     1
  3
A0
350
48
  3
A1
350
49
  3
A2
350
4A
  3
A3
350
4B
  3
A4
350
4C
  3
A5
350
4D
  3
A6
350
4E
  3
A7
350
4F
  3
A8
350
50
  3
A9
350
51
  3
B0
350
52
  3
B1
350
53
  3
B2
350
54
  3
B3
350
55
  3
B4
350
56
  3
B5
350
57
  3
B6
350
58
  3
B7
350
59
  3
B8
350
5A
  3
B9
350
5B
  3
C0
350
5C
  3
C1
350
5D
  3
C2
350
5E
  3
C3
350
5F
  3
C4
350
60
  3
C5
350
61
  3
C6
350
62
  3
C7
350
63
  3
C8
350
64
  3
C9
350
65
  3
D0
350
66
  3
D1
350
67
  3
D2
350
68
  0
DICTIONARY
  5
14D
102
{ACAD_REACTORS
330
C
102
}
330
C
100
AcDbDictionary
281
     1
  0
XRECORD
  5
2C2
102
{ACAD_REACTORS
330
C
102
}
330
C
100
AcDbXrecord
280
     1
  1
DWGPROPS COOKIE
  2

  3

  4

  6

  7

  8
12016016
  9

300
=
301
=
302
=
303
=
304
=
305
=
306
=
307
=
308
=
309
=
 40
0.0
 41
2458263.370179467
 42
2458269.21869088
  1

 90
        0
  0
LAYOUT
  5
1E
102
{ACAD_REACTORS
330
1A
102
}
330
1A
100
AcDbPlotSettings
  1

  2
none_device
  4

  6

 40
0.0
 41
0.0
 42
0.0
 43
0.0
 44
0.0
 45
0.0
 46
0.0
 47
0.0
 48
0.0
 49
0.0
140
0.0
141
0.0
142
1.0
143
1.0
 70
   688
 72
     1
 73
     0
 74
     5
  7

 75
    16
147
1.0
148
0.0
149
0.0
100
AcDbLayout
  1
Layout1
 70
     1
 71
     1
 10
0.0
 20
0.0
 11
420.0
 21
297.0
 12
0.0
 22
0.0
 32
0.0
 14
1.000000000000000E+20
 24
1.000000000000000E+20
 34
1.000000000000000E+20
 15
-1.000000000000000E+20
 25
-1.000000000000000E+20
 35
-1.000000000000000E+20
146
0.0
 13
0.0
 23
0.0
 33
0.0
 16
1.0
 26
0.0
 36
0.0
 17
0.0
 27
1.0
 37
0.0
 76
     0
330
1B
  0
LAYOUT
  5
26
102
{ACAD_REACTORS
330
1A
102
}
330
1A
100
AcDbPlotSettings
  1

  2
none_device
  4

  6

 40
0.0
 41
0.0
 42
0.0
 43
0.0
 44
0.0
 45
0.0
 46
0.0
 47
0.0
 48
0.0
 49
0.0
140
0.0
141
0.0
142
1.0
143
1.0
 70
   688
 72
     1
 73
     0
 74
     5
  7

 75
    16
147
1.0
148
0.0
149
0.0
100
AcDbLayout
  1
Layout2
 70
     1
 71
     2
 10
0.0
 20
0.0
 11
0.0
 21
0.0
 12
0.0
 22
0.0
 32
0.0
 14
0.0
 24
0.0
 34
0.0
 15
0.0
 25
0.0
 35
0.0
146
0.0
 13
0.0
 23
0.0
 33
0.0
 16
1.0
 26
0.0
 36
0.0
 17
0.0
 27
1.0
 37
0.0
 76
     0
330
23
  0
LAYOUT
  5
22
102
{ACAD_REACTORS
330
1A
102
}
330
1A
100
AcDbPlotSettings
  1

  2
none_device
  4
ANSI_A_(11.00_x_8.50_Inches)
  6

 40
6.35
 41
19.05
 42
6.35000508
 43
19.05000254
 44
279.4
 45
215.9
 46
138.2799899480391
 47
94.66748185378565
 48
0.0
 49
0.0
140
0.0
141
0.0
142
0.0874414404953352
143
1.0
 70
  1696
 72
     0
 73
     0
 74
     0
  7

 75
     0
147
0.0235690232323232
148
0.0
149
0.0
100
AcDbLayout
  1
Model
 70
     1
 71
     0
 10
0.0
 20
0.0
 11
420.0
 21
297.0
 12
0.0
 22
0.0
 32
0.0
 14
1.000000000000000E+20
 24
1.000000000000000E+20
 34
1.000000000000000E+20
 15
-1.000000000000000E+20
 25
-1.000000000000000E+20
 35
-1.000000000000000E+20
146
0.0
 13
0.0
 23
0.0
 33
0.0
 16
1.0
 26
0.0
 36
0.0
 17
0.0
 27
1.0
 37
0.0
 76
     0
330
1F
331
29
  0
MLINESTYLE
  5
18
102
{ACAD_REACTORS
330
17
102
}
330
17
100
AcDbMlineStyle
  2
Standard
 70
     0
  3

 62
   256
 51
90.0
 52
90.0
 71
     2
 49
0.5
 62
   256
  6
BYLAYER
 49
-0.5
 62
   256
  6
BYLAYER
  0
ACDBPLACEHOLDER
  5
F
102
{ACAD_REACTORS
330
E
102
}
330
E
  0
SCALE
  5
48
102
{ACAD_REACTORS
330
47
102
}
330
47
100
AcDbScale
 70
     0
300
1:1
140
1.0
141
1.0
290
     1
  0
SCALE
  5
49
102
{ACAD_REACTORS
330
47
102
}
330
47
100
AcDbScale
 70
     0
300
1:2
140
1.0
141
2.0
290
     0
  0
SCALE
  5
4A
102
{ACAD_REACTORS
330
47
102
}
330
47
100
AcDbScale
 70
     0
300
1:4
140
1.0
141
4.0
290
     0
  0
SCALE
  5
4B
102
{ACAD_REACTORS
330
47
102
}
330
47
100
AcDbScale
 70
     0
300
1:5
140
1.0
141
5.0
290
     0
  0
SCALE
  5
4C
102
{ACAD_REACTORS
330
47
102
}
330
47
100
AcDbScale
 70
     0
300
1:8
140
1.0
141
8.0
290
     0
  0
SCALE
  5
4D
102
{ACAD_REACTORS
330
47
102
}
330
47
100
AcDbScale
 70
     0
300
1:10
140
1.0
141
10.0
290
     0
  0
SCALE
  5
4E
102
{ACAD_REACTORS
330
47
102
}
330
47
100
AcDbScale
 70
     0
300
1:16
140
1.0
141
16.0
290
     0
  0
SCALE
  5
4F
102
{ACAD_REACTORS
330
47
102
}
330
47
100
AcDbScale
 70
     0
300
1:20
140
1.0
141
20.0
290
     0
  0
SCALE
  5
50
102
{ACAD_REACTORS
330
47
102
}
330
47
100
AcDbScale
 70
     0
300
1:30
140
1.0
141
30.0
290
     0
  0
SCALE
  5
51
102
{ACAD_REACTORS
330
47
102
}
330
47
100
AcDbScale
 70
     0
300
1:40
140
1.0
141
40.0
290
     0
  0
SCALE
  5
52
102
{ACAD_REACTORS
330
47
102
}
330
47
100
AcDbScale
 70
     0
300
1:50
140
1.0
141
50.0
290
     0
  0
SCALE
  5
53
102
{ACAD_REACTORS
330
47
102
}
330
47
100
AcDbScale
 70
     0
300
1:100
140
1.0
141
100.0
290
     0
  0
SCALE
  5
54
102
{ACAD_REACTORS
330
47
102
}
330
47
100
AcDbScale
 70
     0
300
2:1
140
2.0
141
1.0
290
     0
  0
SCALE
  5
55
102
{ACAD_REACTORS
330
47
102
}
330
47
100
AcDbScale
 70
     0
300
4:1
140
4.0
141
1.0
290
     0
  0
SCALE
  5
56
102
{ACAD_REACTORS
330
47
102
}
330
47
100
AcDbScale
 70
     0
300
8:1
140
8.0
141
1.0
290
     0
  0
SCALE
  5
57
102
{ACAD_REACTORS
330
47
102
}
330
47
100
AcDbScale
 70
     0
300
10:1
140
10.0
141
1.0
290
     0
  0
SCALE
  5
58
102
{ACAD_REACTORS
330
47
102
}
330
47
100
AcDbScale
 70
     0
300
100:1
140
100.0
141
1.0
290
     0
  0
SCALE
  5
59
102
{ACAD_REACTORS
330
47
102
}
330
47
100
AcDbScale
 70
     0
300
1/128" = 1'-0"
140
0.0078125
141
12.0
290
     0
  0
SCALE
  5
5A
102
{ACAD_REACTORS
330
47
102
}
330
47
100
AcDbScale
 70
     0
300
1/64" = 1'-0"
140
0.015625
141
12.0
290
     0
  0
SCALE
  5
5B
102
{ACAD_REACTORS
330
47
102
}
330
47
100
AcDbScale
 70
     0
300
1/32" = 1'-0"
140
0.03125
141
12.0
290
     0
  0
SCALE
  5
5C
102
{ACAD_REACTORS
330
47
102
}
330
47
100
AcDbScale
 70
     0
300
1/16" = 1'-0"
140
0.0625
141
12.0
290
     0
  0
SCALE
  5
5D
102
{ACAD_REACTORS
330
47
102
}
330
47
100
AcDbScale
 70
     0
300
3/32" = 1'-0"
140
0.09375
141
12.0
290
     0
  0
SCALE
  5
5E
102
{ACAD_REACTORS
330
47
102
}
330
47
100
AcDbScale
 70
     0
300
1/8" = 1'-0"
140
0.125
141
12.0
290
     0
  0
SCALE
  5
5F
102
{ACAD_REACTORS
330
47
102
}
330
47
100
AcDbScale
 70
     0
300
3/16" = 1'-0"
140
0.1875
141
12.0
290
     0
  0
SCALE
  5
60
102
{ACAD_REACTORS
330
47
102
}
330
47
100
AcDbScale
 70
     0
300
1/4" = 1'-0"
140
0.25
141
12.0
290
     0
  0
SCALE
  5
61
102
{ACAD_REACTORS
330
47
102
}
330
47
100
AcDbScale
 70
     0
300
3/8" = 1'-0"
140
0.375
141
12.0
290
     0
  0
SCALE
  5
62
102
{ACAD_REACTORS
330
47
102
}
330
47
100
AcDbScale
 70
     0
300
1/2" = 1'-0"
140
0.5
141
12.0
290
     0
  0
SCALE
  5
63
102
{ACAD_REACTORS
330
47
102
}
330
47
100
AcDbScale
 70
     0
300
3/4" = 1'-0"
140
0.75
141
12.0
290
     0
  0
SCALE
  5
64
102
{ACAD_REACTORS
330
47
102
}
330
47
100
AcDbScale
 70
     0
300
1" = 1'-0"
140
1.0
141
12.0
290
     0
  0
SCALE
  5
65
102
{ACAD_REACTORS
330
47
102
}
330
47
100
AcDbScale
 70
     0
300
1-1/2" = 1'-0"
140
1.5
141
12.0
290
     0
  0
SCALE
  5
66
102
{ACAD_REACTORS
330
47
102
}
330
47
100
AcDbScale
 70
     0
300
3" = 1'-0"
140
3.0
141
12.0
290
     0
  0
SCALE
  5
67
102
{ACAD_REACTORS
330
47
102
}
330
47
100
AcDbScale
 70
     0
300
6" = 1'-0"
140
6.0
141
12.0
290
     0
  0
SCALE
  5
68
102
{ACAD_REACTORS
330
47
102
}
330
47
100
AcDbScale
 70
     0
300
1'-0" = 1'-0"
140
12.0
141
12.0
290
     0
  0
ENDSEC
  0
EOF
