  0
SECTION
  2
HEADER
  9
$ACADVER
  1
AC1015
  9
$ACADMAINTVER
 70
     6
  9
$DWGCODEPAGE
  3
ANSI_949
  9
$INSBASE
 10
0.0
 20
0.0
 30
0.0
  9
$EXTMIN
 10
1.000000000000000E+20
 20
1.000000000000000E+20
 30
1.000000000000000E+20
  9
$EXTMAX
 10
-1.000000000000000E+20
 20
-1.000000000000000E+20
 30
-1.000000000000000E+20
  9
$LIMMIN
 10
0.0
 20
0.0
  9
$LIMMAX
 10
420.0
 20
297.0
  9
$ORTHOMODE
 70
     0
  9
$REGENMODE
 70
     1
  9
$FILLMODE
 70
     1
  9
$QTEXTMODE
 70
     0
  9
$MIRRTEXT
 70
     1
  9
$LTSCALE
 40
1.0
  9
$ATTMODE
 70
     1
  9
$TEXTSIZE
 40
3.5
  9
$TRACEWID
 40
1.0
  9
$TEXTSTYLE
  7
Standard
  9
$CLAYER
  8
0
  9
$CELTYPE
  6
ByLayer
  9
$CECOLOR
 62
   256
  9
$CELTSCALE
 40
1.0
  9
$DISPSILH
 70
     0
  9
$DIMSCALE
 40
1.0
  9
$DIMASZ
 40
3.302
  9
$DIMEXO
 40
1.0
  9
$DIMDLI
 40
3.75
  9
$DIMRND
 40
0.0
  9
$DIMDLE
 40
0.0
  9
$DIMEXE
 40
1.0
  9
$DIMTP
 40
0.0
  9
$DIMTM
 40
0.0
  9
$DIMTXT
 40
3.5
  9
$DIMCEN
 40
2.5
  9
$DIMTSZ
 40
0.0
  9
$DIMTOL
 70
     0
  9
$DIMLIM
 70
     0
  9
$DIMTIH
 70
     1
  9
$DIMTOH
 70
     1
  9
$DIMSE1
 70
     0
  9
$DIMSE2
 70
     0
  9
$DIMTAD
 70
     1
  9
$DIMZIN
 70
     0
  9
$DIMBLK
  1

  9
$DIMASO
 70
     1
  9
$DIMSHO
 70
     1
  9
$DIMPOST
  1

  9
$DIMAPOST
  1

  9
$DIMALT
 70
     0
  9
$DIMALTD
 70
     3
  9
$DIMALTF
 40
0.0393700787401575
  9
$DIMLFAC
 40
1.0
  9
$DIMTOFL
 70
     1
  9
$DIMTVP
 40
0.0
  9
$DIMTIX
 70
     0
  9
$DIMSOXD
 70
     0
  9
$DIMSAH
 70
     0
  9
$DIMBLK1
  1

  9
$DIMBLK2
  1

  9
$DIMSTYLE
  2
ISO-25
  9
$DIMCLRD
 70
     0
  9
$DIMCLRE
 70
     0
  9
$DIMCLRT
 70
     0
  9
$DIMTFAC
 40
1.0
  9
$DIMGAP
 40
1.524
  9
$DIMJUST
 70
     0
  9
$DIMSD1
 70
     0
  9
$DIMSD2
 70
     0
  9
$DIMTOLJ
 70
     0
  9
$DIMTZIN
 70
     0
  9
$DIMALTZ
 70
     0
  9
$DIMALTTZ
 70
     0
  9
$DIMUPT
 70
     0
  9
$DIMDEC
 70
     2
  9
$DIMTDEC
 70
     2
  9
$DIMALTU
 70
     2
  9
$DIMALTTD
 70
     3
  9
$DIMTXSTY
  7
Standard
  9
$DIMAUNIT
 70
     0
  9
$DIMADEC
 70
     2
  9
$DIMALTRND
 40
0.0
  9
$DIMAZIN
 70
     0
  9
$DIMDSEP
 70
    44
  9
$DIMATFIT
 70
     3
  9
$DIMFRAC
 70
     0
  9
$DIMLDRBLK
  1

  9
$DIMLUNIT
 70
     2
  9
$DIMLWD
 70
    -2
  9
$DIMLWE
 70
    -2
  9
$DIMTMOVE
 70
     0
  9
$LUNITS
 70
     2
  9
$LUPREC
 70
     2
  9
$SKETCHINC
 40
1.0
  9
$FILLETRAD
 40
10.0
  9
$AUNITS
 70
     0
  9
$AUPREC
 70
     2
  9
$MENU
  1
.
  9
$ELEVATION
 40
0.0
  9
$PELEVATION
 40
0.0
  9
$THICKNESS
 40
0.0
  9
$LIMCHECK
 70
     0
  9
$CHAMFERA
 40
0.0
  9
$CHAMFERB
 40
0.0
  9
$CHAMFERC
 40
0.0
  9
$CHAMFERD
 40
0.0
  9
$SKPOLY
 70
     0
  9
$TDCREATE
 40
2458263.741588032
  9
$TDUCREATE
 40
2458263.366588032
  9
$TDUPDATE
 40
2458269.6208414
  9
$TDUUPDATE
 40
2458269.2458414
  9
$TDINDWG
 40
0.0000848495
  9
$TDUSRTIMER
 40
2458269.24575684
  9
$USRTIMER
 70
     1
  9
$ANGBASE
 50
0.0
  9
$ANGDIR
 70
     0
  9
$PDMODE
 70
     0
  9
$PDSIZE
 40
-1.0
  9
$PLINEWID
 40
0.0
  9
$SPLFRAME
 70
     0
  9
$SPLINETYPE
 70
     6
  9
$SPLINESEGS
 70
     8
  9
$HANDSEED
  5
2B8
  9
$SURFTAB1
 70
     6
  9
$SURFTAB2
 70
     6
  9
$SURFTYPE
 70
     6
  9
$SURFU
 70
     6
  9
$SURFV
 70
     6
  9
$UCSBASE
  2

  9
$UCSNAME
  2

  9
$UCSORG
 10
0.0
 20
0.0
 30
0.0
  9
$UCSXDIR
 10
1.0
 20
0.0
 30
0.0
  9
$UCSYDIR
 10
0.0
 20
1.0
 30
0.0
  9
$UCSORTHOREF
  2

  9
$UCSORTHOVIEW
 70
     0
  9
$UCSORGTOP
 10
0.0
 20
0.0
 30
0.0
  9
$UCSORGBOTTOM
 10
0.0
 20
0.0
 30
0.0
  9
$UCSORGLEFT
 10
0.0
 20
0.0
 30
0.0
  9
$UCSORGRIGHT
 10
0.0
 20
0.0
 30
0.0
  9
$UCSORGFRONT
 10
0.0
 20
0.0
 30
0.0
  9
$UCSORGBACK
 10
0.0
 20
0.0
 30
0.0
  9
$PUCSBASE
  2

  9
$PUCSNAME
  2

  9
$PUCSORG
 10
0.0
 20
0.0
 30
0.0
  9
$PUCSXDIR
 10
1.0
 20
0.0
 30
0.0
  9
$PUCSYDIR
 10
0.0
 20
1.0
 30
0.0
  9
$PUCSORTHOREF
  2

  9
$PUCSORTHOVIEW
 70
     0
  9
$PUCSORGTOP
 10
0.0
 20
0.0
 30
0.0
  9
$PUCSORGBOTTOM
 10
0.0
 20
0.0
 30
0.0
  9
$PUCSORGLEFT
 10
0.0
 20
0.0
 30
0.0
  9
$PUCSORGRIGHT
 10
0.0
 20
0.0
 30
0.0
  9
$PUCSORGFRONT
 10
0.0
 20
0.0
 30
0.0
  9
$PUCSORGBACK
 10
0.0
 20
0.0
 30
0.0
  9
$USERI1
 70
     0
  9
$USERI2
 70
     0
  9
$USERI3
 70
     0
  9
$USERI4
 70
     0
  9
$USERI5
 70
     0
  9
$USERR1
 40
0.0
  9
$USERR2
 40
0.0
  9
$USERR3
 40
0.0
  9
$USERR4
 40
0.0
  9
$USERR5
 40
0.0
  9
$WORLDVIEW
 70
     1
  9
$SHADEDGE
 70
     3
  9
$SHADEDIF
 70
    70
  9
$TILEMODE
 70
     1
  9
$MAXACTVP
 70
    64
  9
$PINSBASE
 10
0.0
 20
0.0
 30
0.0
  9
$PLIMCHECK
 70
     0
  9
$PEXTMIN
 10
1.000000000000000E+20
 20
1.000000000000000E+20
 30
1.000000000000000E+20
  9
$PEXTMAX
 10
-1.000000000000000E+20
 20
-1.000000000000000E+20
 30
-1.000000000000000E+20
  9
$PLIMMIN
 10
0.0
 20
0.0
  9
$PLIMMAX
 10
0.0
 20
0.0
  9
$UNITMODE
 70
     0
  9
$VISRETAIN
 70
     1
  9
$PLINEGEN
 70
     0
  9
$PSLTSCALE
 70
     1
  9
$TREEDEPTH
 70
  3020
  9
$CMLSTYLE
  2
Standard
  9
$CMLJUST
 70
     0
  9
$CMLSCALE
 40
20.0
  9
$PROXYGRAPHICS
 70
     1
  9
$MEASUREMENT
 70
     1
  9
$CELWEIGHT
370
    -1
  9
$ENDCAPS
280
     0
  9
$JOINSTYLE
280
     0
  9
$LWDISPLAY
290
     1
  9
$INSUNITS
 70
     4
  9
$HYPERLINKBASE
  1

  9
$STYLESHEET
  1

  9
$XEDIT
290
     1
  9
$CEPSNTYPE
380
     0
  9
$PSTYLEMODE
290
     1
  9
$FINGERPRINTGUID
  2
{D9CA711E-61AA-4362-93F8-E64EA21B4411}
  9
$VERSIONGUID
  2
{FAEB1C32-E019-11D5-929B-00C0DF256EC4}
  9
$EXTNAMES
290
     1
  9
$PSVPSCALE
 40
0.0
  9
$OLESTARTUP
290
     0
  0
ENDSEC
  0
SECTION
  2
CLASSES
  0
CLASS
  1
ACDBDICTIONARYWDFLT
  2
AcDbDictionaryWithDefault
  3
ObjectDBX Classes
 90
        0
280
     0
281
     0
  0
CLASS
  1
VISUALSTYLE
  2
AcDbVisualStyle
  3
ObjectDBX Classes
 90
     4095
280
     0
281
     0
  0
CLASS
  1
MATERIAL
  2
AcDbMaterial
  3
ObjectDBX Classes
 90
     1153
280
     0
281
     0
  0
CLASS
  1
SCALE
  2
AcDbScale
  3
ObjectDBX Classes
 90
     1153
280
     0
281
     0
  0
CLASS
  1
TABLESTYLE
  2
AcDbTableStyle
  3
ObjectDBX Classes
 90
     4095
280
     0
281
     0
  0
CLASS
  1
MLEADERSTYLE
  2
AcDbMLeaderStyle
  3
ACDB_MLEADERSTYLE_CLASS
 90
     4095
280
     0
281
     0
  0
CLASS
  1
SUN
  2
AcDbSun
  3
SCENEOE
 90
     1153
280
     0
281
     0
  0
CLASS
  1
ACDBPLACEHOLDER
  2
AcDbPlaceHolder
  3
ObjectDBX Classes
 90
        0
280
     0
281
     0
  0
CLASS
  1
LAYOUT
  2
AcDbLayout
  3
ObjectDBX Classes
 90
        0
280
     0
281
     0
  0
CLASS
  1
RASTERVARIABLES
  2
AcDbRasterVariables
  3
ISM
 90
        0
280
     0
281
     0
  0
ENDSEC
  0
SECTION
  2
TABLES
  0
TABLE
  2
VPORT
  5
8
330
0
100
AcDbSymbolTable
 70
     1
  0
VPORT
  5
29
330
8
100
AcDbSymbolTableRecord
100
AcDbViewportTableRecord
  2
*Active
 70
     0
 10
0.0
 20
0.0
 11
1.0
 21
1.0
 12
6.697447973981113
 22
-0.0770640575707744
 13
0.0
 23
0.0
 14
10.0
 24
10.0
 15
10.0
 25
10.0
 16
0.0
 26
0.0
 36
1.0
 17
0.0
 27
0.0
 37
0.0
 40
6.834686445236602
 41
1.741312741312741
 42
50.0
 43
0.0
 44
0.0
 50
0.0
 51
0.0
 71
    16
 72
  2000
 73
     1
 74
     3
 75
     0
 76
     0
 77
     0
 78
     0
281
     0
 65
     1
110
0.0
120
0.0
130
0.0
111
1.0
121
0.0
131
0.0
112
0.0
122
1.0
132
0.0
 79
     0
146
0.0
  0
ENDTAB
  0
TABLE
  2
LTYPE
  5
5
330
0
100
AcDbSymbolTable
 70
     6
  0
LTYPE
  5
14
330
5
100
AcDbSymbolTableRecord
100
AcDbLinetypeTableRecord
  2
ByBlock
 70
     0
  3

 72
    65
 73
     0
 40
0.0
  0
LTYPE
  5
15
330
5
100
AcDbSymbolTableRecord
100
AcDbLinetypeTableRecord
  2
ByLayer
 70
     0
  3

 72
    65
 73
     0
 40
0.0
  0
LTYPE
  5
16
330
5
100
AcDbSymbolTableRecord
100
AcDbLinetypeTableRecord
  2
Continuous
 70
     0
  3
Solid line
 72
    65
 73
     0
 40
0.0
  0
LTYPE
  5
6E
330
5
100
AcDbSymbolTableRecord
100
AcDbLinetypeTableRecord
  2
HIDDEN
 70
     0
  3
Hidden __ __ __ __ __ __ __ __ __ __ __ __ __ __
 72
    65
 73
     2
 40
1.905
 49
1.27
 74
     0
 49
-0.635
 74
     0
  0
LTYPE
  5
6F
330
5
100
AcDbSymbolTableRecord
100
AcDbLinetypeTableRecord
  2
PHANTOM
 70
     0
  3
Phantom ______  __  __  ______  __  __  ______
 72
    65
 73
     6
 40
12.7
 49
6.35
 74
     0
 49
-1.27
 74
     0
 49
1.27
 74
     0
 49
-1.27
 74
     0
 49
1.27
 74
     0
 49
-1.27
 74
     0
  0
LTYPE
  5
70
330
5
100
AcDbSymbolTableRecord
100
AcDbLinetypeTableRecord
  2
CENTER
 70
     0
  3
Center ____ _ ____ _ ____ _ ____ _ ____ _ ____
 72
    65
 73
     4
 40
10.16
 49
6.35
 74
     0
 49
-1.27
 74
     0
 49
1.27
 74
     0
 49
-1.27
 74
     0
  0
LTYPE
  5
71
330
5
100
AcDbSymbolTableRecord
100
AcDbLinetypeTableRecord
  2
CENTERX2
 70
     0
  3
Center (2x) ________  __  ________  __  _____
 72
    65
 73
     4
 40
20.32
 49
12.7
 74
     0
 49
-2.54
 74
     0
 49
2.54
 74
     0
 49
-2.54
 74
     0
  0
LTYPE
  5
72
330
5
100
AcDbSymbolTableRecord
100
AcDbLinetypeTableRecord
  2
DOT2
 70
     0
  3
Dot (.5x) ........................................
 72
    65
 73
     2
 40
0.635
 49
0.0
 74
     0
 49
-0.635
 74
     0
  0
ENDTAB
  0
TABLE
  2
LAYER
  5
2
330
0
100
AcDbSymbolTable
 70
    17
  0
LAYER
  5
10
330
2
100
AcDbSymbolTableRecord
100
AcDbLayerTableRecord
  2
0
 70
     0
 62
     7
  6
Continuous
370
    -3
390
F
  0
LAYER
  5
73
330
2
100
AcDbSymbolTableRecord
100
AcDbLayerTableRecord
  2
FORMAT
 70
     0
 62
     2
  6
Continuous
370
    -3
390
F
  0
LAYER
  5
74
330
2
100
AcDbSymbolTableRecord
100
AcDbLayerTableRecord
  2
외형선
 70
     0
 62
   100
  6
Continuous
370
    35
390
F
  0
LAYER
  5
75
330
2
100
AcDbSymbolTableRecord
100
AcDbLayerTableRecord
  2
숨은선
 70
     0
 62
     2
  6
HIDDEN
370
    25
390
F
  0
LAYER
  5
76
330
2
100
AcDbSymbolTableRecord
100
AcDbLayerTableRecord
  2
중심선
 70
     0
 62
     1
  6
CENTERX2
370
    -3
390
F
  0
LAYER
  5
77
330
2
100
AcDbSymbolTableRecord
100
AcDbLayerTableRecord
  2
파단선
 70
     0
 62
     4
  6
Continuous
370
    -3
390
F
  0
LAYER
  5
78
330
2
100
AcDbSymbolTableRecord
100
AcDbLayerTableRecord
  2
해칭선
 70
     0
 62
     4
  6
Continuous
370
    -3
390
F
  0
LAYER
  5
79
330
2
100
AcDbSymbolTableRecord
100
AcDbLayerTableRecord
  2
가는실선
 70
     0
 62
     4
  6
Continuous
370
    -3
390
F
  0
LAYER
  5
7A
330
2
100
AcDbSymbolTableRecord
100
AcDbLayerTableRecord
  2
치수_보조선
 70
     0
 62
     4
  6
Continuous
370
    -3
390
F
  0
LAYER
  5
7B
330
2
100
AcDbSymbolTableRecord
100
AcDbLayerTableRecord
  2
치수문자_일반주서
 70
     0
 62
     7
  6
Continuous
370
    25
390
F
  0
LAYER
  5
7C
330
2
100
AcDbSymbolTableRecord
100
AcDbLayerTableRecord
  2
개별주서
 70
     0
 62
   100
  6
Continuous
370
    35
390
F
  0
LAYER
  5
7D
330
2
100
AcDbSymbolTableRecord
100
AcDbLayerTableRecord
  2
중간선
 70
     0
 62
     2
  6
Continuous
370
    25
390
F
  0
LAYER
  5
7E
330
2
100
AcDbSymbolTableRecord
100
AcDbLayerTableRecord
  2
윤곽선
 70
     0
 62
     3
  6
Continuous
370
    50
390
F
  0
LAYER
  5
7F
330
2
100
AcDbSymbolTableRecord
100
AcDbLayerTableRecord
  2
중심마크
 70
     0
 62
   100
  6
Continuous
370
    35
390
F
  0
LAYER
  5
80
330
2
100
AcDbSymbolTableRecord
100
AcDbLayerTableRecord
  2
가상선
 70
     0
 62
     4
  6
PHANTOM
370
    -3
390
F
  0
LAYER
  5
81
330
2
100
AcDbSymbolTableRecord
100
AcDbLayerTableRecord
  2
특수지정선
 70
     0
 62
     5
  6
CENTERX2
370
    70
390
F
  0
LAYER
  5
149
330
2
100
AcDbSymbolTableRecord
100
AcDbLayerTableRecord
  2
Defpoints
 70
     0
 62
     7
  6
Continuous
290
     0
370
    -3
390
F
  0
ENDTAB
  0
TABLE
  2
STYLE
  5
3
330
0
100
AcDbSymbolTable
 70
     2
  0
STYLE
  5
11
330
3
100
AcDbSymbolTableRecord
100
AcDbTextStyleTableRecord
  2
Standard
 70
     0
 40
0.0
 41
1.0
 50
0.0
 71
     0
 42
3.5
  3
txt
  4

  0
STYLE
  5
97
330
3
100
AcDbSymbolTableRecord
100
AcDbTextStyleTableRecord
  2
SLDTEXTSTYLE0
 70
     0
 40
0.0
 41
0.75
 50
0.0
 71
     0
 42
3.5
  3
TXT
  4

  0
ENDTAB
  0
TABLE
  2
VIEW
  5
6
330
0
100
AcDbSymbolTable
 70
     0
  0
ENDTAB
  0
TABLE
  2
UCS
  5
7
330
0
100
AcDbSymbolTable
 70
     0
  0
ENDTAB
  0
TABLE
  2
APPID
  5
9
330
0
100
AcDbSymbolTable
 70
     4
  0
APPID
  5
12
330
9
100
AcDbSymbolTableRecord
100
AcDbRegAppTableRecord
  2
ACAD
 70
     0
  0
APPID
  5
241
330
9
100
AcDbSymbolTableRecord
100
AcDbRegAppTableRecord
  2
ACAD_DSTYLE_DIMRADIAL_EXTENSION
 70
     0
  0
APPID
  5
2B6
330
9
100
AcDbSymbolTableRecord
100
AcDbRegAppTableRecord
  2
ACAD_DSTYLE_DIMFLIPARROW_SYMBOL
 70
     0
  0
APPID
  5
2B7
330
9
100
AcDbSymbolTableRecord
100
AcDbRegAppTableRecord
  2
ACAD_DSTYLE_DIMFLIPARROW_WHICH_SYMBOL
 70
     0
  0
ENDTAB
  0
TABLE
  2
DIMSTYLE
  5
A
330
0
100
AcDbSymbolTable
 70
     5
100
AcDbDimStyleTable
  0
DIMSTYLE
105
27
330
A
100
AcDbSymbolTableRecord
100
AcDbDimStyleTableRecord
  2
ISO-25
 70
     0
 41
2.5
 42
0.625
 43
3.75
 44
1.25
 73
     0
 74
     0
 77
     1
 78
     8
140
2.5
141
2.5
143
0.03937007874016
147
0.625
171
     3
172
     1
178
     0
271
     2
272
     2
274
     3
278
    44
283
     0
284
     8
340
11
  0
DIMSTYLE
105
DF
102
{ACAD_REACTORS
330
182
330
1AB
330
1E9
330
1EC
102
}
330
A
100
AcDbSymbolTableRecord
100
AcDbDimStyleTableRecord
  2
SLDDIMSTYLE0
 70
     0
 41
3.302
 44
0.0
 45
0.000000001
 73
     0
 74
     0
 77
     1
 78
    12
 79
     3
140
3.5
147
0.875
172
     1
173
     1
178
     0
271
     2
272
     2
276
     2
284
    12
289
     0
340
97
  0
DIMSTYLE
105
ED
102
{ACAD_REACTORS
330
18F
330
1EA
102
}
330
A
100
AcDbSymbolTableRecord
100
AcDbDimStyleTableRecord
  2
SLDDIMSTYLE1
 70
     0
 41
3.302
 44
0.0
 45
0.000000001
 73
     0
 74
     0
 77
     1
 78
     4
 79
     1
140
3.5
147
0.875
172
     1
173
     1
178
     0
271
     2
272
     2
276
     2
284
    12
289
     0
340
97
  0
DIMSTYLE
105
FA
102
{ACAD_REACTORS
330
19E
330
1EB
102
}
330
A
100
AcDbSymbolTableRecord
100
AcDbDimStyleTableRecord
  2
SLDDIMSTYLE2
 70
     0
 41
3.302
 44
0.0
 45
0.000000001
 73
     0
 74
     0
 77
     1
 78
    12
 79
     3
140
3.5
147
0.875
173
     1
178
     0
271
     2
272
     2
276
     2
284
    12
340
97
  0
DIMSTYLE
105
111
102
{ACAD_REACTORS
330
1B9
330
1ED
330
27F
330
2AB
102
}
330
A
100
AcDbSymbolTableRecord
100
AcDbDimStyleTableRecord
  2
SLDDIMSTYLE3
 70
     0
 41
3.302
 44
0.0
 45
0.000000001
 73
     0
 74
     0
 77
     1
140
3.5
147
0.875
172
     1
173
     1
178
     0
271
     2
272
     2
276
     2
284
    12
289
     0
340
97
  0
ENDTAB
  0
TABLE
  2
BLOCK_RECORD
  5
1
330
0
100
AcDbSymbolTable
 70
    22
  0
BLOCK_RECORD
  5
1F
330
1
100
AcDbSymbolTableRecord
100
AcDbBlockTableRecord
  2
*Model_Space
340
22
  0
BLOCK_RECORD
  5
1B
330
1
100
AcDbSymbolTableRecord
100
AcDbBlockTableRecord
  2
*Paper_Space
340
1E
  0
BLOCK_RECORD
  5
23
330
1
100
AcDbSymbolTableRecord
100
AcDbBlockTableRecord
  2
*Paper_Space0
340
26
  0
BLOCK_RECORD
  5
82
330
1
100
AcDbSymbolTableRecord
100
AcDbBlockTableRecord
  2
블럭10
340
0
102
{BLKREFS
331
D7
102
}
  0
BLOCK_RECORD
  5
E0
330
1
100
AcDbSymbolTableRecord
100
AcDbBlockTableRecord
  2
_D
340
0
  0
BLOCK_RECORD
  5
EE
330
1
100
AcDbSymbolTableRecord
100
AcDbBlockTableRecord
  2
_D_1
340
0
  0
BLOCK_RECORD
  5
FB
330
1
100
AcDbSymbolTableRecord
100
AcDbBlockTableRecord
  2
_D_2
340
0
  0
BLOCK_RECORD
  5
105
330
1
100
AcDbSymbolTableRecord
100
AcDbBlockTableRecord
  2
_D_3
340
0
  0
BLOCK_RECORD
  5
112
330
1
100
AcDbSymbolTableRecord
100
AcDbBlockTableRecord
  2
_D_4
340
0
  0
BLOCK_RECORD
  5
11E
330
1
100
AcDbSymbolTableRecord
100
AcDbBlockTableRecord
  2
SW_DOWELSYMBOL_0
340
0
102
{BLKREFS
331
0
331
1C9
331
1EE
102
}
  0
BLOCK_RECORD
  5
183
330
1
100
AcDbSymbolTableRecord
100
AcDbBlockTableRecord
  2
*D9
340
0
  0
BLOCK_RECORD
  5
190
330
1
100
AcDbSymbolTableRecord
100
AcDbBlockTableRecord
  2
*D10
340
0
  0
BLOCK_RECORD
  5
19F
330
1
100
AcDbSymbolTableRecord
100
AcDbBlockTableRecord
  2
*D11
340
0
  0
BLOCK_RECORD
  5
1AC
330
1
100
AcDbSymbolTableRecord
100
AcDbBlockTableRecord
  2
*D12
340
0
  0
BLOCK_RECORD
  5
1BA
330
1
100
AcDbSymbolTableRecord
100
AcDbBlockTableRecord
  2
*D13
340
0
  0
BLOCK_RECORD
  5
1F7
330
1
100
AcDbSymbolTableRecord
100
AcDbBlockTableRecord
  2
*D14
340
0
  0
BLOCK_RECORD
  5
203
330
1
100
AcDbSymbolTableRecord
100
AcDbBlockTableRecord
  2
*D15
340
0
  0
BLOCK_RECORD
  5
212
330
1
100
AcDbSymbolTableRecord
100
AcDbBlockTableRecord
  2
*D16
340
0
  0
BLOCK_RECORD
  5
21E
330
1
100
AcDbSymbolTableRecord
100
AcDbBlockTableRecord
  2
*D17
340
0
  0
BLOCK_RECORD
  5
22B
330
1
100
AcDbSymbolTableRecord
100
AcDbBlockTableRecord
  2
*D18
340
0
  0
BLOCK_RECORD
  5
280
330
1
100
AcDbSymbolTableRecord
100
AcDbBlockTableRecord
  2
*D20
340
0
  0
BLOCK_RECORD
  5
2AC
330
1
100
AcDbSymbolTableRecord
100
AcDbBlockTableRecord
  2
*D21
340
0
  0
ENDTAB
  0
ENDSEC
  0
SECTION
  2
BLOCKS
  0
BLOCK
  5
20
330
1F
100
AcDbEntity
  8
0
100
AcDbBlockBegin
  2
*Model_Space
 70
     0
 10
0.0
 20
0.0
 30
0.0
  3
*Model_Space
  1
*Model_Space
  0
ENDBLK
  5
21
330
1F
100
AcDbEntity
  8
0
100
AcDbBlockEnd
  0
BLOCK
  5
1C
330
1B
100
AcDbEntity
 67
     1
  8
0
100
AcDbBlockBegin
  2
*Paper_Space
 70
     0
 10
0.0
 20
0.0
 30
0.0
  3
*Paper_Space
  1
*Paper_Space
  0
ENDBLK
  5
1D
330
1B
100
AcDbEntity
 67
     1
  8
0
100
AcDbBlockEnd
  0
BLOCK
  5
24
330
23
100
AcDbEntity
  8
0
100
AcDbBlockBegin
  2
*Paper_Space0
 70
     0
 10
0.0
 20
0.0
 30
0.0
  3
*Paper_Space0
  1
*Paper_Space0
  0
ENDBLK
  5
25
330
23
100
AcDbEntity
  8
0
100
AcDbBlockEnd
  0
BLOCK
  5
83
330
82
100
AcDbEntity
  8
0
100
AcDbBlockBegin
  2
블럭10
 70
     2
 10
0.0
 20
0.0
 30
0.0
  3
블럭10
  1
블럭10
  0
ELLIPSE
  5
85
330
82
100
AcDbEntity
  8
중심선
100
AcDbEllipse
 10
20.54032771741204
 20
12.0471743016438
 30
0.0
 11
6.600054785286829
 21
-1.261213355974178E-13
 31
0.0
210
0.0
220
0.0
230
1.0
 40
0.636358354079598
 41
0.9219305317359503
 42
6.513795318482858
  0
ELLIPSE
  5
86
330
82
100
AcDbEntity
  8
중심선
100
AcDbEllipse
 10
20.54032771746488
 20
12.04717430159265
 30
0.0
 11
3.960054785062283
 21
1.540847449632565E-10
 31
0.0
210
0.0
220
0.0
230
1.0
 40
0.3939339440162632
 41
1.131841032648279
 42
5.62031148352944
  0
LINE
  5
87
330
82
100
AcDbEntity
  8
중심선
100
AcDbLine
 10
2.268634060543552
 20
16.24717430164393
 30
0.0
 11
5.714909304380834
 21
16.24717430164393
 31
0.0
  0
LINE
  5
88
330
82
100
AcDbEntity
  8
중심선
100
AcDbLine
 10
5.245725140726316
 20
7.84717430164391
 30
0.0
 11
8.692000384563599
 21
7.84717430164391
 31
0.0
  0
LINE
  5
89
330
82
100
AcDbEntity
  8
중심선
100
AcDbLine
 10
15.74043728645272
 20
16.24717430164393
 30
0.0
 11
8.692000384563599
 21
7.84717430164391
 31
0.0
  0
LINE
  5
8A
330
82
100
AcDbEntity
  8
중심선
100
AcDbLine
 10
0.1404042013395286
 20
13.71084872107135
 30
0.0
 11
3.58671253028996
 21
13.71088815037384
 31
0.0
  0
LINE
  5
8B
330
82
100
AcDbEntity
  8
중심선
100
AcDbLine
 10
2.750260043222114
 20
10.84717430164391
 30
0.0
 11
6.196535287059397
 21
10.84717430164391
 31
0.0
  0
LINE
  5
8C
330
82
100
AcDbEntity
  8
중심선
100
AcDbLine
 10
12.29416204261559
 20
16.24717430164393
 30
0.0
 11
5.245725140726316
 21
7.84717430164391
 31
0.0
  0
LINE
  5
8D
330
82
100
AcDbEntity
  8
중심선
100
AcDbLine
 10
10.72767329541681
 20
16.24717430164393
 30
0.0
 11
6.196535287059397
 21
10.84717430164391
 31
0.0
  0
LINE
  5
8E
330
82
100
AcDbEntity
  8
중심선
100
AcDbLine
 10
7.28139805157953
 20
16.24717430164393
 30
0.0
 11
2.750260043222114
 21
10.84717430164391
 31
0.0
  0
LINE
  5
8F
330
82
100
AcDbEntity
  8
중심선
100
AcDbLine
 10
5.714909304380834
 20
16.24717430164393
 30
0.0
 11
3.58671253028996
 21
13.71088815037384
 31
0.0
  0
LINE
  5
90
330
82
100
AcDbEntity
  8
중심선
100
AcDbLine
 10
2.268634060543552
 20
16.24717430164393
 30
0.0
 11
0.1404042013395286
 21
13.71084872107135
 31
0.0
  0
LINE
  5
91
330
82
100
AcDbEntity
  8
중심선
100
AcDbLine
 10
7.28139805157953
 20
16.24717430164393
 30
0.0
 11
10.72767329541681
 21
16.24717430164393
 31
0.0
  0
LINE
  5
92
330
82
100
AcDbEntity
  8
중심선
100
AcDbLine
 10
12.29416204261559
 20
16.24717430164393
 30
0.0
 11
15.74043728645272
 21
16.24717430164393
 31
0.0
  0
LINE
  5
93
330
82
100
AcDbEntity
  8
중심선
100
AcDbLine
 10
19.22036997980202
 20
11.08717430171403
 30
0.0
 11
23.66174974927406
 21
11.08717430171406
 31
0.0
  0
LINE
  5
94
330
82
100
AcDbEntity
  8
중심선
100
AcDbLine
 10
19.22039502424796
 20
13.00717430171391
 30
0.0
 11
19.22036997980202
 21
11.08717430171403
 31
0.0
  0
LINE
  5
95
330
82
100
AcDbEntity
  8
중심선
100
AcDbLine
 10
19.22039502424796
 20
13.00717430171391
 30
0.0
 11
26.96566020931264
 21
13.00717430171391
 31
0.0
  0
LINE
  5
96
330
82
100
AcDbEntity
  8
중심선
100
AcDbLine
 10
22.22332737316547
 20
13.45928029700563
 30
0.0
 11
24.52862924686651
 21
15.39360700705356
 31
0.0
  0
ATTDEF
  5
98
330
82
100
AcDbEntity
  8
FORMAT
 62
     2
100
AcDbText
 10
-20.85824753159254
 20
2.075366912832191
 30
0.0
 40
4.233333333333333
  1
SEME6100800503E [ 2 FLUTE ]
 41
0.75
  7
SLDTEXTSTYLE0
 11
-20.85824753159254
 21
-0.0412997538344756
 31
0.0
100
AcDbAttributeDefinition
  3

  2
AUTOATTR0
 70
     0
 74
     1
  0
ENDBLK
  5
84
330
82
100
AcDbEntity
  8
0
100
AcDbBlockEnd
  0
BLOCK
  5
E1
330
E0
100
AcDbEntity
  8
0
100
AcDbBlockBegin
  2
_D
 70
     0
 10
0.0
 20
0.0
 30
0.0
  3
_D
  1
_D
  0
SOLID
  5
E3
330
E0
100
AcDbEntity
  8
치수문자_일반주서
100
AcDbTrace
 10
-43.00250885508844
 20
2.001074928723888
 30
0.0
 11
-42.49450885508843
 21
5.303074928723888
 31
0.0
 12
-43.51050885508844
 22
5.303074928723888
 32
0.0
 13
-43.51050885508844
 23
5.303074928723888
 33
0.0
  0
SOLID
  5
E4
330
E0
100
AcDbEntity
  8
치수문자_일반주서
100
AcDbTrace
 10
-43.00250885508844
 20
-1.998925071276106
 30
0.0
 11
-43.51050885508844
 21
-5.300925071276106
 31
0.0
 12
-42.49450885508843
 22
-5.300925071276106
 32
0.0
 13
-42.49450885508843
 23
-5.300925071276106
 33
0.0
  0
LINE
  5
E5
330
E0
100
AcDbEntity
  8
치수문자_일반주서
100
AcDbLine
 10
-31.50605083347638
 20
2.001074928723888
 30
0.0
 11
-44.00250885508844
 21
2.001074928723888
 31
0.0
  0
LINE
  5
E6
330
E0
100
AcDbEntity
  8
치수문자_일반주서
100
AcDbLine
 10
-31.50605083347638
 20
-1.998925071276106
 30
0.0
 11
-44.00250885508844
 21
-1.998925071276106
 31
0.0
  0
LINE
  5
E7
330
E0
100
AcDbEntity
  8
치수문자_일반주서
100
AcDbLine
 10
-43.00250885508844
 20
2.001074928723888
 30
0.0
 11
-43.00250885508844
 21
8.351074928723888
 31
0.0
  0
LINE
  5
E8
330
E0
100
AcDbEntity
  8
치수문자_일반주서
100
AcDbLine
 10
-43.00250885508844
 20
2.001074928723888
 30
0.0
 11
-43.00250885508844
 21
-1.998925071276106
 31
0.0
  0
LINE
  5
E9
330
E0
100
AcDbEntity
  8
치수문자_일반주서
100
AcDbLine
 10
-43.00250885508844
 20
-1.998925071276106
 30
0.0
 11
-43.00250885508844
 21
-8.348925071276106
 31
0.0
  0
MTEXT
  5
EA
330
E0
100
AcDbEntity
  8
치수문자_일반주서
100
AcDbMText
 10
-47.51424594429029
 20
-3.931199483639881
 30
0.0
 40
3.5
 41
0.0
 71
     1
 72
     1
  1
%%c
  7
SLDTEXTSTYLE0
 11
-7.044195017643634E-15
 21
1.0
 31
0.0
 73
     1
 44
1.0
  0
MTEXT
  5
EB
330
E0
100
AcDbEntity
  8
치수문자_일반주서
100
AcDbMText
 10
-47.56771812095018
 20
1.3472379147342
 30
0.0
 40
3.5
 41
0.0
 71
     1
 72
     1
  1
4
  7
SLDTEXTSTYLE0
 11
-7.044195017643634E-15
 21
1.0
 31
0.0
 73
     1
 44
1.0
  0
ENDBLK
  5
E2
330
E0
100
AcDbEntity
  8
0
100
AcDbBlockEnd
  0
BLOCK
  5
EF
330
EE
100
AcDbEntity
  8
0
100
AcDbBlockBegin
  2
_D_1
 70
     0
 10
0.0
 20
0.0
 30
0.0
  3
_D_1
  1
_D_1
  0
SOLID
  5
F1
330
EE
100
AcDbEntity
  8
치수문자_일반주서
100
AcDbTrace
 10
13.49394916652362
 20
18.85107492872355
 30
0.0
 11
16.79594916652361
 21
18.34307492872355
 31
0.0
 12
16.79594916652361
 22
19.35907492872355
 32
0.0
 13
16.79594916652361
 23
19.35907492872355
 33
0.0
  0
SOLID
  5
F2
330
EE
100
AcDbEntity
  8
치수문자_일반주서
100
AcDbTrace
 10
12.29394916652361
 20
18.85107492872355
 30
0.0
 11
8.991949166523614
 21
19.35907492872355
 31
0.0
 12
8.991949166523614
 22
18.34307492872355
 32
0.0
 13
8.991949166523614
 23
18.34307492872355
 33
0.0
  0
LINE
  5
F3
330
EE
100
AcDbEntity
  8
치수문자_일반주서
100
AcDbLine
 10
13.49394916652362
 20
1.351074928723894
 30
0.0
 11
13.49394916652362
 21
19.85107492872355
 31
0.0
  0
LINE
  5
F4
330
EE
100
AcDbEntity
  8
치수문자_일반주서
100
AcDbLine
 10
12.29394916652362
 20
1.317346502453636
 30
0.0
 11
12.29394916652361
 21
19.85107492872355
 31
0.0
  0
LINE
  5
F5
330
EE
100
AcDbEntity
  8
치수문자_일반주서
100
AcDbLine
 10
13.49394916652362
 20
18.85107492872355
 30
0.0
 11
19.33219388599772
 21
18.85107492872355
 31
0.0
  0
LINE
  5
F6
330
EE
100
AcDbEntity
  8
치수문자_일반주서
100
AcDbLine
 10
13.49394916652362
 20
18.85107492872355
 30
0.0
 11
12.29394916652361
 21
18.85107492872355
 31
0.0
  0
LINE
  5
F7
330
EE
100
AcDbEntity
  8
치수문자_일반주서
100
AcDbLine
 10
12.29394916652361
 20
18.85107492872355
 30
0.0
 11
5.943949166523614
 21
18.85107492872355
 31
0.0
  0
MTEXT
  5
F8
330
EE
100
AcDbEntity
  8
치수문자_일반주서
100
AcDbMText
 10
10.28080482508319
 20
23.36281184330245
 30
0.0
 40
3.5
 41
0.0
 71
     1
 72
     1
  1
1.20
  7
SLDTEXTSTYLE0
 73
     1
 44
1.0
  0
ENDBLK
  5
F0
330
EE
100
AcDbEntity
  8
0
100
AcDbBlockEnd
  0
BLOCK
  5
FC
330
FB
100
AcDbEntity
  8
0
100
AcDbBlockBegin
  2
_D_2
 70
     0
 10
0.0
 20
0.0
 30
0.0
  3
_D_2
  1
_D_2
  0
SOLID
  5
FE
330
FB
100
AcDbEntity
  8
치수문자_일반주서
100
AcDbTrace
 10
13.49394916652362
 20
40.90939943376819
 30
0.0
 11
10.19194916652362
 21
41.41739943376819
 31
0.0
 12
10.19194916652362
 22
40.40139943376818
 32
0.0
 13
10.19194916652362
 23
40.40139943376818
 33
0.0
  0
SOLID
  5
FF
330
FB
100
AcDbEntity
  8
치수문자_일반주서
100
AcDbTrace
 10
-31.50605083347638
 20
40.90939943376819
 30
0.0
 11
-28.20405083347638
 21
40.40139943376818
 31
0.0
 12
-28.20405083347638
 22
41.41739943376819
 32
0.0
 13
-28.20405083347638
 23
41.41739943376819
 33
0.0
  0
LINE
  5
100
330
FB
100
AcDbEntity
  8
치수문자_일반주서
100
AcDbLine
 10
13.49394916652362
 20
1.351074928723894
 30
0.0
 11
13.49394916652362
 21
41.90939943376819
 31
0.0
  0
LINE
  5
101
330
FB
100
AcDbEntity
  8
치수문자_일반주서
100
AcDbLine
 10
-31.50605083347638
 20
2.001074928723888
 30
0.0
 11
-31.50605083347638
 21
41.90939943376819
 31
0.0
  0
LINE
  5
102
330
FB
100
AcDbEntity
  8
치수문자_일반주서
100
AcDbLine
 10
13.49394916652362
 20
40.90939943376819
 30
0.0
 11
-31.50605083347638
 21
40.90939943376819
 31
0.0
  0
MTEXT
  5
103
330
FB
100
AcDbEntity
  8
치수문자_일반주서
100
AcDbMText
 10
-11.59216202699921
 20
45.42113634834708
 30
0.0
 40
3.5
 41
0.0
 71
     1
 72
     1
  1
45
  7
SLDTEXTSTYLE0
 73
     1
 44
1.0
  0
ENDBLK
  5
FD
330
FB
100
AcDbEntity
  8
0
100
AcDbBlockEnd
  0
BLOCK
  5
106
330
105
100
AcDbEntity
  8
0
100
AcDbBlockBegin
  2
_D_3
 70
     0
 10
0.0
 20
0.0
 30
0.0
  3
_D_3
  1
_D_3
  0
SOLID
  5
108
330
105
100
AcDbEntity
  8
치수문자_일반주서
100
AcDbTrace
 10
13.49394916652351
 20
30.12107492872394
 30
0.0
 11
16.79594916652351
 21
29.61307492872395
 31
0.0
 12
16.79594916652351
 22
30.62907492872395
 32
0.0
 13
16.79594916652351
 23
30.62907492872395
 33
0.0
  0
SOLID
  5
109
330
105
100
AcDbEntity
  8
치수문자_일반주서
100
AcDbTrace
 10
10.30734662614507
 20
30.12107492872393
 30
0.0
 11
7.005346626145066
 21
30.62907492872392
 31
0.0
 12
7.005346626145069
 22
29.61307492872392
 32
0.0
 13
7.005346626145069
 23
29.61307492872392
 33
0.0
  0
LINE
  5
10A
330
105
100
AcDbEntity
  8
치수문자_일반주서
100
AcDbLine
 10
13.49394916652361
 20
1.201074928723894
 30
0.0
 11
13.49394916652351
 21
31.12107492872394
 31
0.0
  0
LINE
  5
10B
330
105
100
AcDbEntity
  8
치수문자_일반주서
100
AcDbLine
 10
10.30734662614517
 20
1.061199803428677
 30
0.0
 11
10.30734662614506
 21
31.12107492872393
 31
0.0
  0
LINE
  5
10C
330
105
100
AcDbEntity
  8
치수문자_일반주서
100
AcDbLine
 10
13.49394916652351
 20
30.12107492872394
 30
0.0
 11
45.12480835498598
 21
30.12107492872405
 31
0.0
  0
LINE
  5
10D
330
105
100
AcDbEntity
  8
치수문자_일반주서
100
AcDbLine
 10
13.49394916652351
 20
30.12107492872394
 30
0.0
 11
10.30734662614507
 21
30.12107492872393
 31
0.0
  0
LINE
  5
10E
330
105
100
AcDbEntity
  8
치수문자_일반주서
100
AcDbLine
 10
10.30734662614507
 20
30.12107492872393
 30
0.0
 11
3.957346626145067
 21
30.12107492872391
 31
0.0
  0
MTEXT
  5
10F
330
105
100
AcDbEntity
  8
치수문자_일반주서
100
AcDbMText
 10
36.07341929407147
 20
34.63281184330295
 30
0.0
 40
3.5
 41
0.0
 71
     1
 72
     1
  1
3.19
  7
SLDTEXTSTYLE0
 73
     1
 44
1.0
  0
ENDBLK
  5
107
330
105
100
AcDbEntity
  8
0
100
AcDbBlockEnd
  0
BLOCK
  5
113
330
112
100
AcDbEntity
  8
0
100
AcDbBlockBegin
  2
_D_4
 70
     0
 10
0.0
 20
0.0
 30
0.0
  3
_D_4
  1
_D_4
  0
SOLID
  5
115
330
112
100
AcDbEntity
  8
치수문자_일반주서
100
AcDbTrace
 10
34.30059833193547
 20
0.2510749287239238
 30
0.0
 11
34.80859833193546
 21
3.553074928723924
 31
0.0
 12
33.79259833193546
 22
3.553074928723922
 32
0.0
 13
33.79259833193546
 23
3.553074928723922
 33
0.0
  0
SOLID
  5
116
330
112
100
AcDbEntity
  8
치수문자_일반주서
100
AcDbTrace
 10
34.30059833193548
 20
-0.2457884678290603
 30
0.0
 11
33.79259833193548
 21
-3.547788467829061
 31
0.0
 12
34.80859833193549
 22
-3.547788467829059
 32
0.0
 13
34.80859833193549
 23
-3.547788467829059
 33
0.0
  0
LINE
  5
117
330
112
100
AcDbEntity
  8
치수문자_일반주서
100
AcDbLine
 10
17.44394916652362
 20
0.2510749287238954
 30
0.0
 11
35.30059833193547
 21
0.2510749287239255
 31
0.0
  0
LINE
  5
118
330
112
100
AcDbEntity
  8
치수문자_일반주서
100
AcDbLine
 10
17.44394916652362
 20
-0.2457884678290887
 30
0.0
 11
35.30059833193548
 21
-0.2457884678290586
 31
0.0
  0
LINE
  5
119
330
112
100
AcDbEntity
  8
치수문자_일반주서
100
AcDbLine
 10
34.30059833193547
 20
0.2510749287239238
 30
0.0
 11
34.30059833193538
 21
6.601074928723923
 31
0.0
  0
LINE
  5
11A
330
112
100
AcDbEntity
  8
치수문자_일반주서
100
AcDbLine
 10
34.30059833193547
 20
0.2510749287239238
 30
0.0
 11
34.30059833193548
 21
-0.2457884678290603
 31
0.0
  0
LINE
  5
11B
330
112
100
AcDbEntity
  8
치수문자_일반주서
100
AcDbLine
 10
34.30059833193548
 20
-0.2457884678290603
 30
0.0
 11
34.30059833193558
 21
-8.35659775097388
 31
0.0
  0
MTEXT
  5
11C
330
112
100
AcDbEntity
  8
치수문자_일반주서
100
AcDbMText
 10
29.78886124273366
 20
-8.356597750973934
 30
0.0
 40
3.5
 41
0.0
 71
     1
 72
     1
  1
%%c
  7
SLDTEXTSTYLE0
 11
-8.820551857043885E-15
 21
1.0
 31
0.0
 73
     1
 44
1.0
  0
MTEXT
  5
11D
330
112
100
AcDbEntity
  8
치수문자_일반주서
100
AcDbMText
 10
29.73538906607376
 20
-3.078160352599854
 30
0.0
 40
3.5
 41
0.0
 71
     1
 72
     1
  1
0.50
  7
SLDTEXTSTYLE0
 11
-8.820551857043885E-15
 21
1.0
 31
0.0
 73
     1
 44
1.0
  0
ENDBLK
  5
114
330
112
100
AcDbEntity
  8
0
100
AcDbBlockEnd
  0
BLOCK
  5
11F
330
11E
100
AcDbEntity
  8
0
100
AcDbBlockBegin
  2
SW_DOWELSYMBOL_0
 70
     0
 10
0.0
 20
0.0
 30
0.0
  3
SW_DOWELSYMBOL_0
  1
SW_DOWELSYMBOL_0
  0
CIRCLE
  5
121
330
11E
100
AcDbEntity
  8
외형선
 62
     0
100
AcDbCircle
 10
0.0
 20
0.0
 30
0.0
 40
3.000000000000004
  0
HATCH
  5
122
330
11E
100
AcDbEntity
  8
0
  6
Continuous
 62
     0
370
    35
100
AcDbHatch
 10
0.0
 20
0.0
 30
0.0
210
0.0
220
0.0
230
1.0
  2
SOLID
 70
     1
 71
     0
 91
        1
 92
        0
 93
        3
 72
     2
 10
0.0000000000000104
 20
0.0
 40
3.000000000000004
 50
0.0
 51
90.0
 73
     1
 72
     1
 10
0.0000000000000104
 20
3.000000000000004
 11
0.0000000000000104
 21
0.0
 72
     1
 10
0.0000000000000104
 20
0.0
 11
3.000000000000015
 21
0.0
 97
        0
 75
     0
 76
     1
 98
        1
 10
0.0
 20
0.0
  0
HATCH
  5
123
330
11E
100
AcDbEntity
  8
0
  6
Continuous
 62
     0
370
    35
100
AcDbHatch
 10
0.0
 20
0.0
 30
0.0
210
0.0
220
0.0
230
1.0
  2
SOLID
 70
     1
 71
     0
 91
        1
 92
        0
 93
        3
 72
     2
 10
0.0000000000000104
 20
0.0
 40
3.000000000000004
 50
180.0
 51
270.0000000000008
 73
     1
 72
     1
 10
0.0000000000000104
 20
-3.000000000000004
 11
0.0000000000000104
 21
0.0
 72
     1
 10
0.0000000000000104
 20
0.0
 11
-2.999999999999994
 21
0.0
 97
        0
 75
     0
 76
     1
 98
        1
 10
0.0
 20
0.0
  0
ENDBLK
  5
120
330
11E
100
AcDbEntity
  8
0
100
AcDbBlockEnd
  0
BLOCK
  5
184
330
183
100
AcDbEntity
  8
0
100
AcDbBlockBegin
  2
*D9
 70
     1
 10
0.0
 20
0.0
 30
0.0
  3
*D9
  1
*D9
  0
LINE
  5
185
330
183
100
AcDbEntity
  8
치수문자_일반주서
 62
     0
370
    -2
100
AcDbLine
 10
16.80895802161217
 20
9.001388637143236
 30
0.0
 11
4.374999999999993
 21
9.00138863714319
 31
0.0
  0
LINE
  5
186
330
183
100
AcDbEntity
  8
치수문자_일반주서
 62
     0
370
    -2
100
AcDbLine
 10
16.80895802161217
 20
5.001388637143236
 30
0.0
 11
4.375000000000007
 21
5.00138863714319
 31
0.0
  0
LINE
  5
187
330
183
100
AcDbEntity
  8
치수문자_일반주서
 62
     0
370
    -2
100
AcDbLine
 10
4.375000000000004
 20
5.699388637143191
 30
0.0
 11
4.374999999999996
 21
8.30338863714319
 31
0.0
  0
SOLID
  5
188
330
183
100
AcDbEntity
  8
치수문자_일반주서
 62
     0
100
AcDbTrace
 10
4.925333333333338
 20
5.699388637143192
 30
0.0
 11
3.824666666666671
 21
5.699388637143189
 31
0.0
 12
4.374999999999993
 22
9.00138863714319
 32
0.0
 13
4.374999999999993
 23
9.00138863714319
 33
0.0
  0
SOLID
  5
189
330
183
100
AcDbEntity
  8
치수문자_일반주서
 62
     0
100
AcDbTrace
 10
3.824666666666662
 20
8.303388637143188
 30
0.0
 11
4.925333333333329
 21
8.303388637143192
 31
0.0
 12
4.375000000000007
 22
5.00138863714319
 32
0.0
 13
4.375000000000007
 23
5.00138863714319
 33
0.0
  0
MTEXT
  5
18A
330
183
100
AcDbEntity
  8
치수문자_일반주서
 62
     0
100
AcDbMText
 10
0.0
 20
7.001388637143221
 30
0.0
 40
3.5
 41
0.0
 71
     2
 72
     1
  1
\A1;%%c4
  7
SLDTEXTSTYLE0
 11
-3.552713678800500E-15
 21
1.0
 31
0.0
 73
     1
 44
1.0
  0
POINT
  5
18B
330
183
100
AcDbEntity
  8
Defpoints
 62
     0
100
AcDbPoint
 10
16.87145802161217
 20
9.001388637143236
 30
0.0
  0
POINT
  5
18C
330
183
100
AcDbEntity
  8
Defpoints
 62
     0
100
AcDbPoint
 10
16.87145802161217
 20
5.001388637143236
 30
0.0
  0
POINT
  5
18D
330
183
100
AcDbEntity
  8
Defpoints
 62
     0
100
AcDbPoint
 10
4.375
 20
5.001388637143189
 30
0.0
  0
ENDBLK
  5
18E
330
183
100
AcDbEntity
  8
0
100
AcDbBlockEnd
  0
BLOCK
  5
191
330
190
100
AcDbEntity
  8
0
100
AcDbBlockBegin
  2
*D10
 70
     1
 10
0.0
 20
0.0
 30
0.0
  3
*D10
  1
*D10
  0
LINE
  5
192
330
190
100
AcDbEntity
  8
치수문자_일반주서
 62
     0
370
    -2
100
AcDbLine
 10
60.87145802161217
 20
7.413888637143231
 30
0.0
 11
60.87145802161217
 21
26.17812267655285
 31
0.0
  0
LINE
  5
193
330
190
100
AcDbEntity
  8
치수문자_일반주서
 62
     0
370
    -2
100
AcDbLine
 10
59.67145802161212
 20
7.380160210872958
 30
0.0
 11
59.67145802161212
 21
26.17812267655285
 31
0.0
  0
LINE
  5
194
330
190
100
AcDbEntity
  8
치수문자_일반주서
 62
     0
370
    -2
100
AcDbLine
 10
60.87145802161217
 20
26.17812267655285
 30
0.0
 11
75.78795802161217
 21
26.17812267655285
 31
0.0
  0
LINE
  5
195
330
190
100
AcDbEntity
  8
치수문자_일반주서
 62
     0
370
    -2
100
AcDbLine
 10
60.87145802161217
 20
26.17812267655285
 30
0.0
 11
59.67145802161212
 21
26.17812267655285
 31
0.0
  0
LINE
  5
196
330
190
100
AcDbEntity
  8
치수문자_일반주서
 62
     0
370
    -2
100
AcDbLine
 10
64.17345802161216
 20
26.17812267655285
 30
0.0
 11
67.47545802161216
 21
26.17812267655285
 31
0.0
  0
LINE
  5
197
330
190
100
AcDbEntity
  8
치수문자_일반주서
 62
     0
370
    -2
100
AcDbLine
 10
56.36945802161213
 20
26.17812267655285
 30
0.0
 11
53.06745802161213
 21
26.17812267655285
 31
0.0
  0
SOLID
  5
198
330
190
100
AcDbEntity
  8
치수문자_일반주서
 62
     0
100
AcDbTrace
 10
64.17345802161216
 20
26.72845600988618
 30
0.0
 11
64.17345802161216
 21
25.62778934321951
 31
0.0
 12
60.87145802161217
 22
26.17812267655285
 32
0.0
 13
60.87145802161217
 23
26.17812267655285
 33
0.0
  0
SOLID
  5
199
330
190
100
AcDbEntity
  8
치수문자_일반주서
 62
     0
100
AcDbTrace
 10
56.36945802161213
 20
25.62778934321951
 30
0.0
 11
56.36945802161213
 21
26.72845600988618
 31
0.0
 12
59.67145802161212
 22
26.17812267655285
 32
0.0
 13
59.67145802161212
 23
26.17812267655285
 33
0.0
  0
MTEXT
  5
19A
330
190
100
AcDbEntity
  8
치수문자_일반주서
 62
     0
100
AcDbMText
 10
71.63170802161217
 20
30.55312267655285
 30
0.0
 40
3.5
 41
0.0
 71
     2
 72
     1
  1
\A1;1.20
  7
SLDTEXTSTYLE0
 73
     1
 44
1.0
  0
POINT
  5
19B
330
190
100
AcDbEntity
  8
Defpoints
 62
     0
100
AcDbPoint
 10
60.87145802161217
 20
7.351388637143231
 30
0.0
  0
POINT
  5
19C
330
190
100
AcDbEntity
  8
Defpoints
 62
     0
100
AcDbPoint
 10
59.67145802161212
 20
7.317660210872958
 30
0.0
  0
POINT
  5
1DA
330
190
100
AcDbEntity
  8
Defpoints
 62
     0
100
AcDbPoint
 10
59.67145802161212
 20
26.17812267655285
 30
0.0
  0
ENDBLK
  5
19D
330
190
100
AcDbEntity
  8
0
100
AcDbBlockEnd
  0
BLOCK
  5
1A0
330
19F
100
AcDbEntity
  8
0
100
AcDbBlockBegin
  2
*D11
 70
     1
 10
0.0
 20
0.0
 30
0.0
  3
*D11
  1
*D11
  0
LINE
  5
1A1
330
19F
100
AcDbEntity
  8
치수문자_일반주서
 62
     0
370
    -2
100
AcDbLine
 10
60.87145802161217
 20
7.413888637143231
 30
0.0
 11
60.87145802161217
 21
47.90971314218751
 31
0.0
  0
LINE
  5
1A2
330
19F
100
AcDbEntity
  8
치수문자_일반주서
 62
     0
370
    -2
100
AcDbLine
 10
15.87145802161217
 20
8.063888637143236
 30
0.0
 11
15.87145802161217
 21
47.90971314218751
 31
0.0
  0
LINE
  5
1A3
330
19F
100
AcDbEntity
  8
치수문자_일반주서
 62
     0
370
    -2
100
AcDbLine
 10
57.56945802161217
 20
47.90971314218751
 30
0.0
 11
19.17345802161217
 21
47.90971314218751
 31
0.0
  0
SOLID
  5
1A4
330
19F
100
AcDbEntity
  8
치수문자_일반주서
 62
     0
100
AcDbTrace
 10
57.56945802161217
 20
47.35937980885418
 30
0.0
 11
57.56945802161217
 21
48.46004647552085
 31
0.0
 12
60.87145802161217
 22
47.90971314218751
 32
0.0
 13
60.87145802161217
 23
47.90971314218751
 33
0.0
  0
SOLID
  5
1A5
330
19F
100
AcDbEntity
  8
치수문자_일반주서
 62
     0
100
AcDbTrace
 10
19.17345802161217
 20
48.46004647552085
 30
0.0
 11
19.17345802161217
 21
47.35937980885418
 31
0.0
 12
15.87145802161217
 22
47.90971314218751
 32
0.0
 13
15.87145802161217
 23
47.90971314218751
 33
0.0
  0
MTEXT
  5
1A6
330
19F
100
AcDbEntity
  8
치수문자_일반주서
 62
     0
100
AcDbMText
 10
38.37145802161217
 20
52.28471314218751
 30
0.0
 40
3.5
 41
0.0
 71
     2
 72
     1
  1
\A1;45
  7
SLDTEXTSTYLE0
 73
     1
 44
1.0
  0
POINT
  5
1A7
330
19F
100
AcDbEntity
  8
Defpoints
 62
     0
100
AcDbPoint
 10
60.87145802161217
 20
7.351388637143231
 30
0.0
  0
POINT
  5
1A8
330
19F
100
AcDbEntity
  8
Defpoints
 62
     0
100
AcDbPoint
 10
15.87145802161217
 20
8.001388637143236
 30
0.0
  0
POINT
  5
1A9
330
19F
100
AcDbEntity
  8
Defpoints
 62
     0
100
AcDbPoint
 10
15.87145802161217
 20
47.90971314218751
 30
0.0
  0
ENDBLK
  5
1AA
330
19F
100
AcDbEntity
  8
0
100
AcDbBlockEnd
  0
BLOCK
  5
1AD
330
1AC
100
AcDbEntity
  8
0
100
AcDbBlockBegin
  2
*D12
 70
     1
 10
0.0
 20
0.0
 30
0.0
  3
*D12
  1
*D12
  0
LINE
  5
1AE
330
1AC
100
AcDbEntity
  8
치수문자_일반주서
 62
     0
370
    -2
100
AcDbLine
 10
60.87145802161217
 20
7.413253126808343
 30
0.0
 11
60.87145802161217
 21
37.12138863714338
 31
0.0
  0
LINE
  5
1AF
330
1AC
100
AcDbEntity
  8
치수문자_일반주서
 62
     0
370
    -2
100
AcDbLine
 10
57.87145802161217
 20
7.438888637143236
 30
0.0
 11
57.87145802161217
 21
37.12138863714338
 31
0.0
  0
LINE
  5
1B0
330
1AC
100
AcDbEntity
  8
치수문자_일반주서
 62
     0
370
    -2
100
AcDbLine
 10
60.87145802161217
 20
37.12138863714338
 30
0.0
 11
70.97545802161221
 21
37.12138863714338
 31
0.0
  0
LINE
  5
1B1
330
1AC
100
AcDbEntity
  8
치수문자_일반주서
 62
     0
370
    -2
100
AcDbLine
 10
57.56945802161217
 20
37.12138863714338
 30
0.0
 11
61.17345802161217
 21
37.12138863714338
 31
0.0
  0
SOLID
  5
1B2
330
1AC
100
AcDbEntity
  8
치수문자_일반주서
 62
     0
100
AcDbTrace
 10
57.56945802161217
 20
36.57105530381005
 30
0.0
 11
57.56945802161217
 21
37.67172197047672
 31
0.0
 12
60.87145802161217
 22
37.12138863714338
 32
0.0
 13
60.87145802161217
 23
37.12138863714338
 33
0.0
  0
SOLID
  5
1B3
330
1AC
100
AcDbEntity
  8
치수문자_일반주서
 62
     0
100
AcDbTrace
 10
61.17345802161217
 20
37.67172197047672
 30
0.0
 11
61.17345802161217
 21
36.57105530381005
 31
0.0
 12
57.87145802161217
 22
37.12138863714338
 32
0.0
 13
57.87145802161217
 23
37.12138863714338
 33
0.0
  0
MTEXT
  5
1B4
330
1AC
100
AcDbEntity
  8
치수문자_일반주서
 62
     0
100
AcDbMText
 10
69.22545802161221
 20
41.49638863714338
 30
0.0
 40
3.5
 41
0.0
 71
     2
 72
     1
  1
\A1;3
  7
SLDTEXTSTYLE0
 73
     1
 44
1.0
  0
POINT
  5
1B5
330
1AC
100
AcDbEntity
  8
Defpoints
 62
     0
100
AcDbPoint
 10
60.87145802161217
 20
7.350753126808343
 30
0.0
  0
POINT
  5
1B6
330
1AC
100
AcDbEntity
  8
Defpoints
 62
     0
100
AcDbPoint
 10
57.87145802161217
 20
7.376388637143236
 30
0.0
  0
POINT
  5
1B7
330
1AC
100
AcDbEntity
  8
Defpoints
 62
     0
100
AcDbPoint
 10
57.87145802161217
 20
37.12138863714338
 30
0.0
  0
ENDBLK
  5
1B8
330
1AC
100
AcDbEntity
  8
0
100
AcDbBlockEnd
  0
BLOCK
  5
1BB
330
1BA
100
AcDbEntity
  8
0
100
AcDbBlockBegin
  2
*D13
 70
     1
 10
0.0
 20
0.0
 30
0.0
  3
*D13
  1
*D13
  0
LINE
  5
1BC
330
1BA
100
AcDbEntity
  8
치수문자_일반주서
 62
     0
370
    -2
100
AcDbLine
 10
60.80019933425729
 20
7.403758114250735
 30
0.0
 11
77.21849721025183
 21
7.403758114250795
 31
0.0
  0
LINE
  5
1BD
330
1BA
100
AcDbEntity
  8
치수문자_일반주서
 62
     0
370
    -2
100
AcDbLine
 10
60.88395802161199
 20
6.603999999999928
 30
0.0
 11
77.21849721025183
 21
6.603999999999989
 31
0.0
  0
LINE
  5
1BE
330
1BA
100
AcDbEntity
  8
치수문자_일반주서
 62
     0
370
    -2
100
AcDbLine
 10
77.21849721025183
 20
7.403758114250795
 30
0.0
 11
77.21849721025183
 21
25.59652727428659
 31
0.0
  0
LINE
  5
1BF
330
1BA
100
AcDbEntity
  8
치수문자_일반주서
 62
     0
370
    -2
100
AcDbLine
 10
77.21849721025183
 20
7.403758114250795
 30
0.0
 11
77.21849721025183
 21
6.603999999999989
 31
0.0
  0
LINE
  5
1C0
330
1BA
100
AcDbEntity
  8
치수문자_일반주서
 62
     0
370
    -2
100
AcDbLine
 10
77.21849721025183
 20
10.70575811425079
 30
0.0
 11
77.21849721025183
 21
14.00775811425079
 31
0.0
  0
LINE
  5
1C1
330
1BA
100
AcDbEntity
  8
치수문자_일반주서
 62
     0
370
    -2
100
AcDbLine
 10
77.21849721025183
 20
3.301999999999989
 30
0.0
 11
77.21849721025183
 21
-0.0000000000000107
 31
0.0
  0
SOLID
  5
1C2
330
1BA
100
AcDbEntity
  8
치수문자_일반주서
 62
     0
100
AcDbTrace
 10
76.6681638769185
 20
10.70575811425079
 30
0.0
 11
77.76883054358515
 21
10.70575811425079
 31
0.0
 12
77.21849721025183
 22
7.403758114250795
 32
0.0
 13
77.21849721025183
 23
7.403758114250795
 33
0.0
  0
SOLID
  5
1C3
330
1BA
100
AcDbEntity
  8
치수문자_일반주서
 62
     0
100
AcDbTrace
 10
77.76883054358515
 20
3.301999999999989
 30
0.0
 11
76.6681638769185
 21
3.301999999999989
 31
0.0
 12
77.21849721025183
 22
6.603999999999989
 32
0.0
 13
77.21849721025183
 23
6.603999999999989
 33
0.0
  0
MTEXT
  5
1C4
330
1BA
100
AcDbEntity
  8
치수문자_일반주서
 62
     0
100
AcDbMText
 10
72.84349721025183
 20
19.90902727428659
 30
0.0
 40
3.5
 41
0.0
 71
     2
 72
     1
  1
\A1;%%c0.80
  7
SLDTEXTSTYLE0
 11
0.0
 21
1.0
 31
0.0
 73
     1
 44
1.0
  0
POINT
  5
1C5
330
1BA
100
AcDbEntity
  8
Defpoints
 62
     0
100
AcDbPoint
 10
60.73769933425729
 20
7.403758114250735
 30
0.0
  0
POINT
  5
1C6
330
1BA
100
AcDbEntity
  8
Defpoints
 62
     0
100
AcDbPoint
 10
60.82145802161199
 20
6.603999999999928
 30
0.0
  0
POINT
  5
1C7
330
1BA
100
AcDbEntity
  8
Defpoints
 62
     0
100
AcDbPoint
 10
77.21849721025183
 20
6.603999999999989
 30
0.0
  0
ENDBLK
  5
1C8
330
1BA
100
AcDbEntity
  8
0
100
AcDbBlockEnd
  0
BLOCK
  5
1F8
330
1F7
100
AcDbEntity
  8
0
100
AcDbBlockBegin
  2
*D14
 70
     1
 10
0.0
 20
0.0
 30
0.0
  3
*D14
  1
*D14
  0
LINE
  5
1FA
330
1F7
100
AcDbEntity
  8
치수문자_일반주서
 62
     0
370
    -2
100
AcDbLine
 10
-34.99791743770061
 20
2.0
 30
0.0
 11
-47.43187545931278
 21
1.999999999999953
 31
0.0
  0
LINE
  5
1FB
330
1F7
100
AcDbEntity
  8
치수문자_일반주서
 62
     0
370
    -2
100
AcDbLine
 10
-34.99791743770061
 20
-2.0
 30
0.0
 11
-47.43187545931277
 21
-2.000000000000047
 31
0.0
  0
LINE
  5
1FC
330
1F7
100
AcDbEntity
  8
치수문자_일반주서
 62
     0
370
    -2
100
AcDbLine
 10
-47.43187545931277
 20
-1.302000000000047
 30
0.0
 11
-47.43187545931278
 21
1.301999999999953
 31
0.0
  0
SOLID
  5
1FD
330
1F7
100
AcDbEntity
  8
치수문자_일반주서
 62
     0
100
AcDbTrace
 10
-46.88154212597944
 20
-1.302000000000045
 30
0.0
 11
-47.98220879264611
 21
-1.302000000000049
 31
0.0
 12
-47.43187545931278
 22
1.999999999999953
 32
0.0
 13
-47.43187545931278
 23
1.999999999999953
 33
0.0
  0
SOLID
  5
1FE
330
1F7
100
AcDbEntity
  8
치수문자_일반주서
 62
     0
100
AcDbTrace
 10
-47.98220879264612
 20
1.301999999999951
 30
0.0
 11
-46.88154212597945
 21
1.301999999999955
 31
0.0
 12
-47.43187545931277
 22
-2.000000000000047
 32
0.0
 13
-47.43187545931277
 23
-2.000000000000047
 33
0.0
  0
MTEXT
  5
1FF
330
1F7
100
AcDbEntity
  8
치수문자_일반주서
 62
     0
100
AcDbMText
 10
-51.80687545931278
 20
-0.0000000000000154
 30
0.0
 40
3.5
 41
0.0
 71
     2
 72
     1
  1
\A1;%%c4
  7
SLDTEXTSTYLE0
 11
-3.552713678800502E-15
 21
1.0
 31
0.0
 73
     1
 44
1.0
  0
POINT
  5
200
330
1F7
100
AcDbEntity
  8
Defpoints
 62
     0
100
AcDbPoint
 10
-34.93541743770061
 20
2.0
 30
0.0
  0
POINT
  5
201
330
1F7
100
AcDbEntity
  8
Defpoints
 62
     0
100
AcDbPoint
 10
-34.93541743770061
 20
-2.0
 30
0.0
  0
POINT
  5
202
330
1F7
100
AcDbEntity
  8
Defpoints
 62
     0
100
AcDbPoint
 10
-47.43187545931277
 20
-2.000000000000047
 30
0.0
  0
ENDBLK
  5
1F9
330
1F7
100
AcDbEntity
  8
0
100
AcDbBlockEnd
  0
BLOCK
  5
204
330
203
100
AcDbEntity
  8
0
100
AcDbBlockBegin
  2
*D15
 70
     1
 10
0.0
 20
0.0
 30
0.0
  3
*D15
  1
*D15
  0
LINE
  5
206
330
203
100
AcDbEntity
  8
치수문자_일반주서
 62
     0
370
    -2
100
AcDbLine
 10
9.064582562299393
 20
0.4124999999999943
 30
0.0
 11
9.064582562299393
 21
19.17673403940961
 31
0.0
  0
LINE
  5
207
330
203
100
AcDbEntity
  8
치수문자_일반주서
 62
     0
370
    -2
100
AcDbLine
 10
7.864582562299347
 20
0.3787715737297219
 30
0.0
 11
7.864582562299347
 21
19.17673403940961
 31
0.0
  0
LINE
  5
208
330
203
100
AcDbEntity
  8
치수문자_일반주서
 62
     0
370
    -2
100
AcDbLine
 10
9.064582562299393
 20
19.17673403940961
 30
0.0
 11
23.98108256229939
 21
19.17673403940961
 31
0.0
  0
LINE
  5
209
330
203
100
AcDbEntity
  8
치수문자_일반주서
 62
     0
370
    -2
100
AcDbLine
 10
9.064582562299393
 20
19.17673403940961
 30
0.0
 11
7.864582562299347
 21
19.17673403940961
 31
0.0
  0
LINE
  5
20A
330
203
100
AcDbEntity
  8
치수문자_일반주서
 62
     0
370
    -2
100
AcDbLine
 10
12.36658256229939
 20
19.17673403940961
 30
0.0
 11
15.66858256229939
 21
19.17673403940961
 31
0.0
  0
LINE
  5
20B
330
203
100
AcDbEntity
  8
치수문자_일반주서
 62
     0
370
    -2
100
AcDbLine
 10
4.562582562299347
 20
19.17673403940961
 30
0.0
 11
1.260582562299348
 21
19.17673403940961
 31
0.0
  0
SOLID
  5
20C
330
203
100
AcDbEntity
  8
치수문자_일반주서
 62
     0
100
AcDbTrace
 10
12.36658256229939
 20
19.72706737274294
 30
0.0
 11
12.36658256229939
 21
18.62640070607628
 31
0.0
 12
9.064582562299393
 22
19.17673403940961
 32
0.0
 13
9.064582562299393
 23
19.17673403940961
 33
0.0
  0
SOLID
  5
20D
330
203
100
AcDbEntity
  8
치수문자_일반주서
 62
     0
100
AcDbTrace
 10
4.562582562299347
 20
18.62640070607628
 30
0.0
 11
4.562582562299347
 21
19.72706737274294
 31
0.0
 12
7.864582562299347
 22
19.17673403940961
 32
0.0
 13
7.864582562299347
 23
19.17673403940961
 33
0.0
  0
MTEXT
  5
20E
330
203
100
AcDbEntity
  8
치수문자_일반주서
 62
     0
100
AcDbMText
 10
19.82483256229939
 20
23.55173403940961
 30
0.0
 40
3.5
 41
0.0
 71
     2
 72
     1
  1
\A1;1.20
  7
SLDTEXTSTYLE0
 73
     1
 44
1.0
  0
POINT
  5
20F
330
203
100
AcDbEntity
  8
Defpoints
 62
     0
100
AcDbPoint
 10
9.064582562299393
 20
0.3499999999999943
 30
0.0
  0
POINT
  5
210
330
203
100
AcDbEntity
  8
Defpoints
 62
     0
100
AcDbPoint
 10
7.864582562299347
 20
0.3162715737297219
 30
0.0
  0
POINT
  5
211
330
203
100
AcDbEntity
  8
Defpoints
 62
     0
100
AcDbPoint
 10
7.864582562299347
 20
19.17673403940961
 30
0.0
  0
ENDBLK
  5
205
330
203
100
AcDbEntity
  8
0
100
AcDbBlockEnd
  0
BLOCK
  5
213
330
212
100
AcDbEntity
  8
0
100
AcDbBlockBegin
  2
*D16
 70
     1
 10
0.0
 20
0.0
 30
0.0
  3
*D16
  1
*D16
  0
LINE
  5
215
330
212
100
AcDbEntity
  8
치수문자_일반주서
 62
     0
370
    -2
100
AcDbLine
 10
9.064582562299393
 20
0.4124999999999943
 30
0.0
 11
9.064582562299393
 21
40.90832450504428
 31
0.0
  0
LINE
  5
216
330
212
100
AcDbEntity
  8
치수문자_일반주서
 62
     0
370
    -2
100
AcDbLine
 10
-35.93541743770061
 20
1.0625
 30
0.0
 11
-35.93541743770061
 21
40.90832450504428
 31
0.0
  0
LINE
  5
217
330
212
100
AcDbEntity
  8
치수문자_일반주서
 62
     0
370
    -2
100
AcDbLine
 10
5.762582562299393
 20
40.90832450504428
 30
0.0
 11
-32.63341743770061
 21
40.90832450504428
 31
0.0
  0
SOLID
  5
218
330
212
100
AcDbEntity
  8
치수문자_일반주서
 62
     0
100
AcDbTrace
 10
5.762582562299393
 20
40.35799117171094
 30
0.0
 11
5.762582562299393
 21
41.45865783837761
 31
0.0
 12
9.064582562299393
 22
40.90832450504428
 32
0.0
 13
9.064582562299393
 23
40.90832450504428
 33
0.0
  0
SOLID
  5
219
330
212
100
AcDbEntity
  8
치수문자_일반주서
 62
     0
100
AcDbTrace
 10
-32.63341743770061
 20
41.45865783837761
 30
0.0
 11
-32.63341743770061
 21
40.35799117171094
 31
0.0
 12
-35.93541743770061
 22
40.90832450504428
 32
0.0
 13
-35.93541743770061
 23
40.90832450504428
 33
0.0
  0
MTEXT
  5
21A
330
212
100
AcDbEntity
  8
치수문자_일반주서
 62
     0
100
AcDbMText
 10
-13.43541743770061
 20
45.28332450504428
 30
0.0
 40
3.5
 41
0.0
 71
     2
 72
     1
  1
\A1;45
  7
SLDTEXTSTYLE0
 73
     1
 44
1.0
  0
POINT
  5
21B
330
212
100
AcDbEntity
  8
Defpoints
 62
     0
100
AcDbPoint
 10
9.064582562299393
 20
0.3499999999999943
 30
0.0
  0
POINT
  5
21C
330
212
100
AcDbEntity
  8
Defpoints
 62
     0
100
AcDbPoint
 10
-35.93541743770061
 20
1.0
 30
0.0
  0
POINT
  5
21D
330
212
100
AcDbEntity
  8
Defpoints
 62
     0
100
AcDbPoint
 10
-35.93541743770061
 20
40.90832450504428
 30
0.0
  0
ENDBLK
  5
214
330
212
100
AcDbEntity
  8
0
100
AcDbBlockEnd
  0
BLOCK
  5
21F
330
21E
100
AcDbEntity
  8
0
100
AcDbBlockBegin
  2
*D17
 70
     1
 10
0.0
 20
0.0
 30
0.0
  3
*D17
  1
*D17
  0
LINE
  5
221
330
21E
100
AcDbEntity
  8
치수문자_일반주서
 62
     0
370
    -2
100
AcDbLine
 10
9.064582562299393
 20
0.4118644896651062
 30
0.0
 11
9.064582562299393
 21
30.12000000000015
 31
0.0
  0
LINE
  5
222
330
21E
100
AcDbEntity
  8
치수문자_일반주서
 62
     0
370
    -2
100
AcDbLine
 10
6.064582562299393
 20
0.4375
 30
0.0
 11
6.064582562299393
 21
30.12000000000015
 31
0.0
  0
LINE
  5
223
330
21E
100
AcDbEntity
  8
치수문자_일반주서
 62
     0
370
    -2
100
AcDbLine
 10
9.064582562299393
 20
30.12000000000015
 30
0.0
 11
19.16858256229943
 21
30.12000000000015
 31
0.0
  0
LINE
  5
224
330
21E
100
AcDbEntity
  8
치수문자_일반주서
 62
     0
370
    -2
100
AcDbLine
 10
5.762582562299393
 20
30.12000000000015
 30
0.0
 11
9.366582562299392
 21
30.12000000000015
 31
0.0
  0
SOLID
  5
225
330
21E
100
AcDbEntity
  8
치수문자_일반주서
 62
     0
100
AcDbTrace
 10
5.762582562299393
 20
29.56966666666681
 30
0.0
 11
5.762582562299393
 21
30.67033333333348
 31
0.0
 12
9.064582562299393
 22
30.12000000000015
 32
0.0
 13
9.064582562299393
 23
30.12000000000015
 33
0.0
  0
SOLID
  5
226
330
21E
100
AcDbEntity
  8
치수문자_일반주서
 62
     0
100
AcDbTrace
 10
9.366582562299392
 20
30.67033333333348
 30
0.0
 11
9.366582562299392
 21
29.56966666666681
 31
0.0
 12
6.064582562299393
 22
30.12000000000015
 32
0.0
 13
6.064582562299393
 23
30.12000000000015
 33
0.0
  0
MTEXT
  5
227
330
21E
100
AcDbEntity
  8
치수문자_일반주서
 62
     0
100
AcDbMText
 10
17.41858256229943
 20
34.49500000000015
 30
0.0
 40
3.5
 41
0.0
 71
     2
 72
     1
  1
\A1;3
  7
SLDTEXTSTYLE0
 73
     1
 44
1.0
  0
POINT
  5
228
330
21E
100
AcDbEntity
  8
Defpoints
 62
     0
100
AcDbPoint
 10
9.064582562299393
 20
0.3493644896651062
 30
0.0
  0
POINT
  5
229
330
21E
100
AcDbEntity
  8
Defpoints
 62
     0
100
AcDbPoint
 10
6.064582562299393
 20
0.375
 30
0.0
  0
POINT
  5
22A
330
21E
100
AcDbEntity
  8
Defpoints
 62
     0
100
AcDbPoint
 10
6.064582562299393
 20
30.12000000000015
 30
0.0
  0
ENDBLK
  5
220
330
21E
100
AcDbEntity
  8
0
100
AcDbBlockEnd
  0
BLOCK
  5
22C
330
22B
100
AcDbEntity
  8
0
100
AcDbBlockBegin
  2
*D18
 70
     1
 10
0.0
 20
0.0
 30
0.0
  3
*D18
  1
*D18
  0
LINE
  5
22E
330
22B
100
AcDbEntity
  8
치수문자_일반주서
 62
     0
370
    -2
100
AcDbLine
 10
8.993323874944508
 20
0.4023694771074988
 30
0.0
 11
25.4116217509391
 21
0.4023694771075608
 31
0.0
  0
LINE
  5
22F
330
22B
100
AcDbEntity
  8
치수문자_일반주서
 62
     0
370
    -2
100
AcDbLine
 10
9.07708256229921
 20
-0.397388637143308
 30
0.0
 11
25.41162175093911
 21
-0.397388637143246
 31
0.0
  0
LINE
  5
230
330
22B
100
AcDbEntity
  8
치수문자_일반주서
 62
     0
370
    -2
100
AcDbLine
 10
25.4116217509391
 20
0.4023694771075608
 30
0.0
 11
25.41162175093902
 21
18.59513863714335
 31
0.0
  0
LINE
  5
231
330
22B
100
AcDbEntity
  8
치수문자_일반주서
 62
     0
370
    -2
100
AcDbLine
 10
25.4116217509391
 20
0.4023694771075608
 30
0.0
 11
25.41162175093911
 21
-0.397388637143246
 31
0.0
  0
LINE
  5
232
330
22B
100
AcDbEntity
  8
치수문자_일반주서
 62
     0
370
    -2
100
AcDbLine
 10
25.41162175093909
 20
3.70436947710756
 30
0.0
 11
25.41162175093908
 21
7.00636947710756
 31
0.0
  0
LINE
  5
233
330
22B
100
AcDbEntity
  8
치수문자_일반주서
 62
     0
370
    -2
100
AcDbLine
 10
25.41162175093912
 20
-3.699388637143246
 30
0.0
 11
25.41162175093914
 21
-7.001388637143245
 31
0.0
  0
SOLID
  5
234
330
22B
100
AcDbEntity
  8
치수문자_일반주서
 62
     0
100
AcDbTrace
 10
24.86128841760576
 20
3.704369477107558
 30
0.0
 11
25.96195508427243
 21
3.704369477107563
 31
0.0
 12
25.4116217509391
 22
0.4023694771075608
 32
0.0
 13
25.4116217509391
 23
0.4023694771075608
 33
0.0
  0
SOLID
  5
235
330
22B
100
AcDbEntity
  8
치수문자_일반주서
 62
     0
100
AcDbTrace
 10
25.96195508427246
 20
-3.699388637143243
 30
0.0
 11
24.86128841760579
 21
-3.699388637143248
 31
0.0
 12
25.41162175093911
 22
-0.397388637143246
 32
0.0
 13
25.41162175093911
 23
-0.397388637143246
 33
0.0
  0
MTEXT
  5
236
330
22B
100
AcDbEntity
  8
치수문자_일반주서
 62
     0
100
AcDbMText
 10
21.03662175093905
 20
12.90763863714333
 30
0.0
 40
3.5
 41
0.0
 71
     2
 72
     1
  1
\A1;%%c0.80
  7
SLDTEXTSTYLE0
 11
-4.442235240249600E-15
 21
1.0
 31
0.0
 73
     1
 44
1.0
  0
POINT
  5
237
330
22B
100
AcDbEntity
  8
Defpoints
 62
     0
100
AcDbPoint
 10
8.930823874944508
 20
0.4023694771074986
 30
0.0
  0
POINT
  5
238
330
22B
100
AcDbEntity
  8
Defpoints
 62
     0
100
AcDbPoint
 10
9.01458256229921
 20
-0.3973886371433082
 30
0.0
  0
POINT
  5
239
330
22B
100
AcDbEntity
  8
Defpoints
 62
     0
100
AcDbPoint
 10
25.41162175093905
 20
-0.3973886371432469
 30
0.0
  0
ENDBLK
  5
22D
330
22B
100
AcDbEntity
  8
0
100
AcDbBlockEnd
  0
BLOCK
  5
281
330
280
100
AcDbEntity
  8
0
100
AcDbBlockBegin
  2
*D20
 70
     1
 10
0.0
 20
0.0
 30
0.0
  3
*D20
  1
*D20
  0
LINE
  5
282
330
280
100
AcDbEntity
  8
치수문자_일반주서
 62
     0
370
    -2
100
AcDbLine
 10
2.59972204544437
 20
21.7511275607146
 30
0.0
 11
13.03324612456291
 21
-0.0000000000000258
 31
0.0
  0
MTEXT
  5
283
330
280
100
AcDbEntity
  8
치수문자_일반주서
 62
     0
100
AcDbMText
 10
12.94022865885477
 20
6.26335604936147
 30
0.0
 40
3.5
 41
0.0
 71
     5
 72
     1
  1
\A1;R0.05
  7
SLDTEXTSTYLE0
 11
0.432494643627872
 21
-0.9016365028287177
 31
0.0
 73
     1
 44
1.0
  0
LINE
  5
284
330
280
100
AcDbEntity
  8
치수문자_일반주서
 62
     0
370
    -2
100
AcDbLine
 10
1.150000000003729
 20
24.77341311819649
 30
0.0
 11
1.171624732185137
 21
24.72833129305502
 31
0.0
  0
SOLID
  5
285
330
280
100
AcDbEntity
  8
치수문자_일반주서
 62
     0
100
AcDbTrace
 10
3.095922667501108
 20
21.98914377959114
 30
0.0
 11
2.103521423387633
 21
21.51311134183806
 31
0.0
 12
1.171624732185137
 22
24.72833129305502
 32
0.0
 13
1.171624732185137
 23
24.72833129305502
 33
0.0
  0
POINT
  5
286
330
280
100
AcDbEntity
  8
Defpoints
 62
     0
100
AcDbPoint
 10
1.171624732185137
 20
24.72833129305502
 30
0.0
  0
POINT
  5
287
330
280
100
AcDbEntity
  8
Defpoints
 62
     0
100
AcDbPoint
 10
1.150000000003729
 20
24.77341311819649
 30
0.0
  0
ENDBLK
  5
288
330
280
100
AcDbEntity
  8
0
100
AcDbBlockEnd
  0
BLOCK
  5
2AD
330
2AC
100
AcDbEntity
  8
0
100
AcDbBlockBegin
  2
*D21
 70
     1
 10
0.0
 20
0.0
 30
0.0
  3
*D21
  1
*D21
  0
LINE
  5
2AF
330
2AC
100
AcDbEntity
  8
치수문자_일반주서
 62
     0
370
    -2
100
AcDbLine
 10
10.46430460773985
 20
-3.368954815078437
 30
0.0
 11
20.89782868685839
 21
-25.12008237579306
 31
0.0
  0
MTEXT
  5
2B0
330
2AC
100
AcDbEntity
  8
치수문자_일반주서
 62
     0
100
AcDbMText
 10
20.80481122115025
 20
-18.85672632643156
 30
0.0
 40
3.5
 41
0.0
 71
     5
 72
     1
  1
\A1;R0.05
  7
SLDTEXTSTYLE0
 11
0.432494643627872
 21
-0.9016365028287177
 31
0.0
 73
     1
 44
1.0
  0
LINE
  5
2B1
330
2AC
100
AcDbEntity
  8
치수문자_일반주서
 62
     0
370
    -2
100
AcDbLine
 10
9.01458256229921
 20
-0.3466692575965453
 30
0.0
 11
9.036207294480619
 21
-0.3917510827380113
 31
0.0
  0
SOLID
  5
2B2
330
2AC
100
AcDbEntity
  8
치수문자_일반주서
 62
     0
100
AcDbTrace
 10
10.96050522979659
 20
-3.130938596201898
 30
0.0
 11
9.968103985683115
 21
-3.606971033954975
 31
0.0
 12
9.036207294480619
 22
-0.3917510827380113
 32
0.0
 13
9.036207294480619
 23
-0.3917510827380113
 33
0.0
  0
POINT
  5
2B3
330
2AC
100
AcDbEntity
  8
Defpoints
 62
     0
100
AcDbPoint
 10
9.036207294480619
 20
-0.3917510827380113
 30
0.0
  0
POINT
  5
2B4
330
2AC
100
AcDbEntity
  8
Defpoints
 62
     0
100
AcDbPoint
 10
9.01458256229921
 20
-0.3466692575965453
 30
0.0
  0
ENDBLK
  5
2AE
330
2AC
100
AcDbEntity
  8
0
100
AcDbBlockEnd
  0
ENDSEC
  0
SECTION
  2
ENTITIES
  0
INSERT
  5
D7
330
1F
100
AcDbEntity
  8
0
  6
Continuous
 62
     7
100
AcDbBlockReference
 66
     1
  2
블럭10
 10
-22.93944368806589
 20
-52.04609937292004
 30
0.0
  0
ATTRIB
  5
D8
330
D7
100
AcDbEntity
  8
FORMAT
 62
     2
100
AcDbText
 10
-43.79769121965843
 20
-49.97073246008785
 30
0.0
 40
4.233333333333333
  1
SEME6100800503E [ 2 FLUTE ]
 41
0.75
  7
SLDTEXTSTYLE0
 11
-43.79769121965843
 21
-52.08739912675452
 31
0.0
100
AcDbAttribute
  2
AUTOATTR0
 70
     0
 74
     1
  0
SEQEND
  5
D9
330
D7
100
AcDbEntity
  8
0
  6
Continuous
 62
     7
  0
HATCH
  5
DA
330
1F
100
AcDbEntity
  8
중심선
100
AcDbHatch
 10
0.0
 20
0.0
 30
0.0
210
0.0
220
0.0
230
1.0
  2
SOLID
 70
     1
 71
     0
 91
        1
 92
        0
 93
        4
 72
     1
 10
-17.22453438368504
 20
-35.7989250712761
 11
-20.67080962752232
 21
-35.7989250712761
 72
     1
 10
-20.67080962752232
 20
-35.7989250712761
 11
-22.79903948672635
 21
-38.3352506518487
 72
     1
 10
-22.79903948672635
 20
-38.3352506518487
 11
-19.35273115777591
 21
-38.33521122254621
 72
     1
 10
-19.35273115777591
 20
-38.33521122254621
 11
-17.22453438368504
 21
-35.7989250712761
 97
        0
 75
     0
 76
     1
 98
        1
 10
0.0
 20
0.0
  0
HATCH
  5
DB
330
1F
100
AcDbEntity
  8
중심선
100
AcDbHatch
 10
0.0
 20
0.0
 30
0.0
210
0.0
220
0.0
230
1.0
  2
SOLID
 70
     1
 71
     0
 91
        1
 92
        0
 93
        4
 72
     1
 10
-12.21177039264909
 20
-35.7989250712761
 11
-15.65804563648637
 21
-35.7989250712761
 72
     1
 10
-15.65804563648637
 20
-35.7989250712761
 11
-20.18918364484376
 21
-41.19892507127612
 72
     1
 10
-20.18918364484376
 20
-41.19892507127612
 11
-16.74290840100648
 21
-41.19892507127612
 72
     1
 10
-16.74290840100648
 20
-41.19892507127612
 11
-12.21177039264909
 21
-35.7989250712761
 97
        0
 75
     0
 76
     1
 98
        1
 10
0.0
 20
0.0
  0
HATCH
  5
DC
330
1F
100
AcDbEntity
  8
중심선
100
AcDbHatch
 10
0.0
 20
0.0
 30
0.0
210
0.0
220
0.0
230
1.0
  2
SOLID
 70
     1
 71
     0
 91
        1
 92
        0
 93
        4
 72
     1
 10
-7.199006401613195
 20
-35.79892507127613
 11
-10.64528164545031
 21
-35.7989250712761
 72
     1
 10
-10.64528164545031
 20
-35.7989250712761
 11
-17.69371854733956
 21
-44.19892507127612
 72
     1
 10
-17.69371854733956
 20
-44.19892507127612
 11
-14.24744330350228
 21
-44.19892507127612
 72
     1
 10
-14.24744330350228
 20
-44.19892507127612
 11
-7.199006401613195
 21
-35.79892507127613
 97
        0
 75
     0
 76
     1
 98
        1
 10
0.0
 20
0.0
  0
HATCH
  5
DD
330
1F
100
AcDbEntity
  8
중심선
100
AcDbHatch
 10
0.0
 20
0.0
 30
0.0
210
0.0
220
0.0
230
1.0
  2
SOLID
 70
     1
 71
     0
 91
        1
 92
        0
 93
        6
 72
     3
 10
-2.399115970600996
 20
-39.99892507132738
 11
3.960054785062284
 21
1.540850780301639E-10
 40
0.3939339440162633
 50
17.09539180608433
 51
320.0019657685079
 73
     0
 72
     1
 10
-0.7161163149004002
 20
-38.58681907591441
 11
1.589185558800638
 21
-36.65249236586649
 72
     3
 10
-2.399115970653842
 20
-39.99892507127625
 11
6.600054785286829
 21
-1.249000902703301E-13
 40
0.6363583540795982
 50
39.99873849337408
 51
368.4976242363725
 73
     1
 72
     1
 10
4.026216521246767
 20
-39.03892507120613
 11
-3.71904866381792
 21
-39.0389250712061
 72
     1
 10
-3.71904866381792
 20
-39.0389250712061
 11
-3.719073708263854
 21
-40.95892507120602
 72
     1
 10
-3.719073708263854
 20
-40.95892507120602
 11
0.7223060612081831
 21
-40.95892507120599
 97
        0
 75
     0
 76
     1
 98
        1
 10
0.0
 20
0.0
  0
LINE
  5
1DC
330
1F
100
AcDbEntity
  8
0
  6
Continuous
 62
     4
370
    25
100
AcDbLine
 10
0.0
 20
2.0
 30
0.0
 11
-34.93541743770061
 21
2.0
 31
0.0
  0
LINE
  5
1DD
330
1F
100
AcDbEntity
  8
0
  6
Continuous
 62
     4
370
    25
100
AcDbLine
 10
-34.93541743770061
 20
-2.0
 30
0.0
 11
0.0
 21
-2.0
 31
0.0
  0
LINE
  5
1DE
330
1F
100
AcDbEntity
  8
0
  6
Continuous
 62
     4
370
    25
100
AcDbLine
 10
-34.93541743770061
 20
2.0
 30
0.0
 11
-35.93541743770061
 21
1.0
 31
0.0
  0
LINE
  5
1DF
330
1F
100
AcDbEntity
  8
0
  6
Continuous
 62
     4
370
    25
100
AcDbLine
 10
-35.93541743770061
 20
-1.0
 30
0.0
 11
-34.93541743770061
 21
-2.0
 31
0.0
  0
LINE
  5
1E0
330
1F
100
AcDbEntity
  8
0
  6
Continuous
 62
     4
370
    25
100
AcDbLine
 10
7.128539031239825
 20
0.375
 30
0.0
 11
6.926361994705985
 21
0.375
 31
0.0
  0
SPLINE
  5
1E1
330
1F
100
AcDbEntity
  8
0
  6
Continuous
 62
     4
370
    25
100
AcDbSpline
210
0.0
220
0.0
230
1.0
 70
     8
 71
     3
 72
    10
 73
     6
 74
     0
 42
0.000000001
 43
0.00000001
 40
0.1122750233252912
 40
0.1122750233252912
 40
0.1122750233252912
 40
0.1122750233252912
 40
0.4789860797764952
 40
0.6330156716112425
 40
1.0
 40
1.0
 40
1.0
 40
1.0
 10
7.235385985107087
 20
-0.375
 30
0.0
 10
7.427084256968556
 20
-0.3220859157448501
 30
0.0
 10
7.525887110998156
 20
-0.3149917426264324
 30
0.0
 10
7.695404151461389
 20
-0.3111598331018683
 30
0.0
 10
7.794665954269703
 20
-0.3140674642278327
 30
0.0
 10
7.864582562299347
 20
-0.3161154998264237
 30
0.0
  0
SPLINE
  5
1E2
330
1F
100
AcDbEntity
  8
0
  6
Continuous
 62
     4
370
    25
100
AcDbSpline
210
0.0
220
0.0
230
1.0
 70
     8
 71
     3
 72
     9
 73
     5
 74
     0
 42
0.000000001
 43
0.00000001
 40
0.0
 40
0.0
 40
0.0
 40
0.0
 40
0.7557413850976148
 40
1.0
 40
1.0
 40
1.0
 40
1.0
 10
7.864582562299347
 20
0.3161154998263953
 30
0.0
 10
7.769151079816993
 20
0.3128412946635422
 30
0.0
 10
7.642875763466463
 20
0.308508853398024
 30
0.0
 10
7.517929607344968
 20
0.3178438772511356
 30
0.0
 10
7.489493741769365
 20
0.3272151458864414
 30
0.0
  0
LINE
  5
1E3
330
1F
100
AcDbEntity
  8
0
  6
Continuous
 62
     4
370
    25
100
AcDbLine
 10
0.0
 20
2.0
 30
0.0
 11
0.0
 21
-2.0
 31
0.0
  0
LINE
  5
1E4
330
1F
100
AcDbEntity
  8
0
  6
Continuous
 62
     4
370
    25
100
AcDbLine
 10
-34.93541743770061
 20
2.0
 30
0.0
 11
-34.93541743770061
 21
-2.0
 31
0.0
  0
LINE
  5
1E5
330
1F
100
AcDbEntity
  8
0
  6
Continuous
 62
     4
370
    25
100
AcDbLine
 10
-35.93541743770061
 20
1.0
 30
0.0
 11
-35.93541743770061
 21
-1.0
 31
0.0
  0
SPLINE
  5
1E6
330
1F
100
AcDbEntity
  8
0
  6
Continuous
 62
     4
370
    25
100
AcDbSpline
210
0.0
220
0.0
230
1.0
 70
     8
 71
     3
 72
    10
 73
     6
 74
     0
 42
0.000000001
 43
0.00000001
 40
0.0
 40
0.0
 40
0.0
 40
0.0
 40
0.4182227174178876
 40
0.8377891388366451
 40
1.0
 40
1.0
 40
1.0
 40
1.0
 10
7.864582562299347
 20
0.1828516272287288
 30
0.0
 10
7.762022725883526
 20
0.2269226364340682
 30
0.0
 10
7.55657353947754
 20
0.3152062501931425
 30
0.0
 10
7.311127026471922
 20
0.3762984743770232
 30
0.0
 10
7.168348477389827
 20
0.3684341751017541
 30
0.0
 10
7.128539031239825
 20
0.375
 30
0.0
  0
LINE
  5
1E7
330
1F
100
AcDbEntity
  8
중심선
100
AcDbLine
 10
-38.93541743770061
 20
0.0
 30
0.0
 11
10.56458256229939
 21
0.0
 31
0.0
  0
CIRCLE
  5
1E8
330
1F
100
AcDbEntity
  8
외형선
100
AcDbCircle
 10
0.0
 20
0.0
 30
0.0
 40
3.000000000000005
  0
DIMENSION
  5
1E9
330
1F
100
AcDbEntity
  8
치수문자_일반주서
100
AcDbDimension
  2
*D14
 10
-47.43187545931277
 20
-2.000000000000047
 30
0.0
 11
-47.43187545931278
 21
0.0
 31
0.0
 70
   160
  1
%%c<>
 71
     2
 42
4.0
 52
-270.0
  3
SLDDIMSTYLE0
100
AcDbAlignedDimension
 13
-34.93541743770061
 23
2.0
 33
0.0
 14
-34.93541743770061
 24
-2.0
 34
0.0
 50
90.0000000000002
100
AcDbRotatedDimension
  0
DIMENSION
  5
1EA
330
1F
100
AcDbEntity
  8
치수문자_일반주서
100
AcDbDimension
  2
*D15
 10
7.864582562299347
 20
19.17673403940961
 30
0.0
 11
19.82483256229939
 21
19.17673403940961
 31
0.0
 70
   160
  1
<>
 71
     2
 42
1.200000000000045
  3
SLDDIMSTYLE1
100
AcDbAlignedDimension
 13
9.064582562299393
 23
0.3499999999999943
 33
0.0
 14
7.864582562299347
 24
0.3162715737297219
 34
0.0
100
AcDbRotatedDimension
  0
DIMENSION
  5
1EB
330
1F
100
AcDbEntity
  8
치수문자_일반주서
100
AcDbDimension
  2
*D16
 10
-35.93541743770061
 20
40.90832450504428
 30
0.0
 11
-13.43541743770061
 21
40.90832450504428
 31
0.0
 70
   160
  1
<>
 71
     2
 42
45.0
  3
SLDDIMSTYLE2
100
AcDbAlignedDimension
 13
9.064582562299393
 23
0.3499999999999943
 33
0.0
 14
-35.93541743770061
 24
1.0
 34
0.0
100
AcDbRotatedDimension
  0
DIMENSION
  5
1EC
330
1F
100
AcDbEntity
  8
치수문자_일반주서
100
AcDbDimension
  2
*D17
 10
6.064582562299393
 20
30.12000000000015
 30
0.0
 11
17.41858256229943
 21
30.12000000000015
 31
0.0
 70
   160
  1
<>
 71
     2
 42
3.0
  3
SLDDIMSTYLE0
100
AcDbAlignedDimension
 13
9.064582562299393
 23
0.3493644896651062
 33
0.0
 14
6.064582562299393
 24
0.375
 34
0.0
 50
0.0000000000001916
100
AcDbRotatedDimension
1001
ACAD_DSTYLE_DIMFLIPARROW_SYMBOL
1070
   385
1070
     0
1001
ACAD_DSTYLE_DIMFLIPARROW_WHICH_SYMBOL
1070
   386
1070
     3
  0
DIMENSION
  5
1ED
330
1F
100
AcDbEntity
  8
치수문자_일반주서
100
AcDbDimension
  2
*D18
 10
25.41162175093911
 20
-0.397388637143246
 30
0.0
 11
25.41162175093905
 21
12.90763863714335
 31
0.0
 70
   160
  1
%%c<>
 71
     2
 42
0.7997581142508071
 52
-270.0
  3
SLDDIMSTYLE3
100
AcDbAlignedDimension
 13
8.930823874944508
 23
0.4023694771074986
 33
0.0
 14
9.01458256229921
 24
-0.3973886371433082
 34
0.0
 50
90.0000000000002
100
AcDbRotatedDimension
  0
INSERT
  5
1EE
330
1F
100
AcDbEntity
  8
외형선
100
AcDbBlockReference
  2
SW_DOWELSYMBOL_0
 10
0.0
 20
0.0
 30
0.0
  0
LINE
  5
1EF
330
1F
100
AcDbEntity
  8
0
  6
Continuous
 62
     4
370
    25
100
AcDbLine
 10
0.0
 20
2.0
 30
0.0
 11
2.961206742034847
 21
0.9222088883908839
 31
0.0
  0
LINE
  5
1F0
330
1F
100
AcDbEntity
  8
0
  6
Continuous
 62
     4
370
    25
100
AcDbLine
 10
6.064582562299393
 20
0.375
 30
0.0
 11
2.961206742034847
 21
0.9222088883908839
 31
0.0
  0
LINE
  5
1F1
330
1F
100
AcDbEntity
  8
0
  6
Continuous
 62
     4
370
    25
100
AcDbLine
 10
6.064582562299393
 20
-0.375
 30
0.0
 11
2.961206742034847
 21
-0.9222088883909123
 31
0.0
  0
LINE
  5
1F2
330
1F
100
AcDbEntity
  8
0
  6
Continuous
 62
     4
370
    25
100
AcDbLine
 10
0.0
 20
-2.0
 30
0.0
 11
2.961206742034847
 21
-0.9222088883909123
 31
0.0
  0
LINE
  5
1F3
330
1F
100
AcDbEntity
  8
0
  6
Continuous
 62
     4
370
    25
100
AcDbLine
 10
2.961206742034847
 20
0.9222088883908839
 30
0.0
 11
2.961206742034847
 21
-0.9222088883909123
 31
0.0
  0
LINE
  5
1F4
330
1F
100
AcDbEntity
  8
0
  6
Continuous
 62
     4
370
    25
100
AcDbLine
 10
6.064582562299393
 20
0.375
 30
0.0
 11
6.064582562299393
 21
-0.375
 31
0.0
  0
LINE
  5
1F5
330
1F
100
AcDbEntity
  8
0
  6
Continuous
 62
     4
370
    25
100
AcDbLine
 10
6.064582562299393
 20
-0.375
 30
0.0
 11
7.235385985107087
 21
-0.375
 31
0.0
  0
LINE
  5
1F6
330
1F
100
AcDbEntity
  8
0
  6
Continuous
 62
     4
370
    25
100
AcDbLine
 10
7.128539031239825
 20
0.375
 30
0.0
 11
6.064582562299393
 21
0.375
 31
0.0
  0
SPLINE
  5
28C
330
1F
100
AcDbEntity
  8
0
  6
Continuous
 62
     1
370
    25
100
AcDbSpline
210
0.0
220
0.0
230
1.0
 70
     8
 71
     3
 72
     9
 73
     5
 74
     0
 42
0.000000001
 43
0.00000001
 40
0.0
 40
0.0
 40
0.0
 40
0.0
 40
0.4993499427809756
 40
1.0
 40
1.0
 40
1.0
 40
1.0
 10
8.027534291886695
 20
0.1032222207313964
 30
0.0
 10
8.009396644717299
 20
0.1120017868076957
 30
0.0
 10
7.973074126948404
 20
0.1295837775603275
 30
0.0
 10
7.936725699200224
 20
0.1488428052027757
 30
0.0
 10
7.918527856768378
 20
0.1584848384939619
 30
0.0
  0
SPLINE
  5
28D
330
1F
100
AcDbEntity
  8
0
  6
Continuous
 62
     1
370
    25
100
AcDbSpline
210
0.0
220
0.0
230
1.0
 70
     8
 71
     3
 72
     9
 73
     5
 74
     0
 42
0.000000001
 43
0.00000001
 40
0.0
 40
0.0
 40
0.0
 40
0.0
 40
0.4952161659657214
 40
1.0
 40
1.0
 40
1.0
 40
1.0
 10
8.025757987257293
 20
0.3198806022400049
 30
0.0
 10
7.999185517601973
 20
0.3196754834336559
 30
0.0
 10
7.945527193254975
 20
0.3192612828876236
 30
0.0
 10
7.891735659132337
 20
0.3176488230381835
 30
0.0
 10
7.864582562299347
 20
0.3168348793731468
 30
0.0
  0
SPLINE
  5
28E
330
1F
100
AcDbEntity
  8
0
  6
Continuous
 62
     1
370
    25
100
AcDbSpline
210
0.0
220
0.0
230
1.0
 70
     8
 71
     3
 72
    13
 73
     9
 74
     0
 42
0.000000001
 43
0.00000001
 40
0.0
 40
0.0
 40
0.0
 40
0.0
 40
0.2540337443174036
 40
0.3913392538294074
 40
0.4799743556120086
 40
0.5952133279445243
 40
0.7674181361274748
 40
0.9999999999999999
 40
0.9999999999999999
 40
0.9999999999999999
 40
0.9999999999999999
 10
8.849321531858322
 20
0.2673587098397547
 30
0.0
 10
8.800744764567753
 20
0.2658191381200936
 30
0.0
 10
8.725912202791505
 20
0.2634474262453637
 30
0.0
 10
8.617995528519486
 20
0.2642460446342056
 30
0.0
 10
8.542943377173287
 20
0.2670305255422534
 30
0.0
 10
8.460232197918458
 20
0.2720107353959236
 30
0.0
 10
8.34571457485049
 20
0.282576668616997
 30
0.0
 10
8.25618230093255
 20
0.2959009822836265
 30
0.0
 10
8.20473894920633
 20
0.3035568512174507
 30
0.0
  0
SPLINE
  5
28F
330
1F
100
AcDbEntity
  8
0
  6
Continuous
 62
     1
370
    25
100
AcDbSpline
210
0.0
220
0.0
230
1.0
 70
     8
 71
     3
 72
     9
 73
     5
 74
     0
 42
0.000000001
 43
0.00000001
 40
0.0
 40
0.0
 40
0.0
 40
0.0
 40
0.9296165643444008
 40
1.0
 40
1.0
 40
1.0
 40
1.0
 10
8.20473894920633
 20
-0.3021180921239761
 30
0.0
 10
8.303116419168646
 20
-0.2877442149348894
 30
0.0
 10
8.40894227655508
 20
-0.2722820580194423
 30
0.0
 10
8.512832318003575
 20
-0.2676867178974476
 30
0.0
 10
8.520144456051185
 20
-0.2673632820716421
 30
0.0
  0
SPLINE
  5
290
330
1F
100
AcDbEntity
  8
0
  6
Continuous
 62
     1
370
    25
100
AcDbSpline
210
0.0
220
0.0
230
1.0
 70
     8
 71
     3
 72
     9
 73
     5
 74
     0
 42
0.000000001
 43
0.00000001
 40
0.0
 40
0.0
 40
0.0
 40
0.0
 40
0.5047838340342655
 40
1.0
 40
1.0
 40
1.0
 40
1.0
 10
7.864582562299347
 20
-0.3153961202796722
 30
0.0
 10
7.891735659132337
 20
-0.3162100639446805
 30
0.0
 10
7.945527193254975
 20
-0.3178225237941206
 30
0.0
 10
7.999185517601973
 20
-0.3182367243401814
 30
0.0
 10
8.025757987257293
 20
-0.3184418431465303
 30
0.0
  0
SPLINE
  5
291
330
1F
100
AcDbEntity
  8
0
  6
Continuous
 62
     4
370
    25
100
AcDbSpline
210
0.0
220
0.0
230
1.0
 70
    24
 71
     3
 72
     8
 73
     4
 74
     0
 42
0.000000001
 43
0.00000001
 40
0.0
 40
0.0
 40
0.0
 40
0.0
 40
1.0
 40
1.0
 40
1.0
 40
1.0
 10
7.864582562299347
 20
0.0817093090384731
 30
0.0
 10
7.864582562299347
 20
0.079312724386341
 30
0.0
 10
7.86458256229912
 20
0.0656812955604096
 30
0.0
 10
7.86458256229912
 20
0.0459460819175206
 30
0.0
  0
LINE
  5
292
330
1F
100
AcDbEntity
  8
0
  6
Continuous
 62
     4
370
    25
100
AcDbLine
 10
7.864582562299347
 20
-0.3150786347266035
 30
0.0
 11
7.864582562299347
 21
-0.3147009257727404
 31
0.0
  0
SPLINE
  5
293
330
1F
100
AcDbEntity
  8
0
  6
Continuous
 62
     4
370
    25
100
AcDbSpline
210
0.0
220
0.0
230
1.0
 70
    24
 71
     3
 72
    10
 73
     6
 74
     0
 42
0.000000001
 43
0.00000001
 40
0.0
 40
0.0
 40
0.0
 40
0.0
 40
0.5
 40
0.5
 40
1.0
 40
1.0
 40
1.0
 40
1.0
 10
7.864582562299347
 20
0.0459460819174922
 30
0.0
 10
7.864582562299347
 20
-0.0248246480034595
 30
0.0
 10
7.864582562299347
 20
-0.0993381604789363
 30
0.0
 10
7.864582562299347
 20
-0.227667162260957
 30
0.0
 10
7.864582562299347
 20
-0.2804883473929749
 30
0.0
 10
7.864582562299347
 20
-0.3150786347266035
 30
0.0
  0
SPLINE
  5
294
330
1F
100
AcDbEntity
  8
0
  6
Continuous
 62
     4
370
    25
100
AcDbSpline
210
0.0
220
0.0
230
1.0
 70
    24
 71
     3
 72
    13
 73
     9
 74
     0
 42
0.000000001
 43
0.00000001
 40
0.0
 40
0.0
 40
0.0
 40
0.0
 40
0.0544307413022256
 40
0.2027677645357609
 40
0.411788530144607
 40
0.6268709121163499
 40
0.8113746033135579
 40
0.9999999999999999
 40
0.9999999999999999
 40
0.9999999999999999
 40
0.9999999999999999
 10
7.864582562299347
 20
0.3161396975527282
 30
0.0
 10
7.864582562299347
 20
0.3161514228744693
 30
0.0
 10
7.864582562299347
 20
0.3161951025529675
 30
0.0
 10
7.864582562299347
 20
0.308986552097565
 30
0.0
 10
7.864582562299347
 20
0.2915467143696731
 30
0.0
 10
7.864582562299347
 20
0.2609497207388642
 30
0.0
 10
7.864582562299347
 20
0.2226071215796708
 30
0.0
 10
7.864582562299347
 20
0.1920076288072607
 30
0.0
 10
7.864582562299347
 20
0.1765388764370073
 30
0.0
  0
SPLINE
  5
295
330
1F
100
AcDbEntity
  8
0
  6
Continuous
 62
     1
370
    25
100
AcDbSpline
210
0.0
220
0.0
230
1.0
 70
     8
 71
     3
 72
    11
 73
     7
 74
     0
 42
0.000000001
 43
0.00000001
 40
0.0
 40
0.0
 40
0.0
 40
0.0
 40
0.2538878547486121
 40
0.5056977003642981
 40
0.7578320913960553
 40
1.0
 40
1.0
 40
1.0
 40
1.0
 10
9.064582562299393
 20
-0.314869526200539
 30
0.0
 10
8.97565103947477
 20
-0.2941885769897965
 30
0.0
 10
8.798515876287183
 20
-0.2529959470092535
 30
0.0
 10
8.533564472771332
 20
-0.1419103836942384
 30
0.0
 10
8.272647315691529
 20
-0.0141610954544262
 30
0.0
 10
8.099437814644944
 20
0.068618809091447
 30
0.0
 10
8.014579252081603
 20
0.1091742270473901
 30
0.0
  0
SPLINE
  5
296
330
1F
100
AcDbEntity
  8
0
  6
Continuous
 62
     1
370
    25
100
AcDbSpline
210
0.0
220
0.0
230
1.0
 70
    24
 71
     3
 72
     8
 73
     4
 74
     0
 42
0.000000001
 43
0.00000001
 40
0.0
 40
0.0
 40
0.0
 40
0.0
 40
1.0
 40
1.0
 40
1.0
 40
1.0
 10
9.064582562299393
 20
-0.3253656382238717
 30
0.0
 10
9.064582562299393
 20
-0.3218615713609836
 30
0.0
 10
9.064582562299393
 20
-0.3183622695991062
 30
0.0
 10
9.064582562299393
 20
-0.314869526200539
 30
0.0
  0
SPLINE
  5
297
330
1F
100
AcDbEntity
  8
0
  6
Continuous
 62
     1
370
    25
100
AcDbSpline
210
0.0
220
0.0
230
1.0
 70
     8
 71
     3
 72
    23
 73
    19
 74
     0
 42
0.000000001
 43
0.00000001
 40
0.0
 40
0.0
 40
0.0
 40
0.0
 40
0.0000157555123456
 40
0.0000157555123456
 40
0.0000157555123456
 40
0.0000316126657027
 40
0.0000316126657027
 40
0.0000316126657027
 40
0.0000462297167378
 40
0.0000462297167378
 40
0.0000462297167378
 40
0.0000603186352789
 40
0.0000603186352789
 40
0.0000603186352789
 40
0.0000754992263396
 40
0.0000754992263396
 40
0.0000754992263396
 40
0.0000815948826437
 40
0.0000815948826437
 40
0.0000815948826437
 40
0.0000815948826437
 10
9.064582562299393
 20
-0.3253656382238717
 30
0.0
 10
9.064582562299393
 20
-0.3306112445413305
 30
0.0
 10
9.063817498603612
 20
-0.335919863982042
 30
0.0
 10
9.062262315249882
 20
-0.3408638920082865
 30
0.0
 10
9.060701172486688
 20
-0.3458268653809
 30
0.0
 10
9.058285770405746
 20
-0.35055818476539
 30
0.0
 10
9.055213389182654
 20
-0.3545567755687955
 30
0.0
 10
9.052375778024953
 20
-0.3582498217941463
 30
0.0
 10
9.048900264327813
 20
-0.3614207280382118
 30
0.0
 10
9.045121308945454
 20
-0.3638077460992406
 30
0.0
 10
9.041469952829857
 20
-0.3661141647026511
 30
0.0
 10
9.037448734703048
 20
-0.3677555219679789
 30
0.0
 10
9.03337000405827
 20
-0.3686947430174996
 30
0.0
 10
9.028972864804928
 20
-0.3697072849340941
 30
0.0
 10
9.02440961957518
 20
-0.3699366513623659
 30
0.0
 10
9.019957836460662
 20
-0.3694842104712279
 30
0.0
 10
9.018154799743115
 20
-0.3693009653493959
 30
0.0
 10
9.01635869878578
 20
-0.3690067905614001
 30
0.0
 10
9.014582562299438
 20
-0.3686104515510635
 30
0.0
  0
SPLINE
  5
298
330
1F
100
AcDbEntity
  8
0
  6
Continuous
 62
     1
370
    25
100
AcDbSpline
210
0.0
220
0.0
230
1.0
 70
     8
 71
     3
 72
    18
 73
    14
 74
     0
 42
0.000000001
 43
0.00000001
 40
0.0
 40
0.0
 40
0.0
 40
0.0
 40
0.25
 40
0.25
 40
0.5
 40
0.5
 40
0.625
 40
0.625
 40
0.75
 40
0.75
 40
0.875
 40
0.875
 40
1.0
 40
1.0
 40
1.0
 40
1.0
 10
9.014582562297619
 20
-0.3686104515506656
 30
0.0
 10
8.919671233669078
 20
-0.3474313009936054
 30
0.0
 10
8.819109116543132
 20
-0.314880684775801
 30
0.0
 10
8.63158351890911
 20
-0.2353162384157201
 30
0.0
 10
8.533867332550926
 20
-0.1869892272315496
 30
0.0
 10
8.389175842504528
 20
-0.1087371384709286
 30
0.0
 10
8.343119015898083
 20
-0.0820824993750762
 30
0.0
 10
8.248479684711356
 20
-0.0275171201149647
 30
0.0
 10
8.199675282979115
 20
0.0004481671018652
 30
0.0
 10
8.10219334204794
 20
0.0559597542888355
 30
0.0
 10
8.053538400472462
 20
0.0834932004569851
 30
0.0
 10
7.959465882765471
 20
0.1363927386201453
 30
0.0
 10
7.912965413053371
 20
0.161978441067987
 30
0.0
 10
7.864582562299347
 20
0.1865547294922578
 30
0.0
  0
SPLINE
  5
299
330
1F
100
AcDbEntity
  8
0
  6
Continuous
 62
     1
370
    25
100
AcDbSpline
210
0.0
220
0.0
230
1.0
 70
     8
 71
     3
 72
    18
 73
    14
 74
     0
 42
0.000000001
 43
0.00000001
 40
0.0
 40
0.0
 40
0.0
 40
0.0
 40
0.1249999999999992
 40
0.1249999999999992
 40
0.2499999999999983
 40
0.2499999999999983
 40
0.3749999999999976
 40
0.3749999999999976
 40
0.4999999999999967
 40
0.4999999999999967
 40
0.7499999999999983
 40
0.7499999999999983
 40
1.0
 40
1.0
 40
1.0
 40
1.0
 10
7.864582562295482
 20
0.081500608170046
 30
0.0
 10
7.91296541304996
 20
0.0543191609185953
 30
0.0
 10
7.959465882762061
 20
0.0269152265986179
 30
0.0
 10
8.053538400469279
 20
-0.0280737631061072
 30
0.0
 10
8.102193342044984
 20
-0.0558720346234907
 30
0.0
 10
8.199675282976386
 20
-0.1102804647675839
 30
0.0
 10
8.248479684708855
 20
-0.1368779569756953
 30
0.0
 10
8.343119015896036
 20
-0.1872089378089186
 30
0.0
 10
8.389175842502482
 20
-0.2110112111402316
 30
0.0
 10
8.533867332549335
 20
-0.2784360974992239
 30
0.0
 10
8.631583518907973
 20
-0.3166053134198705
 30
0.0
 10
8.81910911654245
 20
-0.372153772668014
 30
0.0
 10
8.919671233668623
 20
-0.3903776330223536
 30
0.0
 10
9.014582562297619
 20
-0.396669257596443
 30
0.0
  0
SPLINE
  5
29A
330
1F
100
AcDbEntity
  8
0
  6
Continuous
 62
     1
370
    25
100
AcDbSpline
210
0.0
220
0.0
230
1.0
 70
     8
 71
     3
 72
     9
 73
     5
 74
     0
 42
0.000000001
 43
0.00000001
 40
0.0
 40
0.0
 40
0.0
 40
0.0
 40
0.3214703879461892
 40
1.0
 40
1.0
 40
1.0
 40
1.0
 10
8.066698865455692
 20
-0.0350351695783786
 30
0.0
 10
8.044995880923125
 20
-0.0266448074691823
 30
0.0
 10
7.977484267579484
 20
-0.0005448541801627
 30
0.0
 10
7.910222001564307
 20
0.0271525637050445
 30
0.0
 10
7.864582562298892
 20
0.0459460819176059
 30
0.0
  0
SPLINE
  5
29B
330
1F
100
AcDbEntity
  8
0
  6
Continuous
 62
     4
370
    25
100
AcDbSpline
210
0.0
220
0.0
230
1.0
 70
    24
 71
     3
 72
     9
 73
     5
 74
     0
 42
0.000000001
 43
0.00000001
 40
0.0
 40
0.0
 40
0.0
 40
0.0
 40
0.3522726676143423
 40
1.0
 40
1.0
 40
1.0
 40
1.0
 10
7.864582562299347
 20
0.0815006081686818
 30
0.0
 10
7.864582562299347
 20
0.0818083545133561
 30
0.0
 10
7.864582562299347
 20
0.0826819571881856
 30
0.0
 10
7.86458256229912
 20
0.0811233691499922
 30
0.0
 10
7.864582562298892
 20
0.0801138290777317
 30
0.0
  0
SPLINE
  5
29C
330
1F
100
AcDbEntity
  8
0
  6
Continuous
 62
     4
370
    25
100
AcDbSpline
210
0.0
220
0.0
230
1.0
 70
    24
 71
     3
 72
     9
 73
     5
 74
     0
 42
0.000000001
 43
0.00000001
 40
0.0
 40
0.0
 40
0.0
 40
0.0
 40
0.0953016319073878
 40
1.0
 40
1.0
 40
1.0
 40
1.0
 10
7.86458256229912
 20
0.0634518218895721
 30
0.0
 10
7.86458256229912
 20
0.0630450964809199
 30
0.0
 10
7.864582562298892
 20
0.0587773268687215
 30
0.0
 10
7.86458256229912
 20
0.0520406985574766
 30
0.0
 10
7.864582562299347
 20
0.0459460819178616
 30
0.0
  0
LINE
  5
29D
330
1F
100
AcDbEntity
  8
0
  6
Continuous
 62
     4
370
    25
100
AcDbLine
 10
7.864582562299347
 20
0.0815006081679144
 30
0.0
 11
7.864582562299347
 21
0.1865547294922294
 31
0.0
  0
SPLINE
  5
29E
330
1F
100
AcDbEntity
  8
0
  6
Continuous
 62
     1
370
    25
100
AcDbSpline
210
0.0
220
0.0
230
1.0
 70
     8
 71
     3
 72
    11
 73
     7
 74
     0
 42
0.000000001
 43
0.00000001
 40
0.0
 40
0.0
 40
0.0
 40
0.0
 40
0.2558365368846779
 40
0.5095498293023377
 40
0.7635949848560647
 40
1.0
 40
1.0
 40
1.0
 40
1.0
 10
9.064582562299393
 20
0.0007193795467515
 30
0.0
 10
8.975655129762117
 20
0.0416665510849441
 30
0.0
 10
8.79853829327999
 20
0.1232210644541851
 30
0.0
 10
8.533570005042975
 20
0.2275937794956917
 30
0.0
 10
8.275289848945476
 20
0.3007356930015703
 30
0.0
 10
8.104753881136958
 20
0.3126029076288148
 30
0.0
 10
8.02255275151947
 20
0.3183230994470136
 30
0.0
  0
SPLINE
  5
29F
330
1F
100
AcDbEntity
  8
0
  6
Continuous
 62
     1
370
    25
100
AcDbSpline
210
0.0
220
0.0
230
1.0
 70
    24
 71
     3
 72
    10
 73
     6
 74
     0
 42
0.000000001
 43
0.00000001
 40
0.0
 40
0.0
 40
0.0
 40
0.0
 40
0.5
 40
0.5
 40
1.0
 40
1.0
 40
1.0
 40
1.0
 10
9.064582562299393
 20
-0.314869526200539
 30
0.0
 10
9.064582562299393
 20
-0.2807176473208415
 30
0.0
 10
9.064582562299393
 20
-0.2335710530897188
 30
0.0
 10
9.064582562299393
 20
-0.1232570922996956
 30
0.0
 10
9.064582562299393
 20
-0.0605645601528124
 30
0.0
 10
9.064582562299393
 20
0.0007193795467515
 30
0.0
  0
SPLINE
  5
2A0
330
1F
100
AcDbEntity
  8
0
  6
Continuous
 62
     4
370
    25
100
AcDbSpline
210
0.0
220
0.0
230
1.0
 70
    24
 71
     3
 72
    13
 73
     9
 74
     0
 42
0.000000001
 43
0.00000001
 40
0.0
 40
0.0
 40
0.0
 40
0.0
 40
0.0488316974630371
 40
0.1980470757069744
 40
0.4083055258314495
 40
0.6246614852536223
 40
0.8102576868576593
 40
1.0
 40
1.0
 40
1.0
 40
1.0
 10
7.864582562299347
 20
0.3161154998263953
 30
0.0
 10
7.864582562299347
 20
0.3161198752324594
 30
0.0
 10
7.864582562299347
 20
0.3161376205990507
 30
0.0
 10
7.864582562299347
 20
0.3089619209984278
 30
0.0
 10
7.864582562299347
 20
0.2915545144433338
 30
0.0
 10
7.864582562299347
 20
0.260947948168706
 30
0.0
 10
7.864582562299347
 20
0.222607546978395
 30
0.0
 10
7.864582562299347
 20
0.1920077716472406
 30
0.0
 10
7.864582562299347
 20
0.1765388764370357
 30
0.0
  0
LINE
  5
2A1
330
1F
100
AcDbEntity
  8
0
  6
Continuous
 62
     1
370
    25
100
AcDbLine
 10
9.064582562299393
 20
0.2807193795467526
 30
0.0
 11
8.848731887479971
 21
0.2642283086148609
 31
0.0
  0
SPLINE
  5
2A2
330
1F
100
AcDbEntity
  8
0
  6
Continuous
 62
     1
370
    25
100
AcDbSpline
210
0.0
220
0.0
230
1.0
 70
    24
 71
     3
 72
    10
 73
     6
 74
     0
 42
0.000000001
 43
0.00000001
 40
0.0
 40
0.0
 40
0.0
 40
0.0
 40
0.5000000000000001
 40
0.5000000000000001
 40
1.0
 40
1.0
 40
1.0
 40
1.0
 10
9.064582562299393
 20
0.0007193795467515
 30
0.0
 10
9.064582562299393
 20
0.0673468609078611
 30
0.0
 10
9.064582562299393
 20
0.1321760353412458
 30
0.0
 10
9.064582562299393
 20
0.2317041807628755
 30
0.0
 10
9.064582562299393
 20
0.2656319990958593
 30
0.0
 10
9.064582562299393
 20
0.2807193795467526
 30
0.0
  0
SPLINE
  5
2A3
330
1F
100
AcDbEntity
  8
0
  6
Continuous
 62
     1
370
    25
100
AcDbSpline
210
0.0
220
0.0
230
1.0
 70
     8
 71
     3
 72
     9
 73
     5
 74
     0
 42
0.000000001
 43
0.00000001
 40
0.0
 40
0.0
 40
0.0
 40
0.0
 40
0.5984245759976262
 40
1.0
 40
1.0
 40
1.0
 40
1.0
 10
8.206445058282952
 20
-0.2977863003629295
 30
0.0
 10
8.138104513797316
 20
-0.3075905273497597
 30
0.0
 10
8.023903748610792
 20
-0.3239739236541084
 30
0.0
 10
7.910230817719594
 20
-0.3176272877362862
 30
0.0
 10
7.864582562299347
 20
-0.3150786347266035
 30
0.0
  0
SPLINE
  5
2A4
330
1F
100
AcDbEntity
  8
0
  6
Continuous
 62
     4
370
    25
100
AcDbSpline
210
0.0
220
0.0
230
1.0
 70
    24
 71
     3
 72
    10
 73
     6
 74
     0
 42
0.000000001
 43
0.00000001
 40
0.0
 40
0.0
 40
0.0
 40
0.0
 40
0.5
 40
0.5
 40
1.0
 40
1.0
 40
1.0
 40
1.0
 10
7.864582562299347
 20
0.0459460819174922
 30
0.0
 10
7.864582562299347
 20
-0.0248246480034595
 30
0.0
 10
7.864582562299347
 20
-0.0993381604789363
 30
0.0
 10
7.864582562299347
 20
-0.227667162260957
 30
0.0
 10
7.864582562299347
 20
-0.2804883473929749
 30
0.0
 10
7.864582562299347
 20
-0.3150786347266035
 30
0.0
  0
LINE
  5
2A5
330
1F
100
AcDbEntity
  8
0
  6
Continuous
 62
     4
370
    25
100
AcDbLine
 10
7.864582562299347
 20
-0.3150786347266035
 30
0.0
 11
7.864582562299347
 21
-0.3146767407329207
 31
0.0
  0
SPLINE
  5
2A6
330
1F
100
AcDbEntity
  8
0
  6
Continuous
 62
     1
370
    25
100
AcDbSpline
210
0.0
220
0.0
230
1.0
 70
     8
 71
     3
 72
    10
 73
     6
 74
     0
 42
0.000000001
 43
0.00000001
 40
0.0
 40
0.0
 40
0.0
 40
0.0
 40
0.1161109860365783
 40
0.5526983072946504
 40
1.0
 40
1.0
 40
1.0
 40
1.0
 10
8.520008902186873
 20
0.2687407065391483
 30
0.0
 10
8.539172646448378
 20
0.277611386108731
 30
0.0
 10
8.63039372187177
 20
0.3198365858940235
 30
0.0
 10
8.794527407781516
 20
0.371275797720358
 30
0.0
 10
8.940640457226664
 20
0.3890919554269487
 30
0.0
 10
9.01458256229921
 20
0.3981080166900313
 30
0.0
  0
SPLINE
  5
2A7
330
1F
100
AcDbEntity
  8
0
  6
Continuous
 62
     1
370
    25
100
AcDbSpline
210
0.0
220
0.0
230
1.0
 70
    24
 71
     3
 72
     8
 73
     4
 74
     0
 42
0.000000001
 43
0.00000001
 40
0.0
 40
0.0
 40
0.0
 40
0.0
 40
1.0
 40
1.0
 40
1.0
 40
1.0
 10
9.064582562299393
 20
0.2807193795467526
 30
0.0
 10
9.064582562299393
 20
0.300945676565135
 30
0.0
 10
9.064582562299393
 20
0.3251347012947008
 30
0.0
 10
9.064582562299393
 20
0.3500838692121704
 30
0.0
  0
ARC
  5
2A8
330
1F
100
AcDbEntity
  8
0
  6
Continuous
 62
     1
370
    25
100
AcDbCircle
 10
9.01458256229921
 20
0.3481080166900483
 30
0.0
 40
0.05
100
AcDbArc
 50
0.0
 51
90.0
  0
ARC
  5
2A9
330
1F
100
AcDbEntity
  8
0
  6
Continuous
 62
     1
370
    25
100
AcDbCircle
 10
9.01458256229921
 20
-0.3466692575965453
 30
0.0
 40
0.05
100
AcDbArc
 50
270.0
 51
0.0
  0
LINE
  5
2AA
330
1F
100
AcDbEntity
  8
0
  6
Continuous
 62
     1
370
    25
100
AcDbLine
 10
9.064582562299393
 20
-0.3201133359130779
 30
0.0
 11
9.064582562299393
 21
-0.3466692575965453
 31
0.0
  0
DIMENSION
  5
2AB
330
1F
100
AcDbEntity
  8
치수문자_일반주서
100
AcDbDimension
  2
*D21
 10
9.01458256229921
 20
-0.3466692575965453
 30
0.0
 11
18.43801540122487
 21
-19.99202476595472
 31
0.0
 70
   164
  1
<>
 71
     5
 42
0.0500000000000334
  3
SLDDIMSTYLE3
100
AcDbRadialDimension
 15
9.036207294480619
 25
-0.3917510827380113
 35
0.0
 40
0.0
1001
ACAD_DSTYLE_DIMRADIAL_EXTENSION
1070
   387
1070
     1
1070
   388
1040
4.71238898038469
1070
   390
1040
0.0000000000000011
  0
ENDSEC
  0
SECTION
  2
OBJECTS
  0
DICTIONARY
  5
C
330
0
100
AcDbDictionary
281
     1
  3
ACAD_GROUP
350
D
  3
ACAD_IMAGE_VARS
350
148
  3
ACAD_LAYOUT
350
1A
  3
ACAD_MLINESTYLE
350
17
  3
ACAD_PLOTSETTINGS
350
19
  3
ACAD_PLOTSTYLENAME
350
E
  3
ACAD_SCALELIST
350
47
  3
APPDATA
350
146
  3
DWGPROPS
350
2B5
  0
DICTIONARY
  5
D
102
{ACAD_REACTORS
330
C
102
}
330
C
100
AcDbDictionary
281
     1
  0
RASTERVARIABLES
  5
148
102
{ACAD_REACTORS
330
C
102
}
330
C
100
AcDbRasterVariables
 90
        0
 70
     1
 71
     1
 72
     1
  0
DICTIONARY
  5
1A
102
{ACAD_REACTORS
330
C
102
}
330
C
100
AcDbDictionary
281
     1
  3
Layout1
350
1E
  3
Layout2
350
26
  3
Model
350
22
  0
DICTIONARY
  5
17
102
{ACAD_REACTORS
330
C
102
}
330
C
100
AcDbDictionary
281
     1
  3
Standard
350
18
  0
DICTIONARY
  5
19
102
{ACAD_REACTORS
330
C
102
}
330
C
100
AcDbDictionary
281
     1
  0
ACDBDICTIONARYWDFLT
  5
E
102
{ACAD_REACTORS
330
C
102
}
330
C
100
AcDbDictionary
281
     1
  3
Normal
350
F
100
AcDbDictionaryWithDefault
340
F
  0
DICTIONARY
  5
47
102
{ACAD_REACTORS
330
C
102
}
330
C
100
AcDbDictionary
281
     1
  3
A0
350
48
  3
A1
350
49
  3
A2
350
4A
  3
A3
350
4B
  3
A4
350
4C
  3
A5
350
4D
  3
A6
350
4E
  3
A7
350
4F
  3
A8
350
50
  3
A9
350
51
  3
B0
350
52
  3
B1
350
53
  3
B2
350
54
  3
B3
350
55
  3
B4
350
56
  3
B5
350
57
  3
B6
350
58
  3
B7
350
59
  3
B8
350
5A
  3
B9
350
5B
  3
C0
350
5C
  3
C1
350
5D
  3
C2
350
5E
  3
C3
350
5F
  3
C4
350
60
  3
C5
350
61
  3
C6
350
62
  3
C7
350
63
  3
C8
350
64
  3
C9
350
65
  3
D0
350
66
  3
D1
350
67
  3
D2
350
68
  0
DICTIONARY
  5
146
102
{ACAD_REACTORS
330
C
102
}
330
C
100
AcDbDictionary
281
     1
  0
XRECORD
  5
2B5
102
{ACAD_REACTORS
330
C
102
}
330
C
100
AcDbXrecord
280
     1
  1
DWGPROPS COOKIE
  2

  3

  4

  6

  7

  8
12016016
  9

300
=
301
=
302
=
303
=
304
=
305
=
306
=
307
=
308
=
309
=
 40
0.0
 41
2458263.366588032
 42
2458269.2458414
  1

 90
        0
  0
LAYOUT
  5
1E
102
{ACAD_REACTORS
330
1A
102
}
330
1A
100
AcDbPlotSettings
  1

  2
none_device
  4

  6

 40
0.0
 41
0.0
 42
0.0
 43
0.0
 44
0.0
 45
0.0
 46
0.0
 47
0.0
 48
0.0
 49
0.0
140
0.0
141
0.0
142
1.0
143
1.0
 70
   688
 72
     1
 73
     0
 74
     5
  7

 75
    16
147
1.0
148
0.0
149
0.0
100
AcDbLayout
  1
Layout1
 70
     1
 71
     1
 10
0.0
 20
0.0
 11
420.0
 21
297.0
 12
0.0
 22
0.0
 32
0.0
 14
1.000000000000000E+20
 24
1.000000000000000E+20
 34
1.000000000000000E+20
 15
-1.000000000000000E+20
 25
-1.000000000000000E+20
 35
-1.000000000000000E+20
146
0.0
 13
0.0
 23
0.0
 33
0.0
 16
1.0
 26
0.0
 36
0.0
 17
0.0
 27
1.0
 37
0.0
 76
     0
330
1B
  0
LAYOUT
  5
26
102
{ACAD_REACTORS
330
1A
102
}
330
1A
100
AcDbPlotSettings
  1

  2
none_device
  4

  6

 40
0.0
 41
0.0
 42
0.0
 43
0.0
 44
0.0
 45
0.0
 46
0.0
 47
0.0
 48
0.0
 49
0.0
140
0.0
141
0.0
142
1.0
143
1.0
 70
   688
 72
     1
 73
     0
 74
     5
  7

 75
    16
147
1.0
148
0.0
149
0.0
100
AcDbLayout
  1
Layout2
 70
     1
 71
     2
 10
0.0
 20
0.0
 11
0.0
 21
0.0
 12
0.0
 22
0.0
 32
0.0
 14
0.0
 24
0.0
 34
0.0
 15
0.0
 25
0.0
 35
0.0
146
0.0
 13
0.0
 23
0.0
 33
0.0
 16
1.0
 26
0.0
 36
0.0
 17
0.0
 27
1.0
 37
0.0
 76
     0
330
23
  0
LAYOUT
  5
22
102
{ACAD_REACTORS
330
1A
102
}
330
1A
100
AcDbPlotSettings
  1

  2
none_device
  4
ANSI_A_(11.00_x_8.50_Inches)
  6

 40
6.35
 41
19.05
 42
6.35000508
 43
19.05000254
 44
279.4
 45
215.9
 46
136.0618939579249
 47
94.7887525095783
 48
0.0
 49
0.0
140
0.0
141
0.0
142
0.0875355835236303
143
1.0
 70
  1696
 72
     0
 73
     0
 74
     0
  7

 75
     0
147
0.0235690232323232
148
0.0
149
0.0
100
AcDbLayout
  1
Model
 70
     1
 71
     0
 10
0.0
 20
0.0
 11
420.0
 21
297.0
 12
0.0
 22
0.0
 32
0.0
 14
1.000000000000000E+20
 24
1.000000000000000E+20
 34
1.000000000000000E+20
 15
-1.000000000000000E+20
 25
-1.000000000000000E+20
 35
-1.000000000000000E+20
146
0.0
 13
0.0
 23
0.0
 33
0.0
 16
1.0
 26
0.0
 36
0.0
 17
0.0
 27
1.0
 37
0.0
 76
     0
330
1F
331
29
  0
MLINESTYLE
  5
18
102
{ACAD_REACTORS
330
17
102
}
330
17
100
AcDbMlineStyle
  2
Standard
 70
     0
  3

 62
   256
 51
90.0
 52
90.0
 71
     2
 49
0.5
 62
   256
  6
BYLAYER
 49
-0.5
 62
   256
  6
BYLAYER
  0
ACDBPLACEHOLDER
  5
F
102
{ACAD_REACTORS
330
E
102
}
330
E
  0
SCALE
  5
48
102
{ACAD_REACTORS
330
47
102
}
330
47
100
AcDbScale
 70
     0
300
1:1
140
1.0
141
1.0
290
     1
  0
SCALE
  5
49
102
{ACAD_REACTORS
330
47
102
}
330
47
100
AcDbScale
 70
     0
300
1:2
140
1.0
141
2.0
290
     0
  0
SCALE
  5
4A
102
{ACAD_REACTORS
330
47
102
}
330
47
100
AcDbScale
 70
     0
300
1:4
140
1.0
141
4.0
290
     0
  0
SCALE
  5
4B
102
{ACAD_REACTORS
330
47
102
}
330
47
100
AcDbScale
 70
     0
300
1:5
140
1.0
141
5.0
290
     0
  0
SCALE
  5
4C
102
{ACAD_REACTORS
330
47
102
}
330
47
100
AcDbScale
 70
     0
300
1:8
140
1.0
141
8.0
290
     0
  0
SCALE
  5
4D
102
{ACAD_REACTORS
330
47
102
}
330
47
100
AcDbScale
 70
     0
300
1:10
140
1.0
141
10.0
290
     0
  0
SCALE
  5
4E
102
{ACAD_REACTORS
330
47
102
}
330
47
100
AcDbScale
 70
     0
300
1:16
140
1.0
141
16.0
290
     0
  0
SCALE
  5
4F
102
{ACAD_REACTORS
330
47
102
}
330
47
100
AcDbScale
 70
     0
300
1:20
140
1.0
141
20.0
290
     0
  0
SCALE
  5
50
102
{ACAD_REACTORS
330
47
102
}
330
47
100
AcDbScale
 70
     0
300
1:30
140
1.0
141
30.0
290
     0
  0
SCALE
  5
51
102
{ACAD_REACTORS
330
47
102
}
330
47
100
AcDbScale
 70
     0
300
1:40
140
1.0
141
40.0
290
     0
  0
SCALE
  5
52
102
{ACAD_REACTORS
330
47
102
}
330
47
100
AcDbScale
 70
     0
300
1:50
140
1.0
141
50.0
290
     0
  0
SCALE
  5
53
102
{ACAD_REACTORS
330
47
102
}
330
47
100
AcDbScale
 70
     0
300
1:100
140
1.0
141
100.0
290
     0
  0
SCALE
  5
54
102
{ACAD_REACTORS
330
47
102
}
330
47
100
AcDbScale
 70
     0
300
2:1
140
2.0
141
1.0
290
     0
  0
SCALE
  5
55
102
{ACAD_REACTORS
330
47
102
}
330
47
100
AcDbScale
 70
     0
300
4:1
140
4.0
141
1.0
290
     0
  0
SCALE
  5
56
102
{ACAD_REACTORS
330
47
102
}
330
47
100
AcDbScale
 70
     0
300
8:1
140
8.0
141
1.0
290
     0
  0
SCALE
  5
57
102
{ACAD_REACTORS
330
47
102
}
330
47
100
AcDbScale
 70
     0
300
10:1
140
10.0
141
1.0
290
     0
  0
SCALE
  5
58
102
{ACAD_REACTORS
330
47
102
}
330
47
100
AcDbScale
 70
     0
300
100:1
140
100.0
141
1.0
290
     0
  0
SCALE
  5
59
102
{ACAD_REACTORS
330
47
102
}
330
47
100
AcDbScale
 70
     0
300
1/128" = 1'-0"
140
0.0078125
141
12.0
290
     0
  0
SCALE
  5
5A
102
{ACAD_REACTORS
330
47
102
}
330
47
100
AcDbScale
 70
     0
300
1/64" = 1'-0"
140
0.015625
141
12.0
290
     0
  0
SCALE
  5
5B
102
{ACAD_REACTORS
330
47
102
}
330
47
100
AcDbScale
 70
     0
300
1/32" = 1'-0"
140
0.03125
141
12.0
290
     0
  0
SCALE
  5
5C
102
{ACAD_REACTORS
330
47
102
}
330
47
100
AcDbScale
 70
     0
300
1/16" = 1'-0"
140
0.0625
141
12.0
290
     0
  0
SCALE
  5
5D
102
{ACAD_REACTORS
330
47
102
}
330
47
100
AcDbScale
 70
     0
300
3/32" = 1'-0"
140
0.09375
141
12.0
290
     0
  0
SCALE
  5
5E
102
{ACAD_REACTORS
330
47
102
}
330
47
100
AcDbScale
 70
     0
300
1/8" = 1'-0"
140
0.125
141
12.0
290
     0
  0
SCALE
  5
5F
102
{ACAD_REACTORS
330
47
102
}
330
47
100
AcDbScale
 70
     0
300
3/16" = 1'-0"
140
0.1875
141
12.0
290
     0
  0
SCALE
  5
60
102
{ACAD_REACTORS
330
47
102
}
330
47
100
AcDbScale
 70
     0
300
1/4" = 1'-0"
140
0.25
141
12.0
290
     0
  0
SCALE
  5
61
102
{ACAD_REACTORS
330
47
102
}
330
47
100
AcDbScale
 70
     0
300
3/8" = 1'-0"
140
0.375
141
12.0
290
     0
  0
SCALE
  5
62
102
{ACAD_REACTORS
330
47
102
}
330
47
100
AcDbScale
 70
     0
300
1/2" = 1'-0"
140
0.5
141
12.0
290
     0
  0
SCALE
  5
63
102
{ACAD_REACTORS
330
47
102
}
330
47
100
AcDbScale
 70
     0
300
3/4" = 1'-0"
140
0.75
141
12.0
290
     0
  0
SCALE
  5
64
102
{ACAD_REACTORS
330
47
102
}
330
47
100
AcDbScale
 70
     0
300
1" = 1'-0"
140
1.0
141
12.0
290
     0
  0
SCALE
  5
65
102
{ACAD_REACTORS
330
47
102
}
330
47
100
AcDbScale
 70
     0
300
1-1/2" = 1'-0"
140
1.5
141
12.0
290
     0
  0
SCALE
  5
66
102
{ACAD_REACTORS
330
47
102
}
330
47
100
AcDbScale
 70
     0
300
3" = 1'-0"
140
3.0
141
12.0
290
     0
  0
SCALE
  5
67
102
{ACAD_REACTORS
330
47
102
}
330
47
100
AcDbScale
 70
     0
300
6" = 1'-0"
140
6.0
141
12.0
290
     0
  0
SCALE
  5
68
102
{ACAD_REACTORS
330
47
102
}
330
47
100
AcDbScale
 70
     0
300
1'-0" = 1'-0"
140
12.0
141
12.0
290
     0
  0
ENDSEC
  0
EOF
