  0
SECTION
  2
HEADER
  9
$ACADVER
  1
AC1015
  9
$ACADMAINTVER
 70
     6
  9
$DWGCODEPAGE
  3
ANSI_949
  9
$INSBASE
 10
0.0
 20
0.0
 30
0.0
  9
$EXTMIN
 10
1.000000000000000E+20
 20
1.000000000000000E+20
 30
1.000000000000000E+20
  9
$EXTMAX
 10
-1.000000000000000E+20
 20
-1.000000000000000E+20
 30
-1.000000000000000E+20
  9
$LIMMIN
 10
0.0
 20
0.0
  9
$LIMMAX
 10
420.0
 20
297.0
  9
$ORTHOMODE
 70
     0
  9
$REGENMODE
 70
     1
  9
$FILLMODE
 70
     1
  9
$QTEXTMODE
 70
     0
  9
$MIRRTEXT
 70
     1
  9
$LTSCALE
 40
1.0
  9
$ATTMODE
 70
     1
  9
$TEXTSIZE
 40
3.5
  9
$TRACEWID
 40
1.0
  9
$TEXTSTYLE
  7
Standard
  9
$CLAYER
  8
0
  9
$CELTYPE
  6
ByLayer
  9
$CECOLOR
 62
   256
  9
$CELTSCALE
 40
1.0
  9
$DISPSILH
 70
     0
  9
$DIMSCALE
 40
1.0
  9
$DIMASZ
 40
3.302
  9
$DIMEXO
 40
1.0
  9
$DIMDLI
 40
3.75
  9
$DIMRND
 40
0.0
  9
$DIMDLE
 40
0.0
  9
$DIMEXE
 40
1.0
  9
$DIMTP
 40
0.0
  9
$DIMTM
 40
0.0
  9
$DIMTXT
 40
3.5
  9
$DIMCEN
 40
2.5
  9
$DIMTSZ
 40
0.0
  9
$DIMTOL
 70
     0
  9
$DIMLIM
 70
     0
  9
$DIMTIH
 70
     1
  9
$DIMTOH
 70
     1
  9
$DIMSE1
 70
     0
  9
$DIMSE2
 70
     0
  9
$DIMTAD
 70
     1
  9
$DIMZIN
 70
     0
  9
$DIMBLK
  1

  9
$DIMASO
 70
     1
  9
$DIMSHO
 70
     1
  9
$DIMPOST
  1

  9
$DIMAPOST
  1

  9
$DIMALT
 70
     0
  9
$DIMALTD
 70
     3
  9
$DIMALTF
 40
0.0393700787401575
  9
$DIMLFAC
 40
1.0
  9
$DIMTOFL
 70
     1
  9
$DIMTVP
 40
0.0
  9
$DIMTIX
 70
     0
  9
$DIMSOXD
 70
     0
  9
$DIMSAH
 70
     0
  9
$DIMBLK1
  1

  9
$DIMBLK2
  1

  9
$DIMSTYLE
  2
ISO-25
  9
$DIMCLRD
 70
     0
  9
$DIMCLRE
 70
     0
  9
$DIMCLRT
 70
     0
  9
$DIMTFAC
 40
1.0
  9
$DIMGAP
 40
1.524
  9
$DIMJUST
 70
     0
  9
$DIMSD1
 70
     0
  9
$DIMSD2
 70
     0
  9
$DIMTOLJ
 70
     0
  9
$DIMTZIN
 70
     0
  9
$DIMALTZ
 70
     0
  9
$DIMALTTZ
 70
     0
  9
$DIMUPT
 70
     0
  9
$DIMDEC
 70
     2
  9
$DIMTDEC
 70
     2
  9
$DIMALTU
 70
     2
  9
$DIMALTTD
 70
     3
  9
$DIMTXSTY
  7
Standard
  9
$DIMAUNIT
 70
     0
  9
$DIMADEC
 70
     2
  9
$DIMALTRND
 40
0.0
  9
$DIMAZIN
 70
     0
  9
$DIMDSEP
 70
    44
  9
$DIMATFIT
 70
     3
  9
$DIMFRAC
 70
     0
  9
$DIMLDRBLK
  1

  9
$DIMLUNIT
 70
     2
  9
$DIMLWD
 70
    -2
  9
$DIMLWE
 70
    -2
  9
$DIMTMOVE
 70
     0
  9
$LUNITS
 70
     2
  9
$LUPREC
 70
     2
  9
$SKETCHINC
 40
1.0
  9
$FILLETRAD
 40
10.0
  9
$AUNITS
 70
     0
  9
$AUPREC
 70
     2
  9
$MENU
  1
.
  9
$ELEVATION
 40
0.0
  9
$PELEVATION
 40
0.0
  9
$THICKNESS
 40
0.0
  9
$LIMCHECK
 70
     0
  9
$CHAMFERA
 40
0.0
  9
$CHAMFERB
 40
0.0
  9
$CHAMFERC
 40
0.0
  9
$CHAMFERD
 40
0.0
  9
$SKPOLY
 70
     0
  9
$TDCREATE
 40
2458263.737806643
  9
$TDUCREATE
 40
2458263.362806643
  9
$TDUPDATE
 40
2458269.681033299
  9
$TDUUPDATE
 40
2458269.306033299
  9
$TDINDWG
 40
0.0000783912
  9
$TDUSRTIMER
 40
2458269.305955185
  9
$USRTIMER
 70
     1
  9
$ANGBASE
 50
0.0
  9
$ANGDIR
 70
     0
  9
$PDMODE
 70
     0
  9
$PDSIZE
 40
-1.0
  9
$PLINEWID
 40
0.0
  9
$SPLFRAME
 70
     0
  9
$SPLINETYPE
 70
     6
  9
$SPLINESEGS
 70
     8
  9
$HANDSEED
  5
3B8
  9
$SURFTAB1
 70
     6
  9
$SURFTAB2
 70
     6
  9
$SURFTYPE
 70
     6
  9
$SURFU
 70
     6
  9
$SURFV
 70
     6
  9
$UCSBASE
  2

  9
$UCSNAME
  2

  9
$UCSORG
 10
0.0
 20
0.0
 30
0.0
  9
$UCSXDIR
 10
1.0
 20
0.0
 30
0.0
  9
$UCSYDIR
 10
0.0
 20
1.0
 30
0.0
  9
$UCSORTHOREF
  2

  9
$UCSORTHOVIEW
 70
     0
  9
$UCSORGTOP
 10
0.0
 20
0.0
 30
0.0
  9
$UCSORGBOTTOM
 10
0.0
 20
0.0
 30
0.0
  9
$UCSORGLEFT
 10
0.0
 20
0.0
 30
0.0
  9
$UCSORGRIGHT
 10
0.0
 20
0.0
 30
0.0
  9
$UCSORGFRONT
 10
0.0
 20
0.0
 30
0.0
  9
$UCSORGBACK
 10
0.0
 20
0.0
 30
0.0
  9
$PUCSBASE
  2

  9
$PUCSNAME
  2

  9
$PUCSORG
 10
0.0
 20
0.0
 30
0.0
  9
$PUCSXDIR
 10
1.0
 20
0.0
 30
0.0
  9
$PUCSYDIR
 10
0.0
 20
1.0
 30
0.0
  9
$PUCSORTHOREF
  2

  9
$PUCSORTHOVIEW
 70
     0
  9
$PUCSORGTOP
 10
0.0
 20
0.0
 30
0.0
  9
$PUCSORGBOTTOM
 10
0.0
 20
0.0
 30
0.0
  9
$PUCSORGLEFT
 10
0.0
 20
0.0
 30
0.0
  9
$PUCSORGRIGHT
 10
0.0
 20
0.0
 30
0.0
  9
$PUCSORGFRONT
 10
0.0
 20
0.0
 30
0.0
  9
$PUCSORGBACK
 10
0.0
 20
0.0
 30
0.0
  9
$USERI1
 70
     0
  9
$USERI2
 70
     0
  9
$USERI3
 70
     0
  9
$USERI4
 70
     0
  9
$USERI5
 70
     0
  9
$USERR1
 40
0.0
  9
$USERR2
 40
0.0
  9
$USERR3
 40
0.0
  9
$USERR4
 40
0.0
  9
$USERR5
 40
0.0
  9
$WORLDVIEW
 70
     1
  9
$SHADEDGE
 70
     3
  9
$SHADEDIF
 70
    70
  9
$TILEMODE
 70
     1
  9
$MAXACTVP
 70
    64
  9
$PINSBASE
 10
0.0
 20
0.0
 30
0.0
  9
$PLIMCHECK
 70
     0
  9
$PEXTMIN
 10
1.000000000000000E+20
 20
1.000000000000000E+20
 30
1.000000000000000E+20
  9
$PEXTMAX
 10
-1.000000000000000E+20
 20
-1.000000000000000E+20
 30
-1.000000000000000E+20
  9
$PLIMMIN
 10
0.0
 20
0.0
  9
$PLIMMAX
 10
0.0
 20
0.0
  9
$UNITMODE
 70
     0
  9
$VISRETAIN
 70
     1
  9
$PLINEGEN
 70
     0
  9
$PSLTSCALE
 70
     1
  9
$TREEDEPTH
 70
  3020
  9
$CMLSTYLE
  2
Standard
  9
$CMLJUST
 70
     0
  9
$CMLSCALE
 40
20.0
  9
$PROXYGRAPHICS
 70
     1
  9
$MEASUREMENT
 70
     1
  9
$CELWEIGHT
370
    -1
  9
$ENDCAPS
280
     0
  9
$JOINSTYLE
280
     0
  9
$LWDISPLAY
290
     1
  9
$INSUNITS
 70
     4
  9
$HYPERLINKBASE
  1

  9
$STYLESHEET
  1

  9
$XEDIT
290
     1
  9
$CEPSNTYPE
380
     0
  9
$PSTYLEMODE
290
     1
  9
$FINGERPRINTGUID
  2
{C7E27C99-A9F9-4CF5-88F7-49AC75CB2ECC}
  9
$VERSIONGUID
  2
{FAEB1C32-E019-11D5-929B-00C0DF256EC4}
  9
$EXTNAMES
290
     1
  9
$PSVPSCALE
 40
0.0
  9
$OLESTARTUP
290
     0
  0
ENDSEC
  0
SECTION
  2
CLASSES
  0
CLASS
  1
ACDBDICTIONARYWDFLT
  2
AcDbDictionaryWithDefault
  3
ObjectDBX Classes
 90
        0
280
     0
281
     0
  0
CLASS
  1
VISUALSTYLE
  2
AcDbVisualStyle
  3
ObjectDBX Classes
 90
     4095
280
     0
281
     0
  0
CLASS
  1
MATERIAL
  2
AcDbMaterial
  3
ObjectDBX Classes
 90
     1153
280
     0
281
     0
  0
CLASS
  1
SCALE
  2
AcDbScale
  3
ObjectDBX Classes
 90
     1153
280
     0
281
     0
  0
CLASS
  1
TABLESTYLE
  2
AcDbTableStyle
  3
ObjectDBX Classes
 90
     4095
280
     0
281
     0
  0
CLASS
  1
MLEADERSTYLE
  2
AcDbMLeaderStyle
  3
ACDB_MLEADERSTYLE_CLASS
 90
     4095
280
     0
281
     0
  0
CLASS
  1
SUN
  2
AcDbSun
  3
SCENEOE
 90
     1153
280
     0
281
     0
  0
CLASS
  1
ACDBPLACEHOLDER
  2
AcDbPlaceHolder
  3
ObjectDBX Classes
 90
        0
280
     0
281
     0
  0
CLASS
  1
LAYOUT
  2
AcDbLayout
  3
ObjectDBX Classes
 90
        0
280
     0
281
     0
  0
CLASS
  1
RASTERVARIABLES
  2
AcDbRasterVariables
  3
ISM
 90
        0
280
     0
281
     0
  0
CLASS
  1
DIMASSOC
  2
AcDbDimAssoc
  3
"AcDbDimAssoc|Product Desc:     AcDim ARX App For Dimension|Company:          Autodesk, Inc.|WEB Address:      www.autodesk.com"
 90
        0
280
     0
281
     0
  0
ENDSEC
  0
SECTION
  2
TABLES
  0
TABLE
  2
VPORT
  5
8
330
0
100
AcDbSymbolTable
 70
     1
  0
VPORT
  5
29
330
8
100
AcDbSymbolTableRecord
100
AcDbViewportTableRecord
  2
*Active
 70
     0
 10
0.0
 20
0.0
 11
1.0
 21
1.0
 12
15.46187663085524
 22
-1.844320786272055
 13
0.0
 23
0.0
 14
10.0
 24
10.0
 15
10.0
 25
10.0
 16
0.0
 26
0.0
 36
1.0
 17
0.0
 27
0.0
 37
0.0
 40
13.31477144271274
 41
1.741312741312741
 42
50.0
 43
0.0
 44
0.0
 50
0.0
 51
0.0
 71
    16
 72
  2000
 73
     1
 74
     3
 75
     0
 76
     0
 77
     0
 78
     0
281
     0
 65
     1
110
0.0
120
0.0
130
0.0
111
1.0
121
0.0
131
0.0
112
0.0
122
1.0
132
0.0
 79
     0
146
0.0
  0
ENDTAB
  0
TABLE
  2
LTYPE
  5
5
330
0
100
AcDbSymbolTable
 70
     6
  0
LTYPE
  5
14
330
5
100
AcDbSymbolTableRecord
100
AcDbLinetypeTableRecord
  2
ByBlock
 70
     0
  3

 72
    65
 73
     0
 40
0.0
  0
LTYPE
  5
15
330
5
100
AcDbSymbolTableRecord
100
AcDbLinetypeTableRecord
  2
ByLayer
 70
     0
  3

 72
    65
 73
     0
 40
0.0
  0
LTYPE
  5
16
330
5
100
AcDbSymbolTableRecord
100
AcDbLinetypeTableRecord
  2
Continuous
 70
     0
  3
Solid line
 72
    65
 73
     0
 40
0.0
  0
LTYPE
  5
6E
330
5
100
AcDbSymbolTableRecord
100
AcDbLinetypeTableRecord
  2
HIDDEN
 70
     0
  3
Hidden __ __ __ __ __ __ __ __ __ __ __ __ __ __
 72
    65
 73
     2
 40
1.905
 49
1.27
 74
     0
 49
-0.635
 74
     0
  0
LTYPE
  5
6F
330
5
100
AcDbSymbolTableRecord
100
AcDbLinetypeTableRecord
  2
PHANTOM
 70
     0
  3
Phantom ______  __  __  ______  __  __  ______
 72
    65
 73
     6
 40
12.7
 49
6.35
 74
     0
 49
-1.27
 74
     0
 49
1.27
 74
     0
 49
-1.27
 74
     0
 49
1.27
 74
     0
 49
-1.27
 74
     0
  0
LTYPE
  5
70
330
5
100
AcDbSymbolTableRecord
100
AcDbLinetypeTableRecord
  2
CENTER
 70
     0
  3
Center ____ _ ____ _ ____ _ ____ _ ____ _ ____
 72
    65
 73
     4
 40
10.16
 49
6.35
 74
     0
 49
-1.27
 74
     0
 49
1.27
 74
     0
 49
-1.27
 74
     0
  0
LTYPE
  5
71
330
5
100
AcDbSymbolTableRecord
100
AcDbLinetypeTableRecord
  2
CENTERX2
 70
     0
  3
Center (2x) ________  __  ________  __  _____
 72
    65
 73
     4
 40
20.32
 49
12.7
 74
     0
 49
-2.54
 74
     0
 49
2.54
 74
     0
 49
-2.54
 74
     0
  0
LTYPE
  5
72
330
5
100
AcDbSymbolTableRecord
100
AcDbLinetypeTableRecord
  2
DOT2
 70
     0
  3
Dot (.5x) ........................................
 72
    65
 73
     2
 40
0.635
 49
0.0
 74
     0
 49
-0.635
 74
     0
  0
ENDTAB
  0
TABLE
  2
LAYER
  5
2
330
0
100
AcDbSymbolTable
 70
    17
  0
LAYER
  5
10
330
2
100
AcDbSymbolTableRecord
100
AcDbLayerTableRecord
  2
0
 70
     0
 62
     7
  6
Continuous
370
    -3
390
F
  0
LAYER
  5
73
330
2
100
AcDbSymbolTableRecord
100
AcDbLayerTableRecord
  2
FORMAT
 70
     0
 62
     2
  6
Continuous
370
    -3
390
F
  0
LAYER
  5
74
330
2
100
AcDbSymbolTableRecord
100
AcDbLayerTableRecord
  2
외형선
 70
     0
 62
   100
  6
Continuous
370
    35
390
F
  0
LAYER
  5
75
330
2
100
AcDbSymbolTableRecord
100
AcDbLayerTableRecord
  2
숨은선
 70
     0
 62
     2
  6
HIDDEN
370
    25
390
F
  0
LAYER
  5
76
330
2
100
AcDbSymbolTableRecord
100
AcDbLayerTableRecord
  2
중심선
 70
     0
 62
     1
  6
CENTERX2
370
    -3
390
F
  0
LAYER
  5
77
330
2
100
AcDbSymbolTableRecord
100
AcDbLayerTableRecord
  2
파단선
 70
     0
 62
     4
  6
Continuous
370
    -3
390
F
  0
LAYER
  5
78
330
2
100
AcDbSymbolTableRecord
100
AcDbLayerTableRecord
  2
해칭선
 70
     0
 62
     4
  6
Continuous
370
    -3
390
F
  0
LAYER
  5
79
330
2
100
AcDbSymbolTableRecord
100
AcDbLayerTableRecord
  2
가는실선
 70
     0
 62
     4
  6
Continuous
370
    -3
390
F
  0
LAYER
  5
7A
330
2
100
AcDbSymbolTableRecord
100
AcDbLayerTableRecord
  2
치수_보조선
 70
     0
 62
     4
  6
Continuous
370
    -3
390
F
  0
LAYER
  5
7B
330
2
100
AcDbSymbolTableRecord
100
AcDbLayerTableRecord
  2
치수문자_일반주서
 70
     0
 62
     7
  6
Continuous
370
    25
390
F
  0
LAYER
  5
7C
330
2
100
AcDbSymbolTableRecord
100
AcDbLayerTableRecord
  2
개별주서
 70
     0
 62
   100
  6
Continuous
370
    35
390
F
  0
LAYER
  5
7D
330
2
100
AcDbSymbolTableRecord
100
AcDbLayerTableRecord
  2
중간선
 70
     0
 62
     2
  6
Continuous
370
    25
390
F
  0
LAYER
  5
7E
330
2
100
AcDbSymbolTableRecord
100
AcDbLayerTableRecord
  2
윤곽선
 70
     0
 62
     3
  6
Continuous
370
    50
390
F
  0
LAYER
  5
7F
330
2
100
AcDbSymbolTableRecord
100
AcDbLayerTableRecord
  2
중심마크
 70
     0
 62
   100
  6
Continuous
370
    35
390
F
  0
LAYER
  5
80
330
2
100
AcDbSymbolTableRecord
100
AcDbLayerTableRecord
  2
가상선
 70
     0
 62
     4
  6
PHANTOM
370
    -3
390
F
  0
LAYER
  5
81
330
2
100
AcDbSymbolTableRecord
100
AcDbLayerTableRecord
  2
특수지정선
 70
     0
 62
     5
  6
CENTERX2
370
    70
390
F
  0
LAYER
  5
152
330
2
100
AcDbSymbolTableRecord
100
AcDbLayerTableRecord
  2
Defpoints
 70
     0
 62
     7
  6
Continuous
290
     0
370
    -3
390
F
  0
ENDTAB
  0
TABLE
  2
STYLE
  5
3
330
0
100
AcDbSymbolTable
 70
     2
  0
STYLE
  5
11
330
3
100
AcDbSymbolTableRecord
100
AcDbTextStyleTableRecord
  2
Standard
 70
     0
 40
0.0
 41
1.0
 50
0.0
 71
     0
 42
3.5
  3
txt
  4

  0
STYLE
  5
97
330
3
100
AcDbSymbolTableRecord
100
AcDbTextStyleTableRecord
  2
SLDTEXTSTYLE0
 70
     0
 40
0.0
 41
0.75
 50
0.0
 71
     0
 42
3.5
  3
TXT
  4

  0
ENDTAB
  0
TABLE
  2
VIEW
  5
6
330
0
100
AcDbSymbolTable
 70
     0
  0
ENDTAB
  0
TABLE
  2
UCS
  5
7
330
0
100
AcDbSymbolTable
 70
     0
  0
ENDTAB
  0
TABLE
  2
APPID
  5
9
330
0
100
AcDbSymbolTable
 70
     2
  0
APPID
  5
12
330
9
100
AcDbSymbolTableRecord
100
AcDbRegAppTableRecord
  2
ACAD
 70
     0
  0
APPID
  5
344
330
9
100
AcDbSymbolTableRecord
100
AcDbRegAppTableRecord
  2
ACAD_DSTYLE_DIMRADIAL_EXTENSION
 70
     0
  0
ENDTAB
  0
TABLE
  2
DIMSTYLE
  5
A
330
0
100
AcDbSymbolTable
 70
     4
100
AcDbDimStyleTable
  0
DIMSTYLE
105
27
330
A
100
AcDbSymbolTableRecord
100
AcDbDimStyleTableRecord
  2
ISO-25
 70
     0
 41
2.5
 42
0.625
 43
3.75
 44
1.25
 73
     0
 74
     0
 77
     1
 78
     8
140
2.5
141
2.5
143
0.03937007874016
147
0.625
171
     3
172
     1
178
     0
271
     2
272
     2
274
     3
278
    44
283
     0
284
     8
340
11
  0
DIMSTYLE
105
E9
102
{ACAD_REACTORS
330
188
330
1B1
330
27D
330
2A6
330
2E7
330
2EA
102
}
330
A
100
AcDbSymbolTableRecord
100
AcDbDimStyleTableRecord
  2
SLDDIMSTYLE0
 70
     0
 41
3.302
 44
0.0
 45
0.000000001
 73
     0
 74
     0
 77
     1
 78
    12
 79
     3
140
3.5
147
0.875
172
     1
173
     1
178
     0
271
     2
272
     2
276
     2
284
    12
289
     0
340
97
  0
DIMSTYLE
105
F7
102
{ACAD_REACTORS
330
195
330
1C1
330
28A
330
2B6
330
2E8
330
2EB
330
37F
330
3AB
102
}
330
A
100
AcDbSymbolTableRecord
100
AcDbDimStyleTableRecord
  2
SLDDIMSTYLE1
 70
     0
 41
3.302
 44
0.0
 45
0.000000001
 73
     0
 74
     0
 77
     1
140
3.5
147
0.875
172
     1
173
     1
178
     0
271
     2
272
     2
276
     2
284
    12
289
     0
340
97
  0
DIMSTYLE
105
104
102
{ACAD_REACTORS
330
1A4
330
299
330
2E9
102
}
330
A
100
AcDbSymbolTableRecord
100
AcDbDimStyleTableRecord
  2
SLDDIMSTYLE2
 70
     0
 41
3.302
 44
0.0
 45
0.000000001
 73
     0
 74
     0
 77
     1
 78
    12
 79
     3
140
3.5
147
0.875
173
     1
178
     0
271
     2
272
     2
276
     2
284
    12
340
97
  0
ENDTAB
  0
TABLE
  2
BLOCK_RECORD
  5
1
330
0
100
AcDbSymbolTable
 70
    33
  0
BLOCK_RECORD
  5
1F
330
1
100
AcDbSymbolTableRecord
100
AcDbBlockTableRecord
  2
*Model_Space
340
22
  0
BLOCK_RECORD
  5
1B
330
1
100
AcDbSymbolTableRecord
100
AcDbBlockTableRecord
  2
*Paper_Space
340
1E
  0
BLOCK_RECORD
  5
23
330
1
100
AcDbSymbolTableRecord
100
AcDbBlockTableRecord
  2
*Paper_Space0
340
26
  0
BLOCK_RECORD
  5
82
330
1
100
AcDbSymbolTableRecord
100
AcDbBlockTableRecord
  2
블럭10
340
0
102
{BLKREFS
331
E1
102
}
  0
BLOCK_RECORD
  5
EA
330
1
100
AcDbSymbolTableRecord
100
AcDbBlockTableRecord
  2
_D
340
0
  0
BLOCK_RECORD
  5
F8
330
1
100
AcDbSymbolTableRecord
100
AcDbBlockTableRecord
  2
_D_1
340
0
  0
BLOCK_RECORD
  5
105
330
1
100
AcDbSymbolTableRecord
100
AcDbBlockTableRecord
  2
_D_2
340
0
  0
BLOCK_RECORD
  5
10F
330
1
100
AcDbSymbolTableRecord
100
AcDbBlockTableRecord
  2
_D_3
340
0
  0
BLOCK_RECORD
  5
11B
330
1
100
AcDbSymbolTableRecord
100
AcDbBlockTableRecord
  2
_D_4
340
0
  0
BLOCK_RECORD
  5
127
330
1
100
AcDbSymbolTableRecord
100
AcDbBlockTableRecord
  2
SW_DOWELSYMBOL_0
340
0
102
{BLKREFS
331
0
331
1D0
331
0
331
2C5
331
2EC
102
}
  0
BLOCK_RECORD
  5
189
330
1
100
AcDbSymbolTableRecord
100
AcDbBlockTableRecord
  2
*D9
340
0
  0
BLOCK_RECORD
  5
196
330
1
100
AcDbSymbolTableRecord
100
AcDbBlockTableRecord
  2
*D10
340
0
  0
BLOCK_RECORD
  5
1A5
330
1
100
AcDbSymbolTableRecord
100
AcDbBlockTableRecord
  2
*D11
340
0
  0
BLOCK_RECORD
  5
1B2
330
1
100
AcDbSymbolTableRecord
100
AcDbBlockTableRecord
  2
*D12
340
0
  0
BLOCK_RECORD
  5
1C2
330
1
100
AcDbSymbolTableRecord
100
AcDbBlockTableRecord
  2
*D13
340
0
  0
BLOCK_RECORD
  5
203
330
1
100
AcDbSymbolTableRecord
100
AcDbBlockTableRecord
  2
*D14
340
0
  0
BLOCK_RECORD
  5
20F
330
1
100
AcDbSymbolTableRecord
100
AcDbBlockTableRecord
  2
*D15
340
0
  0
BLOCK_RECORD
  5
21E
330
1
100
AcDbSymbolTableRecord
100
AcDbBlockTableRecord
  2
*D16
340
0
  0
BLOCK_RECORD
  5
22A
330
1
100
AcDbSymbolTableRecord
100
AcDbBlockTableRecord
  2
*D17
340
0
  0
BLOCK_RECORD
  5
239
330
1
100
AcDbSymbolTableRecord
100
AcDbBlockTableRecord
  2
*D18
340
0
  0
BLOCK_RECORD
  5
27E
330
1
100
AcDbSymbolTableRecord
100
AcDbBlockTableRecord
  2
*D20
340
0
  0
BLOCK_RECORD
  5
28B
330
1
100
AcDbSymbolTableRecord
100
AcDbBlockTableRecord
  2
*D21
340
0
  0
BLOCK_RECORD
  5
29A
330
1
100
AcDbSymbolTableRecord
100
AcDbBlockTableRecord
  2
*D22
340
0
  0
BLOCK_RECORD
  5
2A7
330
1
100
AcDbSymbolTableRecord
100
AcDbBlockTableRecord
  2
*D23
340
0
  0
BLOCK_RECORD
  5
2B7
330
1
100
AcDbSymbolTableRecord
100
AcDbBlockTableRecord
  2
*D24
340
0
  0
BLOCK_RECORD
  5
2F8
330
1
100
AcDbSymbolTableRecord
100
AcDbBlockTableRecord
  2
*D25
340
0
  0
BLOCK_RECORD
  5
304
330
1
100
AcDbSymbolTableRecord
100
AcDbBlockTableRecord
  2
*D26
340
0
  0
BLOCK_RECORD
  5
313
330
1
100
AcDbSymbolTableRecord
100
AcDbBlockTableRecord
  2
*D27
340
0
  0
BLOCK_RECORD
  5
31F
330
1
100
AcDbSymbolTableRecord
100
AcDbBlockTableRecord
  2
*D28
340
0
  0
BLOCK_RECORD
  5
32E
330
1
100
AcDbSymbolTableRecord
100
AcDbBlockTableRecord
  2
*D29
340
0
  0
BLOCK_RECORD
  5
382
330
1
100
AcDbSymbolTableRecord
100
AcDbBlockTableRecord
  2
*D31
340
0
  0
BLOCK_RECORD
  5
3AE
330
1
100
AcDbSymbolTableRecord
100
AcDbBlockTableRecord
  2
*D32
340
0
  0
ENDTAB
  0
ENDSEC
  0
SECTION
  2
BLOCKS
  0
BLOCK
  5
20
330
1F
100
AcDbEntity
  8
0
100
AcDbBlockBegin
  2
*Model_Space
 70
     0
 10
0.0
 20
0.0
 30
0.0
  3
*Model_Space
  1
*Model_Space
  0
ENDBLK
  5
21
330
1F
100
AcDbEntity
  8
0
100
AcDbBlockEnd
  0
BLOCK
  5
1C
330
1B
100
AcDbEntity
 67
     1
  8
0
100
AcDbBlockBegin
  2
*Paper_Space
 70
     0
 10
0.0
 20
0.0
 30
0.0
  3
*Paper_Space
  1
*Paper_Space
  0
ENDBLK
  5
1D
330
1B
100
AcDbEntity
 67
     1
  8
0
100
AcDbBlockEnd
  0
BLOCK
  5
24
330
23
100
AcDbEntity
  8
0
100
AcDbBlockBegin
  2
*Paper_Space0
 70
     0
 10
0.0
 20
0.0
 30
0.0
  3
*Paper_Space0
  1
*Paper_Space0
  0
ENDBLK
  5
25
330
23
100
AcDbEntity
  8
0
100
AcDbBlockEnd
  0
BLOCK
  5
83
330
82
100
AcDbEntity
  8
0
100
AcDbBlockBegin
  2
블럭10
 70
     2
 10
0.0
 20
0.0
 30
0.0
  3
블럭10
  1
블럭10
  0
ELLIPSE
  5
85
330
82
100
AcDbEntity
  8
중심선
100
AcDbEllipse
 10
20.54032771741204
 20
12.0471743016438
 30
0.0
 11
6.600054785286829
 21
-1.261213355974178E-13
 31
0.0
210
0.0
220
0.0
230
1.0
 40
0.636358354079598
 41
0.9219305317359503
 42
6.513795318482858
  0
ELLIPSE
  5
86
330
82
100
AcDbEntity
  8
중심선
100
AcDbEllipse
 10
20.54032771746488
 20
12.04717430159265
 30
0.0
 11
3.960054785062283
 21
1.540847449632565E-10
 31
0.0
210
0.0
220
0.0
230
1.0
 40
0.3939339440162632
 41
1.131841032648279
 42
5.62031148352944
  0
LINE
  5
87
330
82
100
AcDbEntity
  8
중심선
100
AcDbLine
 10
2.268634060543552
 20
16.24717430164393
 30
0.0
 11
5.714909304380834
 21
16.24717430164393
 31
0.0
  0
LINE
  5
88
330
82
100
AcDbEntity
  8
중심선
100
AcDbLine
 10
5.245725140726316
 20
7.84717430164391
 30
0.0
 11
8.692000384563599
 21
7.84717430164391
 31
0.0
  0
LINE
  5
89
330
82
100
AcDbEntity
  8
중심선
100
AcDbLine
 10
15.74043728645272
 20
16.24717430164393
 30
0.0
 11
8.692000384563599
 21
7.84717430164391
 31
0.0
  0
LINE
  5
8A
330
82
100
AcDbEntity
  8
중심선
100
AcDbLine
 10
0.1404042013395286
 20
13.71084872107135
 30
0.0
 11
3.58671253028996
 21
13.71088815037384
 31
0.0
  0
LINE
  5
8B
330
82
100
AcDbEntity
  8
중심선
100
AcDbLine
 10
2.750260043222114
 20
10.84717430164391
 30
0.0
 11
6.196535287059397
 21
10.84717430164391
 31
0.0
  0
LINE
  5
8C
330
82
100
AcDbEntity
  8
중심선
100
AcDbLine
 10
12.29416204261559
 20
16.24717430164393
 30
0.0
 11
5.245725140726316
 21
7.84717430164391
 31
0.0
  0
LINE
  5
8D
330
82
100
AcDbEntity
  8
중심선
100
AcDbLine
 10
10.72767329541681
 20
16.24717430164393
 30
0.0
 11
6.196535287059397
 21
10.84717430164391
 31
0.0
  0
LINE
  5
8E
330
82
100
AcDbEntity
  8
중심선
100
AcDbLine
 10
7.28139805157953
 20
16.24717430164393
 30
0.0
 11
2.750260043222114
 21
10.84717430164391
 31
0.0
  0
LINE
  5
8F
330
82
100
AcDbEntity
  8
중심선
100
AcDbLine
 10
5.714909304380834
 20
16.24717430164393
 30
0.0
 11
3.58671253028996
 21
13.71088815037384
 31
0.0
  0
LINE
  5
90
330
82
100
AcDbEntity
  8
중심선
100
AcDbLine
 10
2.268634060543552
 20
16.24717430164393
 30
0.0
 11
0.1404042013395286
 21
13.71084872107135
 31
0.0
  0
LINE
  5
91
330
82
100
AcDbEntity
  8
중심선
100
AcDbLine
 10
7.28139805157953
 20
16.24717430164393
 30
0.0
 11
10.72767329541681
 21
16.24717430164393
 31
0.0
  0
LINE
  5
92
330
82
100
AcDbEntity
  8
중심선
100
AcDbLine
 10
12.29416204261559
 20
16.24717430164393
 30
0.0
 11
15.74043728645272
 21
16.24717430164393
 31
0.0
  0
LINE
  5
93
330
82
100
AcDbEntity
  8
중심선
100
AcDbLine
 10
19.22036997980202
 20
11.08717430171403
 30
0.0
 11
23.66174974927406
 21
11.08717430171406
 31
0.0
  0
LINE
  5
94
330
82
100
AcDbEntity
  8
중심선
100
AcDbLine
 10
19.22039502424796
 20
13.00717430171391
 30
0.0
 11
19.22036997980202
 21
11.08717430171403
 31
0.0
  0
LINE
  5
95
330
82
100
AcDbEntity
  8
중심선
100
AcDbLine
 10
19.22039502424796
 20
13.00717430171391
 30
0.0
 11
26.96566020931264
 21
13.00717430171391
 31
0.0
  0
LINE
  5
96
330
82
100
AcDbEntity
  8
중심선
100
AcDbLine
 10
22.22332737316547
 20
13.45928029700563
 30
0.0
 11
24.52862924686651
 21
15.39360700705356
 31
0.0
  0
ATTDEF
  5
98
330
82
100
AcDbEntity
  8
FORMAT
 62
     2
100
AcDbText
 10
-19.27858288401334
 20
2.075366912832191
 30
0.0
 40
4.233333333333333
  1
SEME610060204E [ 2 FLUTE ]
 41
0.75
  7
SLDTEXTSTYLE0
 11
-19.27858288401334
 21
-0.0412997538344756
 31
0.0
100
AcDbAttributeDefinition
  3

  2
AUTOATTR0
 70
     0
 74
     1
  0
ENDBLK
  5
84
330
82
100
AcDbEntity
  8
0
100
AcDbBlockEnd
  0
BLOCK
  5
EB
330
EA
100
AcDbEntity
  8
0
100
AcDbBlockBegin
  2
_D
 70
     0
 10
0.0
 20
0.0
 30
0.0
  3
_D
  1
_D
  0
SOLID
  5
ED
330
EA
100
AcDbEntity
  8
치수문자_일반주서
100
AcDbTrace
 10
-42.00250885508845
 20
2.001074928723888
 30
0.0
 11
-41.49450885508845
 21
5.303074928723888
 31
0.0
 12
-42.51050885508845
 22
5.303074928723888
 32
0.0
 13
-42.51050885508845
 23
5.303074928723888
 33
0.0
  0
SOLID
  5
EE
330
EA
100
AcDbEntity
  8
치수문자_일반주서
100
AcDbTrace
 10
-42.00250885508845
 20
-1.998925071276106
 30
0.0
 11
-42.51050885508845
 21
-5.300925071276106
 31
0.0
 12
-41.49450885508845
 22
-5.300925071276106
 32
0.0
 13
-41.49450885508845
 23
-5.300925071276106
 33
0.0
  0
LINE
  5
EF
330
EA
100
AcDbEntity
  8
치수문자_일반주서
100
AcDbLine
 10
-30.50605083347638
 20
2.001074928723888
 30
0.0
 11
-43.00250885508845
 21
2.001074928723888
 31
0.0
  0
LINE
  5
F0
330
EA
100
AcDbEntity
  8
치수문자_일반주서
100
AcDbLine
 10
-30.50605083347638
 20
-1.998925071276106
 30
0.0
 11
-43.00250885508845
 21
-1.998925071276106
 31
0.0
  0
LINE
  5
F1
330
EA
100
AcDbEntity
  8
치수문자_일반주서
100
AcDbLine
 10
-42.00250885508845
 20
2.001074928723888
 30
0.0
 11
-42.00250885508845
 21
8.351074928723888
 31
0.0
  0
LINE
  5
F2
330
EA
100
AcDbEntity
  8
치수문자_일반주서
100
AcDbLine
 10
-42.00250885508845
 20
2.001074928723888
 30
0.0
 11
-42.00250885508845
 21
-1.998925071276106
 31
0.0
  0
LINE
  5
F3
330
EA
100
AcDbEntity
  8
치수문자_일반주서
100
AcDbLine
 10
-42.00250885508845
 20
-1.998925071276106
 30
0.0
 11
-42.00250885508845
 21
-8.348925071276106
 31
0.0
  0
MTEXT
  5
F4
330
EA
100
AcDbEntity
  8
치수문자_일반주서
100
AcDbMText
 10
-46.51424594429028
 20
-3.931199483639881
 30
0.0
 40
3.5
 41
0.0
 71
     1
 72
     1
  1
%%c
  7
SLDTEXTSTYLE0
 11
-7.044195017643634E-15
 21
1.0
 31
0.0
 73
     1
 44
1.0
  0
MTEXT
  5
F5
330
EA
100
AcDbEntity
  8
치수문자_일반주서
100
AcDbMText
 10
-46.56771812095017
 20
1.3472379147342
 30
0.0
 40
3.5
 41
0.0
 71
     1
 72
     1
  1
4
  7
SLDTEXTSTYLE0
 11
-7.044195017643634E-15
 21
1.0
 31
0.0
 73
     1
 44
1.0
  0
ENDBLK
  5
EC
330
EA
100
AcDbEntity
  8
0
100
AcDbBlockEnd
  0
BLOCK
  5
F9
330
F8
100
AcDbEntity
  8
0
100
AcDbBlockBegin
  2
_D_1
 70
     0
 10
0.0
 20
0.0
 30
0.0
  3
_D_1
  1
_D_1
  0
SOLID
  5
FB
330
F8
100
AcDbEntity
  8
치수문자_일반주서
100
AcDbTrace
 10
14.49394916652362
 20
18.60107492872355
 30
0.0
 11
17.79594916652361
 21
18.09307492872355
 31
0.0
 12
17.79594916652361
 22
19.10907492872355
 32
0.0
 13
17.79594916652361
 23
19.10907492872355
 33
0.0
  0
SOLID
  5
FC
330
F8
100
AcDbEntity
  8
치수문자_일반주서
100
AcDbTrace
 10
13.59394916652361
 20
18.60107492872355
 30
0.0
 11
10.29194916652361
 21
19.10907492872355
 31
0.0
 12
10.29194916652361
 22
18.09307492872355
 32
0.0
 13
10.29194916652361
 23
18.09307492872355
 33
0.0
  0
LINE
  5
FD
330
F8
100
AcDbEntity
  8
치수문자_일반주서
100
AcDbLine
 10
14.49394916652362
 20
1.101074928723894
 30
0.0
 11
14.49394916652362
 21
19.60107492872355
 31
0.0
  0
LINE
  5
FE
330
F8
100
AcDbEntity
  8
치수문자_일반주서
100
AcDbLine
 10
13.59394916652361
 20
1.2382786090212
 30
0.0
 11
13.59394916652361
 21
19.60107492872355
 31
0.0
  0
LINE
  5
FF
330
F8
100
AcDbEntity
  8
치수문자_일반주서
100
AcDbLine
 10
14.49394916652362
 20
18.60107492872355
 30
0.0
 11
20.00405633874347
 21
18.60107492872355
 31
0.0
  0
LINE
  5
100
330
F8
100
AcDbEntity
  8
치수문자_일반주서
100
AcDbLine
 10
14.49394916652362
 20
18.60107492872355
 30
0.0
 11
13.59394916652361
 21
18.60107492872355
 31
0.0
  0
LINE
  5
101
330
F8
100
AcDbEntity
  8
치수문자_일반주서
100
AcDbLine
 10
13.59394916652361
 20
18.60107492872355
 30
0.0
 11
7.243949166523614
 21
18.60107492872355
 31
0.0
  0
MTEXT
  5
102
330
F8
100
AcDbEntity
  8
치수문자_일반주서
100
AcDbMText
 10
10.95266727782895
 20
23.11281184330245
 30
0.0
 40
3.5
 41
0.0
 71
     1
 72
     1
  1
0.90
  7
SLDTEXTSTYLE0
 73
     1
 44
1.0
  0
ENDBLK
  5
FA
330
F8
100
AcDbEntity
  8
0
100
AcDbBlockEnd
  0
BLOCK
  5
106
330
105
100
AcDbEntity
  8
0
100
AcDbBlockBegin
  2
_D_2
 70
     0
 10
0.0
 20
0.0
 30
0.0
  3
_D_2
  1
_D_2
  0
SOLID
  5
108
330
105
100
AcDbEntity
  8
치수문자_일반주서
100
AcDbTrace
 10
14.49394916652362
 20
40.65939943376819
 30
0.0
 11
11.19194916652362
 21
41.16739943376819
 31
0.0
 12
11.19194916652362
 22
40.15139943376818
 32
0.0
 13
11.19194916652362
 23
40.15139943376818
 33
0.0
  0
SOLID
  5
109
330
105
100
AcDbEntity
  8
치수문자_일반주서
100
AcDbTrace
 10
-30.50605083347638
 20
40.65939943376819
 30
0.0
 11
-27.20405083347638
 21
40.15139943376818
 31
0.0
 12
-27.20405083347638
 22
41.16739943376819
 32
0.0
 13
-27.20405083347638
 23
41.16739943376819
 33
0.0
  0
LINE
  5
10A
330
105
100
AcDbEntity
  8
치수문자_일반주서
100
AcDbLine
 10
14.49394916652362
 20
1.101074928723894
 30
0.0
 11
14.49394916652362
 21
41.65939943376819
 31
0.0
  0
LINE
  5
10B
330
105
100
AcDbEntity
  8
치수문자_일반주서
100
AcDbLine
 10
-30.50605083347638
 20
2.001074928723888
 30
0.0
 11
-30.50605083347638
 21
41.65939943376819
 31
0.0
  0
LINE
  5
10C
330
105
100
AcDbEntity
  8
치수문자_일반주서
100
AcDbLine
 10
14.49394916652362
 20
40.65939943376819
 30
0.0
 11
-30.50605083347638
 21
40.65939943376819
 31
0.0
  0
MTEXT
  5
10D
330
105
100
AcDbEntity
  8
치수문자_일반주서
100
AcDbMText
 10
-10.5921620269992
 20
45.17113634834708
 30
0.0
 40
3.5
 41
0.0
 71
     1
 72
     1
  1
45
  7
SLDTEXTSTYLE0
 73
     1
 44
1.0
  0
ENDBLK
  5
107
330
105
100
AcDbEntity
  8
0
100
AcDbBlockEnd
  0
BLOCK
  5
110
330
10F
100
AcDbEntity
  8
0
100
AcDbBlockBegin
  2
_D_3
 70
     0
 10
0.0
 20
0.0
 30
0.0
  3
_D_3
  1
_D_3
  0
SOLID
  5
112
330
10F
100
AcDbEntity
  8
치수문자_일반주서
100
AcDbTrace
 10
13.49394916652351
 20
30.12107492872394
 30
0.0
 11
16.79594916652351
 21
29.61307492872395
 31
0.0
 12
16.79594916652351
 22
30.62907492872395
 32
0.0
 13
16.79594916652351
 23
30.62907492872395
 33
0.0
  0
SOLID
  5
113
330
10F
100
AcDbEntity
  8
치수문자_일반주서
100
AcDbTrace
 10
10.30734662614507
 20
30.12107492872393
 30
0.0
 11
7.005346626145066
 21
30.62907492872392
 31
0.0
 12
7.005346626145069
 22
29.61307492872392
 32
0.0
 13
7.005346626145069
 23
29.61307492872392
 33
0.0
  0
LINE
  5
114
330
10F
100
AcDbEntity
  8
치수문자_일반주서
100
AcDbLine
 10
13.49394916652361
 20
1.201074928723894
 30
0.0
 11
13.49394916652351
 21
31.12107492872394
 31
0.0
  0
LINE
  5
115
330
10F
100
AcDbEntity
  8
치수문자_일반주서
100
AcDbLine
 10
10.30734662614517
 20
1.061199803428677
 30
0.0
 11
10.30734662614506
 21
31.12107492872393
 31
0.0
  0
LINE
  5
116
330
10F
100
AcDbEntity
  8
치수문자_일반주서
100
AcDbLine
 10
13.49394916652351
 20
30.12107492872394
 30
0.0
 11
45.12480835498598
 21
30.12107492872405
 31
0.0
  0
LINE
  5
117
330
10F
100
AcDbEntity
  8
치수문자_일반주서
100
AcDbLine
 10
13.49394916652351
 20
30.12107492872394
 30
0.0
 11
10.30734662614507
 21
30.12107492872393
 31
0.0
  0
LINE
  5
118
330
10F
100
AcDbEntity
  8
치수문자_일반주서
100
AcDbLine
 10
10.30734662614507
 20
30.12107492872393
 30
0.0
 11
3.957346626145067
 21
30.12107492872391
 31
0.0
  0
MTEXT
  5
119
330
10F
100
AcDbEntity
  8
치수문자_일반주서
100
AcDbMText
 10
36.07341929407147
 20
34.63281184330295
 30
0.0
 40
3.5
 41
0.0
 71
     1
 72
     1
  1
3.19
  7
SLDTEXTSTYLE0
 73
     1
 44
1.0
  0
ENDBLK
  5
111
330
10F
100
AcDbEntity
  8
0
100
AcDbBlockEnd
  0
BLOCK
  5
11C
330
11B
100
AcDbEntity
  8
0
100
AcDbBlockBegin
  2
_D_4
 70
     0
 10
0.0
 20
0.0
 30
0.0
  3
_D_4
  1
_D_4
  0
SOLID
  5
11E
330
11B
100
AcDbEntity
  8
치수문자_일반주서
100
AcDbTrace
 10
34.30059833193547
 20
0.2510749287239238
 30
0.0
 11
34.80859833193546
 21
3.553074928723924
 31
0.0
 12
33.79259833193546
 22
3.553074928723922
 32
0.0
 13
33.79259833193546
 23
3.553074928723922
 33
0.0
  0
SOLID
  5
11F
330
11B
100
AcDbEntity
  8
치수문자_일반주서
100
AcDbTrace
 10
34.30059833193548
 20
-0.2457884678290603
 30
0.0
 11
33.79259833193548
 21
-3.547788467829061
 31
0.0
 12
34.80859833193549
 22
-3.547788467829059
 32
0.0
 13
34.80859833193549
 23
-3.547788467829059
 33
0.0
  0
LINE
  5
120
330
11B
100
AcDbEntity
  8
치수문자_일반주서
100
AcDbLine
 10
17.44394916652362
 20
0.2510749287238954
 30
0.0
 11
35.30059833193547
 21
0.2510749287239255
 31
0.0
  0
LINE
  5
121
330
11B
100
AcDbEntity
  8
치수문자_일반주서
100
AcDbLine
 10
17.44394916652362
 20
-0.2457884678290887
 30
0.0
 11
35.30059833193548
 21
-0.2457884678290586
 31
0.0
  0
LINE
  5
122
330
11B
100
AcDbEntity
  8
치수문자_일반주서
100
AcDbLine
 10
34.30059833193547
 20
0.2510749287239238
 30
0.0
 11
34.30059833193538
 21
6.601074928723923
 31
0.0
  0
LINE
  5
123
330
11B
100
AcDbEntity
  8
치수문자_일반주서
100
AcDbLine
 10
34.30059833193547
 20
0.2510749287239238
 30
0.0
 11
34.30059833193548
 21
-0.2457884678290603
 31
0.0
  0
LINE
  5
124
330
11B
100
AcDbEntity
  8
치수문자_일반주서
100
AcDbLine
 10
34.30059833193548
 20
-0.2457884678290603
 30
0.0
 11
34.30059833193558
 21
-8.35659775097388
 31
0.0
  0
MTEXT
  5
125
330
11B
100
AcDbEntity
  8
치수문자_일반주서
100
AcDbMText
 10
29.78886124273366
 20
-8.356597750973934
 30
0.0
 40
3.5
 41
0.0
 71
     1
 72
     1
  1
%%c
  7
SLDTEXTSTYLE0
 11
-8.820551857043885E-15
 21
1.0
 31
0.0
 73
     1
 44
1.0
  0
MTEXT
  5
126
330
11B
100
AcDbEntity
  8
치수문자_일반주서
100
AcDbMText
 10
29.73538906607376
 20
-3.078160352599854
 30
0.0
 40
3.5
 41
0.0
 71
     1
 72
     1
  1
0.50
  7
SLDTEXTSTYLE0
 11
-8.820551857043885E-15
 21
1.0
 31
0.0
 73
     1
 44
1.0
  0
ENDBLK
  5
11D
330
11B
100
AcDbEntity
  8
0
100
AcDbBlockEnd
  0
BLOCK
  5
128
330
127
100
AcDbEntity
  8
0
100
AcDbBlockBegin
  2
SW_DOWELSYMBOL_0
 70
     0
 10
0.0
 20
0.0
 30
0.0
  3
SW_DOWELSYMBOL_0
  1
SW_DOWELSYMBOL_0
  0
CIRCLE
  5
12A
330
127
100
AcDbEntity
  8
외형선
 62
     0
100
AcDbCircle
 10
0.0
 20
0.0
 30
0.0
 40
3.000000000000004
  0
HATCH
  5
12B
330
127
100
AcDbEntity
  8
0
  6
Continuous
 62
     0
370
    35
100
AcDbHatch
 10
0.0
 20
0.0
 30
0.0
210
0.0
220
0.0
230
1.0
  2
SOLID
 70
     1
 71
     0
 91
        1
 92
        0
 93
        3
 72
     2
 10
0.0000000000000104
 20
0.0
 40
3.000000000000004
 50
0.0
 51
90.0
 73
     1
 72
     1
 10
0.0000000000000104
 20
3.000000000000004
 11
0.0000000000000104
 21
0.0
 72
     1
 10
0.0000000000000104
 20
0.0
 11
3.000000000000015
 21
0.0
 97
        0
 75
     0
 76
     1
 98
        1
 10
0.0
 20
0.0
  0
HATCH
  5
12C
330
127
100
AcDbEntity
  8
0
  6
Continuous
 62
     0
370
    35
100
AcDbHatch
 10
0.0
 20
0.0
 30
0.0
210
0.0
220
0.0
230
1.0
  2
SOLID
 70
     1
 71
     0
 91
        1
 92
        0
 93
        3
 72
     2
 10
0.0000000000000104
 20
0.0
 40
3.000000000000004
 50
180.0
 51
270.0000000000008
 73
     1
 72
     1
 10
0.0000000000000104
 20
-3.000000000000004
 11
0.0000000000000104
 21
0.0
 72
     1
 10
0.0000000000000104
 20
0.0
 11
-2.999999999999994
 21
0.0
 97
        0
 75
     0
 76
     1
 98
        1
 10
0.0
 20
0.0
  0
ENDBLK
  5
129
330
127
100
AcDbEntity
  8
0
100
AcDbBlockEnd
  0
BLOCK
  5
18A
330
189
100
AcDbEntity
  8
0
100
AcDbBlockBegin
  2
*D9
 70
     1
 10
0.0
 20
0.0
 30
0.0
  3
*D9
  1
*D9
  0
LINE
  5
18B
330
189
100
AcDbEntity
  8
치수문자_일반주서
 62
     0
370
    -2
100
AcDbLine
 10
16.80895802161217
 20
8.90112779705629
 30
0.0
 11
4.374999999999993
 21
8.901127797056244
 31
0.0
  0
LINE
  5
18C
330
189
100
AcDbEntity
  8
치수문자_일반주서
 62
     0
370
    -2
100
AcDbLine
 10
16.80895802161217
 20
4.90112779705629
 30
0.0
 11
4.375000000000007
 21
4.901127797056244
 31
0.0
  0
LINE
  5
18D
330
189
100
AcDbEntity
  8
치수문자_일반주서
 62
     0
370
    -2
100
AcDbLine
 10
4.375000000000004
 20
5.599127797056244
 30
0.0
 11
4.374999999999996
 21
8.203127797056244
 31
0.0
  0
SOLID
  5
18E
330
189
100
AcDbEntity
  8
치수문자_일반주서
 62
     0
100
AcDbTrace
 10
4.925333333333338
 20
5.599127797056246
 30
0.0
 11
3.824666666666671
 21
5.599127797056243
 31
0.0
 12
4.374999999999993
 22
8.901127797056244
 32
0.0
 13
4.374999999999993
 23
8.901127797056244
 33
0.0
  0
SOLID
  5
18F
330
189
100
AcDbEntity
  8
치수문자_일반주서
 62
     0
100
AcDbTrace
 10
3.824666666666662
 20
8.203127797056242
 30
0.0
 11
4.925333333333329
 21
8.203127797056245
 31
0.0
 12
4.375000000000007
 22
4.901127797056244
 32
0.0
 13
4.375000000000007
 23
4.901127797056244
 33
0.0
  0
MTEXT
  5
190
330
189
100
AcDbEntity
  8
치수문자_일반주서
 62
     0
100
AcDbMText
 10
0.0
 20
6.901127797056275
 30
0.0
 40
3.5
 41
0.0
 71
     2
 72
     1
  1
\A1;%%c4
  7
SLDTEXTSTYLE0
 11
-3.552713678800500E-15
 21
1.0
 31
0.0
 73
     1
 44
1.0
  0
POINT
  5
191
330
189
100
AcDbEntity
  8
Defpoints
 62
     0
100
AcDbPoint
 10
16.87145802161217
 20
8.90112779705629
 30
0.0
  0
POINT
  5
192
330
189
100
AcDbEntity
  8
Defpoints
 62
     0
100
AcDbPoint
 10
16.87145802161217
 20
4.90112779705629
 30
0.0
  0
POINT
  5
193
330
189
100
AcDbEntity
  8
Defpoints
 62
     0
100
AcDbPoint
 10
4.375
 20
4.901127797056243
 30
0.0
  0
ENDBLK
  5
194
330
189
100
AcDbEntity
  8
0
100
AcDbBlockEnd
  0
BLOCK
  5
197
330
196
100
AcDbEntity
  8
0
100
AcDbBlockBegin
  2
*D10
 70
     1
 10
0.0
 20
0.0
 30
0.0
  3
*D10
  1
*D10
  0
LINE
  5
198
330
196
100
AcDbEntity
  8
치수문자_일반주서
 62
     0
370
    -2
100
AcDbLine
 10
60.87145802161217
 20
7.21362779705629
 30
0.0
 11
60.87145802161217
 21
26.6628647116348
 31
0.0
  0
LINE
  5
199
330
196
100
AcDbEntity
  8
치수문자_일반주서
 62
     0
370
    -2
100
AcDbLine
 10
59.97145802161208
 20
7.200831477353603
 30
0.0
 11
59.97145802161208
 21
26.6628647116348
 31
0.0
  0
LINE
  5
19A
330
196
100
AcDbEntity
  8
치수문자_일반주서
 62
     0
370
    -2
100
AcDbLine
 10
60.87145802161217
 20
26.6628647116348
 30
0.0
 11
76.22545802161217
 21
26.6628647116348
 31
0.0
  0
LINE
  5
19B
330
196
100
AcDbEntity
  8
치수문자_일반주서
 62
     0
370
    -2
100
AcDbLine
 10
60.87145802161217
 20
26.6628647116348
 30
0.0
 11
59.97145802161208
 21
26.6628647116348
 31
0.0
  0
LINE
  5
19C
330
196
100
AcDbEntity
  8
치수문자_일반주서
 62
     0
370
    -2
100
AcDbLine
 10
64.17345802161216
 20
26.6628647116348
 30
0.0
 11
67.47545802161216
 21
26.6628647116348
 31
0.0
  0
LINE
  5
19D
330
196
100
AcDbEntity
  8
치수문자_일반주서
 62
     0
370
    -2
100
AcDbLine
 10
56.66945802161208
 20
26.6628647116348
 30
0.0
 11
53.36745802161208
 21
26.6628647116348
 31
0.0
  0
SOLID
  5
19E
330
196
100
AcDbEntity
  8
치수문자_일반주서
 62
     0
100
AcDbTrace
 10
64.17345802161216
 20
27.21319804496813
 30
0.0
 11
64.17345802161216
 21
26.11253137830146
 31
0.0
 12
60.87145802161217
 22
26.6628647116348
 32
0.0
 13
60.87145802161217
 23
26.6628647116348
 33
0.0
  0
SOLID
  5
19F
330
196
100
AcDbEntity
  8
치수문자_일반주서
 62
     0
100
AcDbTrace
 10
56.66945802161208
 20
26.11253137830146
 30
0.0
 11
56.66945802161208
 21
27.21319804496813
 31
0.0
 12
59.97145802161208
 22
26.6628647116348
 32
0.0
 13
59.97145802161208
 23
26.6628647116348
 33
0.0
  0
MTEXT
  5
1A0
330
196
100
AcDbEntity
  8
치수문자_일반주서
 62
     0
100
AcDbMText
 10
71.85045802161217
 20
31.0378647116348
 30
0.0
 40
3.5
 41
0.0
 71
     2
 72
     1
  1
\A1;0.90
  7
SLDTEXTSTYLE0
 73
     1
 44
1.0
  0
POINT
  5
1A1
330
196
100
AcDbEntity
  8
Defpoints
 62
     0
100
AcDbPoint
 10
60.87145802161217
 20
7.15112779705629
 30
0.0
  0
POINT
  5
1A2
330
196
100
AcDbEntity
  8
Defpoints
 62
     0
100
AcDbPoint
 10
59.97145802161208
 20
7.138331477353603
 30
0.0
  0
POINT
  5
1E4
330
196
100
AcDbEntity
  8
Defpoints
 62
     0
100
AcDbPoint
 10
59.97145802161208
 20
26.6628647116348
 30
0.0
  0
ENDBLK
  5
1A3
330
196
100
AcDbEntity
  8
0
100
AcDbBlockEnd
  0
BLOCK
  5
1A6
330
1A5
100
AcDbEntity
  8
0
100
AcDbBlockBegin
  2
*D11
 70
     1
 10
0.0
 20
0.0
 30
0.0
  3
*D11
  1
*D11
  0
LINE
  5
1A7
330
1A5
100
AcDbEntity
  8
치수문자_일반주서
 62
     0
370
    -2
100
AcDbLine
 10
60.87145802161217
 20
7.21362779705629
 30
0.0
 11
60.87145802161217
 21
47.70945230210057
 31
0.0
  0
LINE
  5
1A8
330
1A5
100
AcDbEntity
  8
치수문자_일반주서
 62
     0
370
    -2
100
AcDbLine
 10
15.87145802161217
 20
7.96362779705629
 30
0.0
 11
15.87145802161217
 21
47.70945230210057
 31
0.0
  0
LINE
  5
1A9
330
1A5
100
AcDbEntity
  8
치수문자_일반주서
 62
     0
370
    -2
100
AcDbLine
 10
57.56945802161217
 20
47.70945230210057
 30
0.0
 11
19.17345802161217
 21
47.70945230210057
 31
0.0
  0
SOLID
  5
1AA
330
1A5
100
AcDbEntity
  8
치수문자_일반주서
 62
     0
100
AcDbTrace
 10
57.56945802161217
 20
47.15911896876724
 30
0.0
 11
57.56945802161217
 21
48.25978563543391
 31
0.0
 12
60.87145802161217
 22
47.70945230210057
 32
0.0
 13
60.87145802161217
 23
47.70945230210057
 33
0.0
  0
SOLID
  5
1AB
330
1A5
100
AcDbEntity
  8
치수문자_일반주서
 62
     0
100
AcDbTrace
 10
19.17345802161217
 20
48.25978563543391
 30
0.0
 11
19.17345802161217
 21
47.15911896876724
 31
0.0
 12
15.87145802161217
 22
47.70945230210057
 32
0.0
 13
15.87145802161217
 23
47.70945230210057
 33
0.0
  0
MTEXT
  5
1AC
330
1A5
100
AcDbEntity
  8
치수문자_일반주서
 62
     0
100
AcDbMText
 10
38.37145802161217
 20
52.08445230210057
 30
0.0
 40
3.5
 41
0.0
 71
     2
 72
     1
  1
\A1;45
  7
SLDTEXTSTYLE0
 73
     1
 44
1.0
  0
POINT
  5
1AD
330
1A5
100
AcDbEntity
  8
Defpoints
 62
     0
100
AcDbPoint
 10
60.87145802161217
 20
7.15112779705629
 30
0.0
  0
POINT
  5
1AE
330
1A5
100
AcDbEntity
  8
Defpoints
 62
     0
100
AcDbPoint
 10
15.87145802161217
 20
7.90112779705629
 30
0.0
  0
POINT
  5
1AF
330
1A5
100
AcDbEntity
  8
Defpoints
 62
     0
100
AcDbPoint
 10
15.87145802161217
 20
47.70945230210057
 30
0.0
  0
ENDBLK
  5
1B0
330
1A5
100
AcDbEntity
  8
0
100
AcDbBlockEnd
  0
BLOCK
  5
1B3
330
1B2
100
AcDbEntity
  8
0
100
AcDbBlockBegin
  2
*D12
 70
     1
 10
0.0
 20
0.0
 30
0.0
  3
*D12
  1
*D12
  0
LINE
  5
1B4
330
1B2
100
AcDbEntity
  8
치수문자_일반주서
 62
     0
370
    -2
100
AcDbLine
 10
60.87145802161217
 20
7.213216856023422
 30
0.0
 11
60.87145802161217
 21
37.02112779705644
 31
0.0
  0
LINE
  5
1B5
330
1B2
100
AcDbEntity
  8
치수문자_일반주서
 62
     0
370
    -2
100
AcDbLine
 10
56.87145802161217
 20
7.238627797056296
 30
0.0
 11
56.87145802161217
 21
37.02112779705644
 31
0.0
  0
LINE
  5
1B6
330
1B2
100
AcDbEntity
  8
치수문자_일반주서
 62
     0
370
    -2
100
AcDbLine
 10
60.87145802161217
 20
37.02112779705644
 30
0.0
 11
82.7266226796171
 21
37.02112779705644
 31
0.0
  0
LINE
  5
1B7
330
1B2
100
AcDbEntity
  8
치수문자_일반주서
 62
     0
370
    -2
100
AcDbLine
 10
60.87145802161217
 20
37.02112779705644
 30
0.0
 11
56.87145802161217
 21
37.02112779705644
 31
0.0
  0
LINE
  5
1B8
330
1B2
100
AcDbEntity
  8
치수문자_일반주서
 62
     0
370
    -2
100
AcDbLine
 10
64.17345802161216
 20
37.02112779705644
 30
0.0
 11
67.47545802161216
 21
37.02112779705644
 31
0.0
  0
LINE
  5
1B9
330
1B2
100
AcDbEntity
  8
치수문자_일반주서
 62
     0
370
    -2
100
AcDbLine
 10
53.56945802161217
 20
37.02112779705644
 30
0.0
 11
50.26745802161217
 21
37.02112779705644
 31
0.0
  0
SOLID
  5
1BA
330
1B2
100
AcDbEntity
  8
치수문자_일반주서
 62
     0
100
AcDbTrace
 10
64.17345802161216
 20
37.57146113038977
 30
0.0
 11
64.17345802161216
 21
36.4707944637231
 31
0.0
 12
60.87145802161217
 22
37.02112779705644
 32
0.0
 13
60.87145802161217
 23
37.02112779705644
 33
0.0
  0
SOLID
  5
1BB
330
1B2
100
AcDbEntity
  8
치수문자_일반주서
 62
     0
100
AcDbTrace
 10
53.56945802161217
 20
36.4707944637231
 30
0.0
 11
53.56945802161217
 21
37.57146113038977
 31
0.0
 12
56.87145802161217
 22
37.02112779705644
 32
0.0
 13
56.87145802161217
 23
37.02112779705644
 33
0.0
  0
MTEXT
  5
1BC
330
1B2
100
AcDbEntity
  8
치수문자_일반주서
 62
     0
100
AcDbMText
 10
80.9766226796171
 20
41.39612779705644
 30
0.0
 40
3.5
 41
0.0
 71
     2
 72
     1
  1
\A1;4
  7
SLDTEXTSTYLE0
 73
     1
 44
1.0
  0
POINT
  5
1BD
330
1B2
100
AcDbEntity
  8
Defpoints
 62
     0
100
AcDbPoint
 10
60.87145802161217
 20
7.150716856023422
 30
0.0
  0
POINT
  5
1BE
330
1B2
100
AcDbEntity
  8
Defpoints
 62
     0
100
AcDbPoint
 10
56.87145802161217
 20
7.176127797056296
 30
0.0
  0
POINT
  5
1BF
330
1B2
100
AcDbEntity
  8
Defpoints
 62
     0
100
AcDbPoint
 10
56.87145802161217
 20
37.02112779705644
 30
0.0
  0
ENDBLK
  5
1C0
330
1B2
100
AcDbEntity
  8
0
100
AcDbBlockEnd
  0
BLOCK
  5
1C3
330
1C2
100
AcDbEntity
  8
0
100
AcDbBlockBegin
  2
*D13
 70
     1
 10
0.0
 20
0.0
 30
0.0
  3
*D13
  1
*D13
  0
LINE
  5
1C4
330
1C2
100
AcDbEntity
  8
치수문자_일반주서
 62
     0
370
    -2
100
AcDbLine
 10
60.76327897280885
 20
7.202523872384148
 30
0.0
 11
74.95327385369069
 21
7.202523872384202
 31
0.0
  0
LINE
  5
1C5
330
1C2
100
AcDbEntity
  8
치수문자_일반주서
 62
     0
370
    -2
100
AcDbLine
 10
60.88395802160426
 20
6.603999999999928
 30
0.0
 11
74.95327385369069
 21
6.603999999999981
 31
0.0
  0
LINE
  5
1C6
330
1C2
100
AcDbEntity
  8
치수문자_일반주서
 62
     0
370
    -2
100
AcDbLine
 10
74.95327385369069
 20
7.202523872384202
 30
0.0
 11
74.95327385369069
 21
25.39600559411338
 31
0.0
  0
LINE
  5
1C7
330
1C2
100
AcDbEntity
  8
치수문자_일반주서
 62
     0
370
    -2
100
AcDbLine
 10
74.95327385369069
 20
7.202523872384202
 30
0.0
 11
74.95327385369069
 21
6.603999999999981
 31
0.0
  0
LINE
  5
1C8
330
1C2
100
AcDbEntity
  8
치수문자_일반주서
 62
     0
370
    -2
100
AcDbLine
 10
74.95327385369069
 20
10.5045238723842
 30
0.0
 11
74.95327385369069
 21
13.8065238723842
 31
0.0
  0
LINE
  5
1C9
330
1C2
100
AcDbEntity
  8
치수문자_일반주서
 62
     0
370
    -2
100
AcDbLine
 10
74.95327385369069
 20
3.301999999999982
 30
0.0
 11
74.95327385369069
 21
-0.0000000000000178
 31
0.0
  0
SOLID
  5
1CA
330
1C2
100
AcDbEntity
  8
치수문자_일반주서
 62
     0
100
AcDbTrace
 10
74.40294052035736
 20
10.5045238723842
 30
0.0
 11
75.50360718702402
 21
10.5045238723842
 31
0.0
 12
74.95327385369069
 22
7.202523872384202
 32
0.0
 13
74.95327385369069
 23
7.202523872384202
 33
0.0
  0
SOLID
  5
1CB
330
1C2
100
AcDbEntity
  8
치수문자_일반주서
 62
     0
100
AcDbTrace
 10
75.50360718702402
 20
3.301999999999982
 30
0.0
 11
74.40294052035736
 21
3.301999999999982
 31
0.0
 12
74.95327385369069
 22
6.603999999999981
 32
0.0
 13
74.95327385369069
 23
6.603999999999981
 33
0.0
  0
MTEXT
  5
1CC
330
1C2
100
AcDbEntity
  8
치수문자_일반주서
 62
     0
100
AcDbMText
 10
70.57827385369069
 20
19.70850559411338
 30
0.0
 40
3.5
 41
0.0
 71
     2
 72
     1
  1
\A1;%%c0.60
  7
SLDTEXTSTYLE0
 11
0.0
 21
1.0
 31
0.0
 73
     1
 44
1.0
  0
POINT
  5
1CD
330
1C2
100
AcDbEntity
  8
Defpoints
 62
     0
100
AcDbPoint
 10
60.70077897280885
 20
7.202523872384148
 30
0.0
  0
POINT
  5
1CE
330
1C2
100
AcDbEntity
  8
Defpoints
 62
     0
100
AcDbPoint
 10
60.82145802160426
 20
6.603999999999928
 30
0.0
  0
POINT
  5
1E5
330
1C2
100
AcDbEntity
  8
Defpoints
 62
     0
100
AcDbPoint
 10
74.95327385369069
 20
6.603999999999981
 30
0.0
  0
ENDBLK
  5
1CF
330
1C2
100
AcDbEntity
  8
0
100
AcDbBlockEnd
  0
BLOCK
  5
204
330
203
100
AcDbEntity
  8
0
100
AcDbBlockBegin
  2
*D14
 70
     1
 10
0.0
 20
0.0
 30
0.0
  3
*D14
  1
*D14
  0
LINE
  5
206
330
203
100
AcDbEntity
  8
치수문자_일반주서
 62
     0
370
    -2
100
AcDbLine
 10
-33.62471235694352
 20
2.0
 30
0.0
 11
-46.0586703785557
 21
1.999999999999953
 31
0.0
  0
LINE
  5
207
330
203
100
AcDbEntity
  8
치수문자_일반주서
 62
     0
370
    -2
100
AcDbLine
 10
-33.62471235694352
 20
-2.0
 30
0.0
 11
-46.05867037855568
 21
-2.000000000000047
 31
0.0
  0
LINE
  5
208
330
203
100
AcDbEntity
  8
치수문자_일반주서
 62
     0
370
    -2
100
AcDbLine
 10
-46.05867037855568
 20
-1.302000000000047
 30
0.0
 11
-46.0586703785557
 21
1.301999999999953
 31
0.0
  0
SOLID
  5
209
330
203
100
AcDbEntity
  8
치수문자_일반주서
 62
     0
100
AcDbTrace
 10
-45.50833704522235
 20
-1.302000000000045
 30
0.0
 11
-46.60900371188902
 21
-1.302000000000049
 31
0.0
 12
-46.0586703785557
 22
1.999999999999953
 32
0.0
 13
-46.0586703785557
 23
1.999999999999953
 33
0.0
  0
SOLID
  5
20A
330
203
100
AcDbEntity
  8
치수문자_일반주서
 62
     0
100
AcDbTrace
 10
-46.60900371188903
 20
1.301999999999951
 30
0.0
 11
-45.50833704522236
 21
1.301999999999955
 31
0.0
 12
-46.05867037855568
 22
-2.000000000000047
 32
0.0
 13
-46.05867037855568
 23
-2.000000000000047
 33
0.0
  0
MTEXT
  5
20B
330
203
100
AcDbEntity
  8
치수문자_일반주서
 62
     0
100
AcDbMText
 10
-50.43367037855569
 20
-0.0000000000000154
 30
0.0
 40
3.5
 41
0.0
 71
     2
 72
     1
  1
\A1;%%c4
  7
SLDTEXTSTYLE0
 11
-3.552713678800502E-15
 21
1.0
 31
0.0
 73
     1
 44
1.0
  0
POINT
  5
20C
330
203
100
AcDbEntity
  8
Defpoints
 62
     0
100
AcDbPoint
 10
-33.56221235694352
 20
2.0
 30
0.0
  0
POINT
  5
20D
330
203
100
AcDbEntity
  8
Defpoints
 62
     0
100
AcDbPoint
 10
-33.56221235694352
 20
-2.0
 30
0.0
  0
POINT
  5
20E
330
203
100
AcDbEntity
  8
Defpoints
 62
     0
100
AcDbPoint
 10
-46.05867037855568
 20
-2.000000000000047
 30
0.0
  0
ENDBLK
  5
205
330
203
100
AcDbEntity
  8
0
100
AcDbBlockEnd
  0
BLOCK
  5
210
330
20F
100
AcDbEntity
  8
0
100
AcDbBlockBegin
  2
*D15
 70
     1
 10
0.0
 20
0.0
 30
0.0
  3
*D15
  1
*D15
  0
LINE
  5
212
330
20F
100
AcDbEntity
  8
치수문자_일반주서
 62
     0
370
    -2
100
AcDbLine
 10
10.43778764305648
 20
0.3125
 30
0.0
 11
10.43778764305648
 21
19.76173691457851
 31
0.0
  0
LINE
  5
213
330
20F
100
AcDbEntity
  8
치수문자_일반주서
 62
     0
370
    -2
100
AcDbLine
 10
9.53778764305639
 20
0.2997036802973128
 30
0.0
 11
9.53778764305639
 21
19.76173691457851
 31
0.0
  0
LINE
  5
214
330
20F
100
AcDbEntity
  8
치수문자_일반주서
 62
     0
370
    -2
100
AcDbLine
 10
10.43778764305648
 20
19.76173691457851
 30
0.0
 11
25.79178764305648
 21
19.76173691457851
 31
0.0
  0
LINE
  5
215
330
20F
100
AcDbEntity
  8
치수문자_일반주서
 62
     0
370
    -2
100
AcDbLine
 10
10.43778764305648
 20
19.76173691457851
 30
0.0
 11
9.53778764305639
 21
19.76173691457851
 31
0.0
  0
LINE
  5
216
330
20F
100
AcDbEntity
  8
치수문자_일반주서
 62
     0
370
    -2
100
AcDbLine
 10
13.73978764305648
 20
19.76173691457851
 30
0.0
 11
17.04178764305648
 21
19.76173691457851
 31
0.0
  0
LINE
  5
217
330
20F
100
AcDbEntity
  8
치수문자_일반주서
 62
     0
370
    -2
100
AcDbLine
 10
6.235787643056391
 20
19.76173691457851
 30
0.0
 11
2.933787643056391
 21
19.76173691457851
 31
0.0
  0
SOLID
  5
218
330
20F
100
AcDbEntity
  8
치수문자_일반주서
 62
     0
100
AcDbTrace
 10
13.73978764305648
 20
20.31207024791184
 30
0.0
 11
13.73978764305648
 21
19.21140358124517
 31
0.0
 12
10.43778764305648
 22
19.76173691457851
 32
0.0
 13
10.43778764305648
 23
19.76173691457851
 33
0.0
  0
SOLID
  5
219
330
20F
100
AcDbEntity
  8
치수문자_일반주서
 62
     0
100
AcDbTrace
 10
6.235787643056391
 20
19.21140358124517
 30
0.0
 11
6.235787643056391
 21
20.31207024791184
 31
0.0
 12
9.53778764305639
 22
19.76173691457851
 32
0.0
 13
9.53778764305639
 23
19.76173691457851
 33
0.0
  0
MTEXT
  5
21A
330
20F
100
AcDbEntity
  8
치수문자_일반주서
 62
     0
100
AcDbMText
 10
21.41678764305648
 20
24.13673691457851
 30
0.0
 40
3.5
 41
0.0
 71
     2
 72
     1
  1
\A1;0.90
  7
SLDTEXTSTYLE0
 73
     1
 44
1.0
  0
POINT
  5
21B
330
20F
100
AcDbEntity
  8
Defpoints
 62
     0
100
AcDbPoint
 10
10.43778764305648
 20
0.25
 30
0.0
  0
POINT
  5
21C
330
20F
100
AcDbEntity
  8
Defpoints
 62
     0
100
AcDbPoint
 10
9.53778764305639
 20
0.2372036802973128
 30
0.0
  0
POINT
  5
21D
330
20F
100
AcDbEntity
  8
Defpoints
 62
     0
100
AcDbPoint
 10
9.53778764305639
 20
19.76173691457851
 30
0.0
  0
ENDBLK
  5
211
330
20F
100
AcDbEntity
  8
0
100
AcDbBlockEnd
  0
BLOCK
  5
21F
330
21E
100
AcDbEntity
  8
0
100
AcDbBlockBegin
  2
*D16
 70
     1
 10
0.0
 20
0.0
 30
0.0
  3
*D16
  1
*D16
  0
LINE
  5
221
330
21E
100
AcDbEntity
  8
치수문자_일반주서
 62
     0
370
    -2
100
AcDbLine
 10
10.43778764305648
 20
0.3125
 30
0.0
 11
10.43778764305648
 21
40.80832450504428
 31
0.0
  0
LINE
  5
222
330
21E
100
AcDbEntity
  8
치수문자_일반주서
 62
     0
370
    -2
100
AcDbLine
 10
-34.56221235694352
 20
1.0625
 30
0.0
 11
-34.56221235694352
 21
40.80832450504428
 31
0.0
  0
LINE
  5
223
330
21E
100
AcDbEntity
  8
치수문자_일반주서
 62
     0
370
    -2
100
AcDbLine
 10
7.135787643056481
 20
40.80832450504428
 30
0.0
 11
-31.26021235694352
 21
40.80832450504428
 31
0.0
  0
SOLID
  5
224
330
21E
100
AcDbEntity
  8
치수문자_일반주서
 62
     0
100
AcDbTrace
 10
7.135787643056481
 20
40.25799117171095
 30
0.0
 11
7.135787643056481
 21
41.35865783837762
 31
0.0
 12
10.43778764305648
 22
40.80832450504428
 32
0.0
 13
10.43778764305648
 23
40.80832450504428
 33
0.0
  0
SOLID
  5
225
330
21E
100
AcDbEntity
  8
치수문자_일반주서
 62
     0
100
AcDbTrace
 10
-31.26021235694352
 20
41.35865783837762
 30
0.0
 11
-31.26021235694352
 21
40.25799117171095
 31
0.0
 12
-34.56221235694352
 22
40.80832450504428
 32
0.0
 13
-34.56221235694352
 23
40.80832450504428
 33
0.0
  0
MTEXT
  5
226
330
21E
100
AcDbEntity
  8
치수문자_일반주서
 62
     0
100
AcDbMText
 10
-12.06221235694352
 20
45.18332450504428
 30
0.0
 40
3.5
 41
0.0
 71
     2
 72
     1
  1
\A1;45
  7
SLDTEXTSTYLE0
 73
     1
 44
1.0
  0
POINT
  5
227
330
21E
100
AcDbEntity
  8
Defpoints
 62
     0
100
AcDbPoint
 10
10.43778764305648
 20
0.25
 30
0.0
  0
POINT
  5
228
330
21E
100
AcDbEntity
  8
Defpoints
 62
     0
100
AcDbPoint
 10
-34.56221235694352
 20
1.0
 30
0.0
  0
POINT
  5
229
330
21E
100
AcDbEntity
  8
Defpoints
 62
     0
100
AcDbPoint
 10
-34.56221235694352
 20
40.80832450504428
 30
0.0
  0
ENDBLK
  5
220
330
21E
100
AcDbEntity
  8
0
100
AcDbBlockEnd
  0
BLOCK
  5
22B
330
22A
100
AcDbEntity
  8
0
100
AcDbBlockBegin
  2
*D17
 70
     1
 10
0.0
 20
0.0
 30
0.0
  3
*D17
  1
*D17
  0
LINE
  5
22D
330
22A
100
AcDbEntity
  8
치수문자_일반주서
 62
     0
370
    -2
100
AcDbLine
 10
10.43778764305648
 20
0.3120890589671319
 30
0.0
 11
10.43778764305648
 21
30.12000000000015
 31
0.0
  0
LINE
  5
22E
330
22A
100
AcDbEntity
  8
치수문자_일반주서
 62
     0
370
    -2
100
AcDbLine
 10
6.437787643056481
 20
0.3375000000000057
 30
0.0
 11
6.437787643056481
 21
30.12000000000015
 31
0.0
  0
LINE
  5
22F
330
22A
100
AcDbEntity
  8
치수문자_일반주서
 62
     0
370
    -2
100
AcDbLine
 10
10.43778764305648
 20
30.12000000000015
 30
0.0
 11
32.2929523010614
 21
30.12000000000015
 31
0.0
  0
LINE
  5
230
330
22A
100
AcDbEntity
  8
치수문자_일반주서
 62
     0
370
    -2
100
AcDbLine
 10
10.43778764305648
 20
30.12000000000015
 30
0.0
 11
6.437787643056481
 21
30.12000000000015
 31
0.0
  0
LINE
  5
231
330
22A
100
AcDbEntity
  8
치수문자_일반주서
 62
     0
370
    -2
100
AcDbLine
 10
13.73978764305648
 20
30.12000000000015
 30
0.0
 11
17.04178764305648
 21
30.12000000000015
 31
0.0
  0
LINE
  5
232
330
22A
100
AcDbEntity
  8
치수문자_일반주서
 62
     0
370
    -2
100
AcDbLine
 10
3.135787643056481
 20
30.12000000000015
 30
0.0
 11
-0.1662123569435181
 21
30.12000000000015
 31
0.0
  0
SOLID
  5
233
330
22A
100
AcDbEntity
  8
치수문자_일반주서
 62
     0
100
AcDbTrace
 10
13.73978764305648
 20
30.67033333333348
 30
0.0
 11
13.73978764305648
 21
29.56966666666681
 31
0.0
 12
10.43778764305648
 22
30.12000000000015
 32
0.0
 13
10.43778764305648
 23
30.12000000000015
 33
0.0
  0
SOLID
  5
234
330
22A
100
AcDbEntity
  8
치수문자_일반주서
 62
     0
100
AcDbTrace
 10
3.135787643056481
 20
29.56966666666681
 30
0.0
 11
3.135787643056481
 21
30.67033333333348
 31
0.0
 12
6.437787643056481
 22
30.12000000000015
 32
0.0
 13
6.437787643056481
 23
30.12000000000015
 33
0.0
  0
MTEXT
  5
235
330
22A
100
AcDbEntity
  8
치수문자_일반주서
 62
     0
100
AcDbMText
 10
30.5429523010614
 20
34.49500000000015
 30
0.0
 40
3.5
 41
0.0
 71
     2
 72
     1
  1
\A1;4
  7
SLDTEXTSTYLE0
 73
     1
 44
1.0
  0
POINT
  5
236
330
22A
100
AcDbEntity
  8
Defpoints
 62
     0
100
AcDbPoint
 10
10.43778764305648
 20
0.2495890589671319
 30
0.0
  0
POINT
  5
237
330
22A
100
AcDbEntity
  8
Defpoints
 62
     0
100
AcDbPoint
 10
6.437787643056481
 20
0.2750000000000057
 30
0.0
  0
POINT
  5
238
330
22A
100
AcDbEntity
  8
Defpoints
 62
     0
100
AcDbPoint
 10
6.437787643056481
 20
30.12000000000015
 30
0.0
  0
ENDBLK
  5
22C
330
22A
100
AcDbEntity
  8
0
100
AcDbBlockEnd
  0
BLOCK
  5
23A
330
239
100
AcDbEntity
  8
0
100
AcDbBlockBegin
  2
*D18
 70
     1
 10
0.0
 20
0.0
 30
0.0
  3
*D18
  1
*D18
  0
LINE
  5
23C
330
239
100
AcDbEntity
  8
치수문자_일반주서
 62
     0
370
    -2
100
AcDbLine
 10
10.32960859425316
 20
0.3013960753278584
 30
0.0
 11
24.51960347513507
 21
0.3013960753279115
 31
0.0
  0
LINE
  5
23D
330
239
100
AcDbEntity
  8
치수문자_일반주서
 62
     0
370
    -2
100
AcDbLine
 10
10.45028764304857
 20
-0.2971277970563617
 30
0.0
 11
24.51960347513508
 21
-0.2971277970563087
 31
0.0
  0
LINE
  5
23E
330
239
100
AcDbEntity
  8
치수문자_일반주서
 62
     0
370
    -2
100
AcDbLine
 10
24.51960347513507
 20
0.3013960753279115
 30
0.0
 11
24.51960347513496
 21
18.49487779705709
 31
0.0
  0
LINE
  5
23F
330
239
100
AcDbEntity
  8
치수문자_일반주서
 62
     0
370
    -2
100
AcDbLine
 10
24.51960347513507
 20
0.3013960753279115
 30
0.0
 11
24.51960347513508
 21
-0.2971277970563087
 31
0.0
  0
LINE
  5
240
330
239
100
AcDbEntity
  8
치수문자_일반주서
 62
     0
370
    -2
100
AcDbLine
 10
24.51960347513505
 20
3.603396075327911
 30
0.0
 11
24.51960347513503
 21
6.905396075327911
 31
0.0
  0
LINE
  5
241
330
239
100
AcDbEntity
  8
치수문자_일반주서
 62
     0
370
    -2
100
AcDbLine
 10
24.5196034751351
 20
-3.599127797056308
 30
0.0
 11
24.51960347513512
 21
-6.901127797056308
 31
0.0
  0
SOLID
  5
242
330
239
100
AcDbEntity
  8
치수문자_일반주서
 62
     0
100
AcDbTrace
 10
23.96927014180172
 20
3.603396075327908
 30
0.0
 11
25.06993680846839
 21
3.603396075327914
 31
0.0
 12
24.51960347513507
 22
0.3013960753279115
 32
0.0
 13
24.51960347513507
 23
0.3013960753279115
 33
0.0
  0
SOLID
  5
243
330
239
100
AcDbEntity
  8
치수문자_일반주서
 62
     0
100
AcDbTrace
 10
25.06993680846843
 20
-3.599127797056305
 30
0.0
 11
23.96927014180176
 21
-3.599127797056311
 31
0.0
 12
24.51960347513508
 22
-0.2971277970563087
 32
0.0
 13
24.51960347513508
 23
-0.2971277970563087
 33
0.0
  0
MTEXT
  5
244
330
239
100
AcDbEntity
  8
치수문자_일반주서
 62
     0
100
AcDbMText
 10
20.144603475135
 20
12.80737779705706
 30
0.0
 40
3.5
 41
0.0
 71
     2
 72
     1
  1
\A1;%%c0.60
  7
SLDTEXTSTYLE0
 11
-5.935792777401279E-15
 21
1.0
 31
0.0
 73
     1
 44
1.0
  0
POINT
  5
245
330
239
100
AcDbEntity
  8
Defpoints
 62
     0
100
AcDbPoint
 10
10.26710859425316
 20
0.3013960753278582
 30
0.0
  0
POINT
  5
246
330
239
100
AcDbEntity
  8
Defpoints
 62
     0
100
AcDbPoint
 10
10.38778764304857
 20
-0.2971277970563619
 30
0.0
  0
POINT
  5
247
330
239
100
AcDbEntity
  8
Defpoints
 62
     0
100
AcDbPoint
 10
24.519603475135
 20
-0.2971277970563092
 30
0.0
  0
ENDBLK
  5
23B
330
239
100
AcDbEntity
  8
0
100
AcDbBlockEnd
  0
BLOCK
  5
27F
330
27E
100
AcDbEntity
  8
0
100
AcDbBlockBegin
  2
*D20
 70
     1
 10
0.0
 20
0.0
 30
0.0
  3
*D20
  1
*D20
  0
LINE
  5
280
330
27E
100
AcDbEntity
  8
치수문자_일반주서
 62
     0
370
    -2
100
AcDbLine
 10
16.80895802161217
 20
8.90112779705629
 30
0.0
 11
4.374999999999993
 21
8.901127797056244
 31
0.0
  0
LINE
  5
281
330
27E
100
AcDbEntity
  8
치수문자_일반주서
 62
     0
370
    -2
100
AcDbLine
 10
16.80895802161217
 20
4.90112779705629
 30
0.0
 11
4.375000000000007
 21
4.901127797056244
 31
0.0
  0
LINE
  5
282
330
27E
100
AcDbEntity
  8
치수문자_일반주서
 62
     0
370
    -2
100
AcDbLine
 10
4.375000000000004
 20
5.599127797056244
 30
0.0
 11
4.374999999999996
 21
8.203127797056244
 31
0.0
  0
SOLID
  5
283
330
27E
100
AcDbEntity
  8
치수문자_일반주서
 62
     0
100
AcDbTrace
 10
4.925333333333338
 20
5.599127797056246
 30
0.0
 11
3.824666666666671
 21
5.599127797056243
 31
0.0
 12
4.374999999999993
 22
8.901127797056244
 32
0.0
 13
4.374999999999993
 23
8.901127797056244
 33
0.0
  0
SOLID
  5
284
330
27E
100
AcDbEntity
  8
치수문자_일반주서
 62
     0
100
AcDbTrace
 10
3.824666666666662
 20
8.203127797056242
 30
0.0
 11
4.925333333333329
 21
8.203127797056245
 31
0.0
 12
4.375000000000007
 22
4.901127797056244
 32
0.0
 13
4.375000000000007
 23
4.901127797056244
 33
0.0
  0
MTEXT
  5
285
330
27E
100
AcDbEntity
  8
치수문자_일반주서
 62
     0
100
AcDbMText
 10
0.0
 20
6.901127797056275
 30
0.0
 40
3.5
 41
0.0
 71
     2
 72
     1
  1
\A1;%%c4
  7
SLDTEXTSTYLE0
 11
-3.552713678800500E-15
 21
1.0
 31
0.0
 73
     1
 44
1.0
  0
POINT
  5
286
330
27E
100
AcDbEntity
  8
Defpoints
 62
     0
100
AcDbPoint
 10
16.87145802161217
 20
8.90112779705629
 30
0.0
  0
POINT
  5
287
330
27E
100
AcDbEntity
  8
Defpoints
 62
     0
100
AcDbPoint
 10
16.87145802161217
 20
4.90112779705629
 30
0.0
  0
POINT
  5
288
330
27E
100
AcDbEntity
  8
Defpoints
 62
     0
100
AcDbPoint
 10
4.375
 20
4.901127797056243
 30
0.0
  0
ENDBLK
  5
289
330
27E
100
AcDbEntity
  8
0
100
AcDbBlockEnd
  0
BLOCK
  5
28C
330
28B
100
AcDbEntity
  8
0
100
AcDbBlockBegin
  2
*D21
 70
     1
 10
0.0
 20
0.0
 30
0.0
  3
*D21
  1
*D21
  0
LINE
  5
28D
330
28B
100
AcDbEntity
  8
치수문자_일반주서
 62
     0
370
    -2
100
AcDbLine
 10
60.87145802161217
 20
7.21362779705629
 30
0.0
 11
60.87145802161217
 21
26.6628647116348
 31
0.0
  0
LINE
  5
28E
330
28B
100
AcDbEntity
  8
치수문자_일반주서
 62
     0
370
    -2
100
AcDbLine
 10
59.97145802161208
 20
7.200831477353603
 30
0.0
 11
59.97145802161208
 21
26.6628647116348
 31
0.0
  0
LINE
  5
28F
330
28B
100
AcDbEntity
  8
치수문자_일반주서
 62
     0
370
    -2
100
AcDbLine
 10
60.87145802161217
 20
26.6628647116348
 30
0.0
 11
76.22545802161217
 21
26.6628647116348
 31
0.0
  0
LINE
  5
290
330
28B
100
AcDbEntity
  8
치수문자_일반주서
 62
     0
370
    -2
100
AcDbLine
 10
60.87145802161217
 20
26.6628647116348
 30
0.0
 11
59.97145802161208
 21
26.6628647116348
 31
0.0
  0
LINE
  5
291
330
28B
100
AcDbEntity
  8
치수문자_일반주서
 62
     0
370
    -2
100
AcDbLine
 10
64.17345802161216
 20
26.6628647116348
 30
0.0
 11
67.47545802161216
 21
26.6628647116348
 31
0.0
  0
LINE
  5
292
330
28B
100
AcDbEntity
  8
치수문자_일반주서
 62
     0
370
    -2
100
AcDbLine
 10
56.66945802161208
 20
26.6628647116348
 30
0.0
 11
53.36745802161208
 21
26.6628647116348
 31
0.0
  0
SOLID
  5
293
330
28B
100
AcDbEntity
  8
치수문자_일반주서
 62
     0
100
AcDbTrace
 10
64.17345802161216
 20
27.21319804496813
 30
0.0
 11
64.17345802161216
 21
26.11253137830146
 31
0.0
 12
60.87145802161217
 22
26.6628647116348
 32
0.0
 13
60.87145802161217
 23
26.6628647116348
 33
0.0
  0
SOLID
  5
294
330
28B
100
AcDbEntity
  8
치수문자_일반주서
 62
     0
100
AcDbTrace
 10
56.66945802161208
 20
26.11253137830146
 30
0.0
 11
56.66945802161208
 21
27.21319804496813
 31
0.0
 12
59.97145802161208
 22
26.6628647116348
 32
0.0
 13
59.97145802161208
 23
26.6628647116348
 33
0.0
  0
MTEXT
  5
295
330
28B
100
AcDbEntity
  8
치수문자_일반주서
 62
     0
100
AcDbMText
 10
71.85045802161217
 20
31.0378647116348
 30
0.0
 40
3.5
 41
0.0
 71
     2
 72
     1
  1
\A1;0.90
  7
SLDTEXTSTYLE0
 73
     1
 44
1.0
  0
POINT
  5
296
330
28B
100
AcDbEntity
  8
Defpoints
 62
     0
100
AcDbPoint
 10
60.87145802161217
 20
7.15112779705629
 30
0.0
  0
POINT
  5
297
330
28B
100
AcDbEntity
  8
Defpoints
 62
     0
100
AcDbPoint
 10
59.97145802161208
 20
7.138331477353603
 30
0.0
  0
POINT
  5
2D9
330
28B
100
AcDbEntity
  8
Defpoints
 62
     0
100
AcDbPoint
 10
59.97145802161208
 20
26.6628647116348
 30
0.0
  0
ENDBLK
  5
298
330
28B
100
AcDbEntity
  8
0
100
AcDbBlockEnd
  0
BLOCK
  5
29B
330
29A
100
AcDbEntity
  8
0
100
AcDbBlockBegin
  2
*D22
 70
     1
 10
0.0
 20
0.0
 30
0.0
  3
*D22
  1
*D22
  0
LINE
  5
29C
330
29A
100
AcDbEntity
  8
치수문자_일반주서
 62
     0
370
    -2
100
AcDbLine
 10
60.87145802161217
 20
7.21362779705629
 30
0.0
 11
60.87145802161217
 21
47.70945230210057
 31
0.0
  0
LINE
  5
29D
330
29A
100
AcDbEntity
  8
치수문자_일반주서
 62
     0
370
    -2
100
AcDbLine
 10
15.87145802161217
 20
7.96362779705629
 30
0.0
 11
15.87145802161217
 21
47.70945230210057
 31
0.0
  0
LINE
  5
29E
330
29A
100
AcDbEntity
  8
치수문자_일반주서
 62
     0
370
    -2
100
AcDbLine
 10
57.56945802161217
 20
47.70945230210057
 30
0.0
 11
19.17345802161217
 21
47.70945230210057
 31
0.0
  0
SOLID
  5
29F
330
29A
100
AcDbEntity
  8
치수문자_일반주서
 62
     0
100
AcDbTrace
 10
57.56945802161217
 20
47.15911896876724
 30
0.0
 11
57.56945802161217
 21
48.25978563543391
 31
0.0
 12
60.87145802161217
 22
47.70945230210057
 32
0.0
 13
60.87145802161217
 23
47.70945230210057
 33
0.0
  0
SOLID
  5
2A0
330
29A
100
AcDbEntity
  8
치수문자_일반주서
 62
     0
100
AcDbTrace
 10
19.17345802161217
 20
48.25978563543391
 30
0.0
 11
19.17345802161217
 21
47.15911896876724
 31
0.0
 12
15.87145802161217
 22
47.70945230210057
 32
0.0
 13
15.87145802161217
 23
47.70945230210057
 33
0.0
  0
MTEXT
  5
2A1
330
29A
100
AcDbEntity
  8
치수문자_일반주서
 62
     0
100
AcDbMText
 10
38.37145802161217
 20
52.08445230210057
 30
0.0
 40
3.5
 41
0.0
 71
     2
 72
     1
  1
\A1;45
  7
SLDTEXTSTYLE0
 73
     1
 44
1.0
  0
POINT
  5
2A2
330
29A
100
AcDbEntity
  8
Defpoints
 62
     0
100
AcDbPoint
 10
60.87145802161217
 20
7.15112779705629
 30
0.0
  0
POINT
  5
2A3
330
29A
100
AcDbEntity
  8
Defpoints
 62
     0
100
AcDbPoint
 10
15.87145802161217
 20
7.90112779705629
 30
0.0
  0
POINT
  5
2A4
330
29A
100
AcDbEntity
  8
Defpoints
 62
     0
100
AcDbPoint
 10
15.87145802161217
 20
47.70945230210057
 30
0.0
  0
ENDBLK
  5
2A5
330
29A
100
AcDbEntity
  8
0
100
AcDbBlockEnd
  0
BLOCK
  5
2A8
330
2A7
100
AcDbEntity
  8
0
100
AcDbBlockBegin
  2
*D23
 70
     1
 10
0.0
 20
0.0
 30
0.0
  3
*D23
  1
*D23
  0
LINE
  5
2A9
330
2A7
100
AcDbEntity
  8
치수문자_일반주서
 62
     0
370
    -2
100
AcDbLine
 10
60.87145802161217
 20
7.213216856023422
 30
0.0
 11
60.87145802161217
 21
37.02112779705644
 31
0.0
  0
LINE
  5
2AA
330
2A7
100
AcDbEntity
  8
치수문자_일반주서
 62
     0
370
    -2
100
AcDbLine
 10
56.87145802161217
 20
7.238627797056296
 30
0.0
 11
56.87145802161217
 21
37.02112779705644
 31
0.0
  0
LINE
  5
2AB
330
2A7
100
AcDbEntity
  8
치수문자_일반주서
 62
     0
370
    -2
100
AcDbLine
 10
60.87145802161217
 20
37.02112779705644
 30
0.0
 11
82.7266226796171
 21
37.02112779705644
 31
0.0
  0
LINE
  5
2AC
330
2A7
100
AcDbEntity
  8
치수문자_일반주서
 62
     0
370
    -2
100
AcDbLine
 10
60.87145802161217
 20
37.02112779705644
 30
0.0
 11
56.87145802161217
 21
37.02112779705644
 31
0.0
  0
LINE
  5
2AD
330
2A7
100
AcDbEntity
  8
치수문자_일반주서
 62
     0
370
    -2
100
AcDbLine
 10
64.17345802161216
 20
37.02112779705644
 30
0.0
 11
67.47545802161216
 21
37.02112779705644
 31
0.0
  0
LINE
  5
2AE
330
2A7
100
AcDbEntity
  8
치수문자_일반주서
 62
     0
370
    -2
100
AcDbLine
 10
53.56945802161217
 20
37.02112779705644
 30
0.0
 11
50.26745802161217
 21
37.02112779705644
 31
0.0
  0
SOLID
  5
2AF
330
2A7
100
AcDbEntity
  8
치수문자_일반주서
 62
     0
100
AcDbTrace
 10
64.17345802161216
 20
37.57146113038977
 30
0.0
 11
64.17345802161216
 21
36.4707944637231
 31
0.0
 12
60.87145802161217
 22
37.02112779705644
 32
0.0
 13
60.87145802161217
 23
37.02112779705644
 33
0.0
  0
SOLID
  5
2B0
330
2A7
100
AcDbEntity
  8
치수문자_일반주서
 62
     0
100
AcDbTrace
 10
53.56945802161217
 20
36.4707944637231
 30
0.0
 11
53.56945802161217
 21
37.57146113038977
 31
0.0
 12
56.87145802161217
 22
37.02112779705644
 32
0.0
 13
56.87145802161217
 23
37.02112779705644
 33
0.0
  0
MTEXT
  5
2B1
330
2A7
100
AcDbEntity
  8
치수문자_일반주서
 62
     0
100
AcDbMText
 10
80.9766226796171
 20
41.39612779705644
 30
0.0
 40
3.5
 41
0.0
 71
     2
 72
     1
  1
\A1;4
  7
SLDTEXTSTYLE0
 73
     1
 44
1.0
  0
POINT
  5
2B2
330
2A7
100
AcDbEntity
  8
Defpoints
 62
     0
100
AcDbPoint
 10
60.87145802161217
 20
7.150716856023422
 30
0.0
  0
POINT
  5
2B3
330
2A7
100
AcDbEntity
  8
Defpoints
 62
     0
100
AcDbPoint
 10
56.87145802161217
 20
7.176127797056296
 30
0.0
  0
POINT
  5
2B4
330
2A7
100
AcDbEntity
  8
Defpoints
 62
     0
100
AcDbPoint
 10
56.87145802161217
 20
37.02112779705644
 30
0.0
  0
ENDBLK
  5
2B5
330
2A7
100
AcDbEntity
  8
0
100
AcDbBlockEnd
  0
BLOCK
  5
2B8
330
2B7
100
AcDbEntity
  8
0
100
AcDbBlockBegin
  2
*D24
 70
     1
 10
0.0
 20
0.0
 30
0.0
  3
*D24
  1
*D24
  0
LINE
  5
2B9
330
2B7
100
AcDbEntity
  8
치수문자_일반주서
 62
     0
370
    -2
100
AcDbLine
 10
60.76327897280885
 20
7.202523872384148
 30
0.0
 11
74.95327385369069
 21
7.202523872384202
 31
0.0
  0
LINE
  5
2BA
330
2B7
100
AcDbEntity
  8
치수문자_일반주서
 62
     0
370
    -2
100
AcDbLine
 10
60.88395802160426
 20
6.603999999999928
 30
0.0
 11
74.95327385369069
 21
6.603999999999981
 31
0.0
  0
LINE
  5
2BB
330
2B7
100
AcDbEntity
  8
치수문자_일반주서
 62
     0
370
    -2
100
AcDbLine
 10
74.95327385369069
 20
7.202523872384202
 30
0.0
 11
74.95327385369069
 21
25.39600559411338
 31
0.0
  0
LINE
  5
2BC
330
2B7
100
AcDbEntity
  8
치수문자_일반주서
 62
     0
370
    -2
100
AcDbLine
 10
74.95327385369069
 20
7.202523872384202
 30
0.0
 11
74.95327385369069
 21
6.603999999999981
 31
0.0
  0
LINE
  5
2BD
330
2B7
100
AcDbEntity
  8
치수문자_일반주서
 62
     0
370
    -2
100
AcDbLine
 10
74.95327385369069
 20
10.5045238723842
 30
0.0
 11
74.95327385369069
 21
13.8065238723842
 31
0.0
  0
LINE
  5
2BE
330
2B7
100
AcDbEntity
  8
치수문자_일반주서
 62
     0
370
    -2
100
AcDbLine
 10
74.95327385369069
 20
3.301999999999982
 30
0.0
 11
74.95327385369069
 21
-0.0000000000000178
 31
0.0
  0
SOLID
  5
2BF
330
2B7
100
AcDbEntity
  8
치수문자_일반주서
 62
     0
100
AcDbTrace
 10
74.40294052035736
 20
10.5045238723842
 30
0.0
 11
75.50360718702402
 21
10.5045238723842
 31
0.0
 12
74.95327385369069
 22
7.202523872384202
 32
0.0
 13
74.95327385369069
 23
7.202523872384202
 33
0.0
  0
SOLID
  5
2C0
330
2B7
100
AcDbEntity
  8
치수문자_일반주서
 62
     0
100
AcDbTrace
 10
75.50360718702402
 20
3.301999999999982
 30
0.0
 11
74.40294052035736
 21
3.301999999999982
 31
0.0
 12
74.95327385369069
 22
6.603999999999981
 32
0.0
 13
74.95327385369069
 23
6.603999999999981
 33
0.0
  0
MTEXT
  5
2C1
330
2B7
100
AcDbEntity
  8
치수문자_일반주서
 62
     0
100
AcDbMText
 10
70.57827385369069
 20
19.70850559411338
 30
0.0
 40
3.5
 41
0.0
 71
     2
 72
     1
  1
\A1;%%c0.60
  7
SLDTEXTSTYLE0
 11
0.0
 21
1.0
 31
0.0
 73
     1
 44
1.0
  0
POINT
  5
2C2
330
2B7
100
AcDbEntity
  8
Defpoints
 62
     0
100
AcDbPoint
 10
60.70077897280885
 20
7.202523872384148
 30
0.0
  0
POINT
  5
2C3
330
2B7
100
AcDbEntity
  8
Defpoints
 62
     0
100
AcDbPoint
 10
60.82145802160426
 20
6.603999999999928
 30
0.0
  0
POINT
  5
2DA
330
2B7
100
AcDbEntity
  8
Defpoints
 62
     0
100
AcDbPoint
 10
74.95327385369069
 20
6.603999999999981
 30
0.0
  0
ENDBLK
  5
2C4
330
2B7
100
AcDbEntity
  8
0
100
AcDbBlockEnd
  0
BLOCK
  5
2F9
330
2F8
100
AcDbEntity
  8
0
100
AcDbBlockBegin
  2
*D25
 70
     1
 10
0.0
 20
0.0
 30
0.0
  3
*D25
  1
*D25
  0
LINE
  5
2FB
330
2F8
100
AcDbEntity
  8
치수문자_일반주서
 62
     0
370
    -2
100
AcDbLine
 10
-33.62471235694352
 20
2.0
 30
0.0
 11
-46.0586703785557
 21
1.999999999999953
 31
0.0
  0
LINE
  5
2FC
330
2F8
100
AcDbEntity
  8
치수문자_일반주서
 62
     0
370
    -2
100
AcDbLine
 10
-33.62471235694352
 20
-2.0
 30
0.0
 11
-46.05867037855568
 21
-2.000000000000047
 31
0.0
  0
LINE
  5
2FD
330
2F8
100
AcDbEntity
  8
치수문자_일반주서
 62
     0
370
    -2
100
AcDbLine
 10
-46.05867037855568
 20
-1.302000000000047
 30
0.0
 11
-46.0586703785557
 21
1.301999999999953
 31
0.0
  0
SOLID
  5
2FE
330
2F8
100
AcDbEntity
  8
치수문자_일반주서
 62
     0
100
AcDbTrace
 10
-45.50833704522235
 20
-1.302000000000045
 30
0.0
 11
-46.60900371188902
 21
-1.302000000000049
 31
0.0
 12
-46.0586703785557
 22
1.999999999999953
 32
0.0
 13
-46.0586703785557
 23
1.999999999999953
 33
0.0
  0
SOLID
  5
2FF
330
2F8
100
AcDbEntity
  8
치수문자_일반주서
 62
     0
100
AcDbTrace
 10
-46.60900371188903
 20
1.301999999999951
 30
0.0
 11
-45.50833704522236
 21
1.301999999999955
 31
0.0
 12
-46.05867037855568
 22
-2.000000000000047
 32
0.0
 13
-46.05867037855568
 23
-2.000000000000047
 33
0.0
  0
MTEXT
  5
300
330
2F8
100
AcDbEntity
  8
치수문자_일반주서
 62
     0
100
AcDbMText
 10
-50.43367037855569
 20
-0.0000000000000154
 30
0.0
 40
3.5
 41
0.0
 71
     2
 72
     1
  1
\A1;%%c4
  7
SLDTEXTSTYLE0
 11
-3.552713678800502E-15
 21
1.0
 31
0.0
 73
     1
 44
1.0
  0
POINT
  5
301
330
2F8
100
AcDbEntity
  8
Defpoints
 62
     0
100
AcDbPoint
 10
-33.56221235694352
 20
2.0
 30
0.0
  0
POINT
  5
302
330
2F8
100
AcDbEntity
  8
Defpoints
 62
     0
100
AcDbPoint
 10
-33.56221235694352
 20
-2.0
 30
0.0
  0
POINT
  5
303
330
2F8
100
AcDbEntity
  8
Defpoints
 62
     0
100
AcDbPoint
 10
-46.05867037855568
 20
-2.000000000000047
 30
0.0
  0
ENDBLK
  5
2FA
330
2F8
100
AcDbEntity
  8
0
100
AcDbBlockEnd
  0
BLOCK
  5
305
330
304
100
AcDbEntity
  8
0
100
AcDbBlockBegin
  2
*D26
 70
     1
 10
0.0
 20
0.0
 30
0.0
  3
*D26
  1
*D26
  0
LINE
  5
307
330
304
100
AcDbEntity
  8
치수문자_일반주서
 62
     0
370
    -2
100
AcDbLine
 10
10.43778764305648
 20
0.3125
 30
0.0
 11
10.43778764305648
 21
19.76173691457851
 31
0.0
  0
LINE
  5
308
330
304
100
AcDbEntity
  8
치수문자_일반주서
 62
     0
370
    -2
100
AcDbLine
 10
9.53778764305639
 20
0.2997036802973128
 30
0.0
 11
9.53778764305639
 21
19.76173691457851
 31
0.0
  0
LINE
  5
309
330
304
100
AcDbEntity
  8
치수문자_일반주서
 62
     0
370
    -2
100
AcDbLine
 10
10.43778764305648
 20
19.76173691457851
 30
0.0
 11
25.79178764305648
 21
19.76173691457851
 31
0.0
  0
LINE
  5
30A
330
304
100
AcDbEntity
  8
치수문자_일반주서
 62
     0
370
    -2
100
AcDbLine
 10
10.43778764305648
 20
19.76173691457851
 30
0.0
 11
9.53778764305639
 21
19.76173691457851
 31
0.0
  0
LINE
  5
30B
330
304
100
AcDbEntity
  8
치수문자_일반주서
 62
     0
370
    -2
100
AcDbLine
 10
13.73978764305648
 20
19.76173691457851
 30
0.0
 11
17.04178764305648
 21
19.76173691457851
 31
0.0
  0
LINE
  5
30C
330
304
100
AcDbEntity
  8
치수문자_일반주서
 62
     0
370
    -2
100
AcDbLine
 10
6.235787643056391
 20
19.76173691457851
 30
0.0
 11
2.933787643056391
 21
19.76173691457851
 31
0.0
  0
SOLID
  5
30D
330
304
100
AcDbEntity
  8
치수문자_일반주서
 62
     0
100
AcDbTrace
 10
13.73978764305648
 20
20.31207024791184
 30
0.0
 11
13.73978764305648
 21
19.21140358124517
 31
0.0
 12
10.43778764305648
 22
19.76173691457851
 32
0.0
 13
10.43778764305648
 23
19.76173691457851
 33
0.0
  0
SOLID
  5
30E
330
304
100
AcDbEntity
  8
치수문자_일반주서
 62
     0
100
AcDbTrace
 10
6.235787643056391
 20
19.21140358124517
 30
0.0
 11
6.235787643056391
 21
20.31207024791184
 31
0.0
 12
9.53778764305639
 22
19.76173691457851
 32
0.0
 13
9.53778764305639
 23
19.76173691457851
 33
0.0
  0
MTEXT
  5
30F
330
304
100
AcDbEntity
  8
치수문자_일반주서
 62
     0
100
AcDbMText
 10
21.41678764305648
 20
24.13673691457851
 30
0.0
 40
3.5
 41
0.0
 71
     2
 72
     1
  1
\A1;0.90
  7
SLDTEXTSTYLE0
 73
     1
 44
1.0
  0
POINT
  5
310
330
304
100
AcDbEntity
  8
Defpoints
 62
     0
100
AcDbPoint
 10
10.43778764305648
 20
0.25
 30
0.0
  0
POINT
  5
311
330
304
100
AcDbEntity
  8
Defpoints
 62
     0
100
AcDbPoint
 10
9.53778764305639
 20
0.2372036802973128
 30
0.0
  0
POINT
  5
312
330
304
100
AcDbEntity
  8
Defpoints
 62
     0
100
AcDbPoint
 10
9.53778764305639
 20
19.76173691457851
 30
0.0
  0
ENDBLK
  5
306
330
304
100
AcDbEntity
  8
0
100
AcDbBlockEnd
  0
BLOCK
  5
314
330
313
100
AcDbEntity
  8
0
100
AcDbBlockBegin
  2
*D27
 70
     1
 10
0.0
 20
0.0
 30
0.0
  3
*D27
  1
*D27
  0
LINE
  5
316
330
313
100
AcDbEntity
  8
치수문자_일반주서
 62
     0
370
    -2
100
AcDbLine
 10
10.43778764305648
 20
0.3125
 30
0.0
 11
10.43778764305648
 21
40.80832450504428
 31
0.0
  0
LINE
  5
317
330
313
100
AcDbEntity
  8
치수문자_일반주서
 62
     0
370
    -2
100
AcDbLine
 10
-34.56221235694352
 20
1.0625
 30
0.0
 11
-34.56221235694352
 21
40.80832450504428
 31
0.0
  0
LINE
  5
318
330
313
100
AcDbEntity
  8
치수문자_일반주서
 62
     0
370
    -2
100
AcDbLine
 10
7.135787643056481
 20
40.80832450504428
 30
0.0
 11
-31.26021235694352
 21
40.80832450504428
 31
0.0
  0
SOLID
  5
319
330
313
100
AcDbEntity
  8
치수문자_일반주서
 62
     0
100
AcDbTrace
 10
7.135787643056481
 20
40.25799117171095
 30
0.0
 11
7.135787643056481
 21
41.35865783837762
 31
0.0
 12
10.43778764305648
 22
40.80832450504428
 32
0.0
 13
10.43778764305648
 23
40.80832450504428
 33
0.0
  0
SOLID
  5
31A
330
313
100
AcDbEntity
  8
치수문자_일반주서
 62
     0
100
AcDbTrace
 10
-31.26021235694352
 20
41.35865783837762
 30
0.0
 11
-31.26021235694352
 21
40.25799117171095
 31
0.0
 12
-34.56221235694352
 22
40.80832450504428
 32
0.0
 13
-34.56221235694352
 23
40.80832450504428
 33
0.0
  0
MTEXT
  5
31B
330
313
100
AcDbEntity
  8
치수문자_일반주서
 62
     0
100
AcDbMText
 10
-12.06221235694352
 20
45.18332450504428
 30
0.0
 40
3.5
 41
0.0
 71
     2
 72
     1
  1
\A1;45
  7
SLDTEXTSTYLE0
 73
     1
 44
1.0
  0
POINT
  5
31C
330
313
100
AcDbEntity
  8
Defpoints
 62
     0
100
AcDbPoint
 10
10.43778764305648
 20
0.25
 30
0.0
  0
POINT
  5
31D
330
313
100
AcDbEntity
  8
Defpoints
 62
     0
100
AcDbPoint
 10
-34.56221235694352
 20
1.0
 30
0.0
  0
POINT
  5
31E
330
313
100
AcDbEntity
  8
Defpoints
 62
     0
100
AcDbPoint
 10
-34.56221235694352
 20
40.80832450504428
 30
0.0
  0
ENDBLK
  5
315
330
313
100
AcDbEntity
  8
0
100
AcDbBlockEnd
  0
BLOCK
  5
320
330
31F
100
AcDbEntity
  8
0
100
AcDbBlockBegin
  2
*D28
 70
     1
 10
0.0
 20
0.0
 30
0.0
  3
*D28
  1
*D28
  0
LINE
  5
322
330
31F
100
AcDbEntity
  8
치수문자_일반주서
 62
     0
370
    -2
100
AcDbLine
 10
10.43778764305648
 20
0.3120890589671319
 30
0.0
 11
10.43778764305648
 21
30.12000000000015
 31
0.0
  0
LINE
  5
323
330
31F
100
AcDbEntity
  8
치수문자_일반주서
 62
     0
370
    -2
100
AcDbLine
 10
6.437787643056481
 20
0.3375000000000057
 30
0.0
 11
6.437787643056481
 21
30.12000000000015
 31
0.0
  0
LINE
  5
324
330
31F
100
AcDbEntity
  8
치수문자_일반주서
 62
     0
370
    -2
100
AcDbLine
 10
10.43778764305648
 20
30.12000000000015
 30
0.0
 11
32.2929523010614
 21
30.12000000000015
 31
0.0
  0
LINE
  5
325
330
31F
100
AcDbEntity
  8
치수문자_일반주서
 62
     0
370
    -2
100
AcDbLine
 10
10.43778764305648
 20
30.12000000000015
 30
0.0
 11
6.437787643056481
 21
30.12000000000015
 31
0.0
  0
LINE
  5
326
330
31F
100
AcDbEntity
  8
치수문자_일반주서
 62
     0
370
    -2
100
AcDbLine
 10
13.73978764305648
 20
30.12000000000015
 30
0.0
 11
17.04178764305648
 21
30.12000000000015
 31
0.0
  0
LINE
  5
327
330
31F
100
AcDbEntity
  8
치수문자_일반주서
 62
     0
370
    -2
100
AcDbLine
 10
3.135787643056481
 20
30.12000000000015
 30
0.0
 11
-0.1662123569435181
 21
30.12000000000015
 31
0.0
  0
SOLID
  5
328
330
31F
100
AcDbEntity
  8
치수문자_일반주서
 62
     0
100
AcDbTrace
 10
13.73978764305648
 20
30.67033333333348
 30
0.0
 11
13.73978764305648
 21
29.56966666666681
 31
0.0
 12
10.43778764305648
 22
30.12000000000015
 32
0.0
 13
10.43778764305648
 23
30.12000000000015
 33
0.0
  0
SOLID
  5
329
330
31F
100
AcDbEntity
  8
치수문자_일반주서
 62
     0
100
AcDbTrace
 10
3.135787643056481
 20
29.56966666666681
 30
0.0
 11
3.135787643056481
 21
30.67033333333348
 31
0.0
 12
6.437787643056481
 22
30.12000000000015
 32
0.0
 13
6.437787643056481
 23
30.12000000000015
 33
0.0
  0
MTEXT
  5
32A
330
31F
100
AcDbEntity
  8
치수문자_일반주서
 62
     0
100
AcDbMText
 10
30.5429523010614
 20
34.49500000000015
 30
0.0
 40
3.5
 41
0.0
 71
     2
 72
     1
  1
\A1;4
  7
SLDTEXTSTYLE0
 73
     1
 44
1.0
  0
POINT
  5
32B
330
31F
100
AcDbEntity
  8
Defpoints
 62
     0
100
AcDbPoint
 10
10.43778764305648
 20
0.2495890589671319
 30
0.0
  0
POINT
  5
32C
330
31F
100
AcDbEntity
  8
Defpoints
 62
     0
100
AcDbPoint
 10
6.437787643056481
 20
0.2750000000000057
 30
0.0
  0
POINT
  5
32D
330
31F
100
AcDbEntity
  8
Defpoints
 62
     0
100
AcDbPoint
 10
6.437787643056481
 20
30.12000000000015
 30
0.0
  0
ENDBLK
  5
321
330
31F
100
AcDbEntity
  8
0
100
AcDbBlockEnd
  0
BLOCK
  5
32F
330
32E
100
AcDbEntity
  8
0
100
AcDbBlockBegin
  2
*D29
 70
     1
 10
0.0
 20
0.0
 30
0.0
  3
*D29
  1
*D29
  0
LINE
  5
331
330
32E
100
AcDbEntity
  8
치수문자_일반주서
 62
     0
370
    -2
100
AcDbLine
 10
10.32960859425316
 20
0.3013960753278584
 30
0.0
 11
24.51960347513507
 21
0.3013960753279115
 31
0.0
  0
LINE
  5
332
330
32E
100
AcDbEntity
  8
치수문자_일반주서
 62
     0
370
    -2
100
AcDbLine
 10
10.45028764304857
 20
-0.2971277970563617
 30
0.0
 11
24.51960347513508
 21
-0.2971277970563087
 31
0.0
  0
LINE
  5
333
330
32E
100
AcDbEntity
  8
치수문자_일반주서
 62
     0
370
    -2
100
AcDbLine
 10
24.51960347513507
 20
0.3013960753279115
 30
0.0
 11
24.51960347513496
 21
18.49487779705709
 31
0.0
  0
LINE
  5
334
330
32E
100
AcDbEntity
  8
치수문자_일반주서
 62
     0
370
    -2
100
AcDbLine
 10
24.51960347513507
 20
0.3013960753279115
 30
0.0
 11
24.51960347513508
 21
-0.2971277970563087
 31
0.0
  0
LINE
  5
335
330
32E
100
AcDbEntity
  8
치수문자_일반주서
 62
     0
370
    -2
100
AcDbLine
 10
24.51960347513505
 20
3.603396075327911
 30
0.0
 11
24.51960347513503
 21
6.905396075327911
 31
0.0
  0
LINE
  5
336
330
32E
100
AcDbEntity
  8
치수문자_일반주서
 62
     0
370
    -2
100
AcDbLine
 10
24.5196034751351
 20
-3.599127797056308
 30
0.0
 11
24.51960347513512
 21
-6.901127797056308
 31
0.0
  0
SOLID
  5
337
330
32E
100
AcDbEntity
  8
치수문자_일반주서
 62
     0
100
AcDbTrace
 10
23.96927014180172
 20
3.603396075327908
 30
0.0
 11
25.06993680846839
 21
3.603396075327914
 31
0.0
 12
24.51960347513507
 22
0.3013960753279115
 32
0.0
 13
24.51960347513507
 23
0.3013960753279115
 33
0.0
  0
SOLID
  5
338
330
32E
100
AcDbEntity
  8
치수문자_일반주서
 62
     0
100
AcDbTrace
 10
25.06993680846843
 20
-3.599127797056305
 30
0.0
 11
23.96927014180176
 21
-3.599127797056311
 31
0.0
 12
24.51960347513508
 22
-0.2971277970563087
 32
0.0
 13
24.51960347513508
 23
-0.2971277970563087
 33
0.0
  0
MTEXT
  5
339
330
32E
100
AcDbEntity
  8
치수문자_일반주서
 62
     0
100
AcDbMText
 10
20.144603475135
 20
12.80737779705706
 30
0.0
 40
3.5
 41
0.0
 71
     2
 72
     1
  1
\A1;%%c0.60
  7
SLDTEXTSTYLE0
 11
-5.935792777401279E-15
 21
1.0
 31
0.0
 73
     1
 44
1.0
  0
POINT
  5
33A
330
32E
100
AcDbEntity
  8
Defpoints
 62
     0
100
AcDbPoint
 10
10.26710859425316
 20
0.3013960753278582
 30
0.0
  0
POINT
  5
33B
330
32E
100
AcDbEntity
  8
Defpoints
 62
     0
100
AcDbPoint
 10
10.38778764304857
 20
-0.2971277970563619
 30
0.0
  0
POINT
  5
33C
330
32E
100
AcDbEntity
  8
Defpoints
 62
     0
100
AcDbPoint
 10
24.519603475135
 20
-0.2971277970563092
 30
0.0
  0
ENDBLK
  5
330
330
32E
100
AcDbEntity
  8
0
100
AcDbBlockEnd
  0
BLOCK
  5
383
330
382
100
AcDbEntity
  8
0
100
AcDbBlockBegin
  2
*D31
 70
     1
 10
0.0
 20
0.0
 30
0.0
  3
*D31
  1
*D31
  0
LINE
  5
384
330
382
100
AcDbEntity
  8
치수문자_일반주서
 62
     0
370
    -2
100
AcDbLine
 10
2.309231296916219
 20
19.80244862043979
 30
0.0
 11
13.55975347838097
 21
-1.942868738131299
 31
0.0
  0
MTEXT
  5
385
330
382
100
AcDbEntity
  8
치수문자_일반주서
 62
     0
100
AcDbMText
 10
13.27768853946749
 20
4.314824177012088
 30
0.0
 40
3.5
 41
0.0
 71
     5
 72
     1
  1
\A1;R0.20
  7
SLDTEXTSTYLE0
 11
0.4595177889531491
 21
-0.8881685660028783
 31
0.0
 73
     1
 44
1.0
  0
LINE
  5
386
330
382
100
AcDbEntity
  8
치수문자_일반주서
 62
     0
370
    -2
100
AcDbLine
 10
0.7000000000023192
 20
22.91281493858182
 30
0.0
 11
0.7919035577929208
 21
22.7351812253813
 31
0.0
  0
SOLID
  5
387
330
382
100
AcDbEntity
  8
치수문자_일반주서
 62
     0
100
AcDbTrace
 10
2.79802006440647
 20
20.05533657696034
 30
0.0
 11
1.820442529425969
 21
19.54956066391924
 31
0.0
 12
0.7919035577929208
 22
22.7351812253813
 32
0.0
 13
0.7919035577929208
 23
22.7351812253813
 33
0.0
  0
POINT
  5
388
330
382
100
AcDbEntity
  8
Defpoints
 62
     0
100
AcDbPoint
 10
0.7919035577929208
 20
22.7351812253813
 30
0.0
  0
POINT
  5
389
330
382
100
AcDbEntity
  8
Defpoints
 62
     0
100
AcDbPoint
 10
0.7000000000023192
 20
22.91281493858182
 30
0.0
  0
ENDBLK
  5
38B
330
382
100
AcDbEntity
  8
0
100
AcDbBlockEnd
  0
BLOCK
  5
3AF
330
3AE
100
AcDbEntity
  8
0
100
AcDbBlockBegin
  2
*D32
 70
     1
 10
0.0
 20
0.0
 30
0.0
  3
*D32
  1
*D32
  0
LINE
  5
3B1
330
3AE
100
AcDbEntity
  8
치수문자_일반주서
 62
     0
370
    -2
100
AcDbLine
 10
11.84701893997102
 20
-3.206943057935018
 30
0.0
 11
23.09754112143576
 21
-24.95226041650611
 31
0.0
  0
MTEXT
  5
3B2
330
3AE
100
AcDbEntity
  8
치수문자_일반주서
 62
     0
100
AcDbMText
 10
22.81547618252229
 20
-18.69456750136272
 30
0.0
 40
3.5
 41
0.0
 71
     5
 72
     1
  1
\A1;R0.20
  7
SLDTEXTSTYLE0
 11
0.4595177889531491
 21
-0.8881685660028783
 31
0.0
 73
     1
 44
1.0
  0
LINE
  5
3B3
330
3AE
100
AcDbEntity
  8
치수문자_일반주서
 62
     0
370
    -2
100
AcDbLine
 10
10.23778764305712
 20
-0.0965767397929937
 30
0.0
 11
10.32969120084772
 21
-0.2742104529935148
 31
0.0
  0
SOLID
  5
3B4
330
3AE
100
AcDbEntity
  8
치수문자_일반주서
 62
     0
100
AcDbTrace
 10
12.33580770746127
 20
-2.954055101414469
 30
0.0
 11
11.35823017248077
 21
-3.459831014455568
 31
0.0
 12
10.32969120084772
 22
-0.2742104529935148
 32
0.0
 13
10.32969120084772
 23
-0.2742104529935148
 33
0.0
  0
POINT
  5
3B5
330
3AE
100
AcDbEntity
  8
Defpoints
 62
     0
100
AcDbPoint
 10
10.32969120084772
 20
-0.2742104529935148
 30
0.0
  0
POINT
  5
3B6
330
3AE
100
AcDbEntity
  8
Defpoints
 62
     0
100
AcDbPoint
 10
10.23778764305712
 20
-0.0965767397929937
 30
0.0
  0
ENDBLK
  5
3B0
330
3AE
100
AcDbEntity
  8
0
100
AcDbBlockEnd
  0
ENDSEC
  0
SECTION
  2
ENTITIES
  0
INSERT
  5
E1
330
1F
100
AcDbEntity
  8
0
  6
Continuous
 62
     7
100
AcDbBlockReference
 66
     1
  2
블럭10
 10
-22.93944368806589
 20
-52.04609937292004
 30
0.0
  0
ATTRIB
  5
E2
330
E1
100
AcDbEntity
  8
FORMAT
 62
     2
100
AcDbText
 10
-42.21802657207924
 20
-49.97073246008785
 30
0.0
 40
4.233333333333333
  1
SEME610060204E [ 2 FLUTE ]
 41
0.75
  7
SLDTEXTSTYLE0
 11
-42.21802657207924
 21
-52.08739912675452
 31
0.0
100
AcDbAttribute
  2
AUTOATTR0
 70
     0
 74
     1
  0
SEQEND
  5
E3
330
E1
100
AcDbEntity
  8
0
  6
Continuous
 62
     7
  0
HATCH
  5
E4
330
1F
100
AcDbEntity
  8
중심선
100
AcDbHatch
 10
0.0
 20
0.0
 30
0.0
210
0.0
220
0.0
230
1.0
  2
SOLID
 70
     1
 71
     0
 91
        1
 92
        0
 93
        4
 72
     1
 10
-17.22453438368504
 20
-35.7989250712761
 11
-20.67080962752232
 21
-35.7989250712761
 72
     1
 10
-20.67080962752232
 20
-35.7989250712761
 11
-22.79903948672635
 21
-38.3352506518487
 72
     1
 10
-22.79903948672635
 20
-38.3352506518487
 11
-19.35273115777591
 21
-38.33521122254621
 72
     1
 10
-19.35273115777591
 20
-38.33521122254621
 11
-17.22453438368504
 21
-35.7989250712761
 97
        0
 75
     0
 76
     1
 98
        1
 10
0.0
 20
0.0
  0
HATCH
  5
E5
330
1F
100
AcDbEntity
  8
중심선
100
AcDbHatch
 10
0.0
 20
0.0
 30
0.0
210
0.0
220
0.0
230
1.0
  2
SOLID
 70
     1
 71
     0
 91
        1
 92
        0
 93
        4
 72
     1
 10
-12.21177039264909
 20
-35.7989250712761
 11
-15.65804563648637
 21
-35.7989250712761
 72
     1
 10
-15.65804563648637
 20
-35.7989250712761
 11
-20.18918364484376
 21
-41.19892507127612
 72
     1
 10
-20.18918364484376
 20
-41.19892507127612
 11
-16.74290840100648
 21
-41.19892507127612
 72
     1
 10
-16.74290840100648
 20
-41.19892507127612
 11
-12.21177039264909
 21
-35.7989250712761
 97
        0
 75
     0
 76
     1
 98
        1
 10
0.0
 20
0.0
  0
HATCH
  5
E6
330
1F
100
AcDbEntity
  8
중심선
100
AcDbHatch
 10
0.0
 20
0.0
 30
0.0
210
0.0
220
0.0
230
1.0
  2
SOLID
 70
     1
 71
     0
 91
        1
 92
        0
 93
        4
 72
     1
 10
-7.199006401613195
 20
-35.79892507127613
 11
-10.64528164545031
 21
-35.7989250712761
 72
     1
 10
-10.64528164545031
 20
-35.7989250712761
 11
-17.69371854733956
 21
-44.19892507127612
 72
     1
 10
-17.69371854733956
 20
-44.19892507127612
 11
-14.24744330350228
 21
-44.19892507127612
 72
     1
 10
-14.24744330350228
 20
-44.19892507127612
 11
-7.199006401613195
 21
-35.79892507127613
 97
        0
 75
     0
 76
     1
 98
        1
 10
0.0
 20
0.0
  0
HATCH
  5
E7
330
1F
100
AcDbEntity
  8
중심선
100
AcDbHatch
 10
0.0
 20
0.0
 30
0.0
210
0.0
220
0.0
230
1.0
  2
SOLID
 70
     1
 71
     0
 91
        1
 92
        0
 93
        6
 72
     3
 10
-2.399115970600996
 20
-39.99892507132738
 11
3.960054785062284
 21
1.540850780301639E-10
 40
0.3939339440162633
 50
17.09539180608433
 51
320.0019657685079
 73
     0
 72
     1
 10
-0.7161163149004002
 20
-38.58681907591441
 11
1.589185558800638
 21
-36.65249236586649
 72
     3
 10
-2.399115970653842
 20
-39.99892507127625
 11
6.600054785286829
 21
-1.249000902703301E-13
 40
0.6363583540795982
 50
39.99873849337408
 51
368.4976242363725
 73
     1
 72
     1
 10
4.026216521246767
 20
-39.03892507120613
 11
-3.71904866381792
 21
-39.0389250712061
 72
     1
 10
-3.71904866381792
 20
-39.0389250712061
 11
-3.719073708263854
 21
-40.95892507120602
 72
     1
 10
-3.719073708263854
 20
-40.95892507120602
 11
0.7223060612081831
 21
-40.95892507120599
 97
        0
 75
     0
 76
     1
 98
        1
 10
0.0
 20
0.0
  0
LINE
  5
2DC
330
1F
100
AcDbEntity
  8
0
  6
Continuous
 62
     4
370
    25
100
AcDbLine
 10
0.0
 20
2.0
 30
0.0
 11
-33.56221235694352
 21
2.0
 31
0.0
  0
LINE
  5
2DD
330
1F
100
AcDbEntity
  8
0
  6
Continuous
 62
     4
370
    25
100
AcDbLine
 10
-33.56221235694352
 20
-2.0
 30
0.0
 11
0.0
 21
-2.0
 31
0.0
  0
LINE
  5
2DE
330
1F
100
AcDbEntity
  8
0
  6
Continuous
 62
     4
370
    25
100
AcDbLine
 10
-33.56221235694352
 20
2.0
 30
0.0
 11
-34.56221235694352
 21
1.0
 31
0.0
  0
LINE
  5
2DF
330
1F
100
AcDbEntity
  8
0
  6
Continuous
 62
     4
370
    25
100
AcDbLine
 10
-34.56221235694352
 20
-1.0
 30
0.0
 11
-33.56221235694352
 21
-2.0
 31
0.0
  0
LINE
  5
2E0
330
1F
100
AcDbEntity
  8
0
  6
Continuous
 62
     4
370
    25
100
AcDbLine
 10
7.358253891947015
 20
0.2750000000000057
 30
0.0
 11
7.202433075679664
 21
0.2750000000000057
 31
0.0
  0
LINE
  5
2E1
330
1F
100
AcDbEntity
  8
0
  6
Continuous
 62
     4
370
    25
100
AcDbLine
 10
8.9903999797516
 20
0.2750000000000057
 30
0.0
 11
8.834820406248582
 21
0.2750000000000057
 31
0.0
  0
LINE
  5
2E2
330
1F
100
AcDbEntity
  8
0
  6
Continuous
 62
     4
370
    25
100
AcDbLine
 10
0.0
 20
2.0
 30
0.0
 11
0.0
 21
-2.0
 31
0.0
  0
LINE
  5
2E3
330
1F
100
AcDbEntity
  8
0
  6
Continuous
 62
     4
370
    25
100
AcDbLine
 10
-33.56221235694352
 20
2.0
 30
0.0
 11
-33.56221235694352
 21
-2.0
 31
0.0
  0
LINE
  5
2E4
330
1F
100
AcDbEntity
  8
0
  6
Continuous
 62
     4
370
    25
100
AcDbLine
 10
-34.56221235694352
 20
1.0
 30
0.0
 11
-34.56221235694352
 21
-1.0
 31
0.0
  0
LINE
  5
2E5
330
1F
100
AcDbEntity
  8
중심선
100
AcDbLine
 10
-37.56221235694352
 20
0.0
 30
0.0
 11
11.93778764305648
 21
0.0
 31
0.0
  0
CIRCLE
  5
2E6
330
1F
100
AcDbEntity
  8
외형선
100
AcDbCircle
 10
0.0
 20
0.0
 30
0.0
 40
3.000000000000005
  0
DIMENSION
  5
2E7
330
1F
100
AcDbEntity
  8
치수문자_일반주서
100
AcDbDimension
  2
*D25
 10
-46.05867037855568
 20
-2.000000000000047
 30
0.0
 11
-46.05867037855569
 21
0.0
 31
0.0
 70
   160
  1
%%c<>
 71
     2
 42
4.0
 52
-270.0
  3
SLDDIMSTYLE0
100
AcDbAlignedDimension
 13
-33.56221235694352
 23
2.0
 33
0.0
 14
-33.56221235694352
 24
-2.0
 34
0.0
 50
90.0000000000002
100
AcDbRotatedDimension
  0
DIMENSION
  5
2E8
330
1F
100
AcDbEntity
  8
치수문자_일반주서
100
AcDbDimension
  2
*D26
 10
9.53778764305639
 20
19.76173691457851
 30
0.0
 11
21.41678764305648
 21
19.76173691457851
 31
0.0
 70
   160
  1
<>
 71
     2
 42
0.900000000000091
  3
SLDDIMSTYLE1
100
AcDbAlignedDimension
 13
10.43778764305648
 23
0.25
 33
0.0
 14
9.53778764305639
 24
0.2372036802973128
 34
0.0
100
AcDbRotatedDimension
  0
DIMENSION
  5
2E9
330
1F
100
AcDbEntity
  8
치수문자_일반주서
100
AcDbDimension
  2
*D27
 10
-34.56221235694352
 20
40.80832450504428
 30
0.0
 11
-12.06221235694352
 21
40.80832450504428
 31
0.0
 70
   160
  1
<>
 71
     2
 42
45.0
  3
SLDDIMSTYLE2
100
AcDbAlignedDimension
 13
10.43778764305648
 23
0.25
 33
0.0
 14
-34.56221235694352
 24
1.0
 34
0.0
100
AcDbRotatedDimension
  0
DIMENSION
  5
2EA
330
1F
100
AcDbEntity
  8
치수문자_일반주서
100
AcDbDimension
  2
*D28
 10
6.437787643056481
 20
30.12000000000015
 30
0.0
 11
30.5429523010614
 21
30.12000000000015
 31
0.0
 70
   160
  1
<>
 71
     2
 42
4.0
  3
SLDDIMSTYLE0
100
AcDbAlignedDimension
 13
10.43778764305648
 23
0.2495890589671319
 33
0.0
 14
6.437787643056481
 24
0.2750000000000057
 34
0.0
 50
0.0000000000001916
100
AcDbRotatedDimension
  0
DIMENSION
  5
2EB
330
1F
100
AcDbEntity
  8
치수문자_일반주서
100
AcDbDimension
  2
*D29
 10
24.51960347513508
 20
-0.2971277970563087
 30
0.0
 11
24.519603475135
 21
12.80737779705709
 31
0.0
 70
   160
  1
%%c<>
 71
     2
 42
0.5985238723842206
 52
-270.0
  3
SLDDIMSTYLE1
100
AcDbAlignedDimension
 13
10.26710859425316
 23
0.3013960753278582
 33
0.0
 14
10.38778764304857
 24
-0.2971277970563619
 34
0.0
 50
90.0000000000002
100
AcDbRotatedDimension
  0
INSERT
  5
2EC
330
1F
100
AcDbEntity
  8
외형선
100
AcDbBlockReference
  2
SW_DOWELSYMBOL_0
 10
0.0
 20
0.0
 30
0.0
  0
LINE
  5
2ED
330
1F
100
AcDbEntity
  8
0
  6
Continuous
 62
     4
370
    25
100
AcDbLine
 10
9.537787643055708
 20
-0.2368485107049594
 30
0.0
 11
9.109456281429175
 21
-0.2749999999999773
 31
0.0
  0
SPLINE
  5
2EE
330
1F
100
AcDbEntity
  8
0
  6
Continuous
 62
     4
370
    25
100
AcDbSpline
210
0.0
220
0.0
230
1.0
 70
     8
 71
     3
 72
    10
 73
     6
 74
     0
 42
0.000000001
 43
0.00000001
 40
0.0
 40
0.0
 40
0.0
 40
0.0
 40
0.415017113390556
 40
0.6301776484419828
 40
0.75223556160086
 40
0.75223556160086
 40
0.75223556160086
 40
0.75223556160086
 10
9.53778764305639
 20
0.2370866248698178
 30
0.0
 10
9.489982632323517
 20
0.2355347832429118
 30
0.0
 10
9.417393699782224
 20
0.2331784083474133
 30
0.0
 10
9.339136895065622
 20
0.2350819058329421
 30
0.0
 10
9.301871695770842
 20
0.236206390474166
 30
0.0
 10
9.288299881603507
 20
0.2367827728020018
 30
0.0
  0
SPLINE
  5
2EF
330
1F
100
AcDbEntity
  8
0
  6
Continuous
 62
     4
370
    25
100
AcDbSpline
210
0.0
220
0.0
230
1.0
 70
     8
 71
     3
 72
     9
 73
     5
 74
     0
 42
0.000000001
 43
0.00000001
 40
0.0
 40
0.0
 40
0.0
 40
0.0
 40
0.1610070414849088
 40
0.6832465805867584
 40
0.6832465805867584
 40
0.6832465805867584
 40
0.6832465805867584
 10
9.537787643056163
 20
0.1361041183288876
 30
0.0
 10
9.508442555025795
 20
0.1489045672646796
 30
0.0
 10
9.383914268133594
 20
0.2032243217592224
 30
0.0
 10
9.259086579184213
 20
0.2500575653469923
 30
0.0
 10
9.16375812188744
 20
0.2750000000000057
 30
0.0
  0
LINE
  5
2F0
330
1F
100
AcDbEntity
  8
0
  6
Continuous
 62
     4
370
    25
100
AcDbLine
 10
6.437787643056481
 20
0.2750000000000057
 30
0.0
 11
3.14343484923711
 21
0.8558832815226651
 31
0.0
  0
LINE
  5
2F1
330
1F
100
AcDbEntity
  8
0
  6
Continuous
 62
     4
370
    25
100
AcDbLine
 10
6.437787643056481
 20
-0.2750000000000057
 30
0.0
 11
3.14343484923711
 21
-0.8558832815226367
 31
0.0
  0
LINE
  5
2F2
330
1F
100
AcDbEntity
  8
0
  6
Continuous
 62
     4
370
    25
100
AcDbLine
 10
0.0
 20
2.0
 30
0.0
 11
3.14343484923711
 21
0.8558832815226651
 31
0.0
  0
LINE
  5
2F3
330
1F
100
AcDbEntity
  8
0
  6
Continuous
 62
     4
370
    25
100
AcDbLine
 10
0.0
 20
-1.999999999999972
 30
0.0
 11
3.14343484923711
 21
-0.8558832815226367
 31
0.0
  0
LINE
  5
2F4
330
1F
100
AcDbEntity
  8
0
  6
Continuous
 62
     4
370
    25
100
AcDbLine
 10
3.14343484923711
 20
0.8558832815226651
 30
0.0
 11
3.14343484923711
 21
-0.8558832815226367
 31
0.0
  0
LINE
  5
2F5
330
1F
100
AcDbEntity
  8
0
  6
Continuous
 62
     4
370
    25
100
AcDbLine
 10
6.437787643056481
 20
0.2750000000000057
 30
0.0
 11
6.437787643056481
 21
-0.2749999999999773
 31
0.0
  0
LINE
  5
2F6
330
1F
100
AcDbEntity
  8
0
  6
Continuous
 62
     4
370
    25
100
AcDbLine
 10
6.437787643056481
 20
-0.2749999999999773
 30
0.0
 11
9.109456281429175
 21
-0.2749999999999773
 31
0.0
  0
LINE
  5
2F7
330
1F
100
AcDbEntity
  8
0
  6
Continuous
 62
     4
370
    25
100
AcDbLine
 10
9.16375812188744
 20
0.2750000000000057
 30
0.0
 11
6.437787643056481
 21
0.2750000000000057
 31
0.0
  0
SPLINE
  5
38F
330
1F
100
AcDbEntity
  8
0
  6
Continuous
 62
     1
370
    25
100
AcDbSpline
210
0.0
220
0.0
230
1.0
 70
     8
 71
     3
 72
     9
 73
     5
 74
     0
 42
0.000000001
 43
0.00000001
 40
0.0
 40
0.0
 40
0.0
 40
0.0
 40
0.4993175106579615
 40
1.0
 40
1.0
 40
1.0
 40
1.0
 10
9.659840425164703
 20
0.0774984034468105
 30
0.0
 10
9.646242557338383
 20
0.0840828590411888
 30
0.0
 10
9.619009649346708
 20
0.0972697700824199
 30
0.0
 10
9.591755263817959
 20
0.1117117780158594
 30
0.0
 10
9.578109470226082
 20
0.1189426384990497
 30
0.0
  0
SPLINE
  5
390
330
1F
100
AcDbEntity
  8
0
  6
Continuous
 62
     1
370
    25
100
AcDbSpline
210
0.0
220
0.0
230
1.0
 70
     8
 71
     3
 72
     9
 73
     5
 74
     0
 42
0.000000001
 43
0.00000001
 40
0.0
 40
0.0
 40
0.0
 40
0.0
 40
0.4952161659656346
 40
1.0
 40
1.0
 40
1.0
 40
1.0
 10
9.658669211774622
 20
0.2399163887799887
 30
0.0
 10
9.638739859533189
 20
0.2397625496751914
 30
0.0
 10
9.5984961162726
 20
0.2394518992656742
 30
0.0
 10
9.55815246568045
 20
0.2382425543785587
 30
0.0
 10
9.537787643055708
 20
0.2376320966297953
 30
0.0
  0
SPLINE
  5
391
330
1F
100
AcDbEntity
  8
0
  6
Continuous
 62
     1
370
    25
100
AcDbSpline
210
0.0
220
0.0
230
1.0
 70
     8
 71
     3
 72
    10
 73
     6
 74
     0
 42
0.000000001
 43
0.00000001
 40
0.0
 40
0.0
 40
0.0
 40
0.0
 40
0.4058666001279931
 40
0.610584502370662
 40
1.0
 40
1.0
 40
1.0
 40
1.0
 10
10.28650705968153
 20
0.2017279986335438
 30
0.0
 10
10.22360552939745
 20
0.1994823003756778
 30
0.0
 10
10.12897665489822
 20
0.1961038786163272
 30
0.0
 10
9.963094705623462
 20
0.2041707941969264
 30
0.0
 10
9.86606725241063
 20
0.2174902042277154
 30
0.0
 10
9.80247211706751
 20
0.2262202044034041
 30
0.0
  0
SPLINE
  5
392
330
1F
100
AcDbEntity
  8
0
  6
Continuous
 62
     1
370
    25
100
AcDbSpline
210
0.0
220
0.0
230
1.0
 70
     8
 71
     3
 72
     9
 73
     5
 74
     0
 42
0.000000001
 43
0.00000001
 40
0.0
 40
0.0
 40
0.0
 40
0.0
 40
0.9983496557978734
 40
1.0
 40
1.0
 40
1.0
 40
1.0
 10
9.80247211706751
 20
-0.2251292608833637
 30
0.0
 10
9.881145407158783
 20
-0.2124513735251412
 30
0.0
 10
9.95994874988969
 20
-0.1997525287019641
 30
0.0
 10
10.03554196365121
 20
-0.1999627414436986
 30
0.0
 10
10.03566671847329
 20
-0.1999630883670704
 30
0.0
  0
LINE
  5
393
330
1F
100
AcDbEntity
  8
0
  6
Continuous
 62
     1
370
    25
100
AcDbLine
 10
9.635963498683168
 20
-0.2385665814783238
 30
0.0
 11
9.658669211774622
 21
-0.2388254452599483
 31
0.0
  0
SPLINE
  5
394
330
1F
100
AcDbEntity
  8
0
  6
Continuous
 62
     1
370
    25
100
AcDbSpline
210
0.0
220
0.0
230
1.0
 70
     8
 71
     3
 72
     9
 73
     5
 74
     0
 42
0.000000001
 43
0.00000001
 40
0.0
 40
0.0
 40
0.0
 40
0.0
 40
0.6216482520318499
 40
1.0
 40
1.0
 40
1.0
 40
1.0
 10
9.537787643055708
 20
-0.236541153109755
 30
0.0
 10
9.558154430234026
 20
-0.2371692825677485
 30
0.0
 10
9.590916988661093
 20
-0.2381797084089499
 30
0.0
 10
9.623598421458382
 20
-0.2384603864506403
 30
0.0
 10
9.635963498683168
 20
-0.2385665814783238
 30
0.0
  0
SPLINE
  5
395
330
1F
100
AcDbEntity
  8
0
  6
Continuous
 62
     4
370
    25
100
AcDbSpline
210
0.0
220
0.0
230
1.0
 70
    24
 71
     3
 72
     8
 73
     4
 74
     0
 42
0.000000001
 43
0.00000001
 40
0.0
 40
0.0
 40
0.0
 40
0.0
 40
1.0
 40
1.0
 40
1.0
 40
1.0
 10
9.53778764305639
 20
0.0606706479557602
 30
0.0
 10
9.53778764305639
 20
0.0578234489759382
 30
0.0
 10
9.53778764305639
 20
0.0480253501912387
 30
0.0
 10
9.53778764305639
 20
0.0344654985380828
 30
0.0
  0
SPLINE
  5
396
330
1F
100
AcDbEntity
  8
0
  6
Continuous
 62
     4
370
    25
100
AcDbSpline
210
0.0
220
0.0
230
1.0
 70
    24
 71
     3
 72
    10
 73
     6
 74
     0
 42
0.000000001
 43
0.00000001
 40
0.0
 40
0.0
 40
0.0
 40
0.0
 40
0.5
 40
0.5
 40
1.0
 40
1.0
 40
1.0
 40
1.0
 10
9.53778764305639
 20
0.2373939824650222
 30
0.0
 10
9.53778764305639
 20
0.2395402662091044
 30
0.0
 10
9.53778764305639
 20
0.2315957610438488
 30
0.0
 10
9.53778764305639
 20
0.1948986899566592
 30
0.0
 10
9.53778764305639
 20
0.1663040825746123
 30
0.0
 10
9.53778764305639
 20
0.1324100944277404
 30
0.0
  0
SPLINE
  5
397
330
1F
100
AcDbEntity
  8
0
  6
Continuous
 62
     4
370
    25
100
AcDbSpline
210
0.0
220
0.0
230
1.0
 70
    24
 71
     3
 72
    10
 73
     6
 74
     0
 42
0.000000001
 43
0.00000001
 40
0.0
 40
0.0
 40
0.0
 40
0.0
 40
0.4999999999999999
 40
0.4999999999999999
 40
1.0
 40
1.0
 40
1.0
 40
1.0
 10
9.53778764305639
 20
0.0344654985380828
 30
0.0
 10
9.53778764305639
 20
-0.0186125489026381
 30
0.0
 10
9.53778764305639
 20
-0.0744976832592386
 30
0.0
 10
9.53778764305639
 20
-0.1707444345957754
 30
0.0
 10
9.53778764305639
 20
-0.2103603234447462
 30
0.0
 10
9.53778764305639
 20
-0.2363030389450103
 30
0.0
  0
SPLINE
  5
398
330
1F
100
AcDbEntity
  8
0
  6
Continuous
 62
     1
370
    25
100
AcDbSpline
210
0.0
220
0.0
230
1.0
 70
     8
 71
     3
 72
    14
 73
    10
 74
     0
 42
0.000000001
 43
0.00000001
 40
0.0
 40
0.0
 40
0.0
 40
0.0
 40
0.25
 40
0.25
 40
0.5
 40
0.5
 40
0.75
 40
0.75
 40
1.0
 40
1.0
 40
1.0
 40
1.0
 10
10.30491372253505
 20
-0.2849754909934461
 30
0.0
 10
10.2621735468299
 20
-0.2786951151949211
 30
0.0
 10
10.24300828422838
 20
-0.2766144093602634
 30
0.0
 10
10.10530938121701
 20
-0.2343963606298018
 30
0.0
 10
10.03220967327411
 20
-0.2056305686174653
 30
0.0
 10
9.889953210251633
 20
-0.138662837832868
 30
0.0
 10
9.821389321083188
 20
-0.1007758919305957
 30
0.0
 10
9.677315794089509
 20
-0.0202533186325695
 30
0.0
 10
9.609303398007569
 20
0.0209538987099052
 30
0.0
 10
9.53778764305639
 20
0.0611313932259065
 30
0.0
  0
LINE
  5
399
330
1F
100
AcDbEntity
  8
0
  6
Continuous
 62
     1
370
    25
100
AcDbLine
 10
9.69147229870805
 20
-0.0262747102293872
 30
0.0
 11
9.537787643054799
 21
0.0344654985386796
 31
0.0
  0
SPLINE
  5
39A
330
1F
100
AcDbEntity
  8
0
  6
Continuous
 62
     4
370
    25
100
AcDbSpline
210
0.0
220
0.0
230
1.0
 70
    24
 71
     3
 72
     8
 73
     4
 74
     0
 42
0.000000001
 43
0.00000001
 40
0.0
 40
0.0
 40
0.0
 40
0.0
 40
1.0
 40
1.0
 40
1.0
 40
1.0
 10
9.53778764305639
 20
0.0611313932259065
 30
0.0
 10
9.53778764305639
 20
0.063865513482483
 30
0.0
 10
9.53778764305639
 20
0.0530837434506282
 30
0.0
 10
9.53778764305639
 20
0.0344654985380828
 30
0.0
  0
LINE
  5
39B
330
1F
100
AcDbEntity
  8
0
  6
Continuous
 62
     4
370
    25
100
AcDbLine
 10
9.53778764305639
 20
0.0611313932258781
 30
0.0
 11
9.53778764305639
 21
0.1399219842191428
 31
0.0
  0
SPLINE
  5
39C
330
1F
100
AcDbEntity
  8
0
  6
Continuous
 62
     1
370
    25
100
AcDbSpline
210
0.0
220
0.0
230
1.0
 70
     8
 71
     3
 72
    16
 73
    12
 74
     0
 42
0.000000001
 43
0.00000001
 40
0.0
 40
0.0
 40
0.0
 40
0.0
 40
0.2500000000000024
 40
0.2500000000000024
 40
0.3750000000000036
 40
0.3750000000000036
 40
0.5000000000000048
 40
0.5000000000000048
 40
0.7500000000000023
 40
0.7500000000000023
 40
1.0
 40
1.0
 40
1.0
 40
1.0
 10
10.43778764305648
 20
0.000545471760006
 30
0.0
 10
10.36528182027632
 20
0.0348211510547856
 30
0.0
 10
10.28640193219758
 20
0.0700491116054422
 30
0.0
 10
10.17438199360481
 20
0.1171552596208016
 30
0.0
 10
10.13854653262911
 20
0.1318739081408751
 30
0.0
 10
10.06323481177583
 20
0.1595156745918587
 30
0.0
 10
10.02473653427728
 20
0.1722863696019203
 30
0.0
 10
9.910763313939242
 20
0.2060697780108569
 30
0.0
 10
9.838655401812275
 20
0.2224806034679716
 30
0.0
 10
9.685935330664506
 20
0.2411295615270319
 30
0.0
 10
9.61358587053246
 20
0.2430123362164807
 30
0.0
 10
9.537787643055708
 20
0.2373939824649938
 30
0.0
  0
SPLINE
  5
39D
330
1F
100
AcDbEntity
  8
0
  6
Continuous
 62
     4
370
    25
100
AcDbSpline
210
0.0
220
0.0
230
1.0
 70
    24
 71
     3
 72
    13
 73
     9
 74
     0
 42
0.000000001
 43
0.00000001
 40
0.0
 40
0.0
 40
0.0
 40
0.0
 40
0.0469855834057623
 40
0.1964905724437145
 40
0.4071571113148414
 40
0.6239329940849647
 40
0.8098894176979164
 40
1.0
 40
1.0
 40
1.0
 40
1.0
 10
9.53778764305639
 20
0.2370866248698178
 30
0.0
 10
9.53778764305639
 20
0.23708828040958
 30
0.0
 10
9.53778764305639
 20
0.2370952037662448
 30
0.0
 10
9.53778764305639
 20
0.2317210695729841
 30
0.0
 10
9.53778764305639
 20
0.2186738206109169
 30
0.0
 10
9.53778764305639
 20
0.1957164442531791
 30
0.0
 10
9.53778764305639
 20
0.1669617062827058
 30
0.0
 10
9.53778764305639
 20
0.1440118024181629
 30
0.0
 10
9.53778764305639
 20
0.1324100944277404
 30
0.0
  0
LINE
  5
39E
330
1F
100
AcDbEntity
  8
0
  6
Continuous
 62
     1
370
    25
100
AcDbLine
 10
9.806264962467367
 20
-0.2142552588771025
 30
0.0
 11
9.537787643055708
 21
-0.2363030389449534
 31
0.0
  0
SPLINE
  5
39F
330
1F
100
AcDbEntity
  8
0
  6
Continuous
 62
     4
370
    25
100
AcDbSpline
210
0.0
220
0.0
230
1.0
 70
    24
 71
     3
 72
    10
 73
     6
 74
     0
 42
0.000000001
 43
0.00000001
 40
0.0
 40
0.0
 40
0.0
 40
0.0
 40
0.5
 40
0.5
 40
1.0
 40
1.0
 40
1.0
 40
1.0
 10
9.53778764305639
 20
0.0344654985380828
 30
0.0
 10
9.53778764305639
 20
-0.0186125489026381
 30
0.0
 10
9.53778764305639
 20
-0.0744976832592386
 30
0.0
 10
9.53778764305639
 20
-0.1707444345957754
 30
0.0
 10
9.53778764305639
 20
-0.2103603234447462
 30
0.0
 10
9.53778764305639
 20
-0.2363030389450103
 30
0.0
  0
SPLINE
  5
3A0
330
1F
100
AcDbEntity
  8
0
  6
Continuous
 62
     1
370
    25
100
AcDbSpline
210
0.0
220
0.0
230
1.0
 70
    24
 71
     3
 72
     8
 73
     4
 74
     0
 42
0.000000001
 43
0.00000001
 40
0.9423142249802522
 40
0.9423142249802522
 40
0.9423142249802522
 40
0.9423142249802522
 40
1.0
 40
1.0
 40
1.0
 40
1.0
 10
10.43778764305648
 20
0.2476732650875419
 30
0.0
 10
10.43778764305648
 20
0.2484911453527445
 30
0.0
 10
10.43778764305648
 20
0.2493116334216268
 30
0.0
 10
10.43778764305648
 20
0.2501345307271379
 30
0.0
  0
LINE
  5
3A1
330
1F
100
AcDbEntity
  8
0
  6
Continuous
 62
     1
370
    25
100
AcDbLine
 10
10.4053502402885
 20
0.2068591482222359
 30
0.0
 11
10.28516760728212
 21
0.1932010858905358
 31
0.0
  0
SPLINE
  5
3A2
330
1F
100
AcDbEntity
  8
0
  6
Continuous
 62
     1
370
    25
100
AcDbSpline
210
0.0
220
0.0
230
1.0
 70
     8
 71
     3
 72
     9
 73
     5
 74
     0
 42
0.000000001
 43
0.00000001
 40
0.0
 40
0.0
 40
0.0
 40
0.0
 40
0.1930116495820262
 40
0.7639148820267527
 40
0.7639148820267527
 40
0.7639148820267527
 40
0.7639148820267527
 10
10.03674752610937
 20
0.2015575333426511
 30
0.0
 10
10.05933309529519
 20
0.2125978862966633
 30
0.0
 10
10.14872382615249
 20
0.256294160291958
 30
0.0
 10
10.23811141887063
 20
0.275612395668162
 30
0.0
 10
10.30491372253528
 20
0.2860664345134865
 30
0.0
  0
LINE
  5
3A3
330
1F
100
AcDbEntity
  8
0
  6
Continuous
 62
     1
370
    25
100
AcDbLine
 10
10.43778764305648
 20
0.000545471760006
 30
0.0
 11
10.43778764305648
 21
0.0976676833129773
 31
0.0
  0
ARC
  5
3A4
330
1F
100
AcDbEntity
  8
0
  6
Continuous
 62
     1
370
    25
100
AcDbCircle
 10
10.23778764305712
 20
0.0976676833129773
 30
0.0
 40
0.1999999999999999
100
AcDbArc
 50
0.0
 51
70.38912336467384
  0
ARC
  5
3A5
102
{ACAD_REACTORS
102
}
330
1F
100
AcDbEntity
  8
0
  6
Continuous
 62
     1
370
    25
100
AcDbCircle
 10
10.23778764305712
 20
-0.0965767397929937
 30
0.0
 40
0.1999999999999999
100
AcDbArc
 50
289.6108766353262
 51
0.0
  0
SPLINE
  5
3A6
330
1F
100
AcDbEntity
  8
0
  6
Continuous
 62
     1
370
    25
100
AcDbSpline
210
0.0
220
0.0
230
1.0
 70
     8
 71
     3
 72
    11
 73
     7
 74
     0
 42
0.000000001
 43
0.00000001
 40
0.0588052641982274
 40
0.0588052641982274
 40
0.0588052641982274
 40
0.0588052641982274
 40
0.3137463202272506
 40
0.6270649207262846
 40
0.9400481295221594
 40
1.0
 40
1.0
 40
1.0
 40
1.0
 10
10.39139200631234
 20
-0.2246614757645489
 30
0.0
 10
10.32434553272174
 20
-0.2078986699373218
 30
0.0
 10
10.17490785909104
 20
-0.1681277058033572
 30
0.0
 10
9.943308890740127
 20
-0.0620622355818625
 30
0.0
 10
9.7626727516963
 20
0.0304121819171996
 30
0.0
 10
9.664889029152846
 20
0.0746063106198847
 30
0.0
 10
9.64916962544271
 20
0.081710819761355
 30
0.0
  0
SPLINE
  5
3A7
330
1F
100
AcDbEntity
  8
0
  6
Continuous
 62
     1
370
    25
100
AcDbSpline
210
0.0
220
0.0
230
1.0
 70
    24
 71
     3
 72
     8
 73
     4
 74
     0
 42
0.000000001
 43
0.00000001
 40
0.6072853960207094
 40
0.6072853960207094
 40
0.6072853960207094
 40
0.6072853960207094
 40
1.0
 40
1.0
 40
1.0
 40
1.0
 10
10.43778764305648
 20
-0.0965767397934485
 30
0.0
 10
10.43778764305648
 20
-0.0652959874351211
 30
0.0
 10
10.43778764305648
 20
-0.0322182964279989
 30
0.0
 10
10.43778764305648
 20
0.000545471760006
 30
0.0
  0
SPLINE
  5
3A8
330
1F
100
AcDbEntity
  8
0
  6
Continuous
 62
     1
370
    25
100
AcDbSpline
210
0.0
220
0.0
230
1.0
 70
     8
 71
     3
 72
     8
 73
     4
 74
     0
 42
0.000000001
 43
0.00000001
 40
0.9989570965005016
 40
0.9989570965005016
 40
0.9989570965005016
 40
0.9989570965005016
 40
1.0
 40
1.0
 40
1.0
 40
1.0
 10
10.43753753696478
 20
-0.2360846064778457
 30
0.0
 10
10.43753736303756
 20
-0.2360895191443149
 30
0.0
 10
10.43753718901985
 20
-0.236094431440165
 30
0.0
 10
10.43753701491164
 20
-0.2360993433653107
 30
0.0
  0
SPLINE
  5
3A9
330
1F
100
AcDbEntity
  8
0
  6
Continuous
 62
     1
370
    25
100
AcDbSpline
210
0.0
220
0.0
230
1.0
 70
    24
 71
     3
 72
     8
 73
     4
 74
     0
 42
0.000000001
 43
0.00000001
 40
0.0
 40
0.0
 40
0.0
 40
0.0
 40
0.0003170016890937
 40
0.0003170016890937
 40
0.0003170016890937
 40
0.0003170016890937
 10
10.43778764305648
 20
-0.2361462075504335
 30
0.0
 10
10.43770427435925
 20
-0.2361256738625741
 30
0.0
 10
10.43762090566202
 20
-0.2361051401746863
 30
0.0
 10
10.43753753696478
 20
-0.2360846064778457
 30
0.0
  0
SPLINE
  5
3AA
330
1F
100
AcDbEntity
  8
0
  6
Continuous
 62
     1
370
    25
100
AcDbSpline
210
0.0
220
0.0
230
1.0
 70
     8
 71
     3
 72
    14
 73
    10
 74
     0
 42
0.000000001
 43
0.00000001
 40
0.0466020612981141
 40
0.0466020612981141
 40
0.0466020612981141
 40
0.0466020612981141
 40
0.25
 40
0.25
 40
0.5
 40
0.5
 40
0.75
 40
0.75
 40
1.0
 40
1.0
 40
1.0
 40
1.0
 10
10.34799135086109
 20
-0.2634753401053729
 30
0.0
 10
10.28971826143038
 20
-0.2475792127916634
 30
0.0
 10
10.23017417879078
 20
-0.2266472031539308
 30
0.0
 10
10.10530938121701
 20
-0.172535159536892
 30
0.0
 10
10.03220967327411
 20
-0.1363714159478775
 30
0.0
 10
9.889953210251633
 20
-0.0589882294124777
 30
0.0
 10
9.821389321083188
 20
-0.01802669998753
 30
0.0
 10
9.677315794089509
 20
0.0639871159586107
 30
0.0
 10
9.609303398007569
 20
0.1035952322158948
 30
0.0
 10
9.53778764305639
 20
0.1399219842191428
 30
0.0
  0
DIMENSION
  5
3AB
102
{ACAD_REACTORS
102
}
102
{ACAD_XDICTIONARY
360
3AC
102
}
330
1F
100
AcDbEntity
  8
치수문자_일반주서
100
AcDbDimension
  2
*D32
 10
10.23778764305712
 20
-0.0965767397929937
 30
0.0
 11
20.48403369676473
 21
-19.90080169736474
 31
0.0
 70
   164
  1
<>
 71
     5
 42
0.1999999999999385
  3
SLDDIMSTYLE1
100
AcDbRadialDimension
 15
10.32969120084772
 25
-0.2742104529935148
 35
0.0
 40
0.0
1001
ACAD_DSTYLE_DIMRADIAL_EXTENSION
1070
   387
1070
     1
1070
   388
1040
5.05466334687452
1070
   390
1040
0.0
  0
ENDSEC
  0
SECTION
  2
OBJECTS
  0
DICTIONARY
  5
C
330
0
100
AcDbDictionary
281
     1
  3
ACAD_GROUP
350
D
  3
ACAD_IMAGE_VARS
350
151
  3
ACAD_LAYOUT
350
1A
  3
ACAD_MLINESTYLE
350
17
  3
ACAD_PLOTSETTINGS
350
19
  3
ACAD_PLOTSTYLENAME
350
E
  3
ACAD_SCALELIST
350
47
  3
APPDATA
350
14F
  3
DWGPROPS
350
3B7
  0
DICTIONARY
  5
3AC
330
3AB
100
AcDbDictionary
280
     1
281
     1
  0
DICTIONARY
  5
D
102
{ACAD_REACTORS
330
C
102
}
330
C
100
AcDbDictionary
281
     1
  0
RASTERVARIABLES
  5
151
102
{ACAD_REACTORS
330
C
102
}
330
C
100
AcDbRasterVariables
 90
        0
 70
     1
 71
     1
 72
     1
  0
DICTIONARY
  5
1A
102
{ACAD_REACTORS
330
C
102
}
330
C
100
AcDbDictionary
281
     1
  3
Layout1
350
1E
  3
Layout2
350
26
  3
Model
350
22
  0
DICTIONARY
  5
17
102
{ACAD_REACTORS
330
C
102
}
330
C
100
AcDbDictionary
281
     1
  3
Standard
350
18
  0
DICTIONARY
  5
19
102
{ACAD_REACTORS
330
C
102
}
330
C
100
AcDbDictionary
281
     1
  0
ACDBDICTIONARYWDFLT
  5
E
102
{ACAD_REACTORS
330
C
102
}
330
C
100
AcDbDictionary
281
     1
  3
Normal
350
F
100
AcDbDictionaryWithDefault
340
F
  0
DICTIONARY
  5
47
102
{ACAD_REACTORS
330
C
102
}
330
C
100
AcDbDictionary
281
     1
  3
A0
350
48
  3
A1
350
49
  3
A2
350
4A
  3
A3
350
4B
  3
A4
350
4C
  3
A5
350
4D
  3
A6
350
4E
  3
A7
350
4F
  3
A8
350
50
  3
A9
350
51
  3
B0
350
52
  3
B1
350
53
  3
B2
350
54
  3
B3
350
55
  3
B4
350
56
  3
B5
350
57
  3
B6
350
58
  3
B7
350
59
  3
B8
350
5A
  3
B9
350
5B
  3
C0
350
5C
  3
C1
350
5D
  3
C2
350
5E
  3
C3
350
5F
  3
C4
350
60
  3
C5
350
61
  3
C6
350
62
  3
C7
350
63
  3
C8
350
64
  3
C9
350
65
  3
D0
350
66
  3
D1
350
67
  3
D2
350
68
  0
DICTIONARY
  5
14F
102
{ACAD_REACTORS
330
C
102
}
330
C
100
AcDbDictionary
281
     1
  0
XRECORD
  5
3B7
102
{ACAD_REACTORS
330
C
102
}
330
C
100
AcDbXrecord
280
     1
  1
DWGPROPS COOKIE
  2

  3

  4

  6

  7

  8
12016016
  9

300
=
301
=
302
=
303
=
304
=
305
=
306
=
307
=
308
=
309
=
 40
0.0
 41
2458263.362806643
 42
2458269.306033299
  1

 90
        0
  0
LAYOUT
  5
1E
102
{ACAD_REACTORS
330
1A
102
}
330
1A
100
AcDbPlotSettings
  1

  2
none_device
  4

  6

 40
0.0
 41
0.0
 42
0.0
 43
0.0
 44
0.0
 45
0.0
 46
0.0
 47
0.0
 48
0.0
 49
0.0
140
0.0
141
0.0
142
1.0
143
1.0
 70
   688
 72
     1
 73
     0
 74
     5
  7

 75
    16
147
1.0
148
0.0
149
0.0
100
AcDbLayout
  1
Layout1
 70
     1
 71
     1
 10
0.0
 20
0.0
 11
420.0
 21
297.0
 12
0.0
 22
0.0
 32
0.0
 14
1.000000000000000E+20
 24
1.000000000000000E+20
 34
1.000000000000000E+20
 15
-1.000000000000000E+20
 25
-1.000000000000000E+20
 35
-1.000000000000000E+20
146
0.0
 13
0.0
 23
0.0
 33
0.0
 16
1.0
 26
0.0
 36
0.0
 17
0.0
 27
1.0
 37
0.0
 76
     0
330
1B
  0
LAYOUT
  5
26
102
{ACAD_REACTORS
330
1A
102
}
330
1A
100
AcDbPlotSettings
  1

  2
none_device
  4

  6

 40
0.0
 41
0.0
 42
0.0
 43
0.0
 44
0.0
 45
0.0
 46
0.0
 47
0.0
 48
0.0
 49
0.0
140
0.0
141
0.0
142
1.0
143
1.0
 70
   688
 72
     1
 73
     0
 74
     5
  7

 75
    16
147
1.0
148
0.0
149
0.0
100
AcDbLayout
  1
Layout2
 70
     1
 71
     2
 10
0.0
 20
0.0
 11
0.0
 21
0.0
 12
0.0
 22
0.0
 32
0.0
 14
0.0
 24
0.0
 34
0.0
 15
0.0
 25
0.0
 35
0.0
146
0.0
 13
0.0
 23
0.0
 33
0.0
 16
1.0
 26
0.0
 36
0.0
 17
0.0
 27
1.0
 37
0.0
 76
     0
330
23
  0
LAYOUT
  5
22
102
{ACAD_REACTORS
330
1A
102
}
330
1A
100
AcDbPlotSettings
  1

  2
none_device
  4
ANSI_A_(11.00_x_8.50_Inches)
  6

 40
6.35
 41
19.05
 42
6.35000508
 43
19.05000254
 44
279.4
 45
215.9
 46
134.9543643344755
 47
95.0827567552851
 48
0.0
 49
0.0
140
0.0
141
0.0
142
0.0877638205183223
143
1.0
 70
  1696
 72
     0
 73
     0
 74
     0
  7

 75
     0
147
0.0235690232323232
148
0.0
149
0.0
100
AcDbLayout
  1
Model
 70
     1
 71
     0
 10
0.0
 20
0.0
 11
420.0
 21
297.0
 12
0.0
 22
0.0
 32
0.0
 14
1.000000000000000E+20
 24
1.000000000000000E+20
 34
1.000000000000000E+20
 15
-1.000000000000000E+20
 25
-1.000000000000000E+20
 35
-1.000000000000000E+20
146
0.0
 13
0.0
 23
0.0
 33
0.0
 16
1.0
 26
0.0
 36
0.0
 17
0.0
 27
1.0
 37
0.0
 76
     0
330
1F
331
29
  0
MLINESTYLE
  5
18
102
{ACAD_REACTORS
330
17
102
}
330
17
100
AcDbMlineStyle
  2
Standard
 70
     0
  3

 62
   256
 51
90.0
 52
90.0
 71
     2
 49
0.5
 62
   256
  6
BYLAYER
 49
-0.5
 62
   256
  6
BYLAYER
  0
ACDBPLACEHOLDER
  5
F
102
{ACAD_REACTORS
330
E
102
}
330
E
  0
SCALE
  5
48
102
{ACAD_REACTORS
330
47
102
}
330
47
100
AcDbScale
 70
     0
300
1:1
140
1.0
141
1.0
290
     1
  0
SCALE
  5
49
102
{ACAD_REACTORS
330
47
102
}
330
47
100
AcDbScale
 70
     0
300
1:2
140
1.0
141
2.0
290
     0
  0
SCALE
  5
4A
102
{ACAD_REACTORS
330
47
102
}
330
47
100
AcDbScale
 70
     0
300
1:4
140
1.0
141
4.0
290
     0
  0
SCALE
  5
4B
102
{ACAD_REACTORS
330
47
102
}
330
47
100
AcDbScale
 70
     0
300
1:5
140
1.0
141
5.0
290
     0
  0
SCALE
  5
4C
102
{ACAD_REACTORS
330
47
102
}
330
47
100
AcDbScale
 70
     0
300
1:8
140
1.0
141
8.0
290
     0
  0
SCALE
  5
4D
102
{ACAD_REACTORS
330
47
102
}
330
47
100
AcDbScale
 70
     0
300
1:10
140
1.0
141
10.0
290
     0
  0
SCALE
  5
4E
102
{ACAD_REACTORS
330
47
102
}
330
47
100
AcDbScale
 70
     0
300
1:16
140
1.0
141
16.0
290
     0
  0
SCALE
  5
4F
102
{ACAD_REACTORS
330
47
102
}
330
47
100
AcDbScale
 70
     0
300
1:20
140
1.0
141
20.0
290
     0
  0
SCALE
  5
50
102
{ACAD_REACTORS
330
47
102
}
330
47
100
AcDbScale
 70
     0
300
1:30
140
1.0
141
30.0
290
     0
  0
SCALE
  5
51
102
{ACAD_REACTORS
330
47
102
}
330
47
100
AcDbScale
 70
     0
300
1:40
140
1.0
141
40.0
290
     0
  0
SCALE
  5
52
102
{ACAD_REACTORS
330
47
102
}
330
47
100
AcDbScale
 70
     0
300
1:50
140
1.0
141
50.0
290
     0
  0
SCALE
  5
53
102
{ACAD_REACTORS
330
47
102
}
330
47
100
AcDbScale
 70
     0
300
1:100
140
1.0
141
100.0
290
     0
  0
SCALE
  5
54
102
{ACAD_REACTORS
330
47
102
}
330
47
100
AcDbScale
 70
     0
300
2:1
140
2.0
141
1.0
290
     0
  0
SCALE
  5
55
102
{ACAD_REACTORS
330
47
102
}
330
47
100
AcDbScale
 70
     0
300
4:1
140
4.0
141
1.0
290
     0
  0
SCALE
  5
56
102
{ACAD_REACTORS
330
47
102
}
330
47
100
AcDbScale
 70
     0
300
8:1
140
8.0
141
1.0
290
     0
  0
SCALE
  5
57
102
{ACAD_REACTORS
330
47
102
}
330
47
100
AcDbScale
 70
     0
300
10:1
140
10.0
141
1.0
290
     0
  0
SCALE
  5
58
102
{ACAD_REACTORS
330
47
102
}
330
47
100
AcDbScale
 70
     0
300
100:1
140
100.0
141
1.0
290
     0
  0
SCALE
  5
59
102
{ACAD_REACTORS
330
47
102
}
330
47
100
AcDbScale
 70
     0
300
1/128" = 1'-0"
140
0.0078125
141
12.0
290
     0
  0
SCALE
  5
5A
102
{ACAD_REACTORS
330
47
102
}
330
47
100
AcDbScale
 70
     0
300
1/64" = 1'-0"
140
0.015625
141
12.0
290
     0
  0
SCALE
  5
5B
102
{ACAD_REACTORS
330
47
102
}
330
47
100
AcDbScale
 70
     0
300
1/32" = 1'-0"
140
0.03125
141
12.0
290
     0
  0
SCALE
  5
5C
102
{ACAD_REACTORS
330
47
102
}
330
47
100
AcDbScale
 70
     0
300
1/16" = 1'-0"
140
0.0625
141
12.0
290
     0
  0
SCALE
  5
5D
102
{ACAD_REACTORS
330
47
102
}
330
47
100
AcDbScale
 70
     0
300
3/32" = 1'-0"
140
0.09375
141
12.0
290
     0
  0
SCALE
  5
5E
102
{ACAD_REACTORS
330
47
102
}
330
47
100
AcDbScale
 70
     0
300
1/8" = 1'-0"
140
0.125
141
12.0
290
     0
  0
SCALE
  5
5F
102
{ACAD_REACTORS
330
47
102
}
330
47
100
AcDbScale
 70
     0
300
3/16" = 1'-0"
140
0.1875
141
12.0
290
     0
  0
SCALE
  5
60
102
{ACAD_REACTORS
330
47
102
}
330
47
100
AcDbScale
 70
     0
300
1/4" = 1'-0"
140
0.25
141
12.0
290
     0
  0
SCALE
  5
61
102
{ACAD_REACTORS
330
47
102
}
330
47
100
AcDbScale
 70
     0
300
3/8" = 1'-0"
140
0.375
141
12.0
290
     0
  0
SCALE
  5
62
102
{ACAD_REACTORS
330
47
102
}
330
47
100
AcDbScale
 70
     0
300
1/2" = 1'-0"
140
0.5
141
12.0
290
     0
  0
SCALE
  5
63
102
{ACAD_REACTORS
330
47
102
}
330
47
100
AcDbScale
 70
     0
300
3/4" = 1'-0"
140
0.75
141
12.0
290
     0
  0
SCALE
  5
64
102
{ACAD_REACTORS
330
47
102
}
330
47
100
AcDbScale
 70
     0
300
1" = 1'-0"
140
1.0
141
12.0
290
     0
  0
SCALE
  5
65
102
{ACAD_REACTORS
330
47
102
}
330
47
100
AcDbScale
 70
     0
300
1-1/2" = 1'-0"
140
1.5
141
12.0
290
     0
  0
SCALE
  5
66
102
{ACAD_REACTORS
330
47
102
}
330
47
100
AcDbScale
 70
     0
300
3" = 1'-0"
140
3.0
141
12.0
290
     0
  0
SCALE
  5
67
102
{ACAD_REACTORS
330
47
102
}
330
47
100
AcDbScale
 70
     0
300
6" = 1'-0"
140
6.0
141
12.0
290
     0
  0
SCALE
  5
68
102
{ACAD_REACTORS
330
47
102
}
330
47
100
AcDbScale
 70
     0
300
1'-0" = 1'-0"
140
12.0
141
12.0
290
     0
  0
ENDSEC
  0
EOF
