  0
SECTION
  2
HEADER
  9
$ACADVER
  1
AC1015
  9
$ACADMAINTVER
 70
     6
  9
$DWGCODEPAGE
  3
ANSI_949
  9
$INSBASE
 10
0.0
 20
0.0
 30
0.0
  9
$EXTMIN
 10
1.000000000000000E+20
 20
1.000000000000000E+20
 30
1.000000000000000E+20
  9
$EXTMAX
 10
-1.000000000000000E+20
 20
-1.000000000000000E+20
 30
-1.000000000000000E+20
  9
$LIMMIN
 10
0.0
 20
0.0
  9
$LIMMAX
 10
420.0
 20
297.0
  9
$ORTHOMODE
 70
     0
  9
$REGENMODE
 70
     1
  9
$FILLMODE
 70
     1
  9
$QTEXTMODE
 70
     0
  9
$MIRRTEXT
 70
     1
  9
$LTSCALE
 40
1.0
  9
$ATTMODE
 70
     1
  9
$TEXTSIZE
 40
3.5
  9
$TRACEWID
 40
1.0
  9
$TEXTSTYLE
  7
Standard
  9
$CLAYER
  8
0
  9
$CELTYPE
  6
ByLayer
  9
$CECOLOR
 62
   256
  9
$CELTSCALE
 40
1.0
  9
$DISPSILH
 70
     0
  9
$DIMSCALE
 40
1.0
  9
$DIMASZ
 40
3.302
  9
$DIMEXO
 40
1.0
  9
$DIMDLI
 40
3.75
  9
$DIMRND
 40
0.0
  9
$DIMDLE
 40
0.0
  9
$DIMEXE
 40
1.0
  9
$DIMTP
 40
0.0
  9
$DIMTM
 40
0.0
  9
$DIMTXT
 40
3.5
  9
$DIMCEN
 40
2.5
  9
$DIMTSZ
 40
0.0
  9
$DIMTOL
 70
     0
  9
$DIMLIM
 70
     0
  9
$DIMTIH
 70
     1
  9
$DIMTOH
 70
     1
  9
$DIMSE1
 70
     0
  9
$DIMSE2
 70
     0
  9
$DIMTAD
 70
     1
  9
$DIMZIN
 70
     0
  9
$DIMBLK
  1

  9
$DIMASO
 70
     1
  9
$DIMSHO
 70
     1
  9
$DIMPOST
  1

  9
$DIMAPOST
  1

  9
$DIMALT
 70
     0
  9
$DIMALTD
 70
     3
  9
$DIMALTF
 40
0.0393700787401575
  9
$DIMLFAC
 40
1.0
  9
$DIMTOFL
 70
     1
  9
$DIMTVP
 40
0.0
  9
$DIMTIX
 70
     0
  9
$DIMSOXD
 70
     0
  9
$DIMSAH
 70
     0
  9
$DIMBLK1
  1

  9
$DIMBLK2
  1

  9
$DIMSTYLE
  2
ISO-25
  9
$DIMCLRD
 70
     0
  9
$DIMCLRE
 70
     0
  9
$DIMCLRT
 70
     0
  9
$DIMTFAC
 40
1.0
  9
$DIMGAP
 40
1.524
  9
$DIMJUST
 70
     0
  9
$DIMSD1
 70
     0
  9
$DIMSD2
 70
     0
  9
$DIMTOLJ
 70
     0
  9
$DIMTZIN
 70
     0
  9
$DIMALTZ
 70
     0
  9
$DIMALTTZ
 70
     0
  9
$DIMUPT
 70
     0
  9
$DIMDEC
 70
     2
  9
$DIMTDEC
 70
     2
  9
$DIMALTU
 70
     2
  9
$DIMALTTD
 70
     3
  9
$DIMTXSTY
  7
Standard
  9
$DIMAUNIT
 70
     0
  9
$DIMADEC
 70
     2
  9
$DIMALTRND
 40
0.0
  9
$DIMAZIN
 70
     0
  9
$DIMDSEP
 70
    44
  9
$DIMATFIT
 70
     3
  9
$DIMFRAC
 70
     0
  9
$DIMLDRBLK
  1

  9
$DIMLUNIT
 70
     2
  9
$DIMLWD
 70
    -2
  9
$DIMLWE
 70
    -2
  9
$DIMTMOVE
 70
     0
  9
$LUNITS
 70
     2
  9
$LUPREC
 70
     2
  9
$SKETCHINC
 40
1.0
  9
$FILLETRAD
 40
10.0
  9
$AUNITS
 70
     0
  9
$AUPREC
 70
     2
  9
$MENU
  1
.
  9
$ELEVATION
 40
0.0
  9
$PELEVATION
 40
0.0
  9
$THICKNESS
 40
0.0
  9
$LIMCHECK
 70
     0
  9
$CHAMFERA
 40
0.0
  9
$CHAMFERB
 40
0.0
  9
$CHAMFERC
 40
0.0
  9
$CHAMFERD
 40
0.0
  9
$SKPOLY
 70
     0
  9
$TDCREATE
 40
2458263.734593113
  9
$TDUCREATE
 40
2458263.359593113
  9
$TDUPDATE
 40
2458269.692014398
  9
$TDUUPDATE
 40
2458269.317014398
  9
$TDINDWG
 40
0.0000917014
  9
$TDUSRTIMER
 40
2458269.316922986
  9
$USRTIMER
 70
     1
  9
$ANGBASE
 50
0.0
  9
$ANGDIR
 70
     0
  9
$PDMODE
 70
     0
  9
$PDSIZE
 40
-1.0
  9
$PLINEWID
 40
0.0
  9
$SPLFRAME
 70
     0
  9
$SPLINETYPE
 70
     6
  9
$SPLINESEGS
 70
     8
  9
$HANDSEED
  5
2BE
  9
$SURFTAB1
 70
     6
  9
$SURFTAB2
 70
     6
  9
$SURFTYPE
 70
     6
  9
$SURFU
 70
     6
  9
$SURFV
 70
     6
  9
$UCSBASE
  2

  9
$UCSNAME
  2

  9
$UCSORG
 10
0.0
 20
0.0
 30
0.0
  9
$UCSXDIR
 10
1.0
 20
0.0
 30
0.0
  9
$UCSYDIR
 10
0.0
 20
1.0
 30
0.0
  9
$UCSORTHOREF
  2

  9
$UCSORTHOVIEW
 70
     0
  9
$UCSORGTOP
 10
0.0
 20
0.0
 30
0.0
  9
$UCSORGBOTTOM
 10
0.0
 20
0.0
 30
0.0
  9
$UCSORGLEFT
 10
0.0
 20
0.0
 30
0.0
  9
$UCSORGRIGHT
 10
0.0
 20
0.0
 30
0.0
  9
$UCSORGFRONT
 10
0.0
 20
0.0
 30
0.0
  9
$UCSORGBACK
 10
0.0
 20
0.0
 30
0.0
  9
$PUCSBASE
  2

  9
$PUCSNAME
  2

  9
$PUCSORG
 10
0.0
 20
0.0
 30
0.0
  9
$PUCSXDIR
 10
1.0
 20
0.0
 30
0.0
  9
$PUCSYDIR
 10
0.0
 20
1.0
 30
0.0
  9
$PUCSORTHOREF
  2

  9
$PUCSORTHOVIEW
 70
     0
  9
$PUCSORGTOP
 10
0.0
 20
0.0
 30
0.0
  9
$PUCSORGBOTTOM
 10
0.0
 20
0.0
 30
0.0
  9
$PUCSORGLEFT
 10
0.0
 20
0.0
 30
0.0
  9
$PUCSORGRIGHT
 10
0.0
 20
0.0
 30
0.0
  9
$PUCSORGFRONT
 10
0.0
 20
0.0
 30
0.0
  9
$PUCSORGBACK
 10
0.0
 20
0.0
 30
0.0
  9
$USERI1
 70
     0
  9
$USERI2
 70
     0
  9
$USERI3
 70
     0
  9
$USERI4
 70
     0
  9
$USERI5
 70
     0
  9
$USERR1
 40
0.0
  9
$USERR2
 40
0.0
  9
$USERR3
 40
0.0
  9
$USERR4
 40
0.0
  9
$USERR5
 40
0.0
  9
$WORLDVIEW
 70
     1
  9
$SHADEDGE
 70
     3
  9
$SHADEDIF
 70
    70
  9
$TILEMODE
 70
     1
  9
$MAXACTVP
 70
    64
  9
$PINSBASE
 10
0.0
 20
0.0
 30
0.0
  9
$PLIMCHECK
 70
     0
  9
$PEXTMIN
 10
1.000000000000000E+20
 20
1.000000000000000E+20
 30
1.000000000000000E+20
  9
$PEXTMAX
 10
-1.000000000000000E+20
 20
-1.000000000000000E+20
 30
-1.000000000000000E+20
  9
$PLIMMIN
 10
0.0
 20
0.0
  9
$PLIMMAX
 10
0.0
 20
0.0
  9
$UNITMODE
 70
     0
  9
$VISRETAIN
 70
     1
  9
$PLINEGEN
 70
     0
  9
$PSLTSCALE
 70
     1
  9
$TREEDEPTH
 70
  3020
  9
$CMLSTYLE
  2
Standard
  9
$CMLJUST
 70
     0
  9
$CMLSCALE
 40
20.0
  9
$PROXYGRAPHICS
 70
     1
  9
$MEASUREMENT
 70
     1
  9
$CELWEIGHT
370
    -1
  9
$ENDCAPS
280
     0
  9
$JOINSTYLE
280
     0
  9
$LWDISPLAY
290
     1
  9
$INSUNITS
 70
     4
  9
$HYPERLINKBASE
  1

  9
$STYLESHEET
  1

  9
$XEDIT
290
     1
  9
$CEPSNTYPE
380
     0
  9
$PSTYLEMODE
290
     1
  9
$FINGERPRINTGUID
  2
{1858958B-8017-45B4-80D0-81573EB429E5}
  9
$VERSIONGUID
  2
{FAEB1C32-E019-11D5-929B-00C0DF256EC4}
  9
$EXTNAMES
290
     1
  9
$PSVPSCALE
 40
0.0
  9
$OLESTARTUP
290
     0
  0
ENDSEC
  0
SECTION
  2
CLASSES
  0
CLASS
  1
ACDBDICTIONARYWDFLT
  2
AcDbDictionaryWithDefault
  3
ObjectDBX Classes
 90
        0
280
     0
281
     0
  0
CLASS
  1
VISUALSTYLE
  2
AcDbVisualStyle
  3
ObjectDBX Classes
 90
     4095
280
     0
281
     0
  0
CLASS
  1
MATERIAL
  2
AcDbMaterial
  3
ObjectDBX Classes
 90
     1153
280
     0
281
     0
  0
CLASS
  1
SCALE
  2
AcDbScale
  3
ObjectDBX Classes
 90
     1153
280
     0
281
     0
  0
CLASS
  1
TABLESTYLE
  2
AcDbTableStyle
  3
ObjectDBX Classes
 90
     4095
280
     0
281
     0
  0
CLASS
  1
MLEADERSTYLE
  2
AcDbMLeaderStyle
  3
ACDB_MLEADERSTYLE_CLASS
 90
     4095
280
     0
281
     0
  0
CLASS
  1
SUN
  2
AcDbSun
  3
SCENEOE
 90
     1153
280
     0
281
     0
  0
CLASS
  1
ACDBPLACEHOLDER
  2
AcDbPlaceHolder
  3
ObjectDBX Classes
 90
        0
280
     0
281
     0
  0
CLASS
  1
LAYOUT
  2
AcDbLayout
  3
ObjectDBX Classes
 90
        0
280
     0
281
     0
  0
CLASS
  1
RASTERVARIABLES
  2
AcDbRasterVariables
  3
ISM
 90
        0
280
     0
281
     0
  0
CLASS
  1
DIMASSOC
  2
AcDbDimAssoc
  3
"AcDbDimAssoc|Product Desc:     AcDim ARX App For Dimension|Company:          Autodesk, Inc.|WEB Address:      www.autodesk.com"
 90
        0
280
     0
281
     0
  0
ENDSEC
  0
SECTION
  2
TABLES
  0
TABLE
  2
VPORT
  5
8
330
0
100
AcDbSymbolTable
 70
     1
  0
VPORT
  5
29
330
8
100
AcDbSymbolTableRecord
100
AcDbViewportTableRecord
  2
*Active
 70
     0
 10
0.0
 20
0.0
 11
1.0
 21
1.0
 12
9.627228562771911
 22
-0.0368510470266094
 13
0.0
 23
0.0
 14
10.0
 24
10.0
 15
10.0
 25
10.0
 16
0.0
 26
0.0
 36
1.0
 17
0.0
 27
0.0
 37
0.0
 40
1.78799710620417
 41
1.741312741312741
 42
50.0
 43
0.0
 44
0.0
 50
0.0
 51
0.0
 71
    16
 72
  2000
 73
     1
 74
     3
 75
     0
 76
     0
 77
     0
 78
     0
281
     0
 65
     1
110
0.0
120
0.0
130
0.0
111
1.0
121
0.0
131
0.0
112
0.0
122
1.0
132
0.0
 79
     0
146
0.0
  0
ENDTAB
  0
TABLE
  2
LTYPE
  5
5
330
0
100
AcDbSymbolTable
 70
     6
  0
LTYPE
  5
14
330
5
100
AcDbSymbolTableRecord
100
AcDbLinetypeTableRecord
  2
ByBlock
 70
     0
  3

 72
    65
 73
     0
 40
0.0
  0
LTYPE
  5
15
330
5
100
AcDbSymbolTableRecord
100
AcDbLinetypeTableRecord
  2
ByLayer
 70
     0
  3

 72
    65
 73
     0
 40
0.0
  0
LTYPE
  5
16
330
5
100
AcDbSymbolTableRecord
100
AcDbLinetypeTableRecord
  2
Continuous
 70
     0
  3
Solid line
 72
    65
 73
     0
 40
0.0
  0
LTYPE
  5
6E
330
5
100
AcDbSymbolTableRecord
100
AcDbLinetypeTableRecord
  2
HIDDEN
 70
     0
  3
Hidden __ __ __ __ __ __ __ __ __ __ __ __ __ __
 72
    65
 73
     2
 40
1.905
 49
1.27
 74
     0
 49
-0.635
 74
     0
  0
LTYPE
  5
6F
330
5
100
AcDbSymbolTableRecord
100
AcDbLinetypeTableRecord
  2
PHANTOM
 70
     0
  3
Phantom ______  __  __  ______  __  __  ______
 72
    65
 73
     6
 40
12.7
 49
6.35
 74
     0
 49
-1.27
 74
     0
 49
1.27
 74
     0
 49
-1.27
 74
     0
 49
1.27
 74
     0
 49
-1.27
 74
     0
  0
LTYPE
  5
70
330
5
100
AcDbSymbolTableRecord
100
AcDbLinetypeTableRecord
  2
CENTER
 70
     0
  3
Center ____ _ ____ _ ____ _ ____ _ ____ _ ____
 72
    65
 73
     4
 40
10.16
 49
6.35
 74
     0
 49
-1.27
 74
     0
 49
1.27
 74
     0
 49
-1.27
 74
     0
  0
LTYPE
  5
71
330
5
100
AcDbSymbolTableRecord
100
AcDbLinetypeTableRecord
  2
CENTERX2
 70
     0
  3
Center (2x) ________  __  ________  __  _____
 72
    65
 73
     4
 40
20.32
 49
12.7
 74
     0
 49
-2.54
 74
     0
 49
2.54
 74
     0
 49
-2.54
 74
     0
  0
LTYPE
  5
72
330
5
100
AcDbSymbolTableRecord
100
AcDbLinetypeTableRecord
  2
DOT2
 70
     0
  3
Dot (.5x) ........................................
 72
    65
 73
     2
 40
0.635
 49
0.0
 74
     0
 49
-0.635
 74
     0
  0
ENDTAB
  0
TABLE
  2
LAYER
  5
2
330
0
100
AcDbSymbolTable
 70
    17
  0
LAYER
  5
10
330
2
100
AcDbSymbolTableRecord
100
AcDbLayerTableRecord
  2
0
 70
     0
 62
     7
  6
Continuous
370
    -3
390
F
  0
LAYER
  5
73
330
2
100
AcDbSymbolTableRecord
100
AcDbLayerTableRecord
  2
FORMAT
 70
     0
 62
     2
  6
Continuous
370
    -3
390
F
  0
LAYER
  5
74
330
2
100
AcDbSymbolTableRecord
100
AcDbLayerTableRecord
  2
외형선
 70
     0
 62
   100
  6
Continuous
370
    35
390
F
  0
LAYER
  5
75
330
2
100
AcDbSymbolTableRecord
100
AcDbLayerTableRecord
  2
숨은선
 70
     0
 62
     2
  6
HIDDEN
370
    25
390
F
  0
LAYER
  5
76
330
2
100
AcDbSymbolTableRecord
100
AcDbLayerTableRecord
  2
중심선
 70
     0
 62
     1
  6
CENTERX2
370
    -3
390
F
  0
LAYER
  5
77
330
2
100
AcDbSymbolTableRecord
100
AcDbLayerTableRecord
  2
파단선
 70
     0
 62
     4
  6
Continuous
370
    -3
390
F
  0
LAYER
  5
78
330
2
100
AcDbSymbolTableRecord
100
AcDbLayerTableRecord
  2
해칭선
 70
     0
 62
     4
  6
Continuous
370
    -3
390
F
  0
LAYER
  5
79
330
2
100
AcDbSymbolTableRecord
100
AcDbLayerTableRecord
  2
가는실선
 70
     0
 62
     4
  6
Continuous
370
    -3
390
F
  0
LAYER
  5
7A
330
2
100
AcDbSymbolTableRecord
100
AcDbLayerTableRecord
  2
치수_보조선
 70
     0
 62
     4
  6
Continuous
370
    -3
390
F
  0
LAYER
  5
7B
330
2
100
AcDbSymbolTableRecord
100
AcDbLayerTableRecord
  2
치수문자_일반주서
 70
     0
 62
     7
  6
Continuous
370
    25
390
F
  0
LAYER
  5
7C
330
2
100
AcDbSymbolTableRecord
100
AcDbLayerTableRecord
  2
개별주서
 70
     0
 62
   100
  6
Continuous
370
    35
390
F
  0
LAYER
  5
7D
330
2
100
AcDbSymbolTableRecord
100
AcDbLayerTableRecord
  2
중간선
 70
     0
 62
     2
  6
Continuous
370
    25
390
F
  0
LAYER
  5
7E
330
2
100
AcDbSymbolTableRecord
100
AcDbLayerTableRecord
  2
윤곽선
 70
     0
 62
     3
  6
Continuous
370
    50
390
F
  0
LAYER
  5
7F
330
2
100
AcDbSymbolTableRecord
100
AcDbLayerTableRecord
  2
중심마크
 70
     0
 62
   100
  6
Continuous
370
    35
390
F
  0
LAYER
  5
80
330
2
100
AcDbSymbolTableRecord
100
AcDbLayerTableRecord
  2
가상선
 70
     0
 62
     4
  6
PHANTOM
370
    -3
390
F
  0
LAYER
  5
81
330
2
100
AcDbSymbolTableRecord
100
AcDbLayerTableRecord
  2
특수지정선
 70
     0
 62
     5
  6
CENTERX2
370
    70
390
F
  0
LAYER
  5
153
330
2
100
AcDbSymbolTableRecord
100
AcDbLayerTableRecord
  2
Defpoints
 70
     0
 62
     7
  6
Continuous
290
     0
370
    -3
390
F
  0
ENDTAB
  0
TABLE
  2
STYLE
  5
3
330
0
100
AcDbSymbolTable
 70
     2
  0
STYLE
  5
11
330
3
100
AcDbSymbolTableRecord
100
AcDbTextStyleTableRecord
  2
Standard
 70
     0
 40
0.0
 41
1.0
 50
0.0
 71
     0
 42
3.5
  3
txt
  4

  0
STYLE
  5
97
330
3
100
AcDbSymbolTableRecord
100
AcDbTextStyleTableRecord
  2
SLDTEXTSTYLE0
 70
     0
 40
0.0
 41
0.75
 50
0.0
 71
     0
 42
3.5
  3
TXT
  4

  0
ENDTAB
  0
TABLE
  2
VIEW
  5
6
330
0
100
AcDbSymbolTable
 70
     0
  0
ENDTAB
  0
TABLE
  2
UCS
  5
7
330
0
100
AcDbSymbolTable
 70
     0
  0
ENDTAB
  0
TABLE
  2
APPID
  5
9
330
0
100
AcDbSymbolTable
 70
     2
  0
APPID
  5
12
330
9
100
AcDbSymbolTableRecord
100
AcDbRegAppTableRecord
  2
ACAD
 70
     0
  0
APPID
  5
250
330
9
100
AcDbSymbolTableRecord
100
AcDbRegAppTableRecord
  2
ACAD_DSTYLE_DIMRADIAL_EXTENSION
 70
     0
  0
ENDTAB
  0
TABLE
  2
DIMSTYLE
  5
A
330
0
100
AcDbSymbolTable
 70
     4
100
AcDbDimStyleTable
  0
DIMSTYLE
105
27
330
A
100
AcDbSymbolTableRecord
100
AcDbDimStyleTableRecord
  2
ISO-25
 70
     0
 41
2.5
 42
0.625
 43
3.75
 44
1.25
 73
     0
 74
     0
 77
     1
 78
     8
140
2.5
141
2.5
143
0.03937007874016
147
0.625
171
     3
172
     1
178
     0
271
     2
272
     2
274
     3
278
    44
283
     0
284
     8
340
11
  0
DIMSTYLE
105
EA
102
{ACAD_REACTORS
330
188
330
1B1
330
1F2
330
1F5
102
}
330
A
100
AcDbSymbolTableRecord
100
AcDbDimStyleTableRecord
  2
SLDDIMSTYLE0
 70
     0
 41
3.302
 44
0.0
 45
0.000000001
 73
     0
 74
     0
 77
     1
 78
    12
 79
     3
140
3.5
147
0.875
172
     1
173
     1
178
     0
271
     2
272
     2
276
     2
284
    12
289
     0
340
97
  0
DIMSTYLE
105
F8
102
{ACAD_REACTORS
330
195
330
1C1
330
1F3
330
1F6
330
26F
330
298
102
}
330
A
100
AcDbSymbolTableRecord
100
AcDbDimStyleTableRecord
  2
SLDDIMSTYLE1
 70
     0
 41
3.302
 44
0.0
 45
0.000000001
 73
     0
 74
     0
 77
     1
140
3.5
147
0.875
172
     1
173
     1
178
     0
271
     2
272
     2
276
     2
284
    12
289
     0
340
97
  0
DIMSTYLE
105
105
102
{ACAD_REACTORS
330
1A4
330
1F4
102
}
330
A
100
AcDbSymbolTableRecord
100
AcDbDimStyleTableRecord
  2
SLDDIMSTYLE2
 70
     0
 41
3.302
 44
0.0
 45
0.000000001
 73
     0
 74
     0
 77
     1
 78
    12
 79
     3
140
3.5
147
0.875
173
     1
178
     0
271
     2
272
     2
276
     2
284
    12
340
97
  0
ENDTAB
  0
TABLE
  2
BLOCK_RECORD
  5
1
330
0
100
AcDbSymbolTable
 70
    22
  0
BLOCK_RECORD
  5
1F
330
1
100
AcDbSymbolTableRecord
100
AcDbBlockTableRecord
  2
*Model_Space
340
22
  0
BLOCK_RECORD
  5
1B
330
1
100
AcDbSymbolTableRecord
100
AcDbBlockTableRecord
  2
*Paper_Space
340
1E
  0
BLOCK_RECORD
  5
23
330
1
100
AcDbSymbolTableRecord
100
AcDbBlockTableRecord
  2
*Paper_Space0
340
26
  0
BLOCK_RECORD
  5
82
330
1
100
AcDbSymbolTableRecord
100
AcDbBlockTableRecord
  2
블럭10
340
0
102
{BLKREFS
331
E2
102
}
  0
BLOCK_RECORD
  5
EB
330
1
100
AcDbSymbolTableRecord
100
AcDbBlockTableRecord
  2
_D
340
0
  0
BLOCK_RECORD
  5
F9
330
1
100
AcDbSymbolTableRecord
100
AcDbBlockTableRecord
  2
_D_1
340
0
  0
BLOCK_RECORD
  5
106
330
1
100
AcDbSymbolTableRecord
100
AcDbBlockTableRecord
  2
_D_2
340
0
  0
BLOCK_RECORD
  5
110
330
1
100
AcDbSymbolTableRecord
100
AcDbBlockTableRecord
  2
_D_3
340
0
  0
BLOCK_RECORD
  5
11C
330
1
100
AcDbSymbolTableRecord
100
AcDbBlockTableRecord
  2
_D_4
340
0
  0
BLOCK_RECORD
  5
128
330
1
100
AcDbSymbolTableRecord
100
AcDbBlockTableRecord
  2
SW_DOWELSYMBOL_0
340
0
102
{BLKREFS
331
0
331
1D0
331
1F7
102
}
  0
BLOCK_RECORD
  5
189
330
1
100
AcDbSymbolTableRecord
100
AcDbBlockTableRecord
  2
*D9
340
0
  0
BLOCK_RECORD
  5
196
330
1
100
AcDbSymbolTableRecord
100
AcDbBlockTableRecord
  2
*D10
340
0
  0
BLOCK_RECORD
  5
1A5
330
1
100
AcDbSymbolTableRecord
100
AcDbBlockTableRecord
  2
*D11
340
0
  0
BLOCK_RECORD
  5
1B2
330
1
100
AcDbSymbolTableRecord
100
AcDbBlockTableRecord
  2
*D12
340
0
  0
BLOCK_RECORD
  5
1C2
330
1
100
AcDbSymbolTableRecord
100
AcDbBlockTableRecord
  2
*D13
340
0
  0
BLOCK_RECORD
  5
204
330
1
100
AcDbSymbolTableRecord
100
AcDbBlockTableRecord
  2
*D14
340
0
  0
BLOCK_RECORD
  5
210
330
1
100
AcDbSymbolTableRecord
100
AcDbBlockTableRecord
  2
*D15
340
0
  0
BLOCK_RECORD
  5
21F
330
1
100
AcDbSymbolTableRecord
100
AcDbBlockTableRecord
  2
*D16
340
0
  0
BLOCK_RECORD
  5
22B
330
1
100
AcDbSymbolTableRecord
100
AcDbBlockTableRecord
  2
*D17
340
0
  0
BLOCK_RECORD
  5
23A
330
1
100
AcDbSymbolTableRecord
100
AcDbBlockTableRecord
  2
*D18
340
0
  0
BLOCK_RECORD
  5
272
330
1
100
AcDbSymbolTableRecord
100
AcDbBlockTableRecord
  2
*D20
340
0
  0
BLOCK_RECORD
  5
2B4
330
1
100
AcDbSymbolTableRecord
100
AcDbBlockTableRecord
  2
*D21
340
0
  0
ENDTAB
  0
ENDSEC
  0
SECTION
  2
BLOCKS
  0
BLOCK
  5
20
330
1F
100
AcDbEntity
  8
0
100
AcDbBlockBegin
  2
*Model_Space
 70
     0
 10
0.0
 20
0.0
 30
0.0
  3
*Model_Space
  1
*Model_Space
  0
ENDBLK
  5
21
330
1F
100
AcDbEntity
  8
0
100
AcDbBlockEnd
  0
BLOCK
  5
1C
330
1B
100
AcDbEntity
 67
     1
  8
0
100
AcDbBlockBegin
  2
*Paper_Space
 70
     0
 10
0.0
 20
0.0
 30
0.0
  3
*Paper_Space
  1
*Paper_Space
  0
ENDBLK
  5
1D
330
1B
100
AcDbEntity
 67
     1
  8
0
100
AcDbBlockEnd
  0
BLOCK
  5
24
330
23
100
AcDbEntity
  8
0
100
AcDbBlockBegin
  2
*Paper_Space0
 70
     0
 10
0.0
 20
0.0
 30
0.0
  3
*Paper_Space0
  1
*Paper_Space0
  0
ENDBLK
  5
25
330
23
100
AcDbEntity
  8
0
100
AcDbBlockEnd
  0
BLOCK
  5
83
330
82
100
AcDbEntity
  8
0
100
AcDbBlockBegin
  2
블럭10
 70
     2
 10
0.0
 20
0.0
 30
0.0
  3
블럭10
  1
블럭10
  0
ELLIPSE
  5
85
330
82
100
AcDbEntity
  8
중심선
100
AcDbEllipse
 10
20.54032771741204
 20
12.0471743016438
 30
0.0
 11
6.600054785286829
 21
-1.261213355974178E-13
 31
0.0
210
0.0
220
0.0
230
1.0
 40
0.636358354079598
 41
0.9219305317359503
 42
6.513795318482858
  0
ELLIPSE
  5
86
330
82
100
AcDbEntity
  8
중심선
100
AcDbEllipse
 10
20.54032771746488
 20
12.04717430159265
 30
0.0
 11
3.960054785062283
 21
1.540847449632565E-10
 31
0.0
210
0.0
220
0.0
230
1.0
 40
0.3939339440162632
 41
1.131841032648279
 42
5.62031148352944
  0
LINE
  5
87
330
82
100
AcDbEntity
  8
중심선
100
AcDbLine
 10
2.268634060543552
 20
16.24717430164393
 30
0.0
 11
5.714909304380834
 21
16.24717430164393
 31
0.0
  0
LINE
  5
88
330
82
100
AcDbEntity
  8
중심선
100
AcDbLine
 10
5.245725140726316
 20
7.84717430164391
 30
0.0
 11
8.692000384563599
 21
7.84717430164391
 31
0.0
  0
LINE
  5
89
330
82
100
AcDbEntity
  8
중심선
100
AcDbLine
 10
15.74043728645272
 20
16.24717430164393
 30
0.0
 11
8.692000384563599
 21
7.84717430164391
 31
0.0
  0
LINE
  5
8A
330
82
100
AcDbEntity
  8
중심선
100
AcDbLine
 10
0.1404042013395286
 20
13.71084872107135
 30
0.0
 11
3.58671253028996
 21
13.71088815037384
 31
0.0
  0
LINE
  5
8B
330
82
100
AcDbEntity
  8
중심선
100
AcDbLine
 10
2.750260043222114
 20
10.84717430164391
 30
0.0
 11
6.196535287059397
 21
10.84717430164391
 31
0.0
  0
LINE
  5
8C
330
82
100
AcDbEntity
  8
중심선
100
AcDbLine
 10
12.29416204261559
 20
16.24717430164393
 30
0.0
 11
5.245725140726316
 21
7.84717430164391
 31
0.0
  0
LINE
  5
8D
330
82
100
AcDbEntity
  8
중심선
100
AcDbLine
 10
10.72767329541681
 20
16.24717430164393
 30
0.0
 11
6.196535287059397
 21
10.84717430164391
 31
0.0
  0
LINE
  5
8E
330
82
100
AcDbEntity
  8
중심선
100
AcDbLine
 10
7.28139805157953
 20
16.24717430164393
 30
0.0
 11
2.750260043222114
 21
10.84717430164391
 31
0.0
  0
LINE
  5
8F
330
82
100
AcDbEntity
  8
중심선
100
AcDbLine
 10
5.714909304380834
 20
16.24717430164393
 30
0.0
 11
3.58671253028996
 21
13.71088815037384
 31
0.0
  0
LINE
  5
90
330
82
100
AcDbEntity
  8
중심선
100
AcDbLine
 10
2.268634060543552
 20
16.24717430164393
 30
0.0
 11
0.1404042013395286
 21
13.71084872107135
 31
0.0
  0
LINE
  5
91
330
82
100
AcDbEntity
  8
중심선
100
AcDbLine
 10
7.28139805157953
 20
16.24717430164393
 30
0.0
 11
10.72767329541681
 21
16.24717430164393
 31
0.0
  0
LINE
  5
92
330
82
100
AcDbEntity
  8
중심선
100
AcDbLine
 10
12.29416204261559
 20
16.24717430164393
 30
0.0
 11
15.74043728645272
 21
16.24717430164393
 31
0.0
  0
LINE
  5
93
330
82
100
AcDbEntity
  8
중심선
100
AcDbLine
 10
19.22036997980202
 20
11.08717430171403
 30
0.0
 11
23.66174974927406
 21
11.08717430171406
 31
0.0
  0
LINE
  5
94
330
82
100
AcDbEntity
  8
중심선
100
AcDbLine
 10
19.22039502424796
 20
13.00717430171391
 30
0.0
 11
19.22036997980202
 21
11.08717430171403
 31
0.0
  0
LINE
  5
95
330
82
100
AcDbEntity
  8
중심선
100
AcDbLine
 10
19.22039502424796
 20
13.00717430171391
 30
0.0
 11
26.96566020931264
 21
13.00717430171391
 31
0.0
  0
LINE
  5
96
330
82
100
AcDbEntity
  8
중심선
100
AcDbLine
 10
22.22332737316547
 20
13.45928029700563
 30
0.0
 11
24.52862924686651
 21
15.39360700705356
 31
0.0
  0
ATTDEF
  5
98
330
82
100
AcDbEntity
  8
FORMAT
 62
     2
100
AcDbText
 10
-19.27858288401334
 20
2.075366912832191
 30
0.0
 40
4.233333333333333
  1
SEME610050104E [ 2 FLUTE ]
 41
0.75
  7
SLDTEXTSTYLE0
 11
-19.27858288401334
 21
-0.0412997538344756
 31
0.0
100
AcDbAttributeDefinition
  3

  2
AUTOATTR0
 70
     0
 74
     1
  0
ENDBLK
  5
84
330
82
100
AcDbEntity
  8
0
100
AcDbBlockEnd
  0
BLOCK
  5
EC
330
EB
100
AcDbEntity
  8
0
100
AcDbBlockBegin
  2
_D
 70
     0
 10
0.0
 20
0.0
 30
0.0
  3
_D
  1
_D
  0
SOLID
  5
EE
330
EB
100
AcDbEntity
  8
치수문자_일반주서
100
AcDbTrace
 10
-42.00250885508845
 20
2.001074928723888
 30
0.0
 11
-41.49450885508845
 21
5.303074928723888
 31
0.0
 12
-42.51050885508845
 22
5.303074928723888
 32
0.0
 13
-42.51050885508845
 23
5.303074928723888
 33
0.0
  0
SOLID
  5
EF
330
EB
100
AcDbEntity
  8
치수문자_일반주서
100
AcDbTrace
 10
-42.00250885508845
 20
-1.998925071276106
 30
0.0
 11
-42.51050885508845
 21
-5.300925071276106
 31
0.0
 12
-41.49450885508845
 22
-5.300925071276106
 32
0.0
 13
-41.49450885508845
 23
-5.300925071276106
 33
0.0
  0
LINE
  5
F0
330
EB
100
AcDbEntity
  8
치수문자_일반주서
100
AcDbLine
 10
-30.50605083347638
 20
2.001074928723888
 30
0.0
 11
-43.00250885508845
 21
2.001074928723888
 31
0.0
  0
LINE
  5
F1
330
EB
100
AcDbEntity
  8
치수문자_일반주서
100
AcDbLine
 10
-30.50605083347638
 20
-1.998925071276106
 30
0.0
 11
-43.00250885508845
 21
-1.998925071276106
 31
0.0
  0
LINE
  5
F2
330
EB
100
AcDbEntity
  8
치수문자_일반주서
100
AcDbLine
 10
-42.00250885508845
 20
2.001074928723888
 30
0.0
 11
-42.00250885508845
 21
8.351074928723888
 31
0.0
  0
LINE
  5
F3
330
EB
100
AcDbEntity
  8
치수문자_일반주서
100
AcDbLine
 10
-42.00250885508845
 20
2.001074928723888
 30
0.0
 11
-42.00250885508845
 21
-1.998925071276106
 31
0.0
  0
LINE
  5
F4
330
EB
100
AcDbEntity
  8
치수문자_일반주서
100
AcDbLine
 10
-42.00250885508845
 20
-1.998925071276106
 30
0.0
 11
-42.00250885508845
 21
-8.348925071276106
 31
0.0
  0
MTEXT
  5
F5
330
EB
100
AcDbEntity
  8
치수문자_일반주서
100
AcDbMText
 10
-46.51424594429028
 20
-3.931199483639881
 30
0.0
 40
3.5
 41
0.0
 71
     1
 72
     1
  1
%%c
  7
SLDTEXTSTYLE0
 11
-7.044195017643634E-15
 21
1.0
 31
0.0
 73
     1
 44
1.0
  0
MTEXT
  5
F6
330
EB
100
AcDbEntity
  8
치수문자_일반주서
100
AcDbMText
 10
-46.56771812095017
 20
1.3472379147342
 30
0.0
 40
3.5
 41
0.0
 71
     1
 72
     1
  1
4
  7
SLDTEXTSTYLE0
 11
-7.044195017643634E-15
 21
1.0
 31
0.0
 73
     1
 44
1.0
  0
ENDBLK
  5
ED
330
EB
100
AcDbEntity
  8
0
100
AcDbBlockEnd
  0
BLOCK
  5
FA
330
F9
100
AcDbEntity
  8
0
100
AcDbBlockBegin
  2
_D_1
 70
     0
 10
0.0
 20
0.0
 30
0.0
  3
_D_1
  1
_D_1
  0
SOLID
  5
FC
330
F9
100
AcDbEntity
  8
치수문자_일반주서
100
AcDbTrace
 10
14.49394916652362
 20
18.65107492872356
 30
0.0
 11
17.79594916652361
 21
18.14307492872356
 31
0.0
 12
17.79594916652361
 22
19.15907492872356
 32
0.0
 13
17.79594916652361
 23
19.15907492872356
 33
0.0
  0
SOLID
  5
FD
330
F9
100
AcDbEntity
  8
치수문자_일반주서
100
AcDbTrace
 10
13.79394916652362
 20
18.65107492872356
 30
0.0
 11
10.49194916652362
 21
19.15907492872356
 31
0.0
 12
10.49194916652362
 22
18.14307492872356
 32
0.0
 13
10.49194916652362
 23
18.14307492872356
 33
0.0
  0
LINE
  5
FE
330
F9
100
AcDbEntity
  8
치수문자_일반주서
100
AcDbLine
 10
14.49394916652362
 20
1.151074928723894
 30
0.0
 11
14.49394916652362
 21
19.65107492872356
 31
0.0
  0
LINE
  5
FF
330
F9
100
AcDbEntity
  8
치수문자_일반주서
100
AcDbLine
 10
13.79394916652362
 20
1.200872010562012
 30
0.0
 11
13.79394916652362
 21
19.65107492872356
 31
0.0
  0
LINE
  5
100
330
F9
100
AcDbEntity
  8
치수문자_일반주서
100
AcDbLine
 10
14.49394916652362
 20
18.65107492872356
 30
0.0
 11
19.78529797390733
 21
18.65107492872356
 31
0.0
  0
LINE
  5
101
330
F9
100
AcDbEntity
  8
치수문자_일반주서
100
AcDbLine
 10
14.49394916652362
 20
18.65107492872356
 30
0.0
 11
13.79394916652362
 21
18.65107492872356
 31
0.0
  0
LINE
  5
102
330
F9
100
AcDbEntity
  8
치수문자_일반주서
100
AcDbLine
 10
13.79394916652362
 20
18.65107492872356
 30
0.0
 11
7.443949166523616
 21
18.65107492872356
 31
0.0
  0
MTEXT
  5
103
330
F9
100
AcDbEntity
  8
치수문자_일반주서
100
AcDbMText
 10
10.7339089129928
 20
23.16281184330245
 30
0.0
 40
3.5
 41
0.0
 71
     1
 72
     1
  1
0.70
  7
SLDTEXTSTYLE0
 73
     1
 44
1.0
  0
ENDBLK
  5
FB
330
F9
100
AcDbEntity
  8
0
100
AcDbBlockEnd
  0
BLOCK
  5
107
330
106
100
AcDbEntity
  8
0
100
AcDbBlockBegin
  2
_D_2
 70
     0
 10
0.0
 20
0.0
 30
0.0
  3
_D_2
  1
_D_2
  0
SOLID
  5
109
330
106
100
AcDbEntity
  8
치수문자_일반주서
100
AcDbTrace
 10
14.49394916652362
 20
40.70939943376818
 30
0.0
 11
11.19194916652362
 21
41.21739943376819
 31
0.0
 12
11.19194916652362
 22
40.20139943376818
 32
0.0
 13
11.19194916652362
 23
40.20139943376818
 33
0.0
  0
SOLID
  5
10A
330
106
100
AcDbEntity
  8
치수문자_일반주서
100
AcDbTrace
 10
-30.50605083347638
 20
40.70939943376818
 30
0.0
 11
-27.20405083347638
 21
40.20139943376818
 31
0.0
 12
-27.20405083347638
 22
41.21739943376819
 32
0.0
 13
-27.20405083347638
 23
41.21739943376819
 33
0.0
  0
LINE
  5
10B
330
106
100
AcDbEntity
  8
치수문자_일반주서
100
AcDbLine
 10
14.49394916652362
 20
1.151074928723894
 30
0.0
 11
14.49394916652362
 21
41.70939943376818
 31
0.0
  0
LINE
  5
10C
330
106
100
AcDbEntity
  8
치수문자_일반주서
100
AcDbLine
 10
-30.50605083347638
 20
2.001074928723888
 30
0.0
 11
-30.50605083347638
 21
41.70939943376818
 31
0.0
  0
LINE
  5
10D
330
106
100
AcDbEntity
  8
치수문자_일반주서
100
AcDbLine
 10
14.49394916652362
 20
40.70939943376818
 30
0.0
 11
-30.50605083347638
 21
40.70939943376818
 31
0.0
  0
MTEXT
  5
10E
330
106
100
AcDbEntity
  8
치수문자_일반주서
100
AcDbMText
 10
-10.5921620269992
 20
45.22113634834707
 30
0.0
 40
3.5
 41
0.0
 71
     1
 72
     1
  1
45
  7
SLDTEXTSTYLE0
 73
     1
 44
1.0
  0
ENDBLK
  5
108
330
106
100
AcDbEntity
  8
0
100
AcDbBlockEnd
  0
BLOCK
  5
111
330
110
100
AcDbEntity
  8
0
100
AcDbBlockBegin
  2
_D_3
 70
     0
 10
0.0
 20
0.0
 30
0.0
  3
_D_3
  1
_D_3
  0
SOLID
  5
113
330
110
100
AcDbEntity
  8
치수문자_일반주서
100
AcDbTrace
 10
13.49394916652351
 20
30.12107492872394
 30
0.0
 11
16.79594916652351
 21
29.61307492872395
 31
0.0
 12
16.79594916652351
 22
30.62907492872395
 32
0.0
 13
16.79594916652351
 23
30.62907492872395
 33
0.0
  0
SOLID
  5
114
330
110
100
AcDbEntity
  8
치수문자_일반주서
100
AcDbTrace
 10
10.30734662614507
 20
30.12107492872393
 30
0.0
 11
7.005346626145066
 21
30.62907492872392
 31
0.0
 12
7.005346626145069
 22
29.61307492872392
 32
0.0
 13
7.005346626145069
 23
29.61307492872392
 33
0.0
  0
LINE
  5
115
330
110
100
AcDbEntity
  8
치수문자_일반주서
100
AcDbLine
 10
13.49394916652361
 20
1.201074928723894
 30
0.0
 11
13.49394916652351
 21
31.12107492872394
 31
0.0
  0
LINE
  5
116
330
110
100
AcDbEntity
  8
치수문자_일반주서
100
AcDbLine
 10
10.30734662614517
 20
1.061199803428677
 30
0.0
 11
10.30734662614506
 21
31.12107492872393
 31
0.0
  0
LINE
  5
117
330
110
100
AcDbEntity
  8
치수문자_일반주서
100
AcDbLine
 10
13.49394916652351
 20
30.12107492872394
 30
0.0
 11
45.12480835498598
 21
30.12107492872405
 31
0.0
  0
LINE
  5
118
330
110
100
AcDbEntity
  8
치수문자_일반주서
100
AcDbLine
 10
13.49394916652351
 20
30.12107492872394
 30
0.0
 11
10.30734662614507
 21
30.12107492872393
 31
0.0
  0
LINE
  5
119
330
110
100
AcDbEntity
  8
치수문자_일반주서
100
AcDbLine
 10
10.30734662614507
 20
30.12107492872393
 30
0.0
 11
3.957346626145067
 21
30.12107492872391
 31
0.0
  0
MTEXT
  5
11A
330
110
100
AcDbEntity
  8
치수문자_일반주서
100
AcDbMText
 10
36.07341929407147
 20
34.63281184330295
 30
0.0
 40
3.5
 41
0.0
 71
     1
 72
     1
  1
3.19
  7
SLDTEXTSTYLE0
 73
     1
 44
1.0
  0
ENDBLK
  5
112
330
110
100
AcDbEntity
  8
0
100
AcDbBlockEnd
  0
BLOCK
  5
11D
330
11C
100
AcDbEntity
  8
0
100
AcDbBlockBegin
  2
_D_4
 70
     0
 10
0.0
 20
0.0
 30
0.0
  3
_D_4
  1
_D_4
  0
SOLID
  5
11F
330
11C
100
AcDbEntity
  8
치수문자_일반주서
100
AcDbTrace
 10
34.30059833193547
 20
0.2510749287239238
 30
0.0
 11
34.80859833193546
 21
3.553074928723924
 31
0.0
 12
33.79259833193546
 22
3.553074928723922
 32
0.0
 13
33.79259833193546
 23
3.553074928723922
 33
0.0
  0
SOLID
  5
120
330
11C
100
AcDbEntity
  8
치수문자_일반주서
100
AcDbTrace
 10
34.30059833193548
 20
-0.2457884678290603
 30
0.0
 11
33.79259833193548
 21
-3.547788467829061
 31
0.0
 12
34.80859833193549
 22
-3.547788467829059
 32
0.0
 13
34.80859833193549
 23
-3.547788467829059
 33
0.0
  0
LINE
  5
121
330
11C
100
AcDbEntity
  8
치수문자_일반주서
100
AcDbLine
 10
17.44394916652362
 20
0.2510749287238954
 30
0.0
 11
35.30059833193547
 21
0.2510749287239255
 31
0.0
  0
LINE
  5
122
330
11C
100
AcDbEntity
  8
치수문자_일반주서
100
AcDbLine
 10
17.44394916652362
 20
-0.2457884678290887
 30
0.0
 11
35.30059833193548
 21
-0.2457884678290586
 31
0.0
  0
LINE
  5
123
330
11C
100
AcDbEntity
  8
치수문자_일반주서
100
AcDbLine
 10
34.30059833193547
 20
0.2510749287239238
 30
0.0
 11
34.30059833193538
 21
6.601074928723923
 31
0.0
  0
LINE
  5
124
330
11C
100
AcDbEntity
  8
치수문자_일반주서
100
AcDbLine
 10
34.30059833193547
 20
0.2510749287239238
 30
0.0
 11
34.30059833193548
 21
-0.2457884678290603
 31
0.0
  0
LINE
  5
125
330
11C
100
AcDbEntity
  8
치수문자_일반주서
100
AcDbLine
 10
34.30059833193548
 20
-0.2457884678290603
 30
0.0
 11
34.30059833193558
 21
-8.35659775097388
 31
0.0
  0
MTEXT
  5
126
330
11C
100
AcDbEntity
  8
치수문자_일반주서
100
AcDbMText
 10
29.78886124273366
 20
-8.356597750973934
 30
0.0
 40
3.5
 41
0.0
 71
     1
 72
     1
  1
%%c
  7
SLDTEXTSTYLE0
 11
-8.820551857043885E-15
 21
1.0
 31
0.0
 73
     1
 44
1.0
  0
MTEXT
  5
127
330
11C
100
AcDbEntity
  8
치수문자_일반주서
100
AcDbMText
 10
29.73538906607376
 20
-3.078160352599854
 30
0.0
 40
3.5
 41
0.0
 71
     1
 72
     1
  1
0.50
  7
SLDTEXTSTYLE0
 11
-8.820551857043885E-15
 21
1.0
 31
0.0
 73
     1
 44
1.0
  0
ENDBLK
  5
11E
330
11C
100
AcDbEntity
  8
0
100
AcDbBlockEnd
  0
BLOCK
  5
129
330
128
100
AcDbEntity
  8
0
100
AcDbBlockBegin
  2
SW_DOWELSYMBOL_0
 70
     0
 10
0.0
 20
0.0
 30
0.0
  3
SW_DOWELSYMBOL_0
  1
SW_DOWELSYMBOL_0
  0
CIRCLE
  5
12B
330
128
100
AcDbEntity
  8
외형선
 62
     0
100
AcDbCircle
 10
0.0
 20
0.0
 30
0.0
 40
3.000000000000004
  0
HATCH
  5
12C
330
128
100
AcDbEntity
  8
0
  6
Continuous
 62
     0
370
    35
100
AcDbHatch
 10
0.0
 20
0.0
 30
0.0
210
0.0
220
0.0
230
1.0
  2
SOLID
 70
     1
 71
     0
 91
        1
 92
        0
 93
        3
 72
     2
 10
0.0000000000000104
 20
0.0
 40
3.000000000000004
 50
0.0
 51
90.0
 73
     1
 72
     1
 10
0.0000000000000104
 20
3.000000000000004
 11
0.0000000000000104
 21
0.0
 72
     1
 10
0.0000000000000104
 20
0.0
 11
3.000000000000015
 21
0.0
 97
        0
 75
     0
 76
     1
 98
        1
 10
0.0
 20
0.0
  0
HATCH
  5
12D
330
128
100
AcDbEntity
  8
0
  6
Continuous
 62
     0
370
    35
100
AcDbHatch
 10
0.0
 20
0.0
 30
0.0
210
0.0
220
0.0
230
1.0
  2
SOLID
 70
     1
 71
     0
 91
        1
 92
        0
 93
        3
 72
     2
 10
0.0000000000000104
 20
0.0
 40
3.000000000000004
 50
180.0
 51
270.0000000000008
 73
     1
 72
     1
 10
0.0000000000000104
 20
-3.000000000000004
 11
0.0000000000000104
 21
0.0
 72
     1
 10
0.0000000000000104
 20
0.0
 11
-2.999999999999994
 21
0.0
 97
        0
 75
     0
 76
     1
 98
        1
 10
0.0
 20
0.0
  0
ENDBLK
  5
12A
330
128
100
AcDbEntity
  8
0
100
AcDbBlockEnd
  0
BLOCK
  5
18A
330
189
100
AcDbEntity
  8
0
100
AcDbBlockBegin
  2
*D9
 70
     1
 10
0.0
 20
0.0
 30
0.0
  3
*D9
  1
*D9
  0
LINE
  5
18B
330
189
100
AcDbEntity
  8
치수문자_일반주서
 62
     0
370
    -2
100
AcDbLine
 10
16.80895802161217
 20
8.85086339655291
 30
0.0
 11
4.374999999999993
 21
8.850863396552864
 31
0.0
  0
LINE
  5
18C
330
189
100
AcDbEntity
  8
치수문자_일반주서
 62
     0
370
    -2
100
AcDbLine
 10
16.80895802161217
 20
4.85086339655291
 30
0.0
 11
4.375000000000007
 21
4.850863396552864
 31
0.0
  0
LINE
  5
18D
330
189
100
AcDbEntity
  8
치수문자_일반주서
 62
     0
370
    -2
100
AcDbLine
 10
4.375000000000004
 20
5.548863396552864
 30
0.0
 11
4.374999999999996
 21
8.152863396552863
 31
0.0
  0
SOLID
  5
18E
330
189
100
AcDbEntity
  8
치수문자_일반주서
 62
     0
100
AcDbTrace
 10
4.925333333333338
 20
5.548863396552866
 30
0.0
 11
3.824666666666671
 21
5.548863396552862
 31
0.0
 12
4.374999999999993
 22
8.850863396552864
 32
0.0
 13
4.374999999999993
 23
8.850863396552864
 33
0.0
  0
SOLID
  5
18F
330
189
100
AcDbEntity
  8
치수문자_일반주서
 62
     0
100
AcDbTrace
 10
3.824666666666662
 20
8.152863396552862
 30
0.0
 11
4.925333333333329
 21
8.152863396552865
 31
0.0
 12
4.375000000000007
 22
4.850863396552864
 32
0.0
 13
4.375000000000007
 23
4.850863396552864
 33
0.0
  0
MTEXT
  5
190
330
189
100
AcDbEntity
  8
치수문자_일반주서
 62
     0
100
AcDbMText
 10
0.0
 20
6.850863396552895
 30
0.0
 40
3.5
 41
0.0
 71
     2
 72
     1
  1
\A1;%%c4
  7
SLDTEXTSTYLE0
 11
-3.552713678800500E-15
 21
1.0
 31
0.0
 73
     1
 44
1.0
  0
POINT
  5
191
330
189
100
AcDbEntity
  8
Defpoints
 62
     0
100
AcDbPoint
 10
16.87145802161217
 20
8.85086339655291
 30
0.0
  0
POINT
  5
192
330
189
100
AcDbEntity
  8
Defpoints
 62
     0
100
AcDbPoint
 10
16.87145802161217
 20
4.85086339655291
 30
0.0
  0
POINT
  5
193
330
189
100
AcDbEntity
  8
Defpoints
 62
     0
100
AcDbPoint
 10
4.375
 20
4.850863396552863
 30
0.0
  0
ENDBLK
  5
194
330
189
100
AcDbEntity
  8
0
100
AcDbBlockEnd
  0
BLOCK
  5
197
330
196
100
AcDbEntity
  8
0
100
AcDbBlockBegin
  2
*D10
 70
     1
 10
0.0
 20
0.0
 30
0.0
  3
*D10
  1
*D10
  0
LINE
  5
198
330
196
100
AcDbEntity
  8
치수문자_일반주서
 62
     0
370
    -2
100
AcDbLine
 10
60.87145802161217
 20
7.063363396552916
 30
0.0
 11
60.87145802161217
 21
25.5008633965526
 31
0.0
  0
LINE
  5
199
330
196
100
AcDbEntity
  8
치수문자_일반주서
 62
     0
370
    -2
100
AcDbLine
 10
60.17145802161212
 20
7.113160478391052
 30
0.0
 11
60.17145802161212
 21
25.5008633965526
 31
0.0
  0
LINE
  5
19A
330
196
100
AcDbEntity
  8
치수문자_일반주서
 62
     0
370
    -2
100
AcDbLine
 10
60.87145802161217
 20
25.5008633965526
 30
0.0
 11
76.22545802161217
 21
25.5008633965526
 31
0.0
  0
LINE
  5
19B
330
196
100
AcDbEntity
  8
치수문자_일반주서
 62
     0
370
    -2
100
AcDbLine
 10
60.87145802161217
 20
25.5008633965526
 30
0.0
 11
60.17145802161212
 21
25.5008633965526
 31
0.0
  0
LINE
  5
19C
330
196
100
AcDbEntity
  8
치수문자_일반주서
 62
     0
370
    -2
100
AcDbLine
 10
64.17345802161216
 20
25.5008633965526
 30
0.0
 11
67.47545802161216
 21
25.5008633965526
 31
0.0
  0
LINE
  5
19D
330
196
100
AcDbEntity
  8
치수문자_일반주서
 62
     0
370
    -2
100
AcDbLine
 10
56.86945802161213
 20
25.5008633965526
 30
0.0
 11
53.56745802161213
 21
25.5008633965526
 31
0.0
  0
SOLID
  5
19E
330
196
100
AcDbEntity
  8
치수문자_일반주서
 62
     0
100
AcDbTrace
 10
64.17345802161216
 20
26.05119672988594
 30
0.0
 11
64.17345802161216
 21
24.95053006321927
 31
0.0
 12
60.87145802161217
 22
25.5008633965526
 32
0.0
 13
60.87145802161217
 23
25.5008633965526
 33
0.0
  0
SOLID
  5
19F
330
196
100
AcDbEntity
  8
치수문자_일반주서
 62
     0
100
AcDbTrace
 10
56.86945802161213
 20
24.95053006321927
 30
0.0
 11
56.86945802161213
 21
26.05119672988594
 31
0.0
 12
60.17145802161212
 22
25.5008633965526
 32
0.0
 13
60.17145802161212
 23
25.5008633965526
 33
0.0
  0
MTEXT
  5
1A0
330
196
100
AcDbEntity
  8
치수문자_일반주서
 62
     0
100
AcDbMText
 10
71.85045802161217
 20
29.8758633965526
 30
0.0
 40
3.5
 41
0.0
 71
     2
 72
     1
  1
\A1;0.70
  7
SLDTEXTSTYLE0
 73
     1
 44
1.0
  0
POINT
  5
1A1
330
196
100
AcDbEntity
  8
Defpoints
 62
     0
100
AcDbPoint
 10
60.87145802161217
 20
7.000863396552916
 30
0.0
  0
POINT
  5
1A2
330
196
100
AcDbEntity
  8
Defpoints
 62
     0
100
AcDbPoint
 10
60.17145802161212
 20
7.050660478391052
 30
0.0
  0
POINT
  5
1E5
330
196
100
AcDbEntity
  8
Defpoints
 62
     0
100
AcDbPoint
 10
60.17145802161212
 20
25.5008633965526
 30
0.0
  0
ENDBLK
  5
1A3
330
196
100
AcDbEntity
  8
0
100
AcDbBlockEnd
  0
BLOCK
  5
1A6
330
1A5
100
AcDbEntity
  8
0
100
AcDbBlockBegin
  2
*D11
 70
     1
 10
0.0
 20
0.0
 30
0.0
  3
*D11
  1
*D11
  0
LINE
  5
1A7
330
1A5
100
AcDbEntity
  8
치수문자_일반주서
 62
     0
370
    -2
100
AcDbLine
 10
60.87145802161217
 20
7.063363396552916
 30
0.0
 11
60.87145802161217
 21
47.5591879015972
 31
0.0
  0
LINE
  5
1A8
330
1A5
100
AcDbEntity
  8
치수문자_일반주서
 62
     0
370
    -2
100
AcDbLine
 10
15.87145802161217
 20
7.91336339655291
 30
0.0
 11
15.87145802161217
 21
47.5591879015972
 31
0.0
  0
LINE
  5
1A9
330
1A5
100
AcDbEntity
  8
치수문자_일반주서
 62
     0
370
    -2
100
AcDbLine
 10
57.56945802161217
 20
47.5591879015972
 30
0.0
 11
19.17345802161217
 21
47.5591879015972
 31
0.0
  0
SOLID
  5
1AA
330
1A5
100
AcDbEntity
  8
치수문자_일반주서
 62
     0
100
AcDbTrace
 10
57.56945802161217
 20
47.00885456826386
 30
0.0
 11
57.56945802161217
 21
48.10952123493053
 31
0.0
 12
60.87145802161217
 22
47.5591879015972
 32
0.0
 13
60.87145802161217
 23
47.5591879015972
 33
0.0
  0
SOLID
  5
1AB
330
1A5
100
AcDbEntity
  8
치수문자_일반주서
 62
     0
100
AcDbTrace
 10
19.17345802161217
 20
48.10952123493053
 30
0.0
 11
19.17345802161217
 21
47.00885456826386
 31
0.0
 12
15.87145802161217
 22
47.5591879015972
 32
0.0
 13
15.87145802161217
 23
47.5591879015972
 33
0.0
  0
MTEXT
  5
1AC
330
1A5
100
AcDbEntity
  8
치수문자_일반주서
 62
     0
100
AcDbMText
 10
38.37145802161217
 20
51.9341879015972
 30
0.0
 40
3.5
 41
0.0
 71
     2
 72
     1
  1
\A1;45
  7
SLDTEXTSTYLE0
 73
     1
 44
1.0
  0
POINT
  5
1AD
330
1A5
100
AcDbEntity
  8
Defpoints
 62
     0
100
AcDbPoint
 10
60.87145802161217
 20
7.000863396552916
 30
0.0
  0
POINT
  5
1AE
330
1A5
100
AcDbEntity
  8
Defpoints
 62
     0
100
AcDbPoint
 10
15.87145802161217
 20
7.85086339655291
 30
0.0
  0
POINT
  5
1AF
330
1A5
100
AcDbEntity
  8
Defpoints
 62
     0
100
AcDbPoint
 10
15.87145802161217
 20
47.5591879015972
 30
0.0
  0
ENDBLK
  5
1B0
330
1A5
100
AcDbEntity
  8
0
100
AcDbBlockEnd
  0
BLOCK
  5
1B3
330
1B2
100
AcDbEntity
  8
0
100
AcDbBlockBegin
  2
*D12
 70
     1
 10
0.0
 20
0.0
 30
0.0
  3
*D12
  1
*D12
  0
LINE
  5
1B4
330
1B2
100
AcDbEntity
  8
치수문자_일반주서
 62
     0
370
    -2
100
AcDbLine
 10
60.87145802161217
 20
7.063363396552916
 30
0.0
 11
60.87145802161217
 21
36.97086339655309
 31
0.0
  0
LINE
  5
1B5
330
1B2
100
AcDbEntity
  8
치수문자_일반주서
 62
     0
370
    -2
100
AcDbLine
 10
56.87145802161217
 20
7.138363396552933
 30
0.0
 11
56.87145802161217
 21
36.97086339655309
 31
0.0
  0
LINE
  5
1B6
330
1B2
100
AcDbEntity
  8
치수문자_일반주서
 62
     0
370
    -2
100
AcDbLine
 10
60.87145802161217
 20
36.97086339655309
 30
0.0
 11
86.7266226796171
 21
36.97086339655309
 31
0.0
  0
LINE
  5
1B7
330
1B2
100
AcDbEntity
  8
치수문자_일반주서
 62
     0
370
    -2
100
AcDbLine
 10
60.87145802161217
 20
36.97086339655309
 30
0.0
 11
56.87145802161217
 21
36.97086339655309
 31
0.0
  0
LINE
  5
1B8
330
1B2
100
AcDbEntity
  8
치수문자_일반주서
 62
     0
370
    -2
100
AcDbLine
 10
64.17345802161216
 20
36.97086339655309
 30
0.0
 11
67.47545802161216
 21
36.97086339655309
 31
0.0
  0
LINE
  5
1B9
330
1B2
100
AcDbEntity
  8
치수문자_일반주서
 62
     0
370
    -2
100
AcDbLine
 10
53.56945802161217
 20
36.97086339655309
 30
0.0
 11
50.26745802161217
 21
36.97086339655309
 31
0.0
  0
SOLID
  5
1BA
330
1B2
100
AcDbEntity
  8
치수문자_일반주서
 62
     0
100
AcDbTrace
 10
64.17345802161216
 20
37.52119672988642
 30
0.0
 11
64.17345802161216
 21
36.42053006321975
 31
0.0
 12
60.87145802161217
 22
36.97086339655309
 32
0.0
 13
60.87145802161217
 23
36.97086339655309
 33
0.0
  0
SOLID
  5
1BB
330
1B2
100
AcDbEntity
  8
치수문자_일반주서
 62
     0
100
AcDbTrace
 10
53.56945802161217
 20
36.42053006321975
 30
0.0
 11
53.56945802161217
 21
37.52119672988642
 31
0.0
 12
56.87145802161217
 22
36.97086339655309
 32
0.0
 13
56.87145802161217
 23
36.97086339655309
 33
0.0
  0
MTEXT
  5
1BC
330
1B2
100
AcDbEntity
  8
치수문자_일반주서
 62
     0
100
AcDbMText
 10
84.9766226796171
 20
41.34586339655309
 30
0.0
 40
3.5
 41
0.0
 71
     2
 72
     1
  1
\A1;4
  7
SLDTEXTSTYLE0
 73
     1
 44
1.0
  0
POINT
  5
1BD
330
1B2
100
AcDbEntity
  8
Defpoints
 62
     0
100
AcDbPoint
 10
60.87145802161217
 20
7.000863396552916
 30
0.0
  0
POINT
  5
1BE
330
1B2
100
AcDbEntity
  8
Defpoints
 62
     0
100
AcDbPoint
 10
56.87145802161217
 20
7.075863396552933
 30
0.0
  0
POINT
  5
1BF
330
1B2
100
AcDbEntity
  8
Defpoints
 62
     0
100
AcDbPoint
 10
56.87145802161217
 20
36.97086339655309
 30
0.0
  0
ENDBLK
  5
1C0
330
1B2
100
AcDbEntity
  8
0
100
AcDbBlockEnd
  0
BLOCK
  5
1C3
330
1C2
100
AcDbEntity
  8
0
100
AcDbBlockBegin
  2
*D13
 70
     1
 10
0.0
 20
0.0
 30
0.0
  3
*D13
  1
*D13
  0
LINE
  5
1C4
330
1C2
100
AcDbEntity
  8
치수문자_일반주서
 62
     0
370
    -2
100
AcDbLine
 10
60.88395802161199
 20
7.10086339655291
 30
0.0
 11
78.6781071870239
 21
7.100863396552977
 31
0.0
  0
LINE
  5
1C5
330
1C2
100
AcDbEntity
  8
치수문자_일반주서
 62
     0
370
    -2
100
AcDbLine
 10
60.88395802161199
 20
6.603999999999928
 30
0.0
 11
78.6781071870239
 21
6.603999999999996
 31
0.0
  0
LINE
  5
1C6
330
1C2
100
AcDbEntity
  8
치수문자_일반주서
 62
     0
370
    -2
100
AcDbLine
 10
78.6781071870239
 20
7.100863396552977
 30
0.0
 11
78.6781071870239
 21
25.07986339655298
 31
0.0
  0
LINE
  5
1C7
330
1C2
100
AcDbEntity
  8
치수문자_일반주서
 62
     0
370
    -2
100
AcDbLine
 10
78.6781071870239
 20
7.100863396552977
 30
0.0
 11
78.6781071870239
 21
6.603999999999996
 31
0.0
  0
LINE
  5
1C8
330
1C2
100
AcDbEntity
  8
치수문자_일반주서
 62
     0
370
    -2
100
AcDbLine
 10
78.6781071870239
 20
10.40286339655298
 30
0.0
 11
78.6781071870239
 21
13.70486339655298
 31
0.0
  0
LINE
  5
1C9
330
1C2
100
AcDbEntity
  8
치수문자_일반주서
 62
     0
370
    -2
100
AcDbLine
 10
78.6781071870239
 20
3.301999999999996
 30
0.0
 11
78.6781071870239
 21
-0.0000000000000036
 31
0.0
  0
SOLID
  5
1CA
330
1C2
100
AcDbEntity
  8
치수문자_일반주서
 62
     0
100
AcDbTrace
 10
78.12777385369057
 20
10.40286339655298
 30
0.0
 11
79.22844052035722
 21
10.40286339655298
 31
0.0
 12
78.6781071870239
 22
7.100863396552977
 32
0.0
 13
78.6781071870239
 23
7.100863396552977
 33
0.0
  0
SOLID
  5
1CB
330
1C2
100
AcDbEntity
  8
치수문자_일반주서
 62
     0
100
AcDbTrace
 10
79.22844052035722
 20
3.301999999999996
 30
0.0
 11
78.12777385369057
 21
3.301999999999996
 31
0.0
 12
78.6781071870239
 22
6.603999999999996
 32
0.0
 13
78.6781071870239
 23
6.603999999999996
 33
0.0
  0
MTEXT
  5
1CC
330
1C2
100
AcDbEntity
  8
치수문자_일반주서
 62
     0
100
AcDbMText
 10
74.3031071870239
 20
19.39236339655298
 30
0.0
 40
3.5
 41
0.0
 71
     2
 72
     1
  1
\A1;%%c0.50
  7
SLDTEXTSTYLE0
 11
0.0
 21
1.0
 31
0.0
 73
     1
 44
1.0
  0
POINT
  5
1CD
330
1C2
100
AcDbEntity
  8
Defpoints
 62
     0
100
AcDbPoint
 10
60.82145802161199
 20
7.10086339655291
 30
0.0
  0
POINT
  5
1CE
330
1C2
100
AcDbEntity
  8
Defpoints
 62
     0
100
AcDbPoint
 10
60.82145802161199
 20
6.603999999999928
 30
0.0
  0
POINT
  5
1E6
330
1C2
100
AcDbEntity
  8
Defpoints
 62
     0
100
AcDbPoint
 10
78.6781071870239
 20
6.603999999999995
 30
0.0
  0
ENDBLK
  5
1CF
330
1C2
100
AcDbEntity
  8
0
100
AcDbBlockEnd
  0
BLOCK
  5
205
330
204
100
AcDbEntity
  8
0
100
AcDbBlockBegin
  2
*D14
 70
     1
 10
0.0
 20
0.0
 30
0.0
  3
*D14
  1
*D14
  0
LINE
  5
207
330
204
100
AcDbEntity
  8
치수문자_일반주서
 62
     0
370
    -2
100
AcDbLine
 10
-33.4381098165652
 20
2.0
 30
0.0
 11
-45.87206783817738
 21
1.999999999999953
 31
0.0
  0
LINE
  5
208
330
204
100
AcDbEntity
  8
치수문자_일반주서
 62
     0
370
    -2
100
AcDbLine
 10
-33.4381098165652
 20
-2.0
 30
0.0
 11
-45.87206783817737
 21
-2.000000000000047
 31
0.0
  0
LINE
  5
209
330
204
100
AcDbEntity
  8
치수문자_일반주서
 62
     0
370
    -2
100
AcDbLine
 10
-45.87206783817737
 20
-1.302000000000047
 30
0.0
 11
-45.87206783817738
 21
1.301999999999953
 31
0.0
  0
SOLID
  5
20A
330
204
100
AcDbEntity
  8
치수문자_일반주서
 62
     0
100
AcDbTrace
 10
-45.32173450484403
 20
-1.302000000000045
 30
0.0
 11
-46.4224011715107
 21
-1.302000000000049
 31
0.0
 12
-45.87206783817738
 22
1.999999999999953
 32
0.0
 13
-45.87206783817738
 23
1.999999999999953
 33
0.0
  0
SOLID
  5
20B
330
204
100
AcDbEntity
  8
치수문자_일반주서
 62
     0
100
AcDbTrace
 10
-46.42240117151071
 20
1.301999999999951
 30
0.0
 11
-45.32173450484404
 21
1.301999999999955
 31
0.0
 12
-45.87206783817737
 22
-2.000000000000047
 32
0.0
 13
-45.87206783817737
 23
-2.000000000000047
 33
0.0
  0
MTEXT
  5
20C
330
204
100
AcDbEntity
  8
치수문자_일반주서
 62
     0
100
AcDbMText
 10
-50.24706783817737
 20
-0.0000000000000154
 30
0.0
 40
3.5
 41
0.0
 71
     2
 72
     1
  1
\A1;%%c4
  7
SLDTEXTSTYLE0
 11
-3.552713678800502E-15
 21
1.0
 31
0.0
 73
     1
 44
1.0
  0
POINT
  5
20D
330
204
100
AcDbEntity
  8
Defpoints
 62
     0
100
AcDbPoint
 10
-33.3756098165652
 20
2.0
 30
0.0
  0
POINT
  5
20E
330
204
100
AcDbEntity
  8
Defpoints
 62
     0
100
AcDbPoint
 10
-33.3756098165652
 20
-2.0
 30
0.0
  0
POINT
  5
20F
330
204
100
AcDbEntity
  8
Defpoints
 62
     0
100
AcDbPoint
 10
-45.87206783817737
 20
-2.000000000000047
 30
0.0
  0
ENDBLK
  5
206
330
204
100
AcDbEntity
  8
0
100
AcDbBlockEnd
  0
BLOCK
  5
211
330
210
100
AcDbEntity
  8
0
100
AcDbBlockBegin
  2
*D15
 70
     1
 10
0.0
 20
0.0
 30
0.0
  3
*D15
  1
*D15
  0
LINE
  5
213
330
210
100
AcDbEntity
  8
치수문자_일반주서
 62
     0
370
    -2
100
AcDbLine
 10
10.6243901834348
 20
0.2125000000000057
 30
0.0
 11
10.6243901834348
 21
18.64999999999969
 31
0.0
  0
LINE
  5
214
330
210
100
AcDbEntity
  8
치수문자_일반주서
 62
     0
370
    -2
100
AcDbLine
 10
9.924390183434753
 20
0.2622970818381418
 30
0.0
 11
9.924390183434753
 21
18.64999999999969
 31
0.0
  0
LINE
  5
215
330
210
100
AcDbEntity
  8
치수문자_일반주서
 62
     0
370
    -2
100
AcDbLine
 10
10.6243901834348
 20
18.64999999999969
 30
0.0
 11
25.9783901834348
 21
18.64999999999969
 31
0.0
  0
LINE
  5
216
330
210
100
AcDbEntity
  8
치수문자_일반주서
 62
     0
370
    -2
100
AcDbLine
 10
10.6243901834348
 20
18.64999999999969
 30
0.0
 11
9.924390183434753
 21
18.64999999999969
 31
0.0
  0
LINE
  5
217
330
210
100
AcDbEntity
  8
치수문자_일반주서
 62
     0
370
    -2
100
AcDbLine
 10
13.9263901834348
 20
18.64999999999969
 30
0.0
 11
17.2283901834348
 21
18.64999999999969
 31
0.0
  0
LINE
  5
218
330
210
100
AcDbEntity
  8
치수문자_일반주서
 62
     0
370
    -2
100
AcDbLine
 10
6.622390183434753
 20
18.64999999999969
 30
0.0
 11
3.320390183434753
 21
18.64999999999969
 31
0.0
  0
SOLID
  5
219
330
210
100
AcDbEntity
  8
치수문자_일반주서
 62
     0
100
AcDbTrace
 10
13.9263901834348
 20
19.20033333333303
 30
0.0
 11
13.9263901834348
 21
18.09966666666636
 31
0.0
 12
10.6243901834348
 22
18.64999999999969
 32
0.0
 13
10.6243901834348
 23
18.64999999999969
 33
0.0
  0
SOLID
  5
21A
330
210
100
AcDbEntity
  8
치수문자_일반주서
 62
     0
100
AcDbTrace
 10
6.622390183434753
 20
18.09966666666636
 30
0.0
 11
6.622390183434753
 21
19.20033333333303
 31
0.0
 12
9.924390183434753
 22
18.64999999999969
 32
0.0
 13
9.924390183434753
 23
18.64999999999969
 33
0.0
  0
MTEXT
  5
21B
330
210
100
AcDbEntity
  8
치수문자_일반주서
 62
     0
100
AcDbMText
 10
21.6033901834348
 20
23.02499999999969
 30
0.0
 40
3.5
 41
0.0
 71
     2
 72
     1
  1
\A1;0.70
  7
SLDTEXTSTYLE0
 73
     1
 44
1.0
  0
POINT
  5
21C
330
210
100
AcDbEntity
  8
Defpoints
 62
     0
100
AcDbPoint
 10
10.6243901834348
 20
0.1500000000000057
 30
0.0
  0
POINT
  5
21D
330
210
100
AcDbEntity
  8
Defpoints
 62
     0
100
AcDbPoint
 10
9.924390183434753
 20
0.1997970818381418
 30
0.0
  0
POINT
  5
21E
330
210
100
AcDbEntity
  8
Defpoints
 62
     0
100
AcDbPoint
 10
9.924390183434753
 20
18.64999999999969
 30
0.0
  0
ENDBLK
  5
212
330
210
100
AcDbEntity
  8
0
100
AcDbBlockEnd
  0
BLOCK
  5
220
330
21F
100
AcDbEntity
  8
0
100
AcDbBlockBegin
  2
*D16
 70
     1
 10
0.0
 20
0.0
 30
0.0
  3
*D16
  1
*D16
  0
LINE
  5
222
330
21F
100
AcDbEntity
  8
치수문자_일반주서
 62
     0
370
    -2
100
AcDbLine
 10
10.6243901834348
 20
0.2125000000000057
 30
0.0
 11
10.6243901834348
 21
40.70832450504429
 31
0.0
  0
LINE
  5
223
330
21F
100
AcDbEntity
  8
치수문자_일반주서
 62
     0
370
    -2
100
AcDbLine
 10
-34.3756098165652
 20
1.0625
 30
0.0
 11
-34.3756098165652
 21
40.70832450504429
 31
0.0
  0
LINE
  5
224
330
21F
100
AcDbEntity
  8
치수문자_일반주서
 62
     0
370
    -2
100
AcDbLine
 10
7.322390183434798
 20
40.70832450504429
 30
0.0
 11
-31.0736098165652
 21
40.70832450504429
 31
0.0
  0
SOLID
  5
225
330
21F
100
AcDbEntity
  8
치수문자_일반주서
 62
     0
100
AcDbTrace
 10
7.322390183434798
 20
40.15799117171095
 30
0.0
 11
7.322390183434798
 21
41.25865783837762
 31
0.0
 12
10.6243901834348
 22
40.70832450504429
 32
0.0
 13
10.6243901834348
 23
40.70832450504429
 33
0.0
  0
SOLID
  5
226
330
21F
100
AcDbEntity
  8
치수문자_일반주서
 62
     0
100
AcDbTrace
 10
-31.0736098165652
 20
41.25865783837762
 30
0.0
 11
-31.0736098165652
 21
40.15799117171095
 31
0.0
 12
-34.3756098165652
 22
40.70832450504429
 32
0.0
 13
-34.3756098165652
 23
40.70832450504429
 33
0.0
  0
MTEXT
  5
227
330
21F
100
AcDbEntity
  8
치수문자_일반주서
 62
     0
100
AcDbMText
 10
-11.8756098165652
 20
45.08332450504429
 30
0.0
 40
3.5
 41
0.0
 71
     2
 72
     1
  1
\A1;45
  7
SLDTEXTSTYLE0
 73
     1
 44
1.0
  0
POINT
  5
228
330
21F
100
AcDbEntity
  8
Defpoints
 62
     0
100
AcDbPoint
 10
10.6243901834348
 20
0.1500000000000057
 30
0.0
  0
POINT
  5
229
330
21F
100
AcDbEntity
  8
Defpoints
 62
     0
100
AcDbPoint
 10
-34.3756098165652
 20
1.0
 30
0.0
  0
POINT
  5
22A
330
21F
100
AcDbEntity
  8
Defpoints
 62
     0
100
AcDbPoint
 10
-34.3756098165652
 20
40.70832450504429
 30
0.0
  0
ENDBLK
  5
221
330
21F
100
AcDbEntity
  8
0
100
AcDbBlockEnd
  0
BLOCK
  5
22C
330
22B
100
AcDbEntity
  8
0
100
AcDbBlockBegin
  2
*D17
 70
     1
 10
0.0
 20
0.0
 30
0.0
  3
*D17
  1
*D17
  0
LINE
  5
22E
330
22B
100
AcDbEntity
  8
치수문자_일반주서
 62
     0
370
    -2
100
AcDbLine
 10
10.6243901834348
 20
0.2125000000000057
 30
0.0
 11
10.6243901834348
 21
30.12000000000018
 31
0.0
  0
LINE
  5
22F
330
22B
100
AcDbEntity
  8
치수문자_일반주서
 62
     0
370
    -2
100
AcDbLine
 10
6.624390183434798
 20
0.2875000000000227
 30
0.0
 11
6.624390183434798
 21
30.12000000000018
 31
0.0
  0
LINE
  5
230
330
22B
100
AcDbEntity
  8
치수문자_일반주서
 62
     0
370
    -2
100
AcDbLine
 10
10.6243901834348
 20
30.12000000000018
 30
0.0
 11
36.47955484143972
 21
30.12000000000018
 31
0.0
  0
LINE
  5
231
330
22B
100
AcDbEntity
  8
치수문자_일반주서
 62
     0
370
    -2
100
AcDbLine
 10
10.6243901834348
 20
30.12000000000018
 30
0.0
 11
6.624390183434798
 21
30.12000000000018
 31
0.0
  0
LINE
  5
232
330
22B
100
AcDbEntity
  8
치수문자_일반주서
 62
     0
370
    -2
100
AcDbLine
 10
13.9263901834348
 20
30.12000000000018
 30
0.0
 11
17.2283901834348
 21
30.12000000000018
 31
0.0
  0
LINE
  5
233
330
22B
100
AcDbEntity
  8
치수문자_일반주서
 62
     0
370
    -2
100
AcDbLine
 10
3.322390183434798
 20
30.12000000000018
 30
0.0
 11
0.0203901834347988
 21
30.12000000000018
 31
0.0
  0
SOLID
  5
234
330
22B
100
AcDbEntity
  8
치수문자_일반주서
 62
     0
100
AcDbTrace
 10
13.9263901834348
 20
30.67033333333351
 30
0.0
 11
13.9263901834348
 21
29.56966666666684
 31
0.0
 12
10.6243901834348
 22
30.12000000000018
 32
0.0
 13
10.6243901834348
 23
30.12000000000018
 33
0.0
  0
SOLID
  5
235
330
22B
100
AcDbEntity
  8
치수문자_일반주서
 62
     0
100
AcDbTrace
 10
3.322390183434798
 20
29.56966666666684
 30
0.0
 11
3.322390183434798
 21
30.67033333333351
 31
0.0
 12
6.624390183434798
 22
30.12000000000018
 32
0.0
 13
6.624390183434798
 23
30.12000000000018
 33
0.0
  0
MTEXT
  5
236
330
22B
100
AcDbEntity
  8
치수문자_일반주서
 62
     0
100
AcDbMText
 10
34.72955484143972
 20
34.49500000000018
 30
0.0
 40
3.5
 41
0.0
 71
     2
 72
     1
  1
\A1;4
  7
SLDTEXTSTYLE0
 73
     1
 44
1.0
  0
POINT
  5
237
330
22B
100
AcDbEntity
  8
Defpoints
 62
     0
100
AcDbPoint
 10
10.6243901834348
 20
0.1500000000000057
 30
0.0
  0
POINT
  5
238
330
22B
100
AcDbEntity
  8
Defpoints
 62
     0
100
AcDbPoint
 10
6.624390183434798
 20
0.2250000000000227
 30
0.0
  0
POINT
  5
239
330
22B
100
AcDbEntity
  8
Defpoints
 62
     0
100
AcDbPoint
 10
6.624390183434798
 20
30.12000000000018
 30
0.0
  0
ENDBLK
  5
22D
330
22B
100
AcDbEntity
  8
0
100
AcDbBlockEnd
  0
BLOCK
  5
23B
330
23A
100
AcDbEntity
  8
0
100
AcDbBlockBegin
  2
*D18
 70
     1
 10
0.0
 20
0.0
 30
0.0
  3
*D18
  1
*D18
  0
LINE
  5
23D
330
23A
100
AcDbEntity
  8
치수문자_일반주서
 62
     0
370
    -2
100
AcDbLine
 10
10.63689018343462
 20
0.2500000000000002
 30
0.0
 11
28.43103934884653
 21
0.2500000000000675
 31
0.0
  0
LINE
  5
23E
330
23A
100
AcDbEntity
  8
치수문자_일반주서
 62
     0
370
    -2
100
AcDbLine
 10
10.63689018343462
 20
-0.2468633965529816
 30
0.0
 11
28.43103934884653
 21
-0.2468633965529143
 31
0.0
  0
LINE
  5
23F
330
23A
100
AcDbEntity
  8
치수문자_일반주서
 62
     0
370
    -2
100
AcDbLine
 10
28.43103934884653
 20
0.2500000000000675
 30
0.0
 11
28.43103934884653
 21
18.22900000000007
 31
0.0
  0
LINE
  5
240
330
23A
100
AcDbEntity
  8
치수문자_일반주서
 62
     0
370
    -2
100
AcDbLine
 10
28.43103934884653
 20
0.2500000000000675
 30
0.0
 11
28.43103934884653
 21
-0.2468633965529143
 31
0.0
  0
LINE
  5
241
330
23A
100
AcDbEntity
  8
치수문자_일반주서
 62
     0
370
    -2
100
AcDbLine
 10
28.43103934884653
 20
3.552000000000067
 30
0.0
 11
28.43103934884653
 21
6.854000000000067
 31
0.0
  0
LINE
  5
242
330
23A
100
AcDbEntity
  8
치수문자_일반주서
 62
     0
370
    -2
100
AcDbLine
 10
28.43103934884653
 20
-3.548863396552914
 30
0.0
 11
28.43103934884653
 21
-6.850863396552914
 31
0.0
  0
SOLID
  5
243
330
23A
100
AcDbEntity
  8
치수문자_일반주서
 62
     0
100
AcDbTrace
 10
27.88070601551319
 20
3.552000000000067
 30
0.0
 11
28.98137268217986
 21
3.552000000000067
 31
0.0
 12
28.43103934884653
 22
0.2500000000000675
 32
0.0
 13
28.43103934884653
 23
0.2500000000000675
 33
0.0
  0
SOLID
  5
244
330
23A
100
AcDbEntity
  8
치수문자_일반주서
 62
     0
100
AcDbTrace
 10
28.98137268217986
 20
-3.548863396552914
 30
0.0
 11
27.88070601551319
 21
-3.548863396552914
 31
0.0
 12
28.43103934884653
 22
-0.2468633965529143
 32
0.0
 13
28.43103934884653
 23
-0.2468633965529143
 33
0.0
  0
MTEXT
  5
245
330
23A
100
AcDbEntity
  8
치수문자_일반주서
 62
     0
100
AcDbMText
 10
24.05603934884653
 20
12.54150000000007
 30
0.0
 40
3.5
 41
0.0
 71
     2
 72
     1
  1
\A1;%%c0.50
  7
SLDTEXTSTYLE0
 11
0.0
 21
1.0
 31
0.0
 73
     1
 44
1.0
  0
POINT
  5
246
330
23A
100
AcDbEntity
  8
Defpoints
 62
     0
100
AcDbPoint
 10
10.57439018343462
 20
0.25
 30
0.0
  0
POINT
  5
247
330
23A
100
AcDbEntity
  8
Defpoints
 62
     0
100
AcDbPoint
 10
10.57439018343462
 20
-0.2468633965529818
 30
0.0
  0
POINT
  5
248
330
23A
100
AcDbEntity
  8
Defpoints
 62
     0
100
AcDbPoint
 10
28.43103934884653
 20
-0.2468633965529151
 30
0.0
  0
ENDBLK
  5
23C
330
23A
100
AcDbEntity
  8
0
100
AcDbBlockEnd
  0
BLOCK
  5
273
330
272
100
AcDbEntity
  8
0
100
AcDbBlockBegin
  2
*D20
 70
     1
 10
0.0
 20
0.0
 30
0.0
  3
*D20
  1
*D20
  0
LINE
  5
274
330
272
100
AcDbEntity
  8
치수문자_일반주서
 62
     0
370
    -2
100
AcDbLine
 10
2.016507124857108
 20
21.35127565163221
 30
0.0
 11
12.69398098261077
 21
-1.989232773636933
 31
0.0
  0
MTEXT
  5
275
330
272
100
AcDbEntity
  8
치수문자_일반주서
 62
     0
100
AcDbMText
 10
12.89704814974897
 20
3.876931963704703
 30
0.0
 40
3.5
 41
0.0
 71
     5
 72
     1
  1
\A1;R0.10
  7
SLDTEXTSTYLE0
 11
0.4160023164240175
 21
-0.9093635536625887
 31
0.0
 73
     1
 44
1.0
  0
LINE
  5
276
330
272
100
AcDbEntity
  8
치수문자_일반주서
 62
     0
370
    -2
100
AcDbLine
 10
0.6012672443825977
 20
24.44493046119234
 30
0.0
 11
0.6428674760250033
 21
24.35399410582608
 31
0.0
  0
SOLID
  5
277
330
272
100
AcDbEntity
  8
치수문자_일반주서
 62
     0
100
AcDbTrace
 10
2.516960200556086
 20
21.58021559310422
 30
0.0
 11
1.51605404915813
 21
21.12233571016019
 31
0.0
 12
0.6428674760250033
 22
24.35399410582608
 32
0.0
 13
0.6428674760250033
 23
24.35399410582608
 33
0.0
  0
POINT
  5
278
330
272
100
AcDbEntity
  8
Defpoints
 62
     0
100
AcDbPoint
 10
0.6428674760250033
 20
24.35399410582608
 30
0.0
  0
POINT
  5
279
330
272
100
AcDbEntity
  8
Defpoints
 62
     0
100
AcDbPoint
 10
0.6012672443825977
 20
24.44493046119234
 30
0.0
  0
ENDBLK
  5
27B
330
272
100
AcDbEntity
  8
0
100
AcDbBlockEnd
  0
BLOCK
  5
2B5
330
2B4
100
AcDbEntity
  8
0
100
AcDbBlockBegin
  2
*D21
 70
     1
 10
0.0
 20
0.0
 30
0.0
  3
*D21
  1
*D21
  0
LINE
  5
2B7
330
2B4
100
AcDbEntity
  8
치수문자_일반주서
 62
     0
370
    -2
100
AcDbLine
 10
11.93963006390917
 20
-3.234374307741901
 30
0.0
 11
22.61710392166283
 21
-26.57488273301104
 31
0.0
  0
MTEXT
  5
2B8
330
2B4
100
AcDbEntity
  8
치수문자_일반주서
 62
     0
100
AcDbMText
 10
22.82017108880104
 20
-20.70871799566941
 30
0.0
 40
3.5
 41
0.0
 71
     5
 72
     1
  1
\A1;R0.10
  7
SLDTEXTSTYLE0
 11
0.4160023164240175
 21
-0.9093635536625887
 31
0.0
 73
     1
 44
1.0
  0
LINE
  5
2B9
330
2B4
100
AcDbEntity
  8
치수문자_일반주서
 62
     0
370
    -2
100
AcDbLine
 10
10.52439018343466
 20
-0.1407194981817668
 30
0.0
 11
10.56599041507707
 21
-0.231655853548034
 31
0.0
  0
SOLID
  5
2BA
330
2B4
100
AcDbEntity
  8
치수문자_일반주서
 62
     0
100
AcDbTrace
 10
12.44008313960815
 20
-3.005434366269884
 30
0.0
 11
11.43917698821019
 21
-3.463314249213919
 31
0.0
 12
10.56599041507707
 22
-0.231655853548034
 32
0.0
 13
10.56599041507707
 23
-0.231655853548034
 33
0.0
  0
POINT
  5
2BB
330
2B4
100
AcDbEntity
  8
Defpoints
 62
     0
100
AcDbPoint
 10
10.56599041507707
 20
-0.231655853548034
 30
0.0
  0
POINT
  5
2BC
330
2B4
100
AcDbEntity
  8
Defpoints
 62
     0
100
AcDbPoint
 10
10.52439018343466
 20
-0.1407194981817668
 30
0.0
  0
ENDBLK
  5
2B6
330
2B4
100
AcDbEntity
  8
0
100
AcDbBlockEnd
  0
ENDSEC
  0
SECTION
  2
ENTITIES
  0
INSERT
  5
E2
330
1F
100
AcDbEntity
  8
0
  6
Continuous
 62
     7
100
AcDbBlockReference
 66
     1
  2
블럭10
 10
-22.93944368806589
 20
-52.04609937292004
 30
0.0
  0
ATTRIB
  5
E3
330
E2
100
AcDbEntity
  8
FORMAT
 62
     2
100
AcDbText
 10
-42.21802657207924
 20
-49.97073246008785
 30
0.0
 40
4.233333333333333
  1
SEME610050104E [ 2 FLUTE ]
 41
0.75
  7
SLDTEXTSTYLE0
 11
-42.21802657207924
 21
-52.08739912675452
 31
0.0
100
AcDbAttribute
  2
AUTOATTR0
 70
     0
 74
     1
  0
SEQEND
  5
E4
330
E2
100
AcDbEntity
  8
0
  6
Continuous
 62
     7
  0
HATCH
  5
E5
330
1F
100
AcDbEntity
  8
중심선
100
AcDbHatch
 10
0.0
 20
0.0
 30
0.0
210
0.0
220
0.0
230
1.0
  2
SOLID
 70
     1
 71
     0
 91
        1
 92
        0
 93
        4
 72
     1
 10
-17.22453438368504
 20
-35.7989250712761
 11
-20.67080962752232
 21
-35.7989250712761
 72
     1
 10
-20.67080962752232
 20
-35.7989250712761
 11
-22.79903948672635
 21
-38.3352506518487
 72
     1
 10
-22.79903948672635
 20
-38.3352506518487
 11
-19.35273115777591
 21
-38.33521122254621
 72
     1
 10
-19.35273115777591
 20
-38.33521122254621
 11
-17.22453438368504
 21
-35.7989250712761
 97
        0
 75
     0
 76
     1
 98
        1
 10
0.0
 20
0.0
  0
HATCH
  5
E6
330
1F
100
AcDbEntity
  8
중심선
100
AcDbHatch
 10
0.0
 20
0.0
 30
0.0
210
0.0
220
0.0
230
1.0
  2
SOLID
 70
     1
 71
     0
 91
        1
 92
        0
 93
        4
 72
     1
 10
-12.21177039264909
 20
-35.7989250712761
 11
-15.65804563648637
 21
-35.7989250712761
 72
     1
 10
-15.65804563648637
 20
-35.7989250712761
 11
-20.18918364484376
 21
-41.19892507127612
 72
     1
 10
-20.18918364484376
 20
-41.19892507127612
 11
-16.74290840100648
 21
-41.19892507127612
 72
     1
 10
-16.74290840100648
 20
-41.19892507127612
 11
-12.21177039264909
 21
-35.7989250712761
 97
        0
 75
     0
 76
     1
 98
        1
 10
0.0
 20
0.0
  0
HATCH
  5
E7
330
1F
100
AcDbEntity
  8
중심선
100
AcDbHatch
 10
0.0
 20
0.0
 30
0.0
210
0.0
220
0.0
230
1.0
  2
SOLID
 70
     1
 71
     0
 91
        1
 92
        0
 93
        4
 72
     1
 10
-7.199006401613195
 20
-35.79892507127613
 11
-10.64528164545031
 21
-35.7989250712761
 72
     1
 10
-10.64528164545031
 20
-35.7989250712761
 11
-17.69371854733956
 21
-44.19892507127612
 72
     1
 10
-17.69371854733956
 20
-44.19892507127612
 11
-14.24744330350228
 21
-44.19892507127612
 72
     1
 10
-14.24744330350228
 20
-44.19892507127612
 11
-7.199006401613195
 21
-35.79892507127613
 97
        0
 75
     0
 76
     1
 98
        1
 10
0.0
 20
0.0
  0
HATCH
  5
E8
330
1F
100
AcDbEntity
  8
중심선
100
AcDbHatch
 10
0.0
 20
0.0
 30
0.0
210
0.0
220
0.0
230
1.0
  2
SOLID
 70
     1
 71
     0
 91
        1
 92
        0
 93
        6
 72
     3
 10
-2.399115970600996
 20
-39.99892507132738
 11
3.960054785062284
 21
1.540850780301639E-10
 40
0.3939339440162633
 50
17.09539180608433
 51
320.0019657685079
 73
     0
 72
     1
 10
-0.7161163149004002
 20
-38.58681907591441
 11
1.589185558800638
 21
-36.65249236586649
 72
     3
 10
-2.399115970653842
 20
-39.99892507127625
 11
6.600054785286829
 21
-1.249000902703301E-13
 40
0.6363583540795982
 50
39.99873849337408
 51
368.4976242363725
 73
     1
 72
     1
 10
4.026216521246767
 20
-39.03892507120613
 11
-3.71904866381792
 21
-39.0389250712061
 72
     1
 10
-3.71904866381792
 20
-39.0389250712061
 11
-3.719073708263854
 21
-40.95892507120602
 72
     1
 10
-3.719073708263854
 20
-40.95892507120602
 11
0.7223060612081831
 21
-40.95892507120599
 97
        0
 75
     0
 76
     1
 98
        1
 10
0.0
 20
0.0
  0
LINE
  5
1E8
330
1F
100
AcDbEntity
  8
0
  6
Continuous
 62
     4
370
    25
100
AcDbLine
 10
0.0
 20
2.0
 30
0.0
 11
-33.3756098165652
 21
2.0
 31
0.0
  0
LINE
  5
1E9
330
1F
100
AcDbEntity
  8
0
  6
Continuous
 62
     4
370
    25
100
AcDbLine
 10
-33.3756098165652
 20
-2.0
 30
0.0
 11
0.0
 21
-2.0
 31
0.0
  0
LINE
  5
1EA
330
1F
100
AcDbEntity
  8
0
  6
Continuous
 62
     4
370
    25
100
AcDbLine
 10
-33.3756098165652
 20
2.0
 30
0.0
 11
-34.3756098165652
 21
1.0
 31
0.0
  0
LINE
  5
1EB
330
1F
100
AcDbEntity
  8
0
  6
Continuous
 62
     4
370
    25
100
AcDbLine
 10
-34.3756098165652
 20
-1.0
 30
0.0
 11
-33.3756098165652
 21
-2.0
 31
0.0
  0
LINE
  5
1EC
330
1F
100
AcDbEntity
  8
0
  6
Continuous
 62
     4
370
    25
100
AcDbLine
 10
8.061495954382963
 20
0.2250000000000227
 30
0.0
 11
7.929173849614472
 21
0.2250000000000227
 31
0.0
  0
LINE
  5
1ED
330
1F
100
AcDbEntity
  8
0
  6
Continuous
 62
     4
370
    25
100
AcDbLine
 10
9.421871292614469
 20
0.2250000000000227
 30
0.0
 11
9.289726113034703
 21
0.2250000000000227
 31
0.0
  0
LINE
  5
1EE
330
1F
100
AcDbEntity
  8
0
  6
Continuous
 62
     4
370
    25
100
AcDbLine
 10
0.0
 20
2.0
 30
0.0
 11
0.0
 21
-2.0
 31
0.0
  0
LINE
  5
1EF
330
1F
100
AcDbEntity
  8
0
  6
Continuous
 62
     4
370
    25
100
AcDbLine
 10
-33.3756098165652
 20
2.0
 30
0.0
 11
-33.3756098165652
 21
-2.0
 31
0.0
  0
LINE
  5
1F0
330
1F
100
AcDbEntity
  8
0
  6
Continuous
 62
     4
370
    25
100
AcDbLine
 10
-34.3756098165652
 20
1.0
 30
0.0
 11
-34.3756098165652
 21
-1.0
 31
0.0
  0
CIRCLE
  5
1F1
330
1F
100
AcDbEntity
  8
외형선
100
AcDbCircle
 10
0.0
 20
0.0
 30
0.0
 40
3.000000000000005
  0
DIMENSION
  5
1F2
330
1F
100
AcDbEntity
  8
치수문자_일반주서
100
AcDbDimension
  2
*D14
 10
-45.87206783817737
 20
-2.000000000000047
 30
0.0
 11
-45.87206783817737
 21
0.0
 31
0.0
 70
   160
  1
%%c<>
 71
     2
 42
4.0
 52
-270.0
  3
SLDDIMSTYLE0
100
AcDbAlignedDimension
 13
-33.3756098165652
 23
2.0
 33
0.0
 14
-33.3756098165652
 24
-2.0
 34
0.0
 50
90.0000000000002
100
AcDbRotatedDimension
  0
DIMENSION
  5
1F3
330
1F
100
AcDbEntity
  8
치수문자_일반주서
100
AcDbDimension
  2
*D15
 10
9.924390183434753
 20
18.64999999999969
 30
0.0
 11
21.6033901834348
 21
18.64999999999969
 31
0.0
 70
   160
  1
<>
 71
     2
 42
0.7000000000000455
  3
SLDDIMSTYLE1
100
AcDbAlignedDimension
 13
10.6243901834348
 23
0.1500000000000057
 33
0.0
 14
9.924390183434753
 24
0.1997970818381418
 34
0.0
100
AcDbRotatedDimension
  0
DIMENSION
  5
1F4
330
1F
100
AcDbEntity
  8
치수문자_일반주서
100
AcDbDimension
  2
*D16
 10
-34.3756098165652
 20
40.70832450504429
 30
0.0
 11
-11.8756098165652
 21
40.70832450504429
 31
0.0
 70
   160
  1
<>
 71
     2
 42
45.0
  3
SLDDIMSTYLE2
100
AcDbAlignedDimension
 13
10.6243901834348
 23
0.1500000000000057
 33
0.0
 14
-34.3756098165652
 24
1.0
 34
0.0
100
AcDbRotatedDimension
  0
DIMENSION
  5
1F5
330
1F
100
AcDbEntity
  8
치수문자_일반주서
100
AcDbDimension
  2
*D17
 10
6.624390183434798
 20
30.12000000000018
 30
0.0
 11
34.72955484143972
 21
30.12000000000018
 31
0.0
 70
   160
  1
<>
 71
     2
 42
4.0
  3
SLDDIMSTYLE0
100
AcDbAlignedDimension
 13
10.6243901834348
 23
0.1500000000000057
 33
0.0
 14
6.624390183434798
 24
0.2250000000000227
 34
0.0
 50
0.0000000000001916
100
AcDbRotatedDimension
  0
DIMENSION
  5
1F6
330
1F
100
AcDbEntity
  8
치수문자_일반주서
100
AcDbDimension
  2
*D18
 10
28.43103934884653
 20
-0.2468633965529143
 30
0.0
 11
28.43103934884653
 21
12.54150000000007
 31
0.0
 70
   160
  1
%%c<>
 71
     2
 42
0.4968633965529818
 52
-270.0
  3
SLDDIMSTYLE1
100
AcDbAlignedDimension
 13
10.57439018343462
 23
0.25
 33
0.0
 14
10.57439018343462
 24
-0.2468633965529818
 34
0.0
 50
90.0000000000002
100
AcDbRotatedDimension
  0
INSERT
  5
1F7
330
1F
100
AcDbEntity
  8
외형선
100
AcDbBlockReference
  2
SW_DOWELSYMBOL_0
 10
0.0
 20
0.0
 30
0.0
  0
LINE
  5
1F8
330
1F
100
AcDbEntity
  8
중심선
100
AcDbLine
 10
-37.3756098165652
 20
0.0
 30
0.0
 11
12.1243901834348
 21
0.0
 31
0.0
  0
SPLINE
  5
1F9
330
1F
100
AcDbEntity
  8
0
  6
Continuous
 62
     4
370
    25
100
AcDbSpline
210
0.0
220
0.0
230
1.0
 70
     8
 71
     3
 72
    12
 73
     8
 74
     0
 42
0.000000001
 43
0.00000001
 40
0.1032550256121005
 40
0.1032550256121005
 40
0.1032550256121005
 40
0.1032550256121005
 40
0.3356848048462298
 40
0.4880349157688729
 40
0.6584368753527674
 40
0.7866512998367408
 40
1.0
 40
1.0
 40
1.0
 40
1.0
 10
9.527844655106946
 20
-0.2249999999999943
 30
0.0
 10
9.57732895420213
 20
-0.2028135393828734
 30
0.0
 10
9.618885877444654
 20
-0.1994479407643723
 30
0.0
 10
9.679323859678107
 20
-0.1966848455436718
 30
0.0
 10
9.727763616654556
 20
-0.1953834888594486
 30
0.0
 10
9.779969847649681
 20
-0.1952019237567129
 30
0.0
 10
9.808544470250354
 20
-0.1936640650726531
 30
0.0
 10
9.924390183435435
 20
-0.1997970818381418
 30
0.0
  0
SPLINE
  5
1FA
330
1F
100
AcDbEntity
  8
0
  6
Continuous
 62
     4
370
    25
100
AcDbSpline
210
0.0
220
0.0
230
1.0
 70
     8
 71
     3
 72
    10
 73
     6
 74
     0
 42
0.000000001
 43
0.00000001
 40
0.0
 40
0.0
 40
0.0
 40
0.0
 40
0.267128357292064
 40
0.6395781541141715
 40
0.7731127967872272
 40
0.7731127967872272
 40
0.7731127967872272
 40
0.7731127967872272
 10
9.924390183434753
 20
0.1997970818381418
 30
0.0
 10
9.808495753009538
 20
0.1935909489378105
 30
0.0
 10
9.76564514915276
 20
0.1957157896407864
 30
0.0
 10
9.697949083785034
 20
0.1959740326016686
 30
0.0
 10
9.654059919701012
 20
0.1977510104652254
 30
0.0
 10
9.642501140707964
 20
0.1983787356301434
 30
0.0
  0
SPLINE
  5
1FB
330
1F
100
AcDbEntity
  8
0
  6
Continuous
 62
     4
370
    25
100
AcDbSpline
210
0.0
220
0.0
230
1.0
 70
     8
 71
     3
 72
     9
 73
     5
 74
     0
 42
0.000000001
 43
0.00000001
 40
0.0
 40
0.0
 40
0.0
 40
0.0
 40
0.4360488997775231
 40
0.8674367094440804
 40
0.8674367094440804
 40
0.8674367094440804
 40
0.8674367094440804
 10
9.924390183435662
 20
0.0891017543583246
 30
0.0
 10
9.851379505006662
 20
0.1209900682842715
 30
0.0
 10
9.706138586653196
 20
0.184425829997565
 30
0.0
 10
9.560893450870935
 20
0.2223313762875989
 30
0.0
 10
9.48856687276475
 20
0.2250000000000227
 30
0.0
  0
LINE
  5
1FC
330
1F
100
AcDbEntity
  8
0
  6
Continuous
 62
     4
370
    25
100
AcDbLine
 10
6.624390183434798
 20
0.2250000000000227
 30
0.0
 11
3.234548902838014
 21
0.8227204780885131
 31
0.0
  0
LINE
  5
1FD
330
1F
100
AcDbEntity
  8
0
  6
Continuous
 62
     4
370
    25
100
AcDbLine
 10
6.624390183434798
 20
-0.2249999999999943
 30
0.0
 11
3.234548902838014
 21
-0.8227204780885131
 31
0.0
  0
LINE
  5
1FE
330
1F
100
AcDbEntity
  8
0
  6
Continuous
 62
     4
370
    25
100
AcDbLine
 10
0.0
 20
2.0
 30
0.0
 11
3.234548902838014
 21
0.8227204780885131
 31
0.0
  0
LINE
  5
1FF
330
1F
100
AcDbEntity
  8
0
  6
Continuous
 62
     4
370
    25
100
AcDbLine
 10
0.0
 20
-2.0
 30
0.0
 11
3.234548902838014
 21
-0.8227204780885131
 31
0.0
  0
LINE
  5
200
330
1F
100
AcDbEntity
  8
0
  6
Continuous
 62
     4
370
    25
100
AcDbLine
 10
3.234548902838014
 20
0.8227204780885131
 30
0.0
 11
3.234548902838014
 21
-0.8227204780885131
 31
0.0
  0
LINE
  5
201
330
1F
100
AcDbEntity
  8
0
  6
Continuous
 62
     4
370
    25
100
AcDbLine
 10
6.624390183434798
 20
0.2250000000000227
 30
0.0
 11
6.624390183434798
 21
-0.2249999999999943
 31
0.0
  0
LINE
  5
202
330
1F
100
AcDbEntity
  8
0
  6
Continuous
 62
     4
370
    25
100
AcDbLine
 10
6.624390183434798
 20
-0.2249999999999943
 30
0.0
 11
9.527844655106946
 21
-0.2249999999999943
 31
0.0
  0
LINE
  5
203
330
1F
100
AcDbEntity
  8
0
  6
Continuous
 62
     4
370
    25
100
AcDbLine
 10
9.48856687276475
 20
0.2250000000000227
 30
0.0
 11
6.624390183434798
 21
0.2250000000000227
 31
0.0
  0
DIMENSION
  5
298
102
{ACAD_REACTORS
102
}
102
{ACAD_XDICTIONARY
360
299
102
}
330
1F
100
AcDbEntity
  8
치수문자_일반주서
100
AcDbDimension
  2
*D21
 10
10.52439018343466
 20
-0.1407194981817668
 30
0.0
 11
20.43309176043674
 21
-21.80072407628245
 31
0.0
 70
   164
  1
<>
 71
     5
 42
0.1000000000000092
  3
SLDDIMSTYLE1
100
AcDbRadialDimension
 15
10.56599041507707
 25
-0.231655853548034
 35
0.0
 40
0.0
1001
ACAD_DSTYLE_DIMRADIAL_EXTENSION
1070
   387
1070
     1
1070
   388
1040
4.712388980358755
1070
   390
1040
0.0
  0
SPLINE
  5
29B
330
1F
100
AcDbEntity
  8
0
  6
Continuous
 62
     4
370
    25
100
AcDbSpline
210
0.0
220
0.0
230
1.0
 70
     8
 71
     3
 72
     9
 73
     5
 74
     0
 42
0.000000001
 43
0.00000001
 40
0.0
 40
0.0
 40
0.0
 40
0.0
 40
0.6524571768568813
 40
1.0
 40
1.0
 40
1.0
 40
1.0
 10
9.978243405400235
 20
0.0635828897032411
 30
0.0
 10
9.966249030280096
 20
0.0691748545696669
 30
0.0
 10
9.947865639698193
 20
0.0777454781519396
 30
0.0
 10
9.929504293237642
 20
0.0871767085362478
 30
0.0
 10
9.923122939052064
 20
0.0904544649697243
 30
0.0
  0
SPLINE
  5
29C
330
1F
100
AcDbEntity
  8
0
  6
Continuous
 62
     1
370
    25
100
AcDbSpline
210
0.0
220
0.0
230
1.0
 70
     8
 71
     3
 72
    10
 73
     6
 74
     0
 42
0.000000001
 43
0.00000001
 40
0.0
 40
0.0
 40
0.0
 40
0.0
 40
0.4082786399240665
 40
0.6101763282536402
 40
1.0
 40
1.0
 40
1.0
 40
1.0
 10
10.49881418605923
 20
0.167672724918674
 30
0.0
 10
10.44583091377922
 20
0.1657641501613227
 30
0.0
 10
10.36664690712928
 20
0.1629117669510265
 30
0.0
 10
10.2285132135039
 20
0.1698597666244837
 30
0.0
 10
10.14766978561374
 20
0.1808104702100479
 30
0.0
 10
10.09441045778976
 20
0.1880247500518237
 30
0.0
  0
SPLINE
  5
29D
330
1F
100
AcDbEntity
  8
0
  6
Continuous
 62
     1
370
    25
100
AcDbSpline
210
0.0
220
0.0
230
1.0
 70
     8
 71
     3
 72
     9
 73
     5
 74
     0
 42
0.000000001
 43
0.00000001
 40
0.0
 40
0.0
 40
0.0
 40
0.0
 40
0.9601833208350533
 40
1.0
 40
1.0
 40
1.0
 40
1.0
 10
10.09441045778976
 20
-0.1880247500517953
 30
0.0
 10
10.16015538119632
 20
-0.1776380942941671
 30
0.0
 10
10.22862660120177
 20
-0.1668207268891706
 30
0.0
 10
10.29427129493001
 20
-0.1671382499182528
 30
0.0
 10
10.29688504863884
 20
-0.1671508926308434
 30
0.0
  0
SPLINE
  5
29E
330
1F
100
AcDbEntity
  8
0
  6
Continuous
 62
     4
370
    25
100
AcDbSpline
210
0.0
220
0.0
230
1.0
 70
    24
 71
     3
 72
     8
 73
     4
 74
     0
 42
0.000000001
 43
0.00000001
 40
0.0
 40
0.0
 40
0.0
 40
0.0
 40
1.0
 40
1.0
 40
1.0
 40
1.0
 10
9.924390183434753
 20
0.0234979713022483
 30
0.0
 10
9.924390183434753
 20
0.02262879722457
 30
0.0
 10
9.924390183434753
 20
0.0167891776238207
 30
0.0
 10
9.924390183434753
 20
0.0078811269415837
 30
0.0
  0
SPLINE
  5
29F
330
1F
100
AcDbEntity
  8
0
  6
Continuous
 62
     4
370
    25
100
AcDbSpline
210
0.0
220
0.0
230
1.0
 70
    24
 71
     3
 72
    10
 73
     6
 74
     0
 42
0.000000001
 43
0.00000001
 40
0.0
 40
0.0
 40
0.0
 40
0.0
 40
0.5
 40
0.5
 40
1.0
 40
1.0
 40
1.0
 40
1.0
 10
9.924390183434753
 20
0.1997970818381418
 30
0.0
 10
9.924390183434753
 20
0.1970698386094512
 30
0.0
 10
9.924390183434753
 20
0.1857260610943854
 30
0.0
 10
9.924390183434753
 20
0.1466014978238093
 30
0.0
 10
9.924390183434753
 20
0.1189891194834729
 30
0.0
 10
9.924390183434753
 20
0.0878685641602317
 30
0.0
  0
SPLINE
  5
2A0
330
1F
100
AcDbEntity
  8
0
  6
Continuous
 62
     4
370
    25
100
AcDbSpline
210
0.0
220
0.0
230
1.0
 70
    24
 71
     3
 72
    13
 73
     9
 74
     0
 42
0.000000001
 43
0.00000001
 40
0.0
 40
0.0
 40
0.0
 40
0.0
 40
0.0935032486814815
 40
0.2776344970749446
 40
0.4565764176474971
 40
0.6407076660428253
 40
0.8178397425809968
 40
1.0
 40
1.0
 40
1.0
 40
1.0
 10
9.924390183434753
 20
-0.0132331015099112
 30
0.0
 10
9.924390183434753
 20
-0.0209934393928393
 30
0.0
 10
9.924390183434753
 20
-0.0440358206537326
 30
0.0
 10
9.924390183434753
 20
-0.0794095378492443
 30
0.0
 10
9.924390183434753
 20
-0.1183750027652479
 30
0.0
 10
9.924390183434753
 20
-0.1517639512415769
 30
0.0
 10
9.924390183434753
 20
-0.1800639211759005
 30
0.0
 10
9.924390183434753
 20
-0.193158277844617
 30
0.0
 10
9.924390183434753
 20
-0.1997970818381134
 30
0.0
  0
SPLINE
  5
2A1
330
1F
100
AcDbEntity
  8
0
  6
Continuous
 62
     1
370
    25
100
AcDbSpline
210
0.0
220
0.0
230
1.0
 70
     8
 71
     3
 72
    14
 73
    10
 74
     0
 42
0.000000001
 43
0.00000001
 40
0.0
 40
0.0
 40
0.0
 40
0.0
 40
0.25
 40
0.25
 40
0.5
 40
0.5
 40
0.75
 40
0.75
 40
1.0
 40
1.0
 40
1.0
 40
1.0
 10
10.52439018343216
 20
-0.2407194981817611
 30
0.0
 10
10.47350395146941
 20
-0.2328925142466289
 30
0.0
 10
10.42156522334267
 20
-0.2200201001093376
 30
0.0
 10
10.32457104137211
 20
-0.1868458081512188
 30
0.0
 10
10.2755450545892
 20
-0.1662040509372389
 30
0.0
 10
10.17328443027714
 20
-0.1184521990152803
 30
0.0
 10
10.12254573106293
 20
-0.0917205775419632
 30
0.0
 10
10.02706150996642
 20
-0.0368485461569605
 30
0.0
 10
9.975455768627398
 20
-0.0074067312548607
 30
0.0
 10
9.924390183434753
 20
0.0215151646888501
 30
0.0
  0
LINE
  5
2A2
330
1F
100
AcDbEntity
  8
0
  6
Continuous
 62
     1
370
    25
100
AcDbLine
 10
10.01107296810301
 20
-0.0259506711375366
 30
0.0
 11
9.924390183445894
 21
0.0078811269371499
 31
0.0
  0
SPLINE
  5
2A3
330
1F
100
AcDbEntity
  8
0
  6
Continuous
 62
     4
370
    25
100
AcDbSpline
210
0.0
220
0.0
230
1.0
 70
    24
 71
     3
 72
    11
 73
     7
 74
     0
 42
0.000000001
 43
0.00000001
 40
0.0
 40
0.0
 40
0.0
 40
0.0
 40
0.1823321630711152
 40
0.6323263937533411
 40
0.8157146296565828
 40
1.0
 40
1.0
 40
1.0
 40
1.0
 10
9.924390183434753
 20
0.0215151646888501
 30
0.0
 10
9.924390183434753
 20
0.0211627750330763
 30
0.0
 10
9.924390183434753
 20
0.0199406906982631
 30
0.0
 10
9.924390183434753
 20
0.0160873244666391
 30
0.0
 10
9.924390183434753
 20
0.0115313927896921
 30
0.0
 10
9.924390183434753
 20
0.0090998598949454
 30
0.0
 10
9.924390183434753
 20
0.0078811269415837
 30
0.0
  0
SPLINE
  5
2A4
330
1F
100
AcDbEntity
  8
0
  6
Continuous
 62
     1
370
    25
100
AcDbSpline
210
0.0
220
0.0
230
1.0
 70
     8
 71
     3
 72
    10
 73
     6
 74
     0
 42
0.000000001
 43
0.00000001
 40
0.0
 40
0.0
 40
0.0
 40
0.0
 40
0.3461935589569751
 40
0.6899299762655503
 40
1.0
 40
1.0
 40
1.0
 40
1.0
 10
10.60245265841536
 20
-0.19286845395348
 30
0.0
 10
10.52876407199165
 20
-0.1730115453833321
 30
0.0
 10
10.38190991088163
 20
-0.1334386645365839
 30
0.0
 10
10.16934725125861
 20
-0.0294914370644506
 30
0.0
 10
10.03047493169061
 20
0.0374582796366099
 30
0.0
 10
9.964614241551317
 20
0.069209420254623
 30
0.0
  0
SPLINE
  5
2A5
330
1F
100
AcDbEntity
  8
0
  6
Continuous
 62
     1
370
    25
100
AcDbSpline
210
0.0
220
0.0
230
1.0
 70
     8
 71
     3
 72
    17
 73
    13
 74
     0
 42
0.000000001
 43
0.00000001
 40
0.0000000000000006
 40
0.0000000000000006
 40
0.0000000000000006
 40
0.0000000000000006
 40
0.0000292880714134
 40
0.0000292880714134
 40
0.0000292880714134
 40
0.0000585396844602
 40
0.0000585396844602
 40
0.0000585396844602
 40
0.0000887028780213
 40
0.0000887028780213
 40
0.0000887028780213
 40
0.0000944896992138
 40
0.0000944896992138
 40
0.0000944896992138
 40
0.0000944896992138
 10
10.60245265841468
 20
-0.1928684539533378
 30
0.0
 10
10.59636404470621
 20
-0.1995024967518191
 30
0.0
 10
10.58907339055554
 20
-0.2050223756133391
 30
0.0
 10
10.58124756899792
 20
-0.208929835609041
 30
0.0
 10
10.57342595654609
 20
-0.2128351939836364
 30
0.0
 10
10.56487672577987
 20
-0.215237945569811
 30
0.0
 10
10.55629465761535
 20
-0.2160809008775288
 30
0.0
 10
10.54743432082864
 20
-0.2169511885260818
 30
0.0
 10
10.53832743174644
 20
-0.2162016423902458
 30
0.0
 10
10.52950243732857
 20
-0.2140946992253419
 30
0.0
 10
10.52779180139601
 20
-0.2136862895974616
 30
0.0
 10
10.52608678875072
 20
-0.2132269286661312
 30
0.0
 10
10.52439018343466
 20
-0.2127190325947197
 30
0.0
  0
SPLINE
  5
2A6
330
1F
100
AcDbEntity
  8
0
  6
Continuous
 62
     1
370
    25
100
AcDbSpline
210
0.0
220
0.0
230
1.0
 70
     8
 71
     3
 72
    14
 73
    10
 74
     0
 42
0.000000001
 43
0.00000001
 40
0.0
 40
0.0
 40
0.0
 40
0.0
 40
0.25
 40
0.25
 40
0.5
 40
0.5
 40
0.75
 40
0.75
 40
1.0
 40
1.0
 40
1.0
 40
1.0
 10
10.52439018343466
 20
-0.2127190325947197
 30
0.0
 10
10.47350395147168
 20
-0.197485721076248
 30
0.0
 10
10.42156522334494
 20
-0.1777441427150848
 30
0.0
 10
10.3245710413737
 20
-0.1330332762714761
 30
0.0
 10
10.27554505459079
 20
-0.1075424869262633
 30
0.0
 10
10.17328443027827
 20
-0.052515223413792
 30
0.0
 10
10.12254573106361
 20
-0.0234458565105058
 30
0.0
 10
10.02706150996687
 20
0.0333243849032101
 30
0.0
 10
9.975455768627626
 20
0.0623603616463697
 30
0.0
 10
9.924390183434753
 20
0.0894673766929657
 30
0.0
  0
LINE
  5
2A7
330
1F
100
AcDbEntity
  8
0
  6
Continuous
 62
     4
370
    25
100
AcDbLine
 10
9.924390183434753
 20
0.0215151646888501
 30
0.0
 11
9.924390183434753
 21
0.0894673766929657
 31
0.0
  0
SPLINE
  5
2A8
330
1F
100
AcDbEntity
  8
0
  6
Continuous
 62
     1
370
    25
100
AcDbSpline
210
0.0
220
0.0
230
1.0
 70
     8
 71
     3
 72
     8
 73
     4
 74
     0
 42
0.000000001
 43
0.00000001
 40
0.0
 40
0.0
 40
0.0
 40
0.0
 40
1.0
 40
1.0
 40
1.0
 40
1.0
 10
10.61099272381307
 20
0.0063670324199734
 30
0.0
 10
10.61609938102879
 20
-0.0723071794032251
 30
0.0
 10
10.61626226507474
 20
-0.1453497268608714
 30
0.0
 10
10.60245265841468
 20
-0.1928684539533378
 30
0.0
  0
SPLINE
  5
2A9
330
1F
100
AcDbEntity
  8
0
  6
Continuous
 62
     4
370
    25
100
AcDbSpline
210
0.0
220
0.0
230
1.0
 70
    24
 71
     3
 72
    10
 73
     6
 74
     0
 42
0.000000001
 43
0.00000001
 40
0.0
 40
0.0
 40
0.0
 40
0.0
 40
0.4999999999999999
 40
0.4999999999999999
 40
1.0
 40
1.0
 40
1.0
 40
1.0
 10
9.924390183434753
 20
0.1997970818381418
 30
0.0
 10
9.924390183434753
 20
0.1970698386094512
 30
0.0
 10
9.924390183434753
 20
0.1857260610943854
 30
0.0
 10
9.924390183434753
 20
0.1466014978238093
 30
0.0
 10
9.924390183434753
 20
0.1189891194834729
 30
0.0
 10
9.924390183434753
 20
0.0878685641602317
 30
0.0
  0
SPLINE
  5
2AA
330
1F
100
AcDbEntity
  8
0
  6
Continuous
 62
     1
370
    25
100
AcDbSpline
210
0.0
220
0.0
230
1.0
 70
     8
 71
     3
 72
     8
 73
     4
 74
     0
 42
0.000000001
 43
0.00000001
 40
0.0
 40
0.0
 40
0.0
 40
0.0
 40
1.0
 40
1.0
 40
1.0
 40
1.0
 10
10.6212147670899
 20
-0.1749949789054313
 30
0.0
 10
10.62128483773927
 20
-0.1747332604308269
 30
0.0
 10
10.62135246588809
 20
-0.1744623360548587
 30
0.0
 10
10.62141776991962
 20
-0.1741822979423375
 30
0.0
  0
SPLINE
  5
2AB
330
1F
100
AcDbEntity
  8
0
  6
Continuous
 62
     1
370
    25
100
AcDbSpline
210
0.0
220
0.0
230
1.0
 70
     8
 71
     3
 72
     9
 73
     5
 74
     0
 42
0.000000001
 43
0.00000001
 40
0.0
 40
0.0
 40
0.0
 40
0.0
 40
0.8858088695105593
 40
1.0
 40
1.0
 40
1.0
 40
1.0
 10
10.09796768799151
 20
-0.1790772652424835
 30
0.0
 10
10.04672239751153
 20
-0.1893728241171857
 30
0.0
 10
9.988870989330962
 20
-0.2009956010265626
 30
0.0
 10
9.930998687056217
 20
-0.1999199155758049
 30
0.0
 10
9.924390183435435
 20
-0.1997970818381418
 30
0.0
  0
SPLINE
  5
2AC
330
1F
100
AcDbEntity
  8
0
  6
Continuous
 62
     4
370
    25
100
AcDbSpline
210
0.0
220
0.0
230
1.0
 70
    24
 71
     3
 72
    13
 73
     9
 74
     0
 42
0.000000001
 43
0.00000001
 40
0.0
 40
0.0
 40
0.0
 40
0.0
 40
0.0935032486814816
 40
0.277634497074945
 40
0.4565764176474973
 40
0.640707666042826
 40
0.8178397425809972
 40
1.0
 40
1.0
 40
1.0
 40
1.0
 10
9.924390183434753
 20
-0.0132331015099112
 30
0.0
 10
9.924390183434753
 20
-0.0209934393928393
 30
0.0
 10
9.924390183434753
 20
-0.0440358206537326
 30
0.0
 10
9.924390183434753
 20
-0.0794095378492443
 30
0.0
 10
9.924390183434753
 20
-0.1183750027652479
 30
0.0
 10
9.924390183434753
 20
-0.1517639512415769
 30
0.0
 10
9.924390183434753
 20
-0.1800639211759005
 30
0.0
 10
9.924390183434753
 20
-0.193158277844617
 30
0.0
 10
9.924390183434753
 20
-0.1997970818381134
 30
0.0
  0
LINE
  5
2AD
330
1F
100
AcDbEntity
  8
0
  6
Continuous
 62
     1
370
    25
100
AcDbLine
 10
10.29700321859991
 20
0.1671891053914578
 30
0.0
 11
10.52439018343216
 21
0.2407194981817611
 31
0.0
  0
SPLINE
  5
2AE
330
1F
100
AcDbEntity
  8
0
  6
Continuous
 62
     1
370
    25
100
AcDbSpline
210
0.0
220
0.0
230
1.0
 70
     8
 71
     3
 72
    14
 73
    10
 74
     0
 42
0.000000001
 43
0.00000001
 40
0.0
 40
0.0
 40
0.0
 40
0.0
 40
0.25
 40
0.25
 40
0.5
 40
0.5
 40
0.75
 40
0.75
 40
1.0
 40
1.0
 40
1.0
 40
1.0
 10
10.61099272381307
 20
0.0063670324199734
 30
0.0
 10
10.55586273454105
 20
0.0324328869550925
 30
0.0
 10
10.49593587965046
 20
0.0590597345918127
 30
0.0
 10
10.37996556024405
 20
0.1072921125779942
 30
0.0
 10
10.32667450393819
 20
0.1286166517450908
 30
0.0
 10
10.21079985700453
 20
0.1646711130863707
 30
0.0
 10
10.15083603129051
 20
0.178869717829798
 30
0.0
 10
10.04035815459565
 20
0.1967960149873704
 30
0.0
 10
9.982862689123067
 20
0.2009946622523842
 30
0.0
 10
9.924390183435435
 20
0.1997970818381418
 30
0.0
  0
SPLINE
  5
2AF
330
1F
100
AcDbEntity
  8
0
  6
Continuous
 62
     1
370
    25
100
AcDbSpline
210
0.0
220
0.0
230
1.0
 70
     8
 71
     3
 72
    10
 73
     6
 74
     0
 42
0.000000001
 43
0.00000001
 40
0.2234067733794065
 40
0.2234067733794065
 40
0.2234067733794065
 40
0.2234067733794065
 40
0.5
 40
0.5
 40
1.0
 40
1.0
 40
1.0
 40
1.0
 10
10.62323576993299
 20
0.1558704067297754
 30
0.0
 10
10.62359196875036
 20
0.1453161376244907
 30
0.0
 10
10.62342678062714
 20
0.1316136401400172
 30
0.0
 10
10.62223139687558
 20
0.0858368109887806
 30
0.0
 10
10.62069750266528
 20
0.0476035726213411
 30
0.0
 10
10.61099272381307
 20
0.0063670324199734
 30
0.0
  0
ARC
  5
2B0
330
1F
100
AcDbEntity
  8
0
  6
Continuous
 62
     1
370
    25
100
AcDbCircle
 10
10.52439018343466
 20
0.1407194981817668
 30
0.0
 40
0.1
100
AcDbArc
 50
0.0
 51
90.00000000143304
  0
LINE
  5
2B1
330
1F
100
AcDbEntity
  8
0
  6
Continuous
 62
     1
370
    25
100
AcDbLine
 10
10.6184418252933
 20
0.1746943221505148
 30
0.0
 11
10.49744299947383
 21
0.1615750008694761
 31
0.0
  0
ARC
  5
2B2
102
{ACAD_REACTORS
102
}
330
1F
100
AcDbEntity
  8
0
  6
Continuous
 62
     1
370
    25
100
AcDbCircle
 10
10.52439018343466
 20
-0.1407194981817668
 30
0.0
 40
0.1
100
AcDbArc
 50
269.999999998567
 51
0.0
  0
LINE
  5
2B3
330
1F
100
AcDbEntity
  8
0
  6
Continuous
 62
     1
370
    25
100
AcDbLine
 10
10.6243901834348
 20
0.1407194981817668
 30
0.0
 11
10.6243901834348
 21
-0.1407194981817668
 31
0.0
  0
ENDSEC
  0
SECTION
  2
OBJECTS
  0
DICTIONARY
  5
C
330
0
100
AcDbDictionary
281
     1
  3
ACAD_GROUP
350
D
  3
ACAD_IMAGE_VARS
350
152
  3
ACAD_LAYOUT
350
1A
  3
ACAD_MLINESTYLE
350
17
  3
ACAD_PLOTSETTINGS
350
19
  3
ACAD_PLOTSTYLENAME
350
E
  3
ACAD_SCALELIST
350
47
  3
APPDATA
350
150
  3
DWGPROPS
350
2BD
  0
DICTIONARY
  5
299
330
298
100
AcDbDictionary
280
     1
281
     1
  0
DICTIONARY
  5
D
102
{ACAD_REACTORS
330
C
102
}
330
C
100
AcDbDictionary
281
     1
  0
RASTERVARIABLES
  5
152
102
{ACAD_REACTORS
330
C
102
}
330
C
100
AcDbRasterVariables
 90
        0
 70
     1
 71
     1
 72
     1
  0
DICTIONARY
  5
1A
102
{ACAD_REACTORS
330
C
102
}
330
C
100
AcDbDictionary
281
     1
  3
Layout1
350
1E
  3
Layout2
350
26
  3
Model
350
22
  0
DICTIONARY
  5
17
102
{ACAD_REACTORS
330
C
102
}
330
C
100
AcDbDictionary
281
     1
  3
Standard
350
18
  0
DICTIONARY
  5
19
102
{ACAD_REACTORS
330
C
102
}
330
C
100
AcDbDictionary
281
     1
  0
ACDBDICTIONARYWDFLT
  5
E
102
{ACAD_REACTORS
330
C
102
}
330
C
100
AcDbDictionary
281
     1
  3
Normal
350
F
100
AcDbDictionaryWithDefault
340
F
  0
DICTIONARY
  5
47
102
{ACAD_REACTORS
330
C
102
}
330
C
100
AcDbDictionary
281
     1
  3
A0
350
48
  3
A1
350
49
  3
A2
350
4A
  3
A3
350
4B
  3
A4
350
4C
  3
A5
350
4D
  3
A6
350
4E
  3
A7
350
4F
  3
A8
350
50
  3
A9
350
51
  3
B0
350
52
  3
B1
350
53
  3
B2
350
54
  3
B3
350
55
  3
B4
350
56
  3
B5
350
57
  3
B6
350
58
  3
B7
350
59
  3
B8
350
5A
  3
B9
350
5B
  3
C0
350
5C
  3
C1
350
5D
  3
C2
350
5E
  3
C3
350
5F
  3
C4
350
60
  3
C5
350
61
  3
C6
350
62
  3
C7
350
63
  3
C8
350
64
  3
C9
350
65
  3
D0
350
66
  3
D1
350
67
  3
D2
350
68
  0
DICTIONARY
  5
150
102
{ACAD_REACTORS
330
C
102
}
330
C
100
AcDbDictionary
281
     1
  0
XRECORD
  5
2BD
102
{ACAD_REACTORS
330
C
102
}
330
C
100
AcDbXrecord
280
     1
  1
DWGPROPS COOKIE
  2

  3

  4

  6

  7

  8
12016016
  9

300
=
301
=
302
=
303
=
304
=
305
=
306
=
307
=
308
=
309
=
 40
0.0
 41
2458263.359593113
 42
2458269.317014398
  1

 90
        0
  0
LAYOUT
  5
1E
102
{ACAD_REACTORS
330
1A
102
}
330
1A
100
AcDbPlotSettings
  1

  2
none_device
  4

  6

 40
0.0
 41
0.0
 42
0.0
 43
0.0
 44
0.0
 45
0.0
 46
0.0
 47
0.0
 48
0.0
 49
0.0
140
0.0
141
0.0
142
1.0
143
1.0
 70
   688
 72
     1
 73
     0
 74
     5
  7

 75
    16
147
1.0
148
0.0
149
0.0
100
AcDbLayout
  1
Layout1
 70
     1
 71
     1
 10
0.0
 20
0.0
 11
420.0
 21
297.0
 12
0.0
 22
0.0
 32
0.0
 14
1.000000000000000E+20
 24
1.000000000000000E+20
 34
1.000000000000000E+20
 15
-1.000000000000000E+20
 25
-1.000000000000000E+20
 35
-1.000000000000000E+20
146
0.0
 13
0.0
 23
0.0
 33
0.0
 16
1.0
 26
0.0
 36
0.0
 17
0.0
 27
1.0
 37
0.0
 76
     0
330
1B
  0
LAYOUT
  5
26
102
{ACAD_REACTORS
330
1A
102
}
330
1A
100
AcDbPlotSettings
  1

  2
none_device
  4

  6

 40
0.0
 41
0.0
 42
0.0
 43
0.0
 44
0.0
 45
0.0
 46
0.0
 47
0.0
 48
0.0
 49
0.0
140
0.0
141
0.0
142
1.0
143
1.0
 70
   688
 72
     1
 73
     0
 74
     5
  7

 75
    16
147
1.0
148
0.0
149
0.0
100
AcDbLayout
  1
Layout2
 70
     1
 71
     2
 10
0.0
 20
0.0
 11
0.0
 21
0.0
 12
0.0
 22
0.0
 32
0.0
 14
0.0
 24
0.0
 34
0.0
 15
0.0
 25
0.0
 35
0.0
146
0.0
 13
0.0
 23
0.0
 33
0.0
 16
1.0
 26
0.0
 36
0.0
 17
0.0
 27
1.0
 37
0.0
 76
     0
330
23
  0
LAYOUT
  5
22
102
{ACAD_REACTORS
330
1A
102
}
330
1A
100
AcDbPlotSettings
  1

  2
none_device
  4
ANSI_A_(11.00_x_8.50_Inches)
  6

 40
6.35
 41
19.05
 42
6.35000508
 43
19.05000254
 44
279.4
 45
215.9
 46
134.9535281373361
 47
95.02383331796862
 48
0.0
 49
0.0
140
0.0
141
0.0
142
0.0877180779535586
143
1.0
 70
  1696
 72
     0
 73
     0
 74
     0
  7

 75
     0
147
0.0235690232323232
148
0.0
149
0.0
100
AcDbLayout
  1
Model
 70
     1
 71
     0
 10
0.0
 20
0.0
 11
420.0
 21
297.0
 12
0.0
 22
0.0
 32
0.0
 14
1.000000000000000E+20
 24
1.000000000000000E+20
 34
1.000000000000000E+20
 15
-1.000000000000000E+20
 25
-1.000000000000000E+20
 35
-1.000000000000000E+20
146
0.0
 13
0.0
 23
0.0
 33
0.0
 16
1.0
 26
0.0
 36
0.0
 17
0.0
 27
1.0
 37
0.0
 76
     0
330
1F
331
29
  0
MLINESTYLE
  5
18
102
{ACAD_REACTORS
330
17
102
}
330
17
100
AcDbMlineStyle
  2
Standard
 70
     0
  3

 62
   256
 51
90.0
 52
90.0
 71
     2
 49
0.5
 62
   256
  6
BYLAYER
 49
-0.5
 62
   256
  6
BYLAYER
  0
ACDBPLACEHOLDER
  5
F
102
{ACAD_REACTORS
330
E
102
}
330
E
  0
SCALE
  5
48
102
{ACAD_REACTORS
330
47
102
}
330
47
100
AcDbScale
 70
     0
300
1:1
140
1.0
141
1.0
290
     1
  0
SCALE
  5
49
102
{ACAD_REACTORS
330
47
102
}
330
47
100
AcDbScale
 70
     0
300
1:2
140
1.0
141
2.0
290
     0
  0
SCALE
  5
4A
102
{ACAD_REACTORS
330
47
102
}
330
47
100
AcDbScale
 70
     0
300
1:4
140
1.0
141
4.0
290
     0
  0
SCALE
  5
4B
102
{ACAD_REACTORS
330
47
102
}
330
47
100
AcDbScale
 70
     0
300
1:5
140
1.0
141
5.0
290
     0
  0
SCALE
  5
4C
102
{ACAD_REACTORS
330
47
102
}
330
47
100
AcDbScale
 70
     0
300
1:8
140
1.0
141
8.0
290
     0
  0
SCALE
  5
4D
102
{ACAD_REACTORS
330
47
102
}
330
47
100
AcDbScale
 70
     0
300
1:10
140
1.0
141
10.0
290
     0
  0
SCALE
  5
4E
102
{ACAD_REACTORS
330
47
102
}
330
47
100
AcDbScale
 70
     0
300
1:16
140
1.0
141
16.0
290
     0
  0
SCALE
  5
4F
102
{ACAD_REACTORS
330
47
102
}
330
47
100
AcDbScale
 70
     0
300
1:20
140
1.0
141
20.0
290
     0
  0
SCALE
  5
50
102
{ACAD_REACTORS
330
47
102
}
330
47
100
AcDbScale
 70
     0
300
1:30
140
1.0
141
30.0
290
     0
  0
SCALE
  5
51
102
{ACAD_REACTORS
330
47
102
}
330
47
100
AcDbScale
 70
     0
300
1:40
140
1.0
141
40.0
290
     0
  0
SCALE
  5
52
102
{ACAD_REACTORS
330
47
102
}
330
47
100
AcDbScale
 70
     0
300
1:50
140
1.0
141
50.0
290
     0
  0
SCALE
  5
53
102
{ACAD_REACTORS
330
47
102
}
330
47
100
AcDbScale
 70
     0
300
1:100
140
1.0
141
100.0
290
     0
  0
SCALE
  5
54
102
{ACAD_REACTORS
330
47
102
}
330
47
100
AcDbScale
 70
     0
300
2:1
140
2.0
141
1.0
290
     0
  0
SCALE
  5
55
102
{ACAD_REACTORS
330
47
102
}
330
47
100
AcDbScale
 70
     0
300
4:1
140
4.0
141
1.0
290
     0
  0
SCALE
  5
56
102
{ACAD_REACTORS
330
47
102
}
330
47
100
AcDbScale
 70
     0
300
8:1
140
8.0
141
1.0
290
     0
  0
SCALE
  5
57
102
{ACAD_REACTORS
330
47
102
}
330
47
100
AcDbScale
 70
     0
300
10:1
140
10.0
141
1.0
290
     0
  0
SCALE
  5
58
102
{ACAD_REACTORS
330
47
102
}
330
47
100
AcDbScale
 70
     0
300
100:1
140
100.0
141
1.0
290
     0
  0
SCALE
  5
59
102
{ACAD_REACTORS
330
47
102
}
330
47
100
AcDbScale
 70
     0
300
1/128" = 1'-0"
140
0.0078125
141
12.0
290
     0
  0
SCALE
  5
5A
102
{ACAD_REACTORS
330
47
102
}
330
47
100
AcDbScale
 70
     0
300
1/64" = 1'-0"
140
0.015625
141
12.0
290
     0
  0
SCALE
  5
5B
102
{ACAD_REACTORS
330
47
102
}
330
47
100
AcDbScale
 70
     0
300
1/32" = 1'-0"
140
0.03125
141
12.0
290
     0
  0
SCALE
  5
5C
102
{ACAD_REACTORS
330
47
102
}
330
47
100
AcDbScale
 70
     0
300
1/16" = 1'-0"
140
0.0625
141
12.0
290
     0
  0
SCALE
  5
5D
102
{ACAD_REACTORS
330
47
102
}
330
47
100
AcDbScale
 70
     0
300
3/32" = 1'-0"
140
0.09375
141
12.0
290
     0
  0
SCALE
  5
5E
102
{ACAD_REACTORS
330
47
102
}
330
47
100
AcDbScale
 70
     0
300
1/8" = 1'-0"
140
0.125
141
12.0
290
     0
  0
SCALE
  5
5F
102
{ACAD_REACTORS
330
47
102
}
330
47
100
AcDbScale
 70
     0
300
3/16" = 1'-0"
140
0.1875
141
12.0
290
     0
  0
SCALE
  5
60
102
{ACAD_REACTORS
330
47
102
}
330
47
100
AcDbScale
 70
     0
300
1/4" = 1'-0"
140
0.25
141
12.0
290
     0
  0
SCALE
  5
61
102
{ACAD_REACTORS
330
47
102
}
330
47
100
AcDbScale
 70
     0
300
3/8" = 1'-0"
140
0.375
141
12.0
290
     0
  0
SCALE
  5
62
102
{ACAD_REACTORS
330
47
102
}
330
47
100
AcDbScale
 70
     0
300
1/2" = 1'-0"
140
0.5
141
12.0
290
     0
  0
SCALE
  5
63
102
{ACAD_REACTORS
330
47
102
}
330
47
100
AcDbScale
 70
     0
300
3/4" = 1'-0"
140
0.75
141
12.0
290
     0
  0
SCALE
  5
64
102
{ACAD_REACTORS
330
47
102
}
330
47
100
AcDbScale
 70
     0
300
1" = 1'-0"
140
1.0
141
12.0
290
     0
  0
SCALE
  5
65
102
{ACAD_REACTORS
330
47
102
}
330
47
100
AcDbScale
 70
     0
300
1-1/2" = 1'-0"
140
1.5
141
12.0
290
     0
  0
SCALE
  5
66
102
{ACAD_REACTORS
330
47
102
}
330
47
100
AcDbScale
 70
     0
300
3" = 1'-0"
140
3.0
141
12.0
290
     0
  0
SCALE
  5
67
102
{ACAD_REACTORS
330
47
102
}
330
47
100
AcDbScale
 70
     0
300
6" = 1'-0"
140
6.0
141
12.0
290
     0
  0
SCALE
  5
68
102
{ACAD_REACTORS
330
47
102
}
330
47
100
AcDbScale
 70
     0
300
1'-0" = 1'-0"
140
12.0
141
12.0
290
     0
  0
ENDSEC
  0
EOF
