  0
SECTION
  2
HEADER
  9
$ACADVER
  1
AC1015
  9
$ACADMAINTVER
 70
     6
  9
$DWGCODEPAGE
  3
ANSI_949
  9
$INSBASE
 10
0.0
 20
0.0
 30
0.0
  9
$EXTMIN
 10
1.000000000000000E+20
 20
1.000000000000000E+20
 30
1.000000000000000E+20
  9
$EXTMAX
 10
-1.000000000000000E+20
 20
-1.000000000000000E+20
 30
-1.000000000000000E+20
  9
$LIMMIN
 10
0.0
 20
0.0
  9
$LIMMAX
 10
420.0
 20
297.0
  9
$ORTHOMODE
 70
     0
  9
$REGENMODE
 70
     1
  9
$FILLMODE
 70
     1
  9
$QTEXTMODE
 70
     0
  9
$MIRRTEXT
 70
     1
  9
$LTSCALE
 40
1.0
  9
$ATTMODE
 70
     1
  9
$TEXTSIZE
 40
3.5
  9
$TRACEWID
 40
1.0
  9
$TEXTSTYLE
  7
Standard
  9
$CLAYER
  8
0
  9
$CELTYPE
  6
ByLayer
  9
$CECOLOR
 62
   256
  9
$CELTSCALE
 40
1.0
  9
$DISPSILH
 70
     0
  9
$DIMSCALE
 40
1.0
  9
$DIMASZ
 40
3.302
  9
$DIMEXO
 40
1.0
  9
$DIMDLI
 40
3.75
  9
$DIMRND
 40
0.0
  9
$DIMDLE
 40
0.0
  9
$DIMEXE
 40
1.0
  9
$DIMTP
 40
0.0
  9
$DIMTM
 40
0.0
  9
$DIMTXT
 40
3.5
  9
$DIMCEN
 40
2.5
  9
$DIMTSZ
 40
0.0
  9
$DIMTOL
 70
     0
  9
$DIMLIM
 70
     0
  9
$DIMTIH
 70
     1
  9
$DIMTOH
 70
     1
  9
$DIMSE1
 70
     0
  9
$DIMSE2
 70
     0
  9
$DIMTAD
 70
     1
  9
$DIMZIN
 70
     0
  9
$DIMBLK
  1

  9
$DIMASO
 70
     1
  9
$DIMSHO
 70
     1
  9
$DIMPOST
  1

  9
$DIMAPOST
  1

  9
$DIMALT
 70
     0
  9
$DIMALTD
 70
     3
  9
$DIMALTF
 40
0.0393700787401575
  9
$DIMLFAC
 40
1.0
  9
$DIMTOFL
 70
     1
  9
$DIMTVP
 40
0.0
  9
$DIMTIX
 70
     0
  9
$DIMSOXD
 70
     0
  9
$DIMSAH
 70
     0
  9
$DIMBLK1
  1

  9
$DIMBLK2
  1

  9
$DIMSTYLE
  2
ISO-25
  9
$DIMCLRD
 70
     0
  9
$DIMCLRE
 70
     0
  9
$DIMCLRT
 70
     0
  9
$DIMTFAC
 40
1.0
  9
$DIMGAP
 40
1.524
  9
$DIMJUST
 70
     0
  9
$DIMSD1
 70
     0
  9
$DIMSD2
 70
     0
  9
$DIMTOLJ
 70
     0
  9
$DIMTZIN
 70
     0
  9
$DIMALTZ
 70
     0
  9
$DIMALTTZ
 70
     0
  9
$DIMUPT
 70
     0
  9
$DIMDEC
 70
     2
  9
$DIMTDEC
 70
     2
  9
$DIMALTU
 70
     2
  9
$DIMALTTD
 70
     3
  9
$DIMTXSTY
  7
Standard
  9
$DIMAUNIT
 70
     0
  9
$DIMADEC
 70
     2
  9
$DIMALTRND
 40
0.0
  9
$DIMAZIN
 70
     0
  9
$DIMDSEP
 70
    44
  9
$DIMATFIT
 70
     3
  9
$DIMFRAC
 70
     0
  9
$DIMLDRBLK
  1

  9
$DIMLUNIT
 70
     2
  9
$DIMLWD
 70
    -2
  9
$DIMLWE
 70
    -2
  9
$DIMTMOVE
 70
     0
  9
$LUNITS
 70
     2
  9
$LUPREC
 70
     2
  9
$SKETCHINC
 40
1.0
  9
$FILLETRAD
 40
10.0
  9
$AUNITS
 70
     0
  9
$AUPREC
 70
     2
  9
$MENU
  1
.
  9
$ELEVATION
 40
0.0
  9
$PELEVATION
 40
0.0
  9
$THICKNESS
 40
0.0
  9
$LIMCHECK
 70
     0
  9
$CHAMFERA
 40
0.0
  9
$CHAMFERB
 40
0.0
  9
$CHAMFERC
 40
0.0
  9
$CHAMFERD
 40
0.0
  9
$SKPOLY
 70
     0
  9
$TDCREATE
 40
2458263.728921852
  9
$TDUCREATE
 40
2458263.353921852
  9
$TDUPDATE
 40
2458269.721556528
  9
$TDUUPDATE
 40
2458269.346556528
  9
$TDINDWG
 40
0.0001240856
  9
$TDUSRTIMER
 40
2458269.346432616
  9
$USRTIMER
 70
     1
  9
$ANGBASE
 50
0.0
  9
$ANGDIR
 70
     0
  9
$PDMODE
 70
     0
  9
$PDSIZE
 40
-1.0
  9
$PLINEWID
 40
0.0
  9
$SPLFRAME
 70
     0
  9
$SPLINETYPE
 70
     6
  9
$SPLINESEGS
 70
     8
  9
$HANDSEED
  5
2C7
  9
$SURFTAB1
 70
     6
  9
$SURFTAB2
 70
     6
  9
$SURFTYPE
 70
     6
  9
$SURFU
 70
     6
  9
$SURFV
 70
     6
  9
$UCSBASE
  2

  9
$UCSNAME
  2

  9
$UCSORG
 10
0.0
 20
0.0
 30
0.0
  9
$UCSXDIR
 10
1.0
 20
0.0
 30
0.0
  9
$UCSYDIR
 10
0.0
 20
1.0
 30
0.0
  9
$UCSORTHOREF
  2

  9
$UCSORTHOVIEW
 70
     0
  9
$UCSORGTOP
 10
0.0
 20
0.0
 30
0.0
  9
$UCSORGBOTTOM
 10
0.0
 20
0.0
 30
0.0
  9
$UCSORGLEFT
 10
0.0
 20
0.0
 30
0.0
  9
$UCSORGRIGHT
 10
0.0
 20
0.0
 30
0.0
  9
$UCSORGFRONT
 10
0.0
 20
0.0
 30
0.0
  9
$UCSORGBACK
 10
0.0
 20
0.0
 30
0.0
  9
$PUCSBASE
  2

  9
$PUCSNAME
  2

  9
$PUCSORG
 10
0.0
 20
0.0
 30
0.0
  9
$PUCSXDIR
 10
1.0
 20
0.0
 30
0.0
  9
$PUCSYDIR
 10
0.0
 20
1.0
 30
0.0
  9
$PUCSORTHOREF
  2

  9
$PUCSORTHOVIEW
 70
     0
  9
$PUCSORGTOP
 10
0.0
 20
0.0
 30
0.0
  9
$PUCSORGBOTTOM
 10
0.0
 20
0.0
 30
0.0
  9
$PUCSORGLEFT
 10
0.0
 20
0.0
 30
0.0
  9
$PUCSORGRIGHT
 10
0.0
 20
0.0
 30
0.0
  9
$PUCSORGFRONT
 10
0.0
 20
0.0
 30
0.0
  9
$PUCSORGBACK
 10
0.0
 20
0.0
 30
0.0
  9
$USERI1
 70
     0
  9
$USERI2
 70
     0
  9
$USERI3
 70
     0
  9
$USERI4
 70
     0
  9
$USERI5
 70
     0
  9
$USERR1
 40
0.0
  9
$USERR2
 40
0.0
  9
$USERR3
 40
0.0
  9
$USERR4
 40
0.0
  9
$USERR5
 40
0.0
  9
$WORLDVIEW
 70
     1
  9
$SHADEDGE
 70
     3
  9
$SHADEDIF
 70
    70
  9
$TILEMODE
 70
     1
  9
$MAXACTVP
 70
    64
  9
$PINSBASE
 10
0.0
 20
0.0
 30
0.0
  9
$PLIMCHECK
 70
     0
  9
$PEXTMIN
 10
1.000000000000000E+20
 20
1.000000000000000E+20
 30
1.000000000000000E+20
  9
$PEXTMAX
 10
-1.000000000000000E+20
 20
-1.000000000000000E+20
 30
-1.000000000000000E+20
  9
$PLIMMIN
 10
0.0
 20
0.0
  9
$PLIMMAX
 10
0.0
 20
0.0
  9
$UNITMODE
 70
     0
  9
$VISRETAIN
 70
     1
  9
$PLINEGEN
 70
     0
  9
$PSLTSCALE
 70
     1
  9
$TREEDEPTH
 70
  3020
  9
$CMLSTYLE
  2
Standard
  9
$CMLJUST
 70
     0
  9
$CMLSCALE
 40
20.0
  9
$PROXYGRAPHICS
 70
     1
  9
$MEASUREMENT
 70
     1
  9
$CELWEIGHT
370
    -1
  9
$ENDCAPS
280
     0
  9
$JOINSTYLE
280
     0
  9
$LWDISPLAY
290
     1
  9
$INSUNITS
 70
     4
  9
$HYPERLINKBASE
  1

  9
$STYLESHEET
  1

  9
$XEDIT
290
     1
  9
$CEPSNTYPE
380
     0
  9
$PSTYLEMODE
290
     1
  9
$FINGERPRINTGUID
  2
{341D485E-5C5E-46DB-BDF4-E6B92A3309DA}
  9
$VERSIONGUID
  2
{FAEB1C32-E019-11D5-929B-00C0DF256EC4}
  9
$EXTNAMES
290
     1
  9
$PSVPSCALE
 40
0.0
  9
$OLESTARTUP
290
     0
  0
ENDSEC
  0
SECTION
  2
CLASSES
  0
CLASS
  1
ACDBDICTIONARYWDFLT
  2
AcDbDictionaryWithDefault
  3
ObjectDBX Classes
 90
        0
280
     0
281
     0
  0
CLASS
  1
VISUALSTYLE
  2
AcDbVisualStyle
  3
ObjectDBX Classes
 90
     4095
280
     0
281
     0
  0
CLASS
  1
MATERIAL
  2
AcDbMaterial
  3
ObjectDBX Classes
 90
     1153
280
     0
281
     0
  0
CLASS
  1
SCALE
  2
AcDbScale
  3
ObjectDBX Classes
 90
     1153
280
     0
281
     0
  0
CLASS
  1
TABLESTYLE
  2
AcDbTableStyle
  3
ObjectDBX Classes
 90
     4095
280
     0
281
     0
  0
CLASS
  1
MLEADERSTYLE
  2
AcDbMLeaderStyle
  3
ACDB_MLEADERSTYLE_CLASS
 90
     4095
280
     0
281
     0
  0
CLASS
  1
SUN
  2
AcDbSun
  3
SCENEOE
 90
     1153
280
     0
281
     0
  0
CLASS
  1
ACDBPLACEHOLDER
  2
AcDbPlaceHolder
  3
ObjectDBX Classes
 90
        0
280
     0
281
     0
  0
CLASS
  1
LAYOUT
  2
AcDbLayout
  3
ObjectDBX Classes
 90
        0
280
     0
281
     0
  0
CLASS
  1
RASTERVARIABLES
  2
AcDbRasterVariables
  3
ISM
 90
        0
280
     0
281
     0
  0
CLASS
  1
DIMASSOC
  2
AcDbDimAssoc
  3
"AcDbDimAssoc|Product Desc:     AcDim ARX App For Dimension|Company:          Autodesk, Inc.|WEB Address:      www.autodesk.com"
 90
        0
280
     0
281
     0
  0
ENDSEC
  0
SECTION
  2
TABLES
  0
TABLE
  2
VPORT
  5
8
330
0
100
AcDbSymbolTable
 70
     1
  0
VPORT
  5
29
330
8
100
AcDbSymbolTableRecord
100
AcDbViewportTableRecord
  2
*Active
 70
     0
 10
0.0
 20
0.0
 11
1.0
 21
1.0
 12
8.975201875915124
 22
0.0619845842501694
 13
0.0
 23
0.0
 14
10.0
 24
10.0
 15
10.0
 25
10.0
 16
0.0
 26
0.0
 36
1.0
 17
0.0
 27
0.0
 37
0.0
 40
1.144082951983728
 41
1.741312741312741
 42
50.0
 43
0.0
 44
0.0
 50
0.0
 51
0.0
 71
    16
 72
  2000
 73
     1
 74
     3
 75
     0
 76
     0
 77
     0
 78
     0
281
     0
 65
     1
110
0.0
120
0.0
130
0.0
111
1.0
121
0.0
131
0.0
112
0.0
122
1.0
132
0.0
 79
     0
146
0.0
  0
ENDTAB
  0
TABLE
  2
LTYPE
  5
5
330
0
100
AcDbSymbolTable
 70
     6
  0
LTYPE
  5
14
330
5
100
AcDbSymbolTableRecord
100
AcDbLinetypeTableRecord
  2
ByBlock
 70
     0
  3

 72
    65
 73
     0
 40
0.0
  0
LTYPE
  5
15
330
5
100
AcDbSymbolTableRecord
100
AcDbLinetypeTableRecord
  2
ByLayer
 70
     0
  3

 72
    65
 73
     0
 40
0.0
  0
LTYPE
  5
16
330
5
100
AcDbSymbolTableRecord
100
AcDbLinetypeTableRecord
  2
Continuous
 70
     0
  3
Solid line
 72
    65
 73
     0
 40
0.0
  0
LTYPE
  5
6E
330
5
100
AcDbSymbolTableRecord
100
AcDbLinetypeTableRecord
  2
HIDDEN
 70
     0
  3
Hidden __ __ __ __ __ __ __ __ __ __ __ __ __ __
 72
    65
 73
     2
 40
1.905
 49
1.27
 74
     0
 49
-0.635
 74
     0
  0
LTYPE
  5
6F
330
5
100
AcDbSymbolTableRecord
100
AcDbLinetypeTableRecord
  2
PHANTOM
 70
     0
  3
Phantom ______  __  __  ______  __  __  ______
 72
    65
 73
     6
 40
12.7
 49
6.35
 74
     0
 49
-1.27
 74
     0
 49
1.27
 74
     0
 49
-1.27
 74
     0
 49
1.27
 74
     0
 49
-1.27
 74
     0
  0
LTYPE
  5
70
330
5
100
AcDbSymbolTableRecord
100
AcDbLinetypeTableRecord
  2
CENTER
 70
     0
  3
Center ____ _ ____ _ ____ _ ____ _ ____ _ ____
 72
    65
 73
     4
 40
10.16
 49
6.35
 74
     0
 49
-1.27
 74
     0
 49
1.27
 74
     0
 49
-1.27
 74
     0
  0
LTYPE
  5
71
330
5
100
AcDbSymbolTableRecord
100
AcDbLinetypeTableRecord
  2
CENTERX2
 70
     0
  3
Center (2x) ________  __  ________  __  _____
 72
    65
 73
     4
 40
20.32
 49
12.7
 74
     0
 49
-2.54
 74
     0
 49
2.54
 74
     0
 49
-2.54
 74
     0
  0
LTYPE
  5
72
330
5
100
AcDbSymbolTableRecord
100
AcDbLinetypeTableRecord
  2
DOT2
 70
     0
  3
Dot (.5x) ........................................
 72
    65
 73
     2
 40
0.635
 49
0.0
 74
     0
 49
-0.635
 74
     0
  0
ENDTAB
  0
TABLE
  2
LAYER
  5
2
330
0
100
AcDbSymbolTable
 70
    17
  0
LAYER
  5
10
330
2
100
AcDbSymbolTableRecord
100
AcDbLayerTableRecord
  2
0
 70
     0
 62
     7
  6
Continuous
370
    -3
390
F
  0
LAYER
  5
73
330
2
100
AcDbSymbolTableRecord
100
AcDbLayerTableRecord
  2
FORMAT
 70
     0
 62
     2
  6
Continuous
370
    -3
390
F
  0
LAYER
  5
74
330
2
100
AcDbSymbolTableRecord
100
AcDbLayerTableRecord
  2
외형선
 70
     0
 62
   100
  6
Continuous
370
    35
390
F
  0
LAYER
  5
75
330
2
100
AcDbSymbolTableRecord
100
AcDbLayerTableRecord
  2
숨은선
 70
     0
 62
     2
  6
HIDDEN
370
    25
390
F
  0
LAYER
  5
76
330
2
100
AcDbSymbolTableRecord
100
AcDbLayerTableRecord
  2
중심선
 70
     0
 62
     1
  6
CENTERX2
370
    -3
390
F
  0
LAYER
  5
77
330
2
100
AcDbSymbolTableRecord
100
AcDbLayerTableRecord
  2
파단선
 70
     0
 62
     4
  6
Continuous
370
    -3
390
F
  0
LAYER
  5
78
330
2
100
AcDbSymbolTableRecord
100
AcDbLayerTableRecord
  2
해칭선
 70
     0
 62
     4
  6
Continuous
370
    -3
390
F
  0
LAYER
  5
79
330
2
100
AcDbSymbolTableRecord
100
AcDbLayerTableRecord
  2
가는실선
 70
     0
 62
     4
  6
Continuous
370
    -3
390
F
  0
LAYER
  5
7A
330
2
100
AcDbSymbolTableRecord
100
AcDbLayerTableRecord
  2
치수_보조선
 70
     0
 62
     4
  6
Continuous
370
    -3
390
F
  0
LAYER
  5
7B
330
2
100
AcDbSymbolTableRecord
100
AcDbLayerTableRecord
  2
치수문자_일반주서
 70
     0
 62
     7
  6
Continuous
370
    25
390
F
  0
LAYER
  5
7C
330
2
100
AcDbSymbolTableRecord
100
AcDbLayerTableRecord
  2
개별주서
 70
     0
 62
   100
  6
Continuous
370
    35
390
F
  0
LAYER
  5
7D
330
2
100
AcDbSymbolTableRecord
100
AcDbLayerTableRecord
  2
중간선
 70
     0
 62
     2
  6
Continuous
370
    25
390
F
  0
LAYER
  5
7E
330
2
100
AcDbSymbolTableRecord
100
AcDbLayerTableRecord
  2
윤곽선
 70
     0
 62
     3
  6
Continuous
370
    50
390
F
  0
LAYER
  5
7F
330
2
100
AcDbSymbolTableRecord
100
AcDbLayerTableRecord
  2
중심마크
 70
     0
 62
   100
  6
Continuous
370
    35
390
F
  0
LAYER
  5
80
330
2
100
AcDbSymbolTableRecord
100
AcDbLayerTableRecord
  2
가상선
 70
     0
 62
     4
  6
PHANTOM
370
    -3
390
F
  0
LAYER
  5
81
330
2
100
AcDbSymbolTableRecord
100
AcDbLayerTableRecord
  2
특수지정선
 70
     0
 62
     5
  6
CENTERX2
370
    70
390
F
  0
LAYER
  5
154
330
2
100
AcDbSymbolTableRecord
100
AcDbLayerTableRecord
  2
Defpoints
 70
     0
 62
     7
  6
Continuous
290
     0
370
    -3
390
F
  0
ENDTAB
  0
TABLE
  2
STYLE
  5
3
330
0
100
AcDbSymbolTable
 70
     2
  0
STYLE
  5
11
330
3
100
AcDbSymbolTableRecord
100
AcDbTextStyleTableRecord
  2
Standard
 70
     0
 40
0.0
 41
1.0
 50
0.0
 71
     0
 42
3.5
  3
txt
  4

  0
STYLE
  5
97
330
3
100
AcDbSymbolTableRecord
100
AcDbTextStyleTableRecord
  2
SLDTEXTSTYLE0
 70
     0
 40
0.0
 41
0.75
 50
0.0
 71
     0
 42
3.5
  3
TXT
  4

  0
ENDTAB
  0
TABLE
  2
VIEW
  5
6
330
0
100
AcDbSymbolTable
 70
     0
  0
ENDTAB
  0
TABLE
  2
UCS
  5
7
330
0
100
AcDbSymbolTable
 70
     0
  0
ENDTAB
  0
TABLE
  2
APPID
  5
9
330
0
100
AcDbSymbolTable
 70
     2
  0
APPID
  5
12
330
9
100
AcDbSymbolTableRecord
100
AcDbRegAppTableRecord
  2
ACAD
 70
     0
  0
APPID
  5
253
330
9
100
AcDbSymbolTableRecord
100
AcDbRegAppTableRecord
  2
ACAD_DSTYLE_DIMRADIAL_EXTENSION
 70
     0
  0
ENDTAB
  0
TABLE
  2
DIMSTYLE
  5
A
330
0
100
AcDbSymbolTable
 70
     4
100
AcDbDimStyleTable
  0
DIMSTYLE
105
27
330
A
100
AcDbSymbolTableRecord
100
AcDbDimStyleTableRecord
  2
ISO-25
 70
     0
 41
2.5
 42
0.625
 43
3.75
 44
1.25
 73
     0
 74
     0
 77
     1
 78
     8
140
2.5
141
2.5
143
0.03937007874016
147
0.625
171
     3
172
     1
178
     0
271
     2
272
     2
274
     3
278
    44
283
     0
284
     8
340
11
  0
DIMSTYLE
105
EB
102
{ACAD_REACTORS
330
189
330
1B2
330
1F4
330
1F7
102
}
330
A
100
AcDbSymbolTableRecord
100
AcDbDimStyleTableRecord
  2
SLDDIMSTYLE0
 70
     0
 41
3.302
 44
0.0
 45
0.000000001
 73
     0
 74
     0
 77
     1
 78
    12
 79
     3
140
3.5
147
0.875
172
     1
173
     1
178
     0
271
     2
272
     2
276
     2
284
    12
289
     0
340
97
  0
DIMSTYLE
105
F9
102
{ACAD_REACTORS
330
196
330
1C2
330
1F5
330
1F8
330
28E
330
2BA
102
}
330
A
100
AcDbSymbolTableRecord
100
AcDbDimStyleTableRecord
  2
SLDDIMSTYLE1
 70
     0
 41
3.302
 44
0.0
 45
0.000000001
 73
     0
 74
     0
 77
     1
140
3.5
147
0.875
172
     1
173
     1
178
     0
271
     2
272
     2
276
     2
284
    12
289
     0
340
97
  0
DIMSTYLE
105
106
102
{ACAD_REACTORS
330
1A5
330
1F6
102
}
330
A
100
AcDbSymbolTableRecord
100
AcDbDimStyleTableRecord
  2
SLDDIMSTYLE2
 70
     0
 41
3.302
 44
0.0
 45
0.000000001
 73
     0
 74
     0
 77
     1
 78
    12
 79
     3
140
3.5
147
0.875
173
     1
178
     0
271
     2
272
     2
276
     2
284
    12
340
97
  0
ENDTAB
  0
TABLE
  2
BLOCK_RECORD
  5
1
330
0
100
AcDbSymbolTable
 70
    22
  0
BLOCK_RECORD
  5
1F
330
1
100
AcDbSymbolTableRecord
100
AcDbBlockTableRecord
  2
*Model_Space
340
22
  0
BLOCK_RECORD
  5
1B
330
1
100
AcDbSymbolTableRecord
100
AcDbBlockTableRecord
  2
*Paper_Space
340
1E
  0
BLOCK_RECORD
  5
23
330
1
100
AcDbSymbolTableRecord
100
AcDbBlockTableRecord
  2
*Paper_Space0
340
26
  0
BLOCK_RECORD
  5
82
330
1
100
AcDbSymbolTableRecord
100
AcDbBlockTableRecord
  2
블럭10
340
0
102
{BLKREFS
331
E3
102
}
  0
BLOCK_RECORD
  5
EC
330
1
100
AcDbSymbolTableRecord
100
AcDbBlockTableRecord
  2
_D
340
0
  0
BLOCK_RECORD
  5
FA
330
1
100
AcDbSymbolTableRecord
100
AcDbBlockTableRecord
  2
_D_1
340
0
  0
BLOCK_RECORD
  5
107
330
1
100
AcDbSymbolTableRecord
100
AcDbBlockTableRecord
  2
_D_2
340
0
  0
BLOCK_RECORD
  5
111
330
1
100
AcDbSymbolTableRecord
100
AcDbBlockTableRecord
  2
_D_3
340
0
  0
BLOCK_RECORD
  5
11D
330
1
100
AcDbSymbolTableRecord
100
AcDbBlockTableRecord
  2
_D_4
340
0
  0
BLOCK_RECORD
  5
129
330
1
100
AcDbSymbolTableRecord
100
AcDbBlockTableRecord
  2
SW_DOWELSYMBOL_0
340
0
102
{BLKREFS
331
0
331
1D1
331
1F9
102
}
  0
BLOCK_RECORD
  5
18A
330
1
100
AcDbSymbolTableRecord
100
AcDbBlockTableRecord
  2
*D9
340
0
  0
BLOCK_RECORD
  5
197
330
1
100
AcDbSymbolTableRecord
100
AcDbBlockTableRecord
  2
*D10
340
0
  0
BLOCK_RECORD
  5
1A6
330
1
100
AcDbSymbolTableRecord
100
AcDbBlockTableRecord
  2
*D11
340
0
  0
BLOCK_RECORD
  5
1B3
330
1
100
AcDbSymbolTableRecord
100
AcDbBlockTableRecord
  2
*D12
340
0
  0
BLOCK_RECORD
  5
1C3
330
1
100
AcDbSymbolTableRecord
100
AcDbBlockTableRecord
  2
*D13
340
0
  0
BLOCK_RECORD
  5
207
330
1
100
AcDbSymbolTableRecord
100
AcDbBlockTableRecord
  2
*D14
340
0
  0
BLOCK_RECORD
  5
213
330
1
100
AcDbSymbolTableRecord
100
AcDbBlockTableRecord
  2
*D15
340
0
  0
BLOCK_RECORD
  5
222
330
1
100
AcDbSymbolTableRecord
100
AcDbBlockTableRecord
  2
*D16
340
0
  0
BLOCK_RECORD
  5
22E
330
1
100
AcDbSymbolTableRecord
100
AcDbBlockTableRecord
  2
*D17
340
0
  0
BLOCK_RECORD
  5
23D
330
1
100
AcDbSymbolTableRecord
100
AcDbBlockTableRecord
  2
*D18
340
0
  0
BLOCK_RECORD
  5
291
330
1
100
AcDbSymbolTableRecord
100
AcDbBlockTableRecord
  2
*D20
340
0
  0
BLOCK_RECORD
  5
2BD
330
1
100
AcDbSymbolTableRecord
100
AcDbBlockTableRecord
  2
*D21
340
0
  0
ENDTAB
  0
ENDSEC
  0
SECTION
  2
BLOCKS
  0
BLOCK
  5
20
330
1F
100
AcDbEntity
  8
0
100
AcDbBlockBegin
  2
*Model_Space
 70
     0
 10
0.0
 20
0.0
 30
0.0
  3
*Model_Space
  1
*Model_Space
  0
ENDBLK
  5
21
330
1F
100
AcDbEntity
  8
0
100
AcDbBlockEnd
  0
BLOCK
  5
1C
330
1B
100
AcDbEntity
 67
     1
  8
0
100
AcDbBlockBegin
  2
*Paper_Space
 70
     0
 10
0.0
 20
0.0
 30
0.0
  3
*Paper_Space
  1
*Paper_Space
  0
ENDBLK
  5
1D
330
1B
100
AcDbEntity
 67
     1
  8
0
100
AcDbBlockEnd
  0
BLOCK
  5
24
330
23
100
AcDbEntity
  8
0
100
AcDbBlockBegin
  2
*Paper_Space0
 70
     0
 10
0.0
 20
0.0
 30
0.0
  3
*Paper_Space0
  1
*Paper_Space0
  0
ENDBLK
  5
25
330
23
100
AcDbEntity
  8
0
100
AcDbBlockEnd
  0
BLOCK
  5
83
330
82
100
AcDbEntity
  8
0
100
AcDbBlockBegin
  2
블럭10
 70
     2
 10
0.0
 20
0.0
 30
0.0
  3
블럭10
  1
블럭10
  0
ELLIPSE
  5
85
330
82
100
AcDbEntity
  8
중심선
100
AcDbEllipse
 10
20.54032771741204
 20
12.0471743016438
 30
0.0
 11
6.600054785286829
 21
-1.261213355974178E-13
 31
0.0
210
0.0
220
0.0
230
1.0
 40
0.636358354079598
 41
0.9219305317359503
 42
6.513795318482858
  0
ELLIPSE
  5
86
330
82
100
AcDbEntity
  8
중심선
100
AcDbEllipse
 10
20.54032771746488
 20
12.04717430159265
 30
0.0
 11
3.960054785062283
 21
1.540847449632565E-10
 31
0.0
210
0.0
220
0.0
230
1.0
 40
0.3939339440162632
 41
1.131841032648279
 42
5.62031148352944
  0
LINE
  5
87
330
82
100
AcDbEntity
  8
중심선
100
AcDbLine
 10
2.268634060543552
 20
16.24717430164393
 30
0.0
 11
5.714909304380834
 21
16.24717430164393
 31
0.0
  0
LINE
  5
88
330
82
100
AcDbEntity
  8
중심선
100
AcDbLine
 10
5.245725140726316
 20
7.84717430164391
 30
0.0
 11
8.692000384563599
 21
7.84717430164391
 31
0.0
  0
LINE
  5
89
330
82
100
AcDbEntity
  8
중심선
100
AcDbLine
 10
15.74043728645272
 20
16.24717430164393
 30
0.0
 11
8.692000384563599
 21
7.84717430164391
 31
0.0
  0
LINE
  5
8A
330
82
100
AcDbEntity
  8
중심선
100
AcDbLine
 10
0.1404042013395286
 20
13.71084872107135
 30
0.0
 11
3.58671253028996
 21
13.71088815037384
 31
0.0
  0
LINE
  5
8B
330
82
100
AcDbEntity
  8
중심선
100
AcDbLine
 10
2.750260043222114
 20
10.84717430164391
 30
0.0
 11
6.196535287059397
 21
10.84717430164391
 31
0.0
  0
LINE
  5
8C
330
82
100
AcDbEntity
  8
중심선
100
AcDbLine
 10
12.29416204261559
 20
16.24717430164393
 30
0.0
 11
5.245725140726316
 21
7.84717430164391
 31
0.0
  0
LINE
  5
8D
330
82
100
AcDbEntity
  8
중심선
100
AcDbLine
 10
10.72767329541681
 20
16.24717430164393
 30
0.0
 11
6.196535287059397
 21
10.84717430164391
 31
0.0
  0
LINE
  5
8E
330
82
100
AcDbEntity
  8
중심선
100
AcDbLine
 10
7.28139805157953
 20
16.24717430164393
 30
0.0
 11
2.750260043222114
 21
10.84717430164391
 31
0.0
  0
LINE
  5
8F
330
82
100
AcDbEntity
  8
중심선
100
AcDbLine
 10
5.714909304380834
 20
16.24717430164393
 30
0.0
 11
3.58671253028996
 21
13.71088815037384
 31
0.0
  0
LINE
  5
90
330
82
100
AcDbEntity
  8
중심선
100
AcDbLine
 10
2.268634060543552
 20
16.24717430164393
 30
0.0
 11
0.1404042013395286
 21
13.71084872107135
 31
0.0
  0
LINE
  5
91
330
82
100
AcDbEntity
  8
중심선
100
AcDbLine
 10
7.28139805157953
 20
16.24717430164393
 30
0.0
 11
10.72767329541681
 21
16.24717430164393
 31
0.0
  0
LINE
  5
92
330
82
100
AcDbEntity
  8
중심선
100
AcDbLine
 10
12.29416204261559
 20
16.24717430164393
 30
0.0
 11
15.74043728645272
 21
16.24717430164393
 31
0.0
  0
LINE
  5
93
330
82
100
AcDbEntity
  8
중심선
100
AcDbLine
 10
19.22036997980202
 20
11.08717430171403
 30
0.0
 11
23.66174974927406
 21
11.08717430171406
 31
0.0
  0
LINE
  5
94
330
82
100
AcDbEntity
  8
중심선
100
AcDbLine
 10
19.22039502424796
 20
13.00717430171391
 30
0.0
 11
19.22036997980202
 21
11.08717430171403
 31
0.0
  0
LINE
  5
95
330
82
100
AcDbEntity
  8
중심선
100
AcDbLine
 10
19.22039502424796
 20
13.00717430171391
 30
0.0
 11
26.96566020931264
 21
13.00717430171391
 31
0.0
  0
LINE
  5
96
330
82
100
AcDbEntity
  8
중심선
100
AcDbLine
 10
22.22332737316547
 20
13.45928029700563
 30
0.0
 11
24.52862924686651
 21
15.39360700705356
 31
0.0
  0
ATTDEF
  5
98
330
82
100
AcDbEntity
  8
FORMAT
 62
     2
100
AcDbText
 10
-20.85824753159254
 20
2.075366912832191
 30
0.0
 40
4.233333333333333
  1
SEME6100300202E [ 2 FLUTE ]
 41
0.75
  7
SLDTEXTSTYLE0
 11
-20.85824753159254
 21
-0.0412997538344756
 31
0.0
100
AcDbAttributeDefinition
  3

  2
AUTOATTR0
 70
     0
 74
     1
  0
ENDBLK
  5
84
330
82
100
AcDbEntity
  8
0
100
AcDbBlockEnd
  0
BLOCK
  5
ED
330
EC
100
AcDbEntity
  8
0
100
AcDbBlockBegin
  2
_D
 70
     0
 10
0.0
 20
0.0
 30
0.0
  3
_D
  1
_D
  0
SOLID
  5
EF
330
EC
100
AcDbEntity
  8
치수문자_일반주서
100
AcDbTrace
 10
-39.00250885508845
 20
2.001074928723889
 30
0.0
 11
-38.49450885508845
 21
5.303074928723889
 31
0.0
 12
-39.51050885508845
 22
5.303074928723889
 32
0.0
 13
-39.51050885508845
 23
5.303074928723889
 33
0.0
  0
SOLID
  5
F0
330
EC
100
AcDbEntity
  8
치수문자_일반주서
100
AcDbTrace
 10
-39.00250885508845
 20
-1.998925071276106
 30
0.0
 11
-39.51050885508845
 21
-5.300925071276105
 31
0.0
 12
-38.49450885508845
 22
-5.300925071276105
 32
0.0
 13
-38.49450885508845
 23
-5.300925071276105
 33
0.0
  0
LINE
  5
F1
330
EC
100
AcDbEntity
  8
치수문자_일반주서
100
AcDbLine
 10
-27.50605083347638
 20
2.001074928723889
 30
0.0
 11
-40.00250885508845
 21
2.001074928723889
 31
0.0
  0
LINE
  5
F2
330
EC
100
AcDbEntity
  8
치수문자_일반주서
100
AcDbLine
 10
-27.50605083347638
 20
-1.998925071276106
 30
0.0
 11
-40.00250885508845
 21
-1.998925071276106
 31
0.0
  0
LINE
  5
F3
330
EC
100
AcDbEntity
  8
치수문자_일반주서
100
AcDbLine
 10
-39.00250885508845
 20
2.001074928723889
 30
0.0
 11
-39.00250885508845
 21
8.35107492872389
 31
0.0
  0
LINE
  5
F4
330
EC
100
AcDbEntity
  8
치수문자_일반주서
100
AcDbLine
 10
-39.00250885508845
 20
2.001074928723889
 30
0.0
 11
-39.00250885508845
 21
-1.998925071276106
 31
0.0
  0
LINE
  5
F5
330
EC
100
AcDbEntity
  8
치수문자_일반주서
100
AcDbLine
 10
-39.00250885508845
 20
-1.998925071276106
 30
0.0
 11
-39.00250885508845
 21
-8.348925071276106
 31
0.0
  0
MTEXT
  5
F6
330
EC
100
AcDbEntity
  8
치수문자_일반주서
100
AcDbMText
 10
-43.51424594429032
 20
-3.931199483639923
 30
0.0
 40
3.5
 41
0.0
 71
     1
 72
     1
  1
%%c
  7
SLDTEXTSTYLE0
 11
-7.044195017643634E-15
 21
1.0
 31
0.0
 73
     1
 44
1.0
  0
MTEXT
  5
F7
330
EC
100
AcDbEntity
  8
치수문자_일반주서
100
AcDbMText
 10
-43.5677181209502
 20
1.347237914734158
 30
0.0
 40
3.5
 41
0.0
 71
     1
 72
     1
  1
4
  7
SLDTEXTSTYLE0
 11
-7.044195017643634E-15
 21
1.0
 31
0.0
 73
     1
 44
1.0
  0
ENDBLK
  5
EE
330
EC
100
AcDbEntity
  8
0
100
AcDbBlockEnd
  0
BLOCK
  5
FB
330
FA
100
AcDbEntity
  8
0
100
AcDbBlockBegin
  2
_D_1
 70
     0
 10
0.0
 20
0.0
 30
0.0
  3
_D_1
  1
_D_1
  0
SOLID
  5
FD
330
FA
100
AcDbEntity
  8
치수문자_일반주서
100
AcDbTrace
 10
12.49394916652362
 20
18.63107492872355
 30
0.0
 11
15.79594916652361
 21
18.12307492872355
 31
0.0
 12
15.79594916652361
 22
19.13907492872355
 32
0.0
 13
15.79594916652361
 23
19.13907492872355
 33
0.0
  0
SOLID
  5
FE
330
FA
100
AcDbEntity
  8
치수문자_일반주서
100
AcDbTrace
 10
11.99394916652362
 20
18.63107492872355
 30
0.0
 11
8.691949166523617
 21
19.13907492872355
 31
0.0
 12
8.691949166523617
 22
18.12307492872355
 32
0.0
 13
8.691949166523617
 23
18.12307492872355
 33
0.0
  0
LINE
  5
FF
330
FA
100
AcDbEntity
  8
치수문자_일반주서
100
AcDbLine
 10
12.49394916652362
 20
1.131074928723893
 30
0.0
 11
12.49394916652362
 21
19.63107492872355
 31
0.0
  0
LINE
  5
100
330
FA
100
AcDbEntity
  8
치수문자_일반주서
100
AcDbLine
 10
11.99394916652362
 20
1.118289863510672
 30
0.0
 11
11.99394916652362
 21
19.63107492872355
 31
0.0
  0
LINE
  5
101
330
FA
100
AcDbEntity
  8
치수문자_일반주서
100
AcDbLine
 10
12.49394916652362
 20
18.63107492872355
 30
0.0
 11
17.5665396090712
 21
18.63107492872355
 31
0.0
  0
LINE
  5
102
330
FA
100
AcDbEntity
  8
치수문자_일반주서
100
AcDbLine
 10
12.49394916652362
 20
18.63107492872355
 30
0.0
 11
11.99394916652362
 21
18.63107492872355
 31
0.0
  0
LINE
  5
103
330
FA
100
AcDbEntity
  8
치수문자_일반주서
100
AcDbLine
 10
11.99394916652362
 20
18.63107492872355
 30
0.0
 11
5.643949166523616
 21
18.63107492872355
 31
0.0
  0
MTEXT
  5
104
330
FA
100
AcDbEntity
  8
치수문자_일반주서
100
AcDbMText
 10
8.515150548156678
 20
23.14281184330243
 30
0.0
 40
3.5
 41
0.0
 71
     1
 72
     1
  1
0.50
  7
SLDTEXTSTYLE0
 73
     1
 44
1.0
  0
ENDBLK
  5
FC
330
FA
100
AcDbEntity
  8
0
100
AcDbBlockEnd
  0
BLOCK
  5
108
330
107
100
AcDbEntity
  8
0
100
AcDbBlockBegin
  2
_D_2
 70
     0
 10
0.0
 20
0.0
 30
0.0
  3
_D_2
  1
_D_2
  0
SOLID
  5
10A
330
107
100
AcDbEntity
  8
치수문자_일반주서
100
AcDbTrace
 10
12.49394916652362
 20
40.68939943376819
 30
0.0
 11
9.191949166523615
 21
41.19739943376819
 31
0.0
 12
9.191949166523615
 22
40.18139943376818
 32
0.0
 13
9.191949166523615
 23
40.18139943376818
 33
0.0
  0
SOLID
  5
10B
330
107
100
AcDbEntity
  8
치수문자_일반주서
100
AcDbTrace
 10
-27.50605083347639
 20
40.68939943376819
 30
0.0
 11
-24.20405083347639
 21
40.18139943376818
 31
0.0
 12
-24.20405083347639
 22
41.19739943376819
 32
0.0
 13
-24.20405083347639
 23
41.19739943376819
 33
0.0
  0
LINE
  5
10C
330
107
100
AcDbEntity
  8
치수문자_일반주서
100
AcDbLine
 10
12.49394916652362
 20
1.131074928723894
 30
0.0
 11
12.49394916652362
 21
41.68939943376819
 31
0.0
  0
LINE
  5
10D
330
107
100
AcDbEntity
  8
치수문자_일반주서
100
AcDbLine
 10
-27.50605083347638
 20
2.001074928723889
 30
0.0
 11
-27.50605083347639
 21
41.68939943376819
 31
0.0
  0
LINE
  5
10E
330
107
100
AcDbEntity
  8
치수문자_일반주서
100
AcDbLine
 10
12.49394916652362
 20
40.68939943376819
 30
0.0
 11
-27.50605083347639
 21
40.68939943376819
 31
0.0
  0
MTEXT
  5
10F
330
107
100
AcDbEntity
  8
치수문자_일반주서
100
AcDbMText
 10
-10.09216202699921
 20
45.20113634834707
 30
0.0
 40
3.5
 41
0.0
 71
     1
 72
     1
  1
40
  7
SLDTEXTSTYLE0
 73
     1
 44
1.0
  0
ENDBLK
  5
109
330
107
100
AcDbEntity
  8
0
100
AcDbBlockEnd
  0
BLOCK
  5
112
330
111
100
AcDbEntity
  8
0
100
AcDbBlockBegin
  2
_D_3
 70
     0
 10
0.0
 20
0.0
 30
0.0
  3
_D_3
  1
_D_3
  0
SOLID
  5
114
330
111
100
AcDbEntity
  8
치수문자_일반주서
100
AcDbTrace
 10
12.49394916652365
 20
30.00107492872396
 30
0.0
 11
15.79594916652365
 21
29.49307492872395
 31
0.0
 12
15.79594916652365
 22
30.50907492872395
 32
0.0
 13
15.79594916652365
 23
30.50907492872395
 33
0.0
  0
SOLID
  5
115
330
111
100
AcDbEntity
  8
치수문자_일반주서
100
AcDbTrace
 10
10.40064789633443
 20
30.00107492872396
 30
0.0
 11
7.098647896334429
 21
30.50907492872396
 31
0.0
 12
7.098647896334428
 22
29.49307492872396
 32
0.0
 13
7.098647896334428
 23
29.49307492872396
 33
0.0
  0
LINE
  5
116
330
111
100
AcDbEntity
  8
치수문자_일반주서
100
AcDbLine
 10
12.49394916652362
 20
1.081074928723894
 30
0.0
 11
12.49394916652365
 21
31.00107492872396
 31
0.0
  0
LINE
  5
117
330
111
100
AcDbEntity
  8
치수문자_일반주서
100
AcDbLine
 10
10.4006478963344
 20
1.111074928723893
 30
0.0
 11
10.40064789633443
 21
31.00107492872396
 31
0.0
  0
LINE
  5
118
330
111
100
AcDbEntity
  8
치수문자_일반주서
100
AcDbLine
 10
12.49394916652365
 20
30.00107492872396
 30
0.0
 11
34.82521401468732
 21
30.00107492872396
 31
0.0
  0
LINE
  5
119
330
111
100
AcDbEntity
  8
치수문자_일반주서
100
AcDbLine
 10
12.49394916652365
 20
30.00107492872396
 30
0.0
 11
10.40064789633443
 21
30.00107492872396
 31
0.0
  0
LINE
  5
11A
330
111
100
AcDbEntity
  8
치수문자_일반주서
100
AcDbLine
 10
10.40064789633443
 20
30.00107492872396
 30
0.0
 11
4.050647896334428
 21
30.00107492872396
 31
0.0
  0
MTEXT
  5
11B
330
111
100
AcDbEntity
  8
치수문자_일반주서
100
AcDbMText
 10
25.7738249537728
 20
34.51281184330283
 30
0.0
 40
3.5
 41
0.0
 71
     1
 72
     1
  1
2.09
  7
SLDTEXTSTYLE0
 73
     1
 44
1.0
  0
ENDBLK
  5
113
330
111
100
AcDbEntity
  8
0
100
AcDbBlockEnd
  0
BLOCK
  5
11E
330
11D
100
AcDbEntity
  8
0
100
AcDbBlockBegin
  2
_D_4
 70
     0
 10
0.0
 20
0.0
 30
0.0
  3
_D_4
  1
_D_4
  0
SOLID
  5
120
330
11D
100
AcDbEntity
  8
치수문자_일반주서
100
AcDbTrace
 10
30.33059833193547
 20
0.1010749287238926
 30
0.0
 11
30.83859833193547
 21
3.403074928723892
 31
0.0
 12
29.82259833193547
 22
3.403074928723892
 32
0.0
 13
29.82259833193547
 23
3.403074928723892
 33
0.0
  0
SOLID
  5
121
330
11D
100
AcDbEntity
  8
치수문자_일반주서
100
AcDbTrace
 10
30.33059833193547
 20
-0.0976436773657033
 30
0.0
 11
29.82259833193547
 21
-3.399643677365703
 31
0.0
 12
30.83859833193547
 22
-3.399643677365703
 32
0.0
 13
30.83859833193547
 23
-3.399643677365703
 33
0.0
  0
LINE
  5
122
330
11D
100
AcDbEntity
  8
치수문자_일반주서
100
AcDbLine
 10
13.47394916652362
 20
0.1010749287238936
 30
0.0
 11
31.33059833193547
 21
0.1010749287238925
 31
0.0
  0
LINE
  5
123
330
11D
100
AcDbEntity
  8
치수문자_일반주서
100
AcDbLine
 10
13.47394916652362
 20
-0.0976436773657022
 30
0.0
 11
31.33059833193547
 21
-0.0976436773657033
 31
0.0
  0
LINE
  5
124
330
11D
100
AcDbEntity
  8
치수문자_일반주서
100
AcDbLine
 10
30.33059833193547
 20
0.1010749287238926
 30
0.0
 11
30.33059833193547
 21
6.451074928723893
 31
0.0
  0
LINE
  5
125
330
11D
100
AcDbEntity
  8
치수문자_일반주서
100
AcDbLine
 10
30.33059833193547
 20
0.1010749287238926
 30
0.0
 11
30.33059833193547
 21
-0.0976436773657033
 31
0.0
  0
LINE
  5
126
330
11D
100
AcDbEntity
  8
치수문자_일반주서
100
AcDbLine
 10
30.33059833193547
 20
-0.0976436773657033
 30
0.0
 11
30.33059833193547
 21
-7.640864678111329
 31
0.0
  0
MTEXT
  5
127
330
11D
100
AcDbEntity
  8
치수문자_일반주서
100
AcDbMText
 10
25.81886124273364
 20
-7.640864678111321
 30
0.0
 40
3.5
 41
0.0
 71
     1
 72
     1
  1
%%c
  7
SLDTEXTSTYLE0
 11
-7.044195017643634E-15
 21
1.0
 31
0.0
 73
     1
 44
1.0
  0
MTEXT
  5
128
330
11D
100
AcDbEntity
  8
치수문자_일반주서
100
AcDbMText
 10
25.76538906607376
 20
-2.36242727973724
 30
0.0
 40
3.5
 41
0.0
 71
     1
 72
     1
  1
0.20
  7
SLDTEXTSTYLE0
 11
-7.044195017643634E-15
 21
1.0
 31
0.0
 73
     1
 44
1.0
  0
ENDBLK
  5
11F
330
11D
100
AcDbEntity
  8
0
100
AcDbBlockEnd
  0
BLOCK
  5
12A
330
129
100
AcDbEntity
  8
0
100
AcDbBlockBegin
  2
SW_DOWELSYMBOL_0
 70
     0
 10
0.0
 20
0.0
 30
0.0
  3
SW_DOWELSYMBOL_0
  1
SW_DOWELSYMBOL_0
  0
CIRCLE
  5
12C
330
129
100
AcDbEntity
  8
외형선
 62
     0
100
AcDbCircle
 10
0.0
 20
0.0
 30
0.0
 40
3.000000000000004
  0
HATCH
  5
12D
330
129
100
AcDbEntity
  8
0
  6
Continuous
 62
     0
370
    35
100
AcDbHatch
 10
0.0
 20
0.0
 30
0.0
210
0.0
220
0.0
230
1.0
  2
SOLID
 70
     1
 71
     0
 91
        1
 92
        0
 93
        3
 72
     2
 10
0.0000000000000104
 20
0.0
 40
3.000000000000004
 50
0.0
 51
90.0
 73
     1
 72
     1
 10
0.0000000000000104
 20
3.000000000000004
 11
0.0000000000000104
 21
0.0
 72
     1
 10
0.0000000000000104
 20
0.0
 11
3.000000000000015
 21
0.0
 97
        0
 75
     0
 76
     1
 98
        1
 10
0.0
 20
0.0
  0
HATCH
  5
12E
330
129
100
AcDbEntity
  8
0
  6
Continuous
 62
     0
370
    35
100
AcDbHatch
 10
0.0
 20
0.0
 30
0.0
210
0.0
220
0.0
230
1.0
  2
SOLID
 70
     1
 71
     0
 91
        1
 92
        0
 93
        3
 72
     2
 10
0.0000000000000104
 20
0.0
 40
3.000000000000004
 50
180.0
 51
270.0000000000008
 73
     1
 72
     1
 10
0.0000000000000104
 20
-3.000000000000004
 11
0.0000000000000104
 21
0.0
 72
     1
 10
0.0000000000000104
 20
0.0
 11
-2.999999999999994
 21
0.0
 97
        0
 75
     0
 76
     1
 98
        1
 10
0.0
 20
0.0
  0
ENDBLK
  5
12B
330
129
100
AcDbEntity
  8
0
100
AcDbBlockEnd
  0
BLOCK
  5
18B
330
18A
100
AcDbEntity
  8
0
100
AcDbBlockBegin
  2
*D9
 70
     1
 10
0.0
 20
0.0
 30
0.0
  3
*D9
  1
*D9
  0
LINE
  5
18C
330
18A
100
AcDbEntity
  8
치수문자_일반주서
 62
     0
370
    -2
100
AcDbLine
 10
16.80895802161217
 20
8.752925461933359
 30
0.0
 11
4.374999999999993
 21
8.752925461933312
 31
0.0
  0
LINE
  5
18D
330
18A
100
AcDbEntity
  8
치수문자_일반주서
 62
     0
370
    -2
100
AcDbLine
 10
16.80895802161217
 20
4.752925461933359
 30
0.0
 11
4.375000000000007
 21
4.752925461933312
 31
0.0
  0
LINE
  5
18E
330
18A
100
AcDbEntity
  8
치수문자_일반주서
 62
     0
370
    -2
100
AcDbLine
 10
4.375000000000004
 20
5.450925461933313
 30
0.0
 11
4.374999999999996
 21
8.054925461933312
 31
0.0
  0
SOLID
  5
18F
330
18A
100
AcDbEntity
  8
치수문자_일반주서
 62
     0
100
AcDbTrace
 10
4.925333333333338
 20
5.450925461933315
 30
0.0
 11
3.824666666666671
 21
5.450925461933311
 31
0.0
 12
4.374999999999993
 22
8.752925461933312
 32
0.0
 13
4.374999999999993
 23
8.752925461933312
 33
0.0
  0
SOLID
  5
190
330
18A
100
AcDbEntity
  8
치수문자_일반주서
 62
     0
100
AcDbTrace
 10
3.824666666666662
 20
8.05492546193331
 30
0.0
 11
4.925333333333329
 21
8.054925461933314
 31
0.0
 12
4.375000000000007
 22
4.752925461933312
 32
0.0
 13
4.375000000000007
 23
4.752925461933312
 33
0.0
  0
MTEXT
  5
191
330
18A
100
AcDbEntity
  8
치수문자_일반주서
 62
     0
100
AcDbMText
 10
0.0
 20
6.752925461933343
 30
0.0
 40
3.5
 41
0.0
 71
     2
 72
     1
  1
\A1;%%c4
  7
SLDTEXTSTYLE0
 11
-3.552713678800500E-15
 21
1.0
 31
0.0
 73
     1
 44
1.0
  0
POINT
  5
192
330
18A
100
AcDbEntity
  8
Defpoints
 62
     0
100
AcDbPoint
 10
16.87145802161217
 20
8.752925461933359
 30
0.0
  0
POINT
  5
193
330
18A
100
AcDbEntity
  8
Defpoints
 62
     0
100
AcDbPoint
 10
16.87145802161217
 20
4.752925461933359
 30
0.0
  0
POINT
  5
194
330
18A
100
AcDbEntity
  8
Defpoints
 62
     0
100
AcDbPoint
 10
4.375
 20
4.752925461933311
 30
0.0
  0
ENDBLK
  5
195
330
18A
100
AcDbEntity
  8
0
100
AcDbBlockEnd
  0
BLOCK
  5
198
330
197
100
AcDbEntity
  8
0
100
AcDbBlockBegin
  2
*D10
 70
     1
 10
0.0
 20
0.0
 30
0.0
  3
*D10
  1
*D10
  0
LINE
  5
199
330
197
100
AcDbEntity
  8
치수문자_일반주서
 62
     0
370
    -2
100
AcDbLine
 10
55.87145802161217
 20
6.945425461933354
 30
0.0
 11
55.87145802161217
 21
25.38292546193301
 31
0.0
  0
LINE
  5
19A
330
197
100
AcDbEntity
  8
치수문자_일반주서
 62
     0
370
    -2
100
AcDbLine
 10
55.37145802161217
 20
6.932640396720132
 30
0.0
 11
55.37145802161217
 21
25.38292546193301
 31
0.0
  0
LINE
  5
19B
330
197
100
AcDbEntity
  8
치수문자_일반주서
 62
     0
370
    -2
100
AcDbLine
 10
55.87145802161217
 20
25.38292546193301
 30
0.0
 11
71.22545802161217
 21
25.38292546193301
 31
0.0
  0
LINE
  5
19C
330
197
100
AcDbEntity
  8
치수문자_일반주서
 62
     0
370
    -2
100
AcDbLine
 10
55.87145802161217
 20
25.38292546193301
 30
0.0
 11
55.37145802161217
 21
25.38292546193301
 31
0.0
  0
LINE
  5
19D
330
197
100
AcDbEntity
  8
치수문자_일반주서
 62
     0
370
    -2
100
AcDbLine
 10
59.17345802161217
 20
25.38292546193301
 30
0.0
 11
62.47545802161217
 21
25.38292546193301
 31
0.0
  0
LINE
  5
19E
330
197
100
AcDbEntity
  8
치수문자_일반주서
 62
     0
370
    -2
100
AcDbLine
 10
52.06945802161217
 20
25.38292546193301
 30
0.0
 11
48.76745802161217
 21
25.38292546193301
 31
0.0
  0
SOLID
  5
19F
330
197
100
AcDbEntity
  8
치수문자_일반주서
 62
     0
100
AcDbTrace
 10
59.17345802161217
 20
25.93325879526635
 30
0.0
 11
59.17345802161217
 21
24.83259212859968
 31
0.0
 12
55.87145802161217
 22
25.38292546193301
 32
0.0
 13
55.87145802161217
 23
25.38292546193301
 33
0.0
  0
SOLID
  5
1A0
330
197
100
AcDbEntity
  8
치수문자_일반주서
 62
     0
100
AcDbTrace
 10
52.06945802161217
 20
24.83259212859968
 30
0.0
 11
52.06945802161217
 21
25.93325879526635
 31
0.0
 12
55.37145802161217
 22
25.38292546193301
 32
0.0
 13
55.37145802161217
 23
25.38292546193301
 33
0.0
  0
MTEXT
  5
1A1
330
197
100
AcDbEntity
  8
치수문자_일반주서
 62
     0
100
AcDbMText
 10
66.85045802161217
 20
29.75792546193301
 30
0.0
 40
3.5
 41
0.0
 71
     2
 72
     1
  1
\A1;0.50
  7
SLDTEXTSTYLE0
 73
     1
 44
1.0
  0
POINT
  5
1A2
330
197
100
AcDbEntity
  8
Defpoints
 62
     0
100
AcDbPoint
 10
55.87145802161217
 20
6.882925461933354
 30
0.0
  0
POINT
  5
1A3
330
197
100
AcDbEntity
  8
Defpoints
 62
     0
100
AcDbPoint
 10
55.37145802161217
 20
6.870140396720132
 30
0.0
  0
POINT
  5
1E7
330
197
100
AcDbEntity
  8
Defpoints
 62
     0
100
AcDbPoint
 10
55.37145802161217
 20
25.38292546193301
 30
0.0
  0
ENDBLK
  5
1A4
330
197
100
AcDbEntity
  8
0
100
AcDbBlockEnd
  0
BLOCK
  5
1A7
330
1A6
100
AcDbEntity
  8
0
100
AcDbBlockBegin
  2
*D11
 70
     1
 10
0.0
 20
0.0
 30
0.0
  3
*D11
  1
*D11
  0
LINE
  5
1A8
330
1A6
100
AcDbEntity
  8
치수문자_일반주서
 62
     0
370
    -2
100
AcDbLine
 10
55.87145802161217
 20
6.945425461933354
 30
0.0
 11
55.87145802161217
 21
47.44124996697767
 31
0.0
  0
LINE
  5
1A9
330
1A6
100
AcDbEntity
  8
치수문자_일반주서
 62
     0
370
    -2
100
AcDbLine
 10
15.87145802161217
 20
7.815425461933359
 30
0.0
 11
15.87145802161217
 21
47.44124996697767
 31
0.0
  0
LINE
  5
1AA
330
1A6
100
AcDbEntity
  8
치수문자_일반주서
 62
     0
370
    -2
100
AcDbLine
 10
52.56945802161217
 20
47.44124996697767
 30
0.0
 11
19.17345802161217
 21
47.44124996697767
 31
0.0
  0
SOLID
  5
1AB
330
1A6
100
AcDbEntity
  8
치수문자_일반주서
 62
     0
100
AcDbTrace
 10
52.56945802161217
 20
46.89091663364433
 30
0.0
 11
52.56945802161217
 21
47.991583300311
 31
0.0
 12
55.87145802161217
 22
47.44124996697767
 32
0.0
 13
55.87145802161217
 23
47.44124996697767
 33
0.0
  0
SOLID
  5
1AC
330
1A6
100
AcDbEntity
  8
치수문자_일반주서
 62
     0
100
AcDbTrace
 10
19.17345802161217
 20
47.991583300311
 30
0.0
 11
19.17345802161217
 21
46.89091663364433
 31
0.0
 12
15.87145802161217
 22
47.44124996697767
 32
0.0
 13
15.87145802161217
 23
47.44124996697767
 33
0.0
  0
MTEXT
  5
1AD
330
1A6
100
AcDbEntity
  8
치수문자_일반주서
 62
     0
100
AcDbMText
 10
35.87145802161217
 20
51.81624996697767
 30
0.0
 40
3.5
 41
0.0
 71
     2
 72
     1
  1
\A1;40
  7
SLDTEXTSTYLE0
 73
     1
 44
1.0
  0
POINT
  5
1AE
330
1A6
100
AcDbEntity
  8
Defpoints
 62
     0
100
AcDbPoint
 10
55.87145802161217
 20
6.882925461933354
 30
0.0
  0
POINT
  5
1AF
330
1A6
100
AcDbEntity
  8
Defpoints
 62
     0
100
AcDbPoint
 10
15.87145802161217
 20
7.752925461933359
 30
0.0
  0
POINT
  5
1B0
330
1A6
100
AcDbEntity
  8
Defpoints
 62
     0
100
AcDbPoint
 10
15.87145802161217
 20
47.44124996697767
 30
0.0
  0
ENDBLK
  5
1B1
330
1A6
100
AcDbEntity
  8
0
100
AcDbBlockEnd
  0
BLOCK
  5
1B4
330
1B3
100
AcDbEntity
  8
0
100
AcDbBlockBegin
  2
*D12
 70
     1
 10
0.0
 20
0.0
 30
0.0
  3
*D12
  1
*D12
  0
LINE
  5
1B5
330
1B3
100
AcDbEntity
  8
치수문자_일반주서
 62
     0
370
    -2
100
AcDbLine
 10
55.87145802161217
 20
6.945190668700519
 30
0.0
 11
55.87145802161217
 21
36.75292546193342
 31
0.0
  0
LINE
  5
1B6
330
1B3
100
AcDbEntity
  8
치수문자_일반주서
 62
     0
370
    -2
100
AcDbLine
 10
53.87145802161217
 20
6.95302356874447
 30
0.0
 11
53.87145802161217
 21
36.75292546193342
 31
0.0
  0
LINE
  5
1B7
330
1B3
100
AcDbEntity
  8
치수문자_일반주서
 62
     0
370
    -2
100
AcDbLine
 10
55.87145802161217
 20
36.75292546193342
 30
0.0
 11
74.42702833931844
 21
36.75292546193342
 31
0.0
  0
LINE
  5
1B8
330
1B3
100
AcDbEntity
  8
치수문자_일반주서
 62
     0
370
    -2
100
AcDbLine
 10
55.87145802161217
 20
36.75292546193342
 30
0.0
 11
53.87145802161217
 21
36.75292546193342
 31
0.0
  0
LINE
  5
1B9
330
1B3
100
AcDbEntity
  8
치수문자_일반주서
 62
     0
370
    -2
100
AcDbLine
 10
59.17345802161217
 20
36.75292546193342
 30
0.0
 11
62.47545802161217
 21
36.75292546193342
 31
0.0
  0
LINE
  5
1BA
330
1B3
100
AcDbEntity
  8
치수문자_일반주서
 62
     0
370
    -2
100
AcDbLine
 10
50.56945802161217
 20
36.75292546193342
 30
0.0
 11
47.26745802161217
 21
36.75292546193342
 31
0.0
  0
SOLID
  5
1BB
330
1B3
100
AcDbEntity
  8
치수문자_일반주서
 62
     0
100
AcDbTrace
 10
59.17345802161217
 20
37.30325879526675
 30
0.0
 11
59.17345802161217
 21
36.20259212860008
 31
0.0
 12
55.87145802161217
 22
36.75292546193342
 32
0.0
 13
55.87145802161217
 23
36.75292546193342
 33
0.0
  0
SOLID
  5
1BC
330
1B3
100
AcDbEntity
  8
치수문자_일반주서
 62
     0
100
AcDbTrace
 10
50.56945802161217
 20
36.20259212860008
 30
0.0
 11
50.56945802161217
 21
37.30325879526675
 31
0.0
 12
53.87145802161217
 22
36.75292546193342
 32
0.0
 13
53.87145802161217
 23
36.75292546193342
 33
0.0
  0
MTEXT
  5
1BD
330
1B3
100
AcDbEntity
  8
치수문자_일반주서
 62
     0
100
AcDbMText
 10
72.67702833931844
 20
41.12792546193342
 30
0.0
 40
3.5
 41
0.0
 71
     2
 72
     1
  1
\A1;2
  7
SLDTEXTSTYLE0
 73
     1
 44
1.0
  0
POINT
  5
1BE
330
1B3
100
AcDbEntity
  8
Defpoints
 62
     0
100
AcDbPoint
 10
55.87145802161217
 20
6.882690668700519
 30
0.0
  0
POINT
  5
1BF
330
1B3
100
AcDbEntity
  8
Defpoints
 62
     0
100
AcDbPoint
 10
53.87145802161217
 20
6.89052356874447
 30
0.0
  0
POINT
  5
1C0
330
1B3
100
AcDbEntity
  8
Defpoints
 62
     0
100
AcDbPoint
 10
53.87145802161217
 20
36.75292546193342
 30
0.0
  0
ENDBLK
  5
1C1
330
1B3
100
AcDbEntity
  8
0
100
AcDbBlockEnd
  0
BLOCK
  5
1C4
330
1C3
100
AcDbEntity
  8
0
100
AcDbBlockBegin
  2
*D13
 70
     1
 10
0.0
 20
0.0
 30
0.0
  3
*D13
  1
*D13
  0
LINE
  5
1C5
330
1C3
100
AcDbEntity
  8
치수문자_일반주서
 62
     0
370
    -2
100
AcDbLine
 10
55.91395802157467
 20
6.901827345454535
 30
0.0
 11
72.70810718702387
 21
6.901827345454599
 31
0.0
  0
LINE
  5
1C6
330
1C3
100
AcDbEntity
  8
치수문자_일반주서
 62
     0
370
    -2
100
AcDbLine
 10
55.91434592381188
 20
6.603999999999928
 30
0.0
 11
72.70810718702387
 21
6.60399999999999
 31
0.0
  0
LINE
  5
1C7
330
1C3
100
AcDbEntity
  8
치수문자_일반주서
 62
     0
370
    -2
100
AcDbLine
 10
72.70810718702387
 20
6.901827345454599
 30
0.0
 11
72.70810718702387
 21
24.88082734545461
 31
0.0
  0
LINE
  5
1C8
330
1C3
100
AcDbEntity
  8
치수문자_일반주서
 62
     0
370
    -2
100
AcDbLine
 10
72.70810718702387
 20
6.901827345454599
 30
0.0
 11
72.70810718702387
 21
6.60399999999999
 31
0.0
  0
LINE
  5
1C9
330
1C3
100
AcDbEntity
  8
치수문자_일반주서
 62
     0
370
    -2
100
AcDbLine
 10
72.70810718702387
 20
10.2038273454546
 30
0.0
 11
72.70810718702387
 21
13.5058273454546
 31
0.0
  0
LINE
  5
1CA
330
1C3
100
AcDbEntity
  8
치수문자_일반주서
 62
     0
370
    -2
100
AcDbLine
 10
72.70810718702387
 20
3.301999999999991
 30
0.0
 11
72.70810718702387
 21
-0.0000000000000089
 31
0.0
  0
SOLID
  5
1CB
330
1C3
100
AcDbEntity
  8
치수문자_일반주서
 62
     0
100
AcDbTrace
 10
72.15777385369054
 20
10.2038273454546
 30
0.0
 11
73.2584405203572
 21
10.2038273454546
 31
0.0
 12
72.70810718702387
 22
6.901827345454599
 32
0.0
 13
72.70810718702387
 23
6.901827345454599
 33
0.0
  0
SOLID
  5
1CC
330
1C3
100
AcDbEntity
  8
치수문자_일반주서
 62
     0
100
AcDbTrace
 10
73.2584405203572
 20
3.301999999999991
 30
0.0
 11
72.15777385369054
 21
3.301999999999991
 31
0.0
 12
72.70810718702387
 22
6.60399999999999
 32
0.0
 13
72.70810718702387
 23
6.60399999999999
 33
0.0
  0
MTEXT
  5
1CD
330
1C3
100
AcDbEntity
  8
치수문자_일반주서
 62
     0
100
AcDbMText
 10
68.33310718702387
 20
19.19332734545461
 30
0.0
 40
3.5
 41
0.0
 71
     2
 72
     1
  1
\A1;%%c0.30
  7
SLDTEXTSTYLE0
 11
0.0
 21
1.0
 31
0.0
 73
     1
 44
1.0
  0
POINT
  5
1CE
330
1C3
100
AcDbEntity
  8
Defpoints
 62
     0
100
AcDbPoint
 10
55.85145802157467
 20
6.901827345454535
 30
0.0
  0
POINT
  5
1CF
330
1C3
100
AcDbEntity
  8
Defpoints
 62
     0
100
AcDbPoint
 10
55.85184592381188
 20
6.603999999999928
 30
0.0
  0
POINT
  5
1E8
330
1C3
100
AcDbEntity
  8
Defpoints
 62
     0
100
AcDbPoint
 10
72.70810718702387
 20
6.603999999999991
 30
0.0
  0
ENDBLK
  5
1D0
330
1C3
100
AcDbEntity
  8
0
100
AcDbBlockEnd
  0
BLOCK
  5
208
330
207
100
AcDbEntity
  8
0
100
AcDbBlockBegin
  2
*D14
 70
     1
 10
0.0
 20
0.0
 30
0.0
  3
*D14
  1
*D14
  0
LINE
  5
20A
330
207
100
AcDbEntity
  8
치수문자_일반주서
 62
     0
370
    -2
100
AcDbLine
 10
-30.10222524388405
 20
2.0
 30
0.0
 11
-42.53618326549623
 21
1.999999999999953
 31
0.0
  0
LINE
  5
20B
330
207
100
AcDbEntity
  8
치수문자_일반주서
 62
     0
370
    -2
100
AcDbLine
 10
-30.10222524388405
 20
-2.0
 30
0.0
 11
-42.53618326549621
 21
-2.000000000000047
 31
0.0
  0
LINE
  5
20C
330
207
100
AcDbEntity
  8
치수문자_일반주서
 62
     0
370
    -2
100
AcDbLine
 10
-42.53618326549621
 20
-1.302000000000047
 30
0.0
 11
-42.53618326549623
 21
1.301999999999953
 31
0.0
  0
SOLID
  5
20D
330
207
100
AcDbEntity
  8
치수문자_일반주서
 62
     0
100
AcDbTrace
 10
-41.98584993216288
 20
-1.302000000000045
 30
0.0
 11
-43.08651659882955
 21
-1.302000000000049
 31
0.0
 12
-42.53618326549623
 22
1.999999999999953
 32
0.0
 13
-42.53618326549623
 23
1.999999999999953
 33
0.0
  0
SOLID
  5
20E
330
207
100
AcDbEntity
  8
치수문자_일반주서
 62
     0
100
AcDbTrace
 10
-43.08651659882956
 20
1.301999999999951
 30
0.0
 11
-41.98584993216289
 21
1.301999999999955
 31
0.0
 12
-42.53618326549621
 22
-2.000000000000047
 32
0.0
 13
-42.53618326549621
 23
-2.000000000000047
 33
0.0
  0
MTEXT
  5
20F
330
207
100
AcDbEntity
  8
치수문자_일반주서
 62
     0
100
AcDbMText
 10
-46.91118326549622
 20
-0.0000000000000154
 30
0.0
 40
3.5
 41
0.0
 71
     2
 72
     1
  1
\A1;%%c4
  7
SLDTEXTSTYLE0
 11
-3.552713678800502E-15
 21
1.0
 31
0.0
 73
     1
 44
1.0
  0
POINT
  5
210
330
207
100
AcDbEntity
  8
Defpoints
 62
     0
100
AcDbPoint
 10
-30.03972524388405
 20
2.0
 30
0.0
  0
POINT
  5
211
330
207
100
AcDbEntity
  8
Defpoints
 62
     0
100
AcDbPoint
 10
-30.03972524388405
 20
-2.0
 30
0.0
  0
POINT
  5
212
330
207
100
AcDbEntity
  8
Defpoints
 62
     0
100
AcDbPoint
 10
-42.53618326549621
 20
-2.000000000000047
 30
0.0
  0
ENDBLK
  5
209
330
207
100
AcDbEntity
  8
0
100
AcDbBlockEnd
  0
BLOCK
  5
214
330
213
100
AcDbEntity
  8
0
100
AcDbBlockBegin
  2
*D15
 70
     1
 10
0.0
 20
0.0
 30
0.0
  3
*D15
  1
*D15
  0
LINE
  5
216
330
213
100
AcDbEntity
  8
치수문자_일반주서
 62
     0
370
    -2
100
AcDbLine
 10
8.96027475611595
 20
0.1924999999999955
 30
0.0
 11
8.96027475611595
 21
18.62999999999965
 31
0.0
  0
LINE
  5
217
330
213
100
AcDbEntity
  8
치수문자_일반주서
 62
     0
370
    -2
100
AcDbLine
 10
8.46027475611595
 20
0.179714934786773
 30
0.0
 11
8.46027475611595
 21
18.62999999999965
 31
0.0
  0
LINE
  5
218
330
213
100
AcDbEntity
  8
치수문자_일반주서
 62
     0
370
    -2
100
AcDbLine
 10
8.96027475611595
 20
18.62999999999965
 30
0.0
 11
24.31427475611595
 21
18.62999999999965
 31
0.0
  0
LINE
  5
219
330
213
100
AcDbEntity
  8
치수문자_일반주서
 62
     0
370
    -2
100
AcDbLine
 10
8.96027475611595
 20
18.62999999999965
 30
0.0
 11
8.46027475611595
 21
18.62999999999965
 31
0.0
  0
LINE
  5
21A
330
213
100
AcDbEntity
  8
치수문자_일반주서
 62
     0
370
    -2
100
AcDbLine
 10
12.26227475611595
 20
18.62999999999965
 30
0.0
 11
15.56427475611595
 21
18.62999999999965
 31
0.0
  0
LINE
  5
21B
330
213
100
AcDbEntity
  8
치수문자_일반주서
 62
     0
370
    -2
100
AcDbLine
 10
5.158274756115951
 20
18.62999999999965
 30
0.0
 11
1.856274756115951
 21
18.62999999999965
 31
0.0
  0
SOLID
  5
21C
330
213
100
AcDbEntity
  8
치수문자_일반주서
 62
     0
100
AcDbTrace
 10
12.26227475611595
 20
19.18033333333299
 30
0.0
 11
12.26227475611595
 21
18.07966666666632
 31
0.0
 12
8.96027475611595
 22
18.62999999999965
 32
0.0
 13
8.96027475611595
 23
18.62999999999965
 33
0.0
  0
SOLID
  5
21D
330
213
100
AcDbEntity
  8
치수문자_일반주서
 62
     0
100
AcDbTrace
 10
5.158274756115951
 20
18.07966666666632
 30
0.0
 11
5.158274756115951
 21
19.18033333333299
 31
0.0
 12
8.46027475611595
 22
18.62999999999965
 32
0.0
 13
8.46027475611595
 23
18.62999999999965
 33
0.0
  0
MTEXT
  5
21E
330
213
100
AcDbEntity
  8
치수문자_일반주서
 62
     0
100
AcDbMText
 10
19.93927475611595
 20
23.00499999999965
 30
0.0
 40
3.5
 41
0.0
 71
     2
 72
     1
  1
\A1;0.50
  7
SLDTEXTSTYLE0
 73
     1
 44
1.0
  0
POINT
  5
21F
330
213
100
AcDbEntity
  8
Defpoints
 62
     0
100
AcDbPoint
 10
8.96027475611595
 20
0.1299999999999955
 30
0.0
  0
POINT
  5
220
330
213
100
AcDbEntity
  8
Defpoints
 62
     0
100
AcDbPoint
 10
8.46027475611595
 20
0.117214934786773
 30
0.0
  0
POINT
  5
221
330
213
100
AcDbEntity
  8
Defpoints
 62
     0
100
AcDbPoint
 10
8.46027475611595
 20
18.62999999999965
 30
0.0
  0
ENDBLK
  5
215
330
213
100
AcDbEntity
  8
0
100
AcDbBlockEnd
  0
BLOCK
  5
223
330
222
100
AcDbEntity
  8
0
100
AcDbBlockBegin
  2
*D16
 70
     1
 10
0.0
 20
0.0
 30
0.0
  3
*D16
  1
*D16
  0
LINE
  5
225
330
222
100
AcDbEntity
  8
치수문자_일반주서
 62
     0
370
    -2
100
AcDbLine
 10
8.96027475611595
 20
0.1924999999999955
 30
0.0
 11
8.96027475611595
 21
40.68832450504431
 31
0.0
  0
LINE
  5
226
330
222
100
AcDbEntity
  8
치수문자_일반주서
 62
     0
370
    -2
100
AcDbLine
 10
-31.03972524388405
 20
1.0625
 30
0.0
 11
-31.03972524388405
 21
40.68832450504431
 31
0.0
  0
LINE
  5
227
330
222
100
AcDbEntity
  8
치수문자_일반주서
 62
     0
370
    -2
100
AcDbLine
 10
5.658274756115951
 20
40.68832450504431
 30
0.0
 11
-27.73772524388405
 21
40.68832450504431
 31
0.0
  0
SOLID
  5
228
330
222
100
AcDbEntity
  8
치수문자_일반주서
 62
     0
100
AcDbTrace
 10
5.658274756115951
 20
40.13799117171097
 30
0.0
 11
5.658274756115951
 21
41.23865783837764
 31
0.0
 12
8.96027475611595
 22
40.68832450504431
 32
0.0
 13
8.96027475611595
 23
40.68832450504431
 33
0.0
  0
SOLID
  5
229
330
222
100
AcDbEntity
  8
치수문자_일반주서
 62
     0
100
AcDbTrace
 10
-27.73772524388405
 20
41.23865783837764
 30
0.0
 11
-27.73772524388405
 21
40.13799117171097
 31
0.0
 12
-31.03972524388405
 22
40.68832450504431
 32
0.0
 13
-31.03972524388405
 23
40.68832450504431
 33
0.0
  0
MTEXT
  5
22A
330
222
100
AcDbEntity
  8
치수문자_일반주서
 62
     0
100
AcDbMText
 10
-11.03972524388405
 20
45.06332450504431
 30
0.0
 40
3.5
 41
0.0
 71
     2
 72
     1
  1
\A1;40
  7
SLDTEXTSTYLE0
 73
     1
 44
1.0
  0
POINT
  5
22B
330
222
100
AcDbEntity
  8
Defpoints
 62
     0
100
AcDbPoint
 10
8.96027475611595
 20
0.1299999999999955
 30
0.0
  0
POINT
  5
22C
330
222
100
AcDbEntity
  8
Defpoints
 62
     0
100
AcDbPoint
 10
-31.03972524388405
 20
1.0
 30
0.0
  0
POINT
  5
22D
330
222
100
AcDbEntity
  8
Defpoints
 62
     0
100
AcDbPoint
 10
-31.03972524388405
 20
40.68832450504431
 30
0.0
  0
ENDBLK
  5
224
330
222
100
AcDbEntity
  8
0
100
AcDbBlockEnd
  0
BLOCK
  5
22F
330
22E
100
AcDbEntity
  8
0
100
AcDbBlockBegin
  2
*D17
 70
     1
 10
0.0
 20
0.0
 30
0.0
  3
*D17
  1
*D17
  0
LINE
  5
231
330
22E
100
AcDbEntity
  8
치수문자_일반주서
 62
     0
370
    -2
100
AcDbLine
 10
8.96027475611595
 20
0.1922652067671606
 30
0.0
 11
8.96027475611595
 21
30.00000000000006
 31
0.0
  0
LINE
  5
232
330
22E
100
AcDbEntity
  8
치수문자_일반주서
 62
     0
370
    -2
100
AcDbLine
 10
6.96027475611595
 20
0.2000981068111116
 30
0.0
 11
6.96027475611595
 21
30.00000000000006
 31
0.0
  0
LINE
  5
233
330
22E
100
AcDbEntity
  8
치수문자_일반주서
 62
     0
370
    -2
100
AcDbLine
 10
8.96027475611595
 20
30.00000000000006
 30
0.0
 11
27.51584507382222
 21
30.00000000000006
 31
0.0
  0
LINE
  5
234
330
22E
100
AcDbEntity
  8
치수문자_일반주서
 62
     0
370
    -2
100
AcDbLine
 10
8.96027475611595
 20
30.00000000000006
 30
0.0
 11
6.96027475611595
 21
30.00000000000006
 31
0.0
  0
LINE
  5
235
330
22E
100
AcDbEntity
  8
치수문자_일반주서
 62
     0
370
    -2
100
AcDbLine
 10
12.26227475611595
 20
30.00000000000006
 30
0.0
 11
15.56427475611595
 21
30.00000000000006
 31
0.0
  0
LINE
  5
236
330
22E
100
AcDbEntity
  8
치수문자_일반주서
 62
     0
370
    -2
100
AcDbLine
 10
3.658274756115951
 20
30.00000000000006
 30
0.0
 11
0.3562747561159512
 21
30.00000000000006
 31
0.0
  0
SOLID
  5
237
330
22E
100
AcDbEntity
  8
치수문자_일반주서
 62
     0
100
AcDbTrace
 10
12.26227475611595
 20
30.55033333333339
 30
0.0
 11
12.26227475611595
 21
29.44966666666672
 31
0.0
 12
8.96027475611595
 22
30.00000000000006
 32
0.0
 13
8.96027475611595
 23
30.00000000000006
 33
0.0
  0
SOLID
  5
238
330
22E
100
AcDbEntity
  8
치수문자_일반주서
 62
     0
100
AcDbTrace
 10
3.658274756115951
 20
29.44966666666672
 30
0.0
 11
3.658274756115951
 21
30.55033333333339
 31
0.0
 12
6.96027475611595
 22
30.00000000000006
 32
0.0
 13
6.96027475611595
 23
30.00000000000006
 33
0.0
  0
MTEXT
  5
239
330
22E
100
AcDbEntity
  8
치수문자_일반주서
 62
     0
100
AcDbMText
 10
25.76584507382222
 20
34.37500000000006
 30
0.0
 40
3.5
 41
0.0
 71
     2
 72
     1
  1
\A1;2
  7
SLDTEXTSTYLE0
 73
     1
 44
1.0
  0
POINT
  5
23A
330
22E
100
AcDbEntity
  8
Defpoints
 62
     0
100
AcDbPoint
 10
8.96027475611595
 20
0.1297652067671606
 30
0.0
  0
POINT
  5
23B
330
22E
100
AcDbEntity
  8
Defpoints
 62
     0
100
AcDbPoint
 10
6.96027475611595
 20
0.1375981068111116
 30
0.0
  0
POINT
  5
23C
330
22E
100
AcDbEntity
  8
Defpoints
 62
     0
100
AcDbPoint
 10
6.96027475611595
 20
30.00000000000006
 30
0.0
  0
ENDBLK
  5
230
330
22E
100
AcDbEntity
  8
0
100
AcDbBlockEnd
  0
BLOCK
  5
23E
330
23D
100
AcDbEntity
  8
0
100
AcDbBlockBegin
  2
*D18
 70
     1
 10
0.0
 20
0.0
 30
0.0
  3
*D18
  1
*D18
  0
LINE
  5
240
330
23D
100
AcDbEntity
  8
치수문자_일반주서
 62
     0
370
    -2
100
AcDbLine
 10
9.002774756078452
 20
0.1489018835211768
 30
0.0
 11
25.79692392152765
 21
0.1489018835212388
 31
0.0
  0
LINE
  5
241
330
23D
100
AcDbEntity
  8
치수문자_일반주서
 62
     0
370
    -2
100
AcDbLine
 10
9.00316265831566
 20
-0.1489254619334301
 30
0.0
 11
25.79692392152765
 21
-0.1489254619333682
 31
0.0
  0
LINE
  5
242
330
23D
100
AcDbEntity
  8
치수문자_일반주서
 62
     0
370
    -2
100
AcDbLine
 10
25.79692392152765
 20
0.1489018835212388
 30
0.0
 11
25.79692392152765
 21
18.12790188352125
 31
0.0
  0
LINE
  5
243
330
23D
100
AcDbEntity
  8
치수문자_일반주서
 62
     0
370
    -2
100
AcDbLine
 10
25.79692392152765
 20
0.1489018835212388
 30
0.0
 11
25.79692392152765
 21
-0.1489254619333682
 31
0.0
  0
LINE
  5
244
330
23D
100
AcDbEntity
  8
치수문자_일반주서
 62
     0
370
    -2
100
AcDbLine
 10
25.79692392152765
 20
3.450901883521238
 30
0.0
 11
25.79692392152765
 21
6.752901883521238
 31
0.0
  0
LINE
  5
245
330
23D
100
AcDbEntity
  8
치수문자_일반주서
 62
     0
370
    -2
100
AcDbLine
 10
25.79692392152765
 20
-3.450925461933368
 30
0.0
 11
25.79692392152765
 21
-6.752925461933367
 31
0.0
  0
SOLID
  5
246
330
23D
100
AcDbEntity
  8
치수문자_일반주서
 62
     0
100
AcDbTrace
 10
25.24659058819432
 20
3.450901883521238
 30
0.0
 11
26.34725725486098
 21
3.450901883521238
 31
0.0
 12
25.79692392152765
 22
0.1489018835212388
 32
0.0
 13
25.79692392152765
 23
0.1489018835212388
 33
0.0
  0
SOLID
  5
247
330
23D
100
AcDbEntity
  8
치수문자_일반주서
 62
     0
100
AcDbTrace
 10
26.34725725486098
 20
-3.450925461933368
 30
0.0
 11
25.24659058819432
 21
-3.450925461933368
 31
0.0
 12
25.79692392152765
 22
-0.1489254619333682
 32
0.0
 13
25.79692392152765
 23
-0.1489254619333682
 33
0.0
  0
MTEXT
  5
248
330
23D
100
AcDbEntity
  8
치수문자_일반주서
 62
     0
100
AcDbMText
 10
21.42192392152765
 20
12.44040188352125
 30
0.0
 40
3.5
 41
0.0
 71
     2
 72
     1
  1
\A1;%%c0.30
  7
SLDTEXTSTYLE0
 11
0.0
 21
1.0
 31
0.0
 73
     1
 44
1.0
  0
POINT
  5
249
330
23D
100
AcDbEntity
  8
Defpoints
 62
     0
100
AcDbPoint
 10
8.940274756078452
 20
0.1489018835211766
 30
0.0
  0
POINT
  5
24A
330
23D
100
AcDbEntity
  8
Defpoints
 62
     0
100
AcDbPoint
 10
8.94066265831566
 20
-0.1489254619334304
 30
0.0
  0
POINT
  5
24B
330
23D
100
AcDbEntity
  8
Defpoints
 62
     0
100
AcDbPoint
 10
25.79692392152765
 20
-0.1489254619333674
 30
0.0
  0
ENDBLK
  5
23F
330
23D
100
AcDbEntity
  8
0
100
AcDbBlockEnd
  0
BLOCK
  5
292
330
291
100
AcDbEntity
  8
0
100
AcDbBlockBegin
  2
*D20
 70
     1
 10
0.0
 20
0.0
 30
0.0
  3
*D20
  1
*D20
  0
LINE
  5
293
330
291
100
AcDbEntity
  8
치수문자_일반주서
 62
     0
370
    -2
100
AcDbLine
 10
1.408915008405327
 20
15.52477284107555
 30
0.0
 11
6.236058186520278
 21
-1.050122555235125
 31
0.0
  0
MTEXT
  5
294
330
291
100
AcDbEntity
  8
치수문자_일반주서
 62
     0
100
AcDbMText
 10
7.166038932549171
 20
5.144505525773091
 30
0.0
 40
3.5
 41
0.0
 71
     5
 72
     1
  1
\A1;R0.02
  7
SLDTEXTSTYLE0
 11
0.2796155404897416
 21
-0.9601120505006848
 31
0.0
 73
     1
 44
1.0
  0
LINE
  5
295
330
291
100
AcDbEntity
  8
치수문자_일반주서
 62
     0
370
    -2
100
AcDbLine
 10
0.4800321828984124
 20
18.7142650728388
 30
0.0
 11
0.485624493708201
 21
18.69506283182881
 31
0.0
  0
SOLID
  5
296
330
291
100
AcDbEntity
  8
치수문자_일반주서
 62
     0
100
AcDbTrace
 10
1.937296673530871
 20
15.67865459352507
 30
0.0
 11
0.880533343279784
 21
15.37089108862602
 31
0.0
 12
0.485624493708201
 22
18.69506283182881
 32
0.0
 13
0.485624493708201
 23
18.69506283182881
 33
0.0
  0
POINT
  5
297
330
291
100
AcDbEntity
  8
Defpoints
 62
     0
100
AcDbPoint
 10
0.485624493708201
 20
18.69506283182881
 30
0.0
  0
POINT
  5
298
330
291
100
AcDbEntity
  8
Defpoints
 62
     0
100
AcDbPoint
 10
0.4800321828984124
 20
18.7142650728388
 30
0.0
  0
ENDBLK
  5
29A
330
291
100
AcDbEntity
  8
0
100
AcDbBlockEnd
  0
BLOCK
  5
2BE
330
2BD
100
AcDbEntity
  8
0
100
AcDbBlockBegin
  2
*D21
 70
     1
 10
0.0
 20
0.0
 30
0.0
  3
*D21
  1
*D21
  0
LINE
  5
2C0
330
2BD
100
AcDbEntity
  8
치수문자_일반주서
 62
     0
370
    -2
100
AcDbLine
 10
9.869189764521279
 20
-3.319525525984843
 30
0.0
 11
14.69633294263623
 21
-19.89442092229551
 31
0.0
  0
MTEXT
  5
2C1
330
2BD
100
AcDbEntity
  8
치수문자_일반주서
 62
     0
100
AcDbMText
 10
15.62631368866512
 20
-13.6997928412873
 30
0.0
 40
3.5
 41
0.0
 71
     5
 72
     1
  1
\A1;R0.02
  7
SLDTEXTSTYLE0
 11
0.2796155404897416
 21
-0.9601120505006848
 31
0.0
 73
     1
 44
1.0
  0
LINE
  5
2C2
330
2BD
100
AcDbEntity
  8
치수문자_일반주서
 62
     0
370
    -2
100
AcDbLine
 10
8.940306939014363
 20
-0.1300332942215903
 30
0.0
 11
8.945899249824151
 21
-0.1492355352315826
 31
0.0
  0
SOLID
  5
2C3
330
2BD
100
AcDbEntity
  8
치수문자_일반주서
 62
     0
100
AcDbTrace
 10
10.39757142964682
 20
-3.165643773535322
 30
0.0
 11
9.340808099395735
 21
-3.473407278434364
 31
0.0
 12
8.945899249824151
 22
-0.1492355352315826
 32
0.0
 13
8.945899249824151
 23
-0.1492355352315826
 33
0.0
  0
POINT
  5
2C4
330
2BD
100
AcDbEntity
  8
Defpoints
 62
     0
100
AcDbPoint
 10
8.945899249824151
 20
-0.1492355352315826
 30
0.0
  0
POINT
  5
2C5
330
2BD
100
AcDbEntity
  8
Defpoints
 62
     0
100
AcDbPoint
 10
8.940306939014363
 20
-0.1300332942215903
 30
0.0
  0
ENDBLK
  5
2BF
330
2BD
100
AcDbEntity
  8
0
100
AcDbBlockEnd
  0
ENDSEC
  0
SECTION
  2
ENTITIES
  0
INSERT
  5
E3
330
1F
100
AcDbEntity
  8
0
  6
Continuous
 62
     7
100
AcDbBlockReference
 66
     1
  2
블럭10
 10
-22.93944368806589
 20
-52.04609937292004
 30
0.0
  0
ATTRIB
  5
E4
330
E3
100
AcDbEntity
  8
FORMAT
 62
     2
100
AcDbText
 10
-43.79769121965843
 20
-49.97073246008785
 30
0.0
 40
4.233333333333333
  1
SEME6100300202E [ 2 FLUTE ]
 41
0.75
  7
SLDTEXTSTYLE0
 11
-43.79769121965843
 21
-52.08739912675452
 31
0.0
100
AcDbAttribute
  2
AUTOATTR0
 70
     0
 74
     1
  0
SEQEND
  5
E5
330
E3
100
AcDbEntity
  8
0
  6
Continuous
 62
     7
  0
HATCH
  5
E6
330
1F
100
AcDbEntity
  8
중심선
100
AcDbHatch
 10
0.0
 20
0.0
 30
0.0
210
0.0
220
0.0
230
1.0
  2
SOLID
 70
     1
 71
     0
 91
        1
 92
        0
 93
        4
 72
     1
 10
-17.22453438368504
 20
-35.7989250712761
 11
-20.67080962752232
 21
-35.7989250712761
 72
     1
 10
-20.67080962752232
 20
-35.7989250712761
 11
-22.79903948672635
 21
-38.3352506518487
 72
     1
 10
-22.79903948672635
 20
-38.3352506518487
 11
-19.35273115777591
 21
-38.33521122254621
 72
     1
 10
-19.35273115777591
 20
-38.33521122254621
 11
-17.22453438368504
 21
-35.7989250712761
 97
        0
 75
     0
 76
     1
 98
        1
 10
0.0
 20
0.0
  0
HATCH
  5
E7
330
1F
100
AcDbEntity
  8
중심선
100
AcDbHatch
 10
0.0
 20
0.0
 30
0.0
210
0.0
220
0.0
230
1.0
  2
SOLID
 70
     1
 71
     0
 91
        1
 92
        0
 93
        4
 72
     1
 10
-12.21177039264909
 20
-35.7989250712761
 11
-15.65804563648637
 21
-35.7989250712761
 72
     1
 10
-15.65804563648637
 20
-35.7989250712761
 11
-20.18918364484376
 21
-41.19892507127612
 72
     1
 10
-20.18918364484376
 20
-41.19892507127612
 11
-16.74290840100648
 21
-41.19892507127612
 72
     1
 10
-16.74290840100648
 20
-41.19892507127612
 11
-12.21177039264909
 21
-35.7989250712761
 97
        0
 75
     0
 76
     1
 98
        1
 10
0.0
 20
0.0
  0
HATCH
  5
E8
330
1F
100
AcDbEntity
  8
중심선
100
AcDbHatch
 10
0.0
 20
0.0
 30
0.0
210
0.0
220
0.0
230
1.0
  2
SOLID
 70
     1
 71
     0
 91
        1
 92
        0
 93
        4
 72
     1
 10
-7.199006401613195
 20
-35.79892507127613
 11
-10.64528164545031
 21
-35.7989250712761
 72
     1
 10
-10.64528164545031
 20
-35.7989250712761
 11
-17.69371854733956
 21
-44.19892507127612
 72
     1
 10
-17.69371854733956
 20
-44.19892507127612
 11
-14.24744330350228
 21
-44.19892507127612
 72
     1
 10
-14.24744330350228
 20
-44.19892507127612
 11
-7.199006401613195
 21
-35.79892507127613
 97
        0
 75
     0
 76
     1
 98
        1
 10
0.0
 20
0.0
  0
HATCH
  5
E9
330
1F
100
AcDbEntity
  8
중심선
100
AcDbHatch
 10
0.0
 20
0.0
 30
0.0
210
0.0
220
0.0
230
1.0
  2
SOLID
 70
     1
 71
     0
 91
        1
 92
        0
 93
        6
 72
     3
 10
-2.399115970600996
 20
-39.99892507132738
 11
3.960054785062284
 21
1.540850780301639E-10
 40
0.3939339440162633
 50
17.09539180608433
 51
320.0019657685079
 73
     0
 72
     1
 10
-0.7161163149004002
 20
-38.58681907591441
 11
1.589185558800638
 21
-36.65249236586649
 72
     3
 10
-2.399115970653842
 20
-39.99892507127625
 11
6.600054785286829
 21
-1.249000902703301E-13
 40
0.6363583540795982
 50
39.99873849337408
 51
368.4976242363725
 73
     1
 72
     1
 10
4.026216521246767
 20
-39.03892507120613
 11
-3.71904866381792
 21
-39.0389250712061
 72
     1
 10
-3.71904866381792
 20
-39.0389250712061
 11
-3.719073708263854
 21
-40.95892507120602
 72
     1
 10
-3.719073708263854
 20
-40.95892507120602
 11
0.7223060612081831
 21
-40.95892507120599
 97
        0
 75
     0
 76
     1
 98
        1
 10
0.0
 20
0.0
  0
LINE
  5
1EA
330
1F
100
AcDbEntity
  8
0
  6
Continuous
 62
     4
370
    25
100
AcDbLine
 10
0.0
 20
2.0
 30
0.0
 11
-30.03972524388405
 21
2.0
 31
0.0
  0
LINE
  5
1EB
330
1F
100
AcDbEntity
  8
0
  6
Continuous
 62
     4
370
    25
100
AcDbLine
 10
-30.03972524388405
 20
-2.0
 30
0.0
 11
0.0
 21
-2.0
 31
0.0
  0
LINE
  5
1EC
330
1F
100
AcDbEntity
  8
0
  6
Continuous
 62
     4
370
    25
100
AcDbLine
 10
-30.03972524388405
 20
2.0
 30
0.0
 11
-31.03972524388405
 21
1.0
 31
0.0
  0
LINE
  5
1ED
330
1F
100
AcDbEntity
  8
0
  6
Continuous
 62
     4
370
    25
100
AcDbLine
 10
-31.03972524388405
 20
-1.0
 30
0.0
 11
-30.03972524388405
 21
-2.0
 31
0.0
  0
LINE
  5
1EE
330
1F
100
AcDbEntity
  8
0
  6
Continuous
 62
     4
370
    25
100
AcDbLine
 10
8.159387115997106
 20
-0.1349999999999909
 30
0.0
 11
8.238978618780266
 21
-0.1349999999999909
 31
0.0
  0
LINE
  5
1EF
330
1F
100
AcDbEntity
  8
0
  6
Continuous
 62
     4
370
    25
100
AcDbLine
 10
7.343186205530856
 20
-0.1349999999999909
 30
0.0
 11
7.422743234536711
 21
-0.1349999999999909
 31
0.0
  0
LINE
  5
1F0
330
1F
100
AcDbEntity
  8
0
  6
Continuous
 62
     4
370
    25
100
AcDbLine
 10
0.0
 20
2.0
 30
0.0
 11
0.0
 21
-2.0
 31
0.0
  0
LINE
  5
1F1
330
1F
100
AcDbEntity
  8
0
  6
Continuous
 62
     4
370
    25
100
AcDbLine
 10
-30.03972524388405
 20
2.0
 30
0.0
 11
-30.03972524388405
 21
-2.0
 31
0.0
  0
LINE
  5
1F2
330
1F
100
AcDbEntity
  8
0
  6
Continuous
 62
     4
370
    25
100
AcDbLine
 10
-31.03972524388405
 20
1.0
 30
0.0
 11
-31.03972524388405
 21
-1.0
 31
0.0
  0
CIRCLE
  5
1F3
330
1F
100
AcDbEntity
  8
외형선
100
AcDbCircle
 10
0.0
 20
0.0
 30
0.0
 40
3.000000000000005
  0
DIMENSION
  5
1F4
330
1F
100
AcDbEntity
  8
치수문자_일반주서
100
AcDbDimension
  2
*D14
 10
-42.53618326549621
 20
-2.000000000000047
 30
0.0
 11
-42.53618326549622
 21
0.0
 31
0.0
 70
   160
  1
%%c<>
 71
     2
 42
4.0
 52
-270.0
  3
SLDDIMSTYLE0
100
AcDbAlignedDimension
 13
-30.03972524388405
 23
2.0
 33
0.0
 14
-30.03972524388405
 24
-2.0
 34
0.0
 50
90.0000000000002
100
AcDbRotatedDimension
  0
DIMENSION
  5
1F5
330
1F
100
AcDbEntity
  8
치수문자_일반주서
100
AcDbDimension
  2
*D15
 10
8.46027475611595
 20
18.62999999999965
 30
0.0
 11
19.93927475611595
 21
18.62999999999965
 31
0.0
 70
   160
  1
<>
 71
     2
 42
0.5
  3
SLDDIMSTYLE1
100
AcDbAlignedDimension
 13
8.96027475611595
 23
0.1299999999999955
 33
0.0
 14
8.46027475611595
 24
0.117214934786773
 34
0.0
100
AcDbRotatedDimension
  0
DIMENSION
  5
1F6
330
1F
100
AcDbEntity
  8
치수문자_일반주서
100
AcDbDimension
  2
*D16
 10
-31.03972524388405
 20
40.68832450504431
 30
0.0
 11
-11.03972524388405
 21
40.68832450504431
 31
0.0
 70
   160
  1
<>
 71
     2
 42
40.0
  3
SLDDIMSTYLE2
100
AcDbAlignedDimension
 13
8.96027475611595
 23
0.1299999999999955
 33
0.0
 14
-31.03972524388405
 24
1.0
 34
0.0
100
AcDbRotatedDimension
  0
DIMENSION
  5
1F7
330
1F
100
AcDbEntity
  8
치수문자_일반주서
100
AcDbDimension
  2
*D17
 10
6.96027475611595
 20
30.00000000000006
 30
0.0
 11
25.76584507382222
 21
30.00000000000006
 31
0.0
 70
   160
  1
<>
 71
     2
 42
2.0
  3
SLDDIMSTYLE0
100
AcDbAlignedDimension
 13
8.96027475611595
 23
0.1297652067671606
 33
0.0
 14
6.96027475611595
 24
0.1375981068111116
 34
0.0
100
AcDbRotatedDimension
  0
DIMENSION
  5
1F8
330
1F
100
AcDbEntity
  8
치수문자_일반주서
100
AcDbDimension
  2
*D18
 10
25.79692392152765
 20
-0.1489254619333682
 30
0.0
 11
25.79692392152765
 21
12.44040188352125
 31
0.0
 70
   160
  1
%%c<>
 71
     2
 42
0.297827345454607
 52
-270.0
  3
SLDDIMSTYLE1
100
AcDbAlignedDimension
 13
8.940274756078452
 23
0.1489018835211766
 33
0.0
 14
8.94066265831566
 24
-0.1489254619334304
 34
0.0
 50
90.0000000000002
100
AcDbRotatedDimension
  0
INSERT
  5
1F9
330
1F
100
AcDbEntity
  8
외형선
100
AcDbBlockReference
  2
SW_DOWELSYMBOL_0
 10
0.0
 20
0.0
 30
0.0
  0
LINE
  5
1FA
330
1F
100
AcDbEntity
  8
중심선
100
AcDbLine
 10
-34.03972524388405
 20
0.0
 30
0.0
 11
10.46027475611595
 21
0.0
 31
0.0
  0
SPLINE
  5
1FB
330
1F
100
AcDbEntity
  8
0
  6
Continuous
 62
     4
370
    25
100
AcDbSpline
210
0.0
220
0.0
230
1.0
 70
     8
 71
     3
 72
     9
 73
     5
 74
     0
 42
0.000000001
 43
0.00000001
 40
0.0
 40
0.0
 40
0.0
 40
0.0
 40
0.7088919755129363
 40
0.877125291045997
 40
0.877125291045997
 40
0.877125291045997
 40
0.877125291045997
 10
8.46027475611595
 20
0.0886921866826071
 30
0.0
 10
8.408063459383584
 20
0.1082797024400008
 30
0.0
 10
8.34346144606684
 20
0.1325157017925562
 30
0.0
 10
8.279766362979217
 20
0.1351209846416737
 30
0.0
 10
8.267204261732331
 20
0.1375981068111116
 30
0.0
  0
SPLINE
  5
1FC
330
1F
100
AcDbEntity
  8
0
  6
Continuous
 62
     4
370
    25
100
AcDbSpline
210
0.0
220
0.0
230
1.0
 70
     8
 71
     3
 72
    11
 73
     7
 74
     0
 42
0.000000001
 43
0.00000001
 40
0.0
 40
0.0
 40
0.0
 40
0.0
 40
0.3274697326837228
 40
0.4314658823512385
 40
0.5011697906970175
 40
0.5197744793367812
 40
0.5197744793367812
 40
0.5197744793367812
 40
0.5197744793367812
 10
8.46027475611595
 20
0.1172149347867446
 30
0.0
 10
8.442076320000524
 20
0.117066746925957
 30
0.0
 10
8.418098518352963
 20
0.1168714983282086
 30
0.0
 10
8.389695972492973
 20
0.117558010626226
 30
0.0
 10
8.37989717600476
 20
0.118216377229885
 30
0.0
 10
8.375437910175833
 20
0.1185166149214467
 30
0.0
 10
8.374499618152186
 20
0.1185799057929557
 30
0.0
  0
SPLINE
  5
1FD
330
1F
100
AcDbEntity
  8
0
  6
Continuous
 62
     4
370
    25
100
AcDbSpline
210
0.0
220
0.0
230
1.0
 70
     8
 71
     3
 72
    11
 73
     7
 74
     0
 42
0.000000001
 43
0.00000001
 40
0.0942659433524105
 40
0.0942659433524105
 40
0.0942659433524105
 40
0.0942659433524105
 40
0.2369811905193763
 40
0.3900945897062646
 40
0.5960993472695472
 40
1.0
 40
1.0
 40
1.0
 40
1.0
 10
8.292233358220301
 20
-0.1349999999999909
 30
0.0
 10
8.321540587619893
 20
-0.1226018401021918
 30
0.0
 10
8.337603461073286
 20
-0.1211877578024882
 30
0.0
 10
8.363073131613874
 20
-0.1193849577813921
 30
0.0
 10
8.404131331109284
 20
-0.1171814407254033
 30
0.0
 10
8.437907198025869
 20
-0.1172015907422121
 30
0.0
 10
8.46027475611595
 20
-0.1172149347867162
 30
0.0
  0
LINE
  5
1FE
330
1F
100
AcDbEntity
  8
0
  6
Continuous
 62
     4
370
    25
100
AcDbLine
 10
3.38470820826069
 20
0.7680669605165917
 30
0.0
 11
3.38470820826069
 21
0.0
 31
0.0
  0
LINE
  5
1FF
330
1F
100
AcDbEntity
  8
0
  6
Continuous
 62
     4
370
    25
100
AcDbLine
 10
0.0
 20
2.0
 30
0.0
 11
3.38470820826069
 21
0.7680669605165917
 31
0.0
  0
LINE
  5
200
330
1F
100
AcDbEntity
  8
0
  6
Continuous
 62
     4
370
    25
100
AcDbLine
 10
6.96027475611595
 20
0.1375981068111116
 30
0.0
 11
3.38470820826069
 21
0.7680669605165917
 31
0.0
  0
LINE
  5
201
330
1F
100
AcDbEntity
  8
0
  6
Continuous
 62
     4
370
    25
100
AcDbLine
 10
3.38470820826069
 20
-0.765468853705471
 30
0.0
 11
3.38470820826069
 21
0.0025981068110923
 31
0.0
  0
LINE
  5
202
330
1F
100
AcDbEntity
  8
0
  6
Continuous
 62
     4
370
    25
100
AcDbLine
 10
0.0
 20
-1.997401893188908
 30
0.0
 11
3.38470820826069
 21
-0.765468853705471
 31
0.0
  0
LINE
  5
203
330
1F
100
AcDbEntity
  8
0
  6
Continuous
 62
     4
370
    25
100
AcDbLine
 10
6.96027475611595
 20
-0.1349999999999909
 30
0.0
 11
3.38470820826069
 21
-0.765468853705471
 31
0.0
  0
LINE
  5
204
330
1F
100
AcDbEntity
  8
0
  6
Continuous
 62
     4
370
    25
100
AcDbLine
 10
6.96027475611595
 20
-0.1349999999999909
 30
0.0
 11
6.96027475611595
 21
0.1375981068111116
 31
0.0
  0
LINE
  5
205
330
1F
100
AcDbEntity
  8
0
  6
Continuous
 62
     4
370
    25
100
AcDbLine
 10
6.96027475611595
 20
0.1375981068111116
 30
0.0
 11
8.267204261732331
 21
0.1375981068111116
 31
0.0
  0
LINE
  5
206
330
1F
100
AcDbEntity
  8
0
  6
Continuous
 62
     4
370
    25
100
AcDbLine
 10
6.96027475611595
 20
-0.1349999999999909
 30
0.0
 11
8.292233358220301
 21
-0.1349999999999909
 31
0.0
  0
SPLINE
  5
29E
330
1F
100
AcDbEntity
  8
0
  6
Continuous
 62
     1
370
    25
100
AcDbSpline
210
0.0
220
0.0
230
1.0
 70
     8
 71
     3
 72
     9
 73
     5
 74
     0
 42
0.000000001
 43
0.00000001
 40
0.0
 40
0.0
 40
0.0
 40
0.0
 40
0.4990697956472952
 40
0.9999999999999999
 40
0.9999999999999999
 40
0.9999999999999999
 40
0.9999999999999999
 10
8.570496259113042
 20
0.0375226016230954
 30
0.0
 10
8.56400502676297
 20
0.0407503375361955
 30
0.0
 10
8.550998364354655
 20
0.0472178415632527
 30
0.0
 10
8.537964243296301
 20
0.0542828882490483
 30
0.0
 10
8.531435058371244
 20
0.0578219835291236
 30
0.0
  0
LINE
  5
29F
330
1F
100
AcDbEntity
  8
0
  6
Continuous
 62
     1
370
    25
100
AcDbLine
 10
8.523392793201765
 20
0.1180828352680123
 30
0.0
 11
8.46027475611595
 21
0.1172149347867446
 31
0.0
  0
SPLINE
  5
2A0
330
1F
100
AcDbEntity
  8
0
  6
Continuous
 62
     1
370
    25
100
AcDbSpline
210
0.0
220
0.0
230
1.0
 70
     8
 71
     3
 72
    10
 73
     6
 74
     0
 42
0.000000001
 43
0.00000001
 40
0.0
 40
0.0
 40
0.0
 40
0.0
 40
0.4138677570789717
 40
0.6053737811311688
 40
1.0
 40
1.0
 40
1.0
 40
1.0
 10
8.88572846356692
 20
0.0994972648865939
 30
0.0
 10
8.853158995518015
 20
0.0983009119029816
 30
0.0
 10
8.805518893855378
 20
0.0965509791844852
 30
0.0
 10
8.722936825909755
 20
0.1008582307747474
 30
0.0
 10
8.674548957795878
 20
0.1073544707464862
 30
0.0
 10
8.641970778275208
 20
0.1117282049129358
 30
0.0
  0
SPLINE
  5
2A1
330
1F
100
AcDbEntity
  8
0
  6
Continuous
 62
     1
370
    25
100
AcDbSpline
210
0.0
220
0.0
230
1.0
 70
     8
 71
     3
 72
     9
 73
     5
 74
     0
 42
0.000000001
 43
0.00000001
 40
0.0
 40
0.0
 40
0.0
 40
0.0
 40
0.9947422666122603
 40
1.0
 40
1.0
 40
1.0
 40
1.0
 10
8.641970778275208
 20
-0.1139910264655839
 30
0.0
 10
8.681150964083372
 20
-0.1083807143668878
 30
0.0
 10
8.7205382376751
 20
-0.1027407488330994
 30
0.0
 10
8.759200894244032
 20
-0.1013761883094162
 30
0.0
 10
8.759404172184304
 20
-0.1013690138139793
 30
0.0
  0
LINE
  5
2A2
330
1F
100
AcDbEntity
  8
0
  6
Continuous
 62
     1
370
    25
100
AcDbLine
 10
8.46027475611595
 20
-0.1194777563394211
 30
0.0
 11
8.523392793201765
 21
-0.1203456568206605
 31
0.0
  0
SPLINE
  5
2A3
330
1F
100
AcDbEntity
  8
0
  6
Continuous
 62
     4
370
    25
100
AcDbSpline
210
0.0
220
0.0
230
1.0
 70
    24
 71
     3
 72
     8
 73
     4
 74
     0
 42
0.000000001
 43
0.00000001
 40
0.0
 40
0.0
 40
0.0
 40
0.0
 40
1.0
 40
1.0
 40
1.0
 40
1.0
 10
8.460306939014345
 20
0.0532085264276816
 30
0.0
 10
8.460306939014345
 20
0.0494741295958647
 30
0.0
 10
8.460306939014345
 20
0.0429741963037884
 30
0.0
 10
8.460306939014345
 20
0.0353350515156876
 30
0.0
  0
SPLINE
  5
2A4
330
1F
100
AcDbEntity
  8
0
  6
Continuous
 62
     4
370
    25
100
AcDbSpline
210
0.0
220
0.0
230
1.0
 70
    24
 71
     3
 72
    12
 73
     8
 74
     0
 42
0.000000001
 43
0.00000001
 40
0.0
 40
0.0
 40
0.0
 40
0.0
 40
0.0070287244478076
 40
0.2715683232112553
 40
0.5437795882604419
 40
0.7695388818750234
 40
1.0
 40
1.0
 40
1.0
 40
1.0
 10
8.460306939014345
 20
0.1160402536392837
 30
0.0
 10
8.460306939014345
 20
0.1160542480065487
 30
0.0
 10
8.460306939014345
 20
0.1165949473720787
 30
0.0
 10
8.460306939014345
 20
0.114139904801732
 30
0.0
 10
8.460306939014345
 20
0.1076657705669959
 30
0.0
 10
8.460306939014345
 20
0.0976121578123355
 30
0.0
 10
8.460306939014345
 20
0.0888718836417581
 30
0.0
 10
8.460306939014345
 20
0.0844567077613192
 30
0.0
  0
SPLINE
  5
2A5
330
1F
100
AcDbEntity
  8
0
  6
Continuous
 62
     4
370
    25
100
AcDbSpline
210
0.0
220
0.0
230
1.0
 70
    24
 71
     3
 72
    10
 73
     6
 74
     0
 42
0.000000001
 43
0.00000001
 40
0.0
 40
0.0
 40
0.0
 40
0.0
 40
0.5
 40
0.5
 40
1.0
 40
1.0
 40
1.0
 40
1.0
 10
8.460306939014345
 20
0.0353350515156876
 30
0.0
 10
8.460306939014345
 20
0.0090202674692819
 30
0.0
 10
8.460306939014345
 20
-0.0199975392114311
 30
0.0
 10
8.460306939014345
 20
-0.0729596529784828
 30
0.0
 10
8.460306939014345
 20
-0.0964936050392282
 30
0.0
 10
8.460306939014345
 20
-0.1136619160450607
 30
0.0
  0
SPLINE
  5
2A6
330
1F
100
AcDbEntity
  8
0
  6
Continuous
 62
     1
370
    25
100
AcDbSpline
210
0.0
220
0.0
230
1.0
 70
     8
 71
     3
 72
    10
 73
     6
 74
     0
 42
0.000000001
 43
0.00000001
 40
0.0
 40
0.0
 40
0.0
 40
0.0
 40
0.3436119128578076
 40
0.6794263770567823
 40
1.0
 40
1.0
 40
1.0
 40
1.0
 10
8.960306939014345
 20
-0.1194772504315722
 30
0.0
 10
8.914511990418305
 20
-0.1081239224299964
 30
0.0
 10
8.823961299805205
 20
-0.0856749029897514
 30
0.0
 10
8.69160131468675
 20
-0.0200226360115323
 30
0.0
 10
8.604125206277104
 20
0.0215823419280525
 30
0.0
 10
8.56140271703157
 20
0.0419018126372919
 30
0.0
  0
LINE
  5
2A7
330
1F
100
AcDbEntity
  8
0
  6
Continuous
 62
     4
370
    25
100
AcDbLine
 10
8.960306939014345
 20
-0.1220981753284036
 30
0.0
 11
8.960306939014345
 21
-0.1194772504315722
 31
0.0
  0
SPLINE
  5
2A8
330
1F
100
AcDbEntity
  8
0
  6
Continuous
 62
     1
370
    25
100
AcDbSpline
210
0.0
220
0.0
230
1.0
 70
     8
 71
     3
 72
    23
 73
    19
 74
     0
 42
0.000000001
 43
0.00000001
 40
0.0
 40
0.0
 40
0.0
 40
0.0
 40
0.0000062692571182
 40
0.0000062692571182
 40
0.0000062692571182
 40
0.0000125787675886
 40
0.0000125787675886
 40
0.0000125787675886
 40
0.0000184006336406
 40
0.0000184006336406
 40
0.0000184006336406
 40
0.0000240304940143
 40
0.0000240304940143
 40
0.0000240304940143
 40
0.0000301183192559
 40
0.0000301183192559
 40
0.0000301183192559
 40
0.0000326850891593
 40
0.0000326850891593
 40
0.0000326850891593
 40
0.0000326850891593
 10
8.960306939014345
 20
-0.1220981753284036
 30
0.0
 10
8.960306939014345
 20
-0.1241844743384775
 30
0.0
 10
8.960002929355142
 20
-0.1262948591906081
 30
0.0
 10
8.959385482263315
 20
-0.128259011739857
 30
0.0
 10
8.958765677215752
 20
-0.1302306651504921
 30
0.0
 10
8.95780707915128
 20
-0.1321086651005885
 30
0.0
 10
8.956589065755452
 20
-0.133694617384549
 30
0.0
 10
8.955462969377095
 20
-0.1351608862528337
 30
0.0
 10
8.954084665533628
 20
-0.1364182971051946
 30
0.0
 10
8.952586775536702
 20
-0.1373646874288852
 30
0.0
 10
8.951134791507684
 20
-0.1382820736440635
 30
0.0
 10
8.94953617270994
 20
-0.138933765010762
 30
0.0
 10
8.947914344732453
 20
-0.1393062285005158
 30
0.0
 10
8.946159734741968
 20
-0.1397091862550894
 30
0.0
 10
8.944338440392812
 20
-0.1397983863822958
 30
0.0
 10
8.942560478129508
 20
-0.1396149507547761
 30
0.0
 10
8.941804501498837
 20
-0.1395369552593309
 30
0.0
 10
8.941051341195134
 20
-0.1394100406443783
 30
0.0
 10
8.940306939014135
 20
-0.1392382678002662
 30
0.0
  0
SPLINE
  5
2A9
330
1F
100
AcDbEntity
  8
0
  6
Continuous
 62
     1
370
    25
100
AcDbSpline
210
0.0
220
0.0
230
1.0
 70
     8
 71
     3
 72
    16
 73
    12
 74
     0
 42
0.000000001
 43
0.00000001
 40
0.0
 40
0.0
 40
0.0
 40
0.0
 40
0.2500000000000001
 40
0.2500000000000001
 40
0.5
 40
0.5
 40
0.75
 40
0.75
 40
0.8750000000000001
 40
0.8750000000000001
 40
1.0
 40
1.0
 40
1.0
 40
1.0
 10
8.940306939014135
 20
-0.1392382678002377
 30
0.0
 10
8.901763501857431
 20
-0.1303442640046626
 30
0.0
 10
8.85883637085226
 20
-0.116085068703029
 30
0.0
 10
8.777227952244857
 20
-0.080728863866625
 30
0.0
 10
8.741519447657765
 20
-0.0604147152831445
 30
0.0
 10
8.660407605999126
 20
-0.0154792377098829
 30
0.0
 10
8.617360167972038
 20
0.0087805634889264
 30
0.0
 10
8.558893832997455
 20
0.0422904384980711
 30
0.0
 10
8.540916040815546
 20
0.0529038348140887
 30
0.0
 10
8.50162867820768
 20
0.0736176763975607
 30
0.0
 10
8.481042051349505
 20
0.0835665366921887
 30
0.0
 10
8.460306939014345
 20
0.0926763603300742
 30
0.0
  0
SPLINE
  5
2AA
330
1F
100
AcDbEntity
  8
0
  6
Continuous
 62
     1
370
    25
100
AcDbSpline
210
0.0
220
0.0
230
1.0
 70
     8
 71
     3
 72
    16
 73
    12
 74
     0
 42
0.000000001
 43
0.00000001
 40
0.0
 40
0.0
 40
0.0
 40
0.0
 40
0.2499999999999999
 40
0.2499999999999999
 40
0.4999999999999999
 40
0.4999999999999999
 40
0.7499999999999999
 40
0.7499999999999999
 40
0.875
 40
0.875
 40
1.0
 40
1.0
 40
1.0
 40
1.0
 10
8.940306938976846
 20
-0.1500332942974865
 30
0.0
 10
8.901763501820597
 20
-0.1472805826315664
 30
0.0
 10
8.85883637081838
 20
-0.1389893717993118
 30
0.0
 10
8.777227952219619
 20
-0.1133272273421255
 30
0.0
 10
8.74151944763571
 20
-0.0966978683341893
 30
0.0
 10
8.660407605982073
 20
-0.0566521838867118
 30
0.0
 10
8.61736016795885
 20
-0.0334215116882319
 30
0.0
 10
8.558893832989952
 20
0.0008225711974603
 30
0.0
 10
8.540916040809407
 20
0.0120268526767973
 30
0.0
 10
8.50162867820427
 20
0.0346541486706826
 30
0.0
 10
8.481042051347686
 20
0.0459296016176438
 30
0.0
 10
8.460306939014345
 20
0.0567015220036069
 30
0.0
  0
LINE
  5
2AB
330
1F
100
AcDbEntity
  8
0
  6
Continuous
 62
     1
370
    25
100
AcDbLine
 10
8.592906439243734
 20
-0.0176083746377742
 30
0.0
 11
8.460306939014345
 21
0.0353350515156876
 31
0.0
  0
SPLINE
  5
2AC
330
1F
100
AcDbEntity
  8
0
  6
Continuous
 62
     4
370
    25
100
AcDbSpline
210
0.0
220
0.0
230
1.0
 70
    24
 71
     3
 72
     8
 73
     4
 74
     0
 42
0.000000001
 43
0.00000001
 40
0.0
 40
0.0
 40
0.0
 40
0.0
 40
1.0
 40
1.0
 40
1.0
 40
1.0
 10
8.460306939014345
 20
0.0567015220036069
 30
0.0
 10
8.460306939014345
 20
0.0550885977480107
 30
0.0
 10
8.460306939014345
 20
0.0466480719098854
 30
0.0
 10
8.460306939014345
 20
0.0353350515156876
 30
0.0
  0
LINE
  5
2AD
330
1F
100
AcDbEntity
  8
0
  6
Continuous
 62
     4
370
    25
100
AcDbLine
 10
8.460306939014345
 20
0.0567015220036069
 30
0.0
 11
8.460306939014345
 21
0.0926763603300742
 31
0.0
  0
SPLINE
  5
2AE
330
1F
100
AcDbEntity
  8
0
  6
Continuous
 62
     1
370
    25
100
AcDbSpline
210
0.0
220
0.0
230
1.0
 70
     8
 71
     3
 72
    11
 73
     7
 74
     0
 42
0.000000001
 43
0.00000001
 40
0.0
 40
0.0
 40
0.0
 40
0.0
 40
0.3131992390967895
 40
0.619192241520019
 40
0.9323914806168085
 40
1.0
 40
1.0
 40
1.0
 40
1.0
 10
8.960306939014345
 20
-0.0011314107763383
 30
0.0
 10
8.914512338928716
 20
0.0198872413612321
 30
0.0
 10
8.823976802641027
 20
0.061440938516796
 30
0.0
 10
8.688576570293435
 20
0.1069535604258647
 30
0.0
 10
8.587954177206939
 20
0.1227596684702235
 30
0.0
 10
8.532501182560281
 20
0.1174157624614907
 30
0.0
 10
8.522656071004576
 20
0.1164670066524707
 30
0.0
  0
LINE
  5
2AF
330
1F
100
AcDbEntity
  8
0
  6
Continuous
 62
     1
370
    25
100
AcDbLine
 10
8.960306939014345
 20
-0.1194772504315722
 30
0.0
 11
8.960306939014345
 21
-0.0011314107763383
 31
0.0
  0
SPLINE
  5
2B0
330
1F
100
AcDbEntity
  8
0
  6
Continuous
 62
     4
370
    25
100
AcDbSpline
210
0.0
220
0.0
230
1.0
 70
    24
 71
     3
 72
    12
 73
     8
 74
     0
 42
0.000000001
 43
0.00000001
 40
0.0
 40
0.0
 40
0.0
 40
0.0
 40
0.0084943850427583
 40
0.2726435140360749
 40
0.5444529856653442
 40
0.7698790506068085
 40
1.0
 40
1.0
 40
1.0
 40
1.0
 10
8.460306939014345
 20
0.1160316730432953
 30
0.0
 10
8.460306939014345
 20
0.1160487074049001
 30
0.0
 10
8.460306939014345
 20
0.11659545778042
 30
0.0
 10
8.460306939014345
 20
0.1141428031362182
 30
0.0
 10
8.460306939014345
 20
0.1076651362400582
 30
0.0
 10
8.460306939014345
 20
0.0976123074504756
 30
0.0
 10
8.460306939014345
 20
0.0888719338626629
 30
0.0
 10
8.460306939014345
 20
0.0844567077613192
 30
0.0
  0
LINE
  5
2B1
330
1F
100
AcDbEntity
  8
0
  6
Continuous
 62
     1
370
    25
100
AcDbLine
 10
8.960306939014345
 20
0.1038685892236799
 30
0.0
 11
8.884170178180511
 21
0.094356660929833
 31
0.0
  0
LINE
  5
2B2
330
1F
100
AcDbEntity
  8
0
  6
Continuous
 62
     1
370
    25
100
AcDbLine
 10
8.960306939014345
 20
-0.0011314107763383
 30
0.0
 11
8.960306939014345
 21
0.1038685892236799
 31
0.0
  0
SPLINE
  5
2B3
330
1F
100
AcDbEntity
  8
0
  6
Continuous
 62
     1
370
    25
100
AcDbSpline
210
0.0
220
0.0
230
1.0
 70
     8
 71
     3
 72
     9
 73
     5
 74
     0
 42
0.000000001
 43
0.00000001
 40
0.0
 40
0.0
 40
0.0
 40
0.0
 40
0.5005184448491731
 40
1.0
 40
1.0
 40
1.0
 40
1.0
 10
8.644596681529265
 20
-0.1086387668607642
 30
0.0
 10
8.613772731003792
 20
-0.1144695114512331
 30
0.0
 10
8.552188685814599
 20
-0.126118921478934
 30
0.0
 10
8.490913009241694
 20
-0.1178113798549134
 30
0.0
 10
8.460306939014345
 20
-0.1136619160450607
 30
0.0
  0
SPLINE
  5
2B4
330
1F
100
AcDbEntity
  8
0
  6
Continuous
 62
     4
370
    25
100
AcDbSpline
210
0.0
220
0.0
230
1.0
 70
    24
 71
     3
 72
    10
 73
     6
 74
     0
 42
0.000000001
 43
0.00000001
 40
0.0
 40
0.0
 40
0.0
 40
0.0
 40
0.5
 40
0.5
 40
1.0
 40
1.0
 40
1.0
 40
1.0
 10
8.460306939014345
 20
0.0353350515156876
 30
0.0
 10
8.460306939014345
 20
0.0090202674692819
 30
0.0
 10
8.460306939014345
 20
-0.0199975392114311
 30
0.0
 10
8.460306939014345
 20
-0.0729596529784828
 30
0.0
 10
8.460306939014345
 20
-0.0964936050392282
 30
0.0
 10
8.460306939014345
 20
-0.1136619160450607
 30
0.0
  0
LINE
  5
2B5
330
1F
100
AcDbEntity
  8
0
  6
Continuous
 62
     1
370
    25
100
AcDbLine
 10
8.960306939014345
 20
-0.1220981753284036
 30
0.0
 11
8.960306939014345
 21
-0.1308966175429589
 31
0.0
  0
SPLINE
  5
2B6
330
1F
100
AcDbEntity
  8
0
  6
Continuous
 62
     1
370
    25
100
AcDbSpline
210
0.0
220
0.0
230
1.0
 70
     8
 71
     3
 72
     9
 73
     5
 74
     0
 42
0.000000001
 43
0.00000001
 40
0.0
 40
0.0
 40
0.0
 40
0.0
 40
0.2715398684883038
 40
1.0
 40
1.0
 40
1.0
 40
1.0
 10
8.759959011329784
 20
0.0993511999485861
 30
0.0
 10
8.776190654067932
 20
0.1070454864892838
 30
0.0
 10
8.835966932330166
 20
0.1353812391119789
 30
0.0
 10
8.8963328064076
 20
0.1425490258644686
 30
0.0
 10
8.940306938976846
 20
0.1477704727448383
 30
0.0
  0
LINE
  5
2B7
330
1F
100
AcDbEntity
  8
0
  6
Continuous
 62
     1
370
    25
100
AcDbLine
 10
8.960306939014345
 20
0.1038685892236799
 30
0.0
 11
8.960306939014345
 21
0.1286337959902824
 31
0.0
  0
ARC
  5
2B8
330
1F
100
AcDbEntity
  8
0
  6
Continuous
 62
     1
370
    25
100
AcDbCircle
 10
8.940306939014363
 20
0.1277704726689421
 30
0.0
 40
0.02
100
AcDbArc
 50
0.0
 51
103.5552696344228
  0
ARC
  5
2B9
102
{ACAD_REACTORS
102
}
330
1F
100
AcDbEntity
  8
0
  6
Continuous
 62
     1
370
    25
100
AcDbCircle
 10
8.940306939014363
 20
-0.1300332942215903
 30
0.0
 40
0.02
100
AcDbArc
 50
269.9999968479838
 51
0.0
  0
DIMENSION
  5
2BA
102
{ACAD_REACTORS
102
}
102
{ACAD_XDICTIONARY
360
2BB
102
}
330
1F
100
AcDbEntity
  8
치수문자_일반주서
100
AcDbDimension
  2
*D21
 10
8.940306939014363
 20
-0.1300332942215903
 30
0.0
 11
13.10601955610082
 21
-14.43378363507287
 31
0.0
 70
   164
  1
<>
 71
     5
 42
0.0199999999999778
  3
SLDDIMSTYLE1
100
AcDbRadialDimension
 15
8.945899249824151
 25
-0.1492355352315826
 35
0.0
 40
0.0
1001
ACAD_DSTYLE_DIMRADIAL_EXTENSION
1070
   387
1070
     1
1070
   388
1040
4.712388925376869
1070
   390
1040
0.0
  0
ENDSEC
  0
SECTION
  2
OBJECTS
  0
DICTIONARY
  5
C
330
0
100
AcDbDictionary
281
     1
  3
ACAD_GROUP
350
D
  3
ACAD_IMAGE_VARS
350
153
  3
ACAD_LAYOUT
350
1A
  3
ACAD_MLINESTYLE
350
17
  3
ACAD_PLOTSETTINGS
350
19
  3
ACAD_PLOTSTYLENAME
350
E
  3
ACAD_SCALELIST
350
47
  3
APPDATA
350
151
  3
DWGPROPS
350
2C6
  0
DICTIONARY
  5
2BB
330
2BA
100
AcDbDictionary
280
     1
281
     1
  0
DICTIONARY
  5
D
102
{ACAD_REACTORS
330
C
102
}
330
C
100
AcDbDictionary
281
     1
  0
RASTERVARIABLES
  5
153
102
{ACAD_REACTORS
330
C
102
}
330
C
100
AcDbRasterVariables
 90
        0
 70
     1
 71
     1
 72
     1
  0
DICTIONARY
  5
1A
102
{ACAD_REACTORS
330
C
102
}
330
C
100
AcDbDictionary
281
     1
  3
Layout1
350
1E
  3
Layout2
350
26
  3
Model
350
22
  0
DICTIONARY
  5
17
102
{ACAD_REACTORS
330
C
102
}
330
C
100
AcDbDictionary
281
     1
  3
Standard
350
18
  0
DICTIONARY
  5
19
102
{ACAD_REACTORS
330
C
102
}
330
C
100
AcDbDictionary
281
     1
  0
ACDBDICTIONARYWDFLT
  5
E
102
{ACAD_REACTORS
330
C
102
}
330
C
100
AcDbDictionary
281
     1
  3
Normal
350
F
100
AcDbDictionaryWithDefault
340
F
  0
DICTIONARY
  5
47
102
{ACAD_REACTORS
330
C
102
}
330
C
100
AcDbDictionary
281
     1
  3
A0
350
48
  3
A1
350
49
  3
A2
350
4A
  3
A3
350
4B
  3
A4
350
4C
  3
A5
350
4D
  3
A6
350
4E
  3
A7
350
4F
  3
A8
350
50
  3
A9
350
51
  3
B0
350
52
  3
B1
350
53
  3
B2
350
54
  3
B3
350
55
  3
B4
350
56
  3
B5
350
57
  3
B6
350
58
  3
B7
350
59
  3
B8
350
5A
  3
B9
350
5B
  3
C0
350
5C
  3
C1
350
5D
  3
C2
350
5E
  3
C3
350
5F
  3
C4
350
60
  3
C5
350
61
  3
C6
350
62
  3
C7
350
63
  3
C8
350
64
  3
C9
350
65
  3
D0
350
66
  3
D1
350
67
  3
D2
350
68
  0
DICTIONARY
  5
151
102
{ACAD_REACTORS
330
C
102
}
330
C
100
AcDbDictionary
281
     1
  0
XRECORD
  5
2C6
102
{ACAD_REACTORS
330
C
102
}
330
C
100
AcDbXrecord
280
     1
  1
DWGPROPS COOKIE
  2

  3

  4

  6

  7

  8
12016016
  9

300
=
301
=
302
=
303
=
304
=
305
=
306
=
307
=
308
=
309
=
 40
0.0
 41
2458263.353921852
 42
2458269.346556528
  1

 90
        0
  0
LAYOUT
  5
1E
102
{ACAD_REACTORS
330
1A
102
}
330
1A
100
AcDbPlotSettings
  1

  2
none_device
  4

  6

 40
0.0
 41
0.0
 42
0.0
 43
0.0
 44
0.0
 45
0.0
 46
0.0
 47
0.0
 48
0.0
 49
0.0
140
0.0
141
0.0
142
1.0
143
1.0
 70
   688
 72
     1
 73
     0
 74
     5
  7

 75
    16
147
1.0
148
0.0
149
0.0
100
AcDbLayout
  1
Layout1
 70
     1
 71
     1
 10
0.0
 20
0.0
 11
420.0
 21
297.0
 12
0.0
 22
0.0
 32
0.0
 14
1.000000000000000E+20
 24
1.000000000000000E+20
 34
1.000000000000000E+20
 15
-1.000000000000000E+20
 25
-1.000000000000000E+20
 35
-1.000000000000000E+20
146
0.0
 13
0.0
 23
0.0
 33
0.0
 16
1.0
 26
0.0
 36
0.0
 17
0.0
 27
1.0
 37
0.0
 76
     0
330
1B
  0
LAYOUT
  5
26
102
{ACAD_REACTORS
330
1A
102
}
330
1A
100
AcDbPlotSettings
  1

  2
none_device
  4

  6

 40
0.0
 41
0.0
 42
0.0
 43
0.0
 44
0.0
 45
0.0
 46
0.0
 47
0.0
 48
0.0
 49
0.0
140
0.0
141
0.0
142
1.0
143
1.0
 70
   688
 72
     1
 73
     0
 74
     5
  7

 75
    16
147
1.0
148
0.0
149
0.0
100
AcDbLayout
  1
Layout2
 70
     1
 71
     2
 10
0.0
 20
0.0
 11
0.0
 21
0.0
 12
0.0
 22
0.0
 32
0.0
 14
0.0
 24
0.0
 34
0.0
 15
0.0
 25
0.0
 35
0.0
146
0.0
 13
0.0
 23
0.0
 33
0.0
 16
1.0
 26
0.0
 36
0.0
 17
0.0
 27
1.0
 37
0.0
 76
     0
330
23
  0
LAYOUT
  5
22
102
{ACAD_REACTORS
330
1A
102
}
330
1A
100
AcDbPlotSettings
  1

  2
none_device
  4
ANSI_A_(11.00_x_8.50_Inches)
  6

 40
6.35
 41
19.05
 42
6.35000508
 43
19.05000254
 44
279.4
 45
215.9
 46
143.4462857023373
 47
95.04327126092684
 48
0.0
 49
0.0
140
0.0
141
0.0
142
0.0877331677277662
143
1.0
 70
  1696
 72
     0
 73
     0
 74
     0
  7

 75
     0
147
0.0235690232323232
148
0.0
149
0.0
100
AcDbLayout
  1
Model
 70
     1
 71
     0
 10
0.0
 20
0.0
 11
420.0
 21
297.0
 12
0.0
 22
0.0
 32
0.0
 14
1.000000000000000E+20
 24
1.000000000000000E+20
 34
1.000000000000000E+20
 15
-1.000000000000000E+20
 25
-1.000000000000000E+20
 35
-1.000000000000000E+20
146
0.0
 13
0.0
 23
0.0
 33
0.0
 16
1.0
 26
0.0
 36
0.0
 17
0.0
 27
1.0
 37
0.0
 76
     0
330
1F
331
29
  0
MLINESTYLE
  5
18
102
{ACAD_REACTORS
330
17
102
}
330
17
100
AcDbMlineStyle
  2
Standard
 70
     0
  3

 62
   256
 51
90.0
 52
90.0
 71
     2
 49
0.5
 62
   256
  6
BYLAYER
 49
-0.5
 62
   256
  6
BYLAYER
  0
ACDBPLACEHOLDER
  5
F
102
{ACAD_REACTORS
330
E
102
}
330
E
  0
SCALE
  5
48
102
{ACAD_REACTORS
330
47
102
}
330
47
100
AcDbScale
 70
     0
300
1:1
140
1.0
141
1.0
290
     1
  0
SCALE
  5
49
102
{ACAD_REACTORS
330
47
102
}
330
47
100
AcDbScale
 70
     0
300
1:2
140
1.0
141
2.0
290
     0
  0
SCALE
  5
4A
102
{ACAD_REACTORS
330
47
102
}
330
47
100
AcDbScale
 70
     0
300
1:4
140
1.0
141
4.0
290
     0
  0
SCALE
  5
4B
102
{ACAD_REACTORS
330
47
102
}
330
47
100
AcDbScale
 70
     0
300
1:5
140
1.0
141
5.0
290
     0
  0
SCALE
  5
4C
102
{ACAD_REACTORS
330
47
102
}
330
47
100
AcDbScale
 70
     0
300
1:8
140
1.0
141
8.0
290
     0
  0
SCALE
  5
4D
102
{ACAD_REACTORS
330
47
102
}
330
47
100
AcDbScale
 70
     0
300
1:10
140
1.0
141
10.0
290
     0
  0
SCALE
  5
4E
102
{ACAD_REACTORS
330
47
102
}
330
47
100
AcDbScale
 70
     0
300
1:16
140
1.0
141
16.0
290
     0
  0
SCALE
  5
4F
102
{ACAD_REACTORS
330
47
102
}
330
47
100
AcDbScale
 70
     0
300
1:20
140
1.0
141
20.0
290
     0
  0
SCALE
  5
50
102
{ACAD_REACTORS
330
47
102
}
330
47
100
AcDbScale
 70
     0
300
1:30
140
1.0
141
30.0
290
     0
  0
SCALE
  5
51
102
{ACAD_REACTORS
330
47
102
}
330
47
100
AcDbScale
 70
     0
300
1:40
140
1.0
141
40.0
290
     0
  0
SCALE
  5
52
102
{ACAD_REACTORS
330
47
102
}
330
47
100
AcDbScale
 70
     0
300
1:50
140
1.0
141
50.0
290
     0
  0
SCALE
  5
53
102
{ACAD_REACTORS
330
47
102
}
330
47
100
AcDbScale
 70
     0
300
1:100
140
1.0
141
100.0
290
     0
  0
SCALE
  5
54
102
{ACAD_REACTORS
330
47
102
}
330
47
100
AcDbScale
 70
     0
300
2:1
140
2.0
141
1.0
290
     0
  0
SCALE
  5
55
102
{ACAD_REACTORS
330
47
102
}
330
47
100
AcDbScale
 70
     0
300
4:1
140
4.0
141
1.0
290
     0
  0
SCALE
  5
56
102
{ACAD_REACTORS
330
47
102
}
330
47
100
AcDbScale
 70
     0
300
8:1
140
8.0
141
1.0
290
     0
  0
SCALE
  5
57
102
{ACAD_REACTORS
330
47
102
}
330
47
100
AcDbScale
 70
     0
300
10:1
140
10.0
141
1.0
290
     0
  0
SCALE
  5
58
102
{ACAD_REACTORS
330
47
102
}
330
47
100
AcDbScale
 70
     0
300
100:1
140
100.0
141
1.0
290
     0
  0
SCALE
  5
59
102
{ACAD_REACTORS
330
47
102
}
330
47
100
AcDbScale
 70
     0
300
1/128" = 1'-0"
140
0.0078125
141
12.0
290
     0
  0
SCALE
  5
5A
102
{ACAD_REACTORS
330
47
102
}
330
47
100
AcDbScale
 70
     0
300
1/64" = 1'-0"
140
0.015625
141
12.0
290
     0
  0
SCALE
  5
5B
102
{ACAD_REACTORS
330
47
102
}
330
47
100
AcDbScale
 70
     0
300
1/32" = 1'-0"
140
0.03125
141
12.0
290
     0
  0
SCALE
  5
5C
102
{ACAD_REACTORS
330
47
102
}
330
47
100
AcDbScale
 70
     0
300
1/16" = 1'-0"
140
0.0625
141
12.0
290
     0
  0
SCALE
  5
5D
102
{ACAD_REACTORS
330
47
102
}
330
47
100
AcDbScale
 70
     0
300
3/32" = 1'-0"
140
0.09375
141
12.0
290
     0
  0
SCALE
  5
5E
102
{ACAD_REACTORS
330
47
102
}
330
47
100
AcDbScale
 70
     0
300
1/8" = 1'-0"
140
0.125
141
12.0
290
     0
  0
SCALE
  5
5F
102
{ACAD_REACTORS
330
47
102
}
330
47
100
AcDbScale
 70
     0
300
3/16" = 1'-0"
140
0.1875
141
12.0
290
     0
  0
SCALE
  5
60
102
{ACAD_REACTORS
330
47
102
}
330
47
100
AcDbScale
 70
     0
300
1/4" = 1'-0"
140
0.25
141
12.0
290
     0
  0
SCALE
  5
61
102
{ACAD_REACTORS
330
47
102
}
330
47
100
AcDbScale
 70
     0
300
3/8" = 1'-0"
140
0.375
141
12.0
290
     0
  0
SCALE
  5
62
102
{ACAD_REACTORS
330
47
102
}
330
47
100
AcDbScale
 70
     0
300
1/2" = 1'-0"
140
0.5
141
12.0
290
     0
  0
SCALE
  5
63
102
{ACAD_REACTORS
330
47
102
}
330
47
100
AcDbScale
 70
     0
300
3/4" = 1'-0"
140
0.75
141
12.0
290
     0
  0
SCALE
  5
64
102
{ACAD_REACTORS
330
47
102
}
330
47
100
AcDbScale
 70
     0
300
1" = 1'-0"
140
1.0
141
12.0
290
     0
  0
SCALE
  5
65
102
{ACAD_REACTORS
330
47
102
}
330
47
100
AcDbScale
 70
     0
300
1-1/2" = 1'-0"
140
1.5
141
12.0
290
     0
  0
SCALE
  5
66
102
{ACAD_REACTORS
330
47
102
}
330
47
100
AcDbScale
 70
     0
300
3" = 1'-0"
140
3.0
141
12.0
290
     0
  0
SCALE
  5
67
102
{ACAD_REACTORS
330
47
102
}
330
47
100
AcDbScale
 70
     0
300
6" = 1'-0"
140
6.0
141
12.0
290
     0
  0
SCALE
  5
68
102
{ACAD_REACTORS
330
47
102
}
330
47
100
AcDbScale
 70
     0
300
1'-0" = 1'-0"
140
12.0
141
12.0
290
     0
  0
ENDSEC
  0
EOF
