  0
SECTION
  2
HEADER
  9
$ACADVER
  1
AC1015
  9
$ACADMAINTVER
 70
     6
  9
$DWGCODEPAGE
  3
ANSI_949
  9
$INSBASE
 10
0.0
 20
0.0
 30
0.0
  9
$EXTMIN
 10
-70.86763956161991
 20
-49.97180738881174
 30
0.0
  9
$EXTMAX
 10
60.55033333333336
 20
25.70336952549911
 30
0.0
  9
$LIMMIN
 10
0.0
 20
0.0
  9
$LIMMAX
 10
420.0
 20
297.0
  9
$ORTHOMODE
 70
     0
  9
$REGENMODE
 70
     1
  9
$FILLMODE
 70
     1
  9
$QTEXTMODE
 70
     0
  9
$MIRRTEXT
 70
     1
  9
$LTSCALE
 40
1.0
  9
$ATTMODE
 70
     1
  9
$TEXTSIZE
 40
3.5
  9
$TRACEWID
 40
1.0
  9
$TEXTSTYLE
  7
Standard
  9
$CLAYER
  8
0
  9
$CELTYPE
  6
ByLayer
  9
$CECOLOR
 62
   256
  9
$CELTSCALE
 40
1.0
  9
$DISPSILH
 70
     0
  9
$DIMSCALE
 40
1.0
  9
$DIMASZ
 40
3.302
  9
$DIMEXO
 40
1.0
  9
$DIMDLI
 40
3.75
  9
$DIMRND
 40
0.0
  9
$DIMDLE
 40
0.0
  9
$DIMEXE
 40
1.0
  9
$DIMTP
 40
0.0
  9
$DIMTM
 40
0.0
  9
$DIMTXT
 40
3.5
  9
$DIMCEN
 40
2.5
  9
$DIMTSZ
 40
0.0
  9
$DIMTOL
 70
     0
  9
$DIMLIM
 70
     0
  9
$DIMTIH
 70
     1
  9
$DIMTOH
 70
     1
  9
$DIMSE1
 70
     0
  9
$DIMSE2
 70
     0
  9
$DIMTAD
 70
     1
  9
$DIMZIN
 70
     0
  9
$DIMBLK
  1

  9
$DIMASO
 70
     1
  9
$DIMSHO
 70
     1
  9
$DIMPOST
  1

  9
$DIMAPOST
  1

  9
$DIMALT
 70
     0
  9
$DIMALTD
 70
     3
  9
$DIMALTF
 40
0.0393700787401575
  9
$DIMLFAC
 40
1.0
  9
$DIMTOFL
 70
     1
  9
$DIMTVP
 40
0.0
  9
$DIMTIX
 70
     0
  9
$DIMSOXD
 70
     0
  9
$DIMSAH
 70
     0
  9
$DIMBLK1
  1

  9
$DIMBLK2
  1

  9
$DIMSTYLE
  2
ISO-25
  9
$DIMCLRD
 70
     0
  9
$DIMCLRE
 70
     0
  9
$DIMCLRT
 70
     0
  9
$DIMTFAC
 40
1.0
  9
$DIMGAP
 40
1.524
  9
$DIMJUST
 70
     0
  9
$DIMSD1
 70
     0
  9
$DIMSD2
 70
     0
  9
$DIMTOLJ
 70
     0
  9
$DIMTZIN
 70
     0
  9
$DIMALTZ
 70
     0
  9
$DIMALTTZ
 70
     0
  9
$DIMUPT
 70
     0
  9
$DIMDEC
 70
     2
  9
$DIMTDEC
 70
     2
  9
$DIMALTU
 70
     2
  9
$DIMALTTD
 70
     3
  9
$DIMTXSTY
  7
Standard
  9
$DIMAUNIT
 70
     0
  9
$DIMADEC
 70
     2
  9
$DIMALTRND
 40
0.0
  9
$DIMAZIN
 70
     0
  9
$DIMDSEP
 70
    44
  9
$DIMATFIT
 70
     3
  9
$DIMFRAC
 70
     0
  9
$DIMLDRBLK
  1

  9
$DIMLUNIT
 70
     2
  9
$DIMLWD
 70
    -2
  9
$DIMLWE
 70
    -2
  9
$DIMTMOVE
 70
     0
  9
$LUNITS
 70
     2
  9
$LUPREC
 70
     2
  9
$SKETCHINC
 40
1.0
  9
$FILLETRAD
 40
10.0
  9
$AUNITS
 70
     0
  9
$AUPREC
 70
     2
  9
$MENU
  1
.
  9
$ELEVATION
 40
0.0
  9
$PELEVATION
 40
0.0
  9
$THICKNESS
 40
0.0
  9
$LIMCHECK
 70
     0
  9
$CHAMFERA
 40
0.0
  9
$CHAMFERB
 40
0.0
  9
$CHAMFERC
 40
0.0
  9
$CHAMFERD
 40
0.0
  9
$SKPOLY
 70
     0
  9
$TDCREATE
 40
2458250.557006794
  9
$TDUCREATE
 40
2458250.182006794
  9
$TDUPDATE
 40
2458264.730099641
  9
$TDUUPDATE
 40
2458264.355099641
  9
$TDINDWG
 40
0.000494838
  9
$TDUSRTIMER
 40
0.001505081
  9
$USRTIMER
 70
     1
  9
$ANGBASE
 50
0.0
  9
$ANGDIR
 70
     0
  9
$PDMODE
 70
     0
  9
$PDSIZE
 40
-1.0
  9
$PLINEWID
 40
0.0
  9
$SPLFRAME
 70
     0
  9
$SPLINETYPE
 70
     6
  9
$SPLINESEGS
 70
     8
  9
$HANDSEED
  5
13A
  9
$SURFTAB1
 70
     6
  9
$SURFTAB2
 70
     6
  9
$SURFTYPE
 70
     6
  9
$SURFU
 70
     6
  9
$SURFV
 70
     6
  9
$UCSBASE
  2

  9
$UCSNAME
  2

  9
$UCSORG
 10
0.0
 20
0.0
 30
0.0
  9
$UCSXDIR
 10
1.0
 20
0.0
 30
0.0
  9
$UCSYDIR
 10
0.0
 20
1.0
 30
0.0
  9
$UCSORTHOREF
  2

  9
$UCSORTHOVIEW
 70
     0
  9
$UCSORGTOP
 10
0.0
 20
0.0
 30
0.0
  9
$UCSORGBOTTOM
 10
0.0
 20
0.0
 30
0.0
  9
$UCSORGLEFT
 10
0.0
 20
0.0
 30
0.0
  9
$UCSORGRIGHT
 10
0.0
 20
0.0
 30
0.0
  9
$UCSORGFRONT
 10
0.0
 20
0.0
 30
0.0
  9
$UCSORGBACK
 10
0.0
 20
0.0
 30
0.0
  9
$PUCSBASE
  2

  9
$PUCSNAME
  2

  9
$PUCSORG
 10
0.0
 20
0.0
 30
0.0
  9
$PUCSXDIR
 10
1.0
 20
0.0
 30
0.0
  9
$PUCSYDIR
 10
0.0
 20
1.0
 30
0.0
  9
$PUCSORTHOREF
  2

  9
$PUCSORTHOVIEW
 70
     0
  9
$PUCSORGTOP
 10
0.0
 20
0.0
 30
0.0
  9
$PUCSORGBOTTOM
 10
0.0
 20
0.0
 30
0.0
  9
$PUCSORGLEFT
 10
0.0
 20
0.0
 30
0.0
  9
$PUCSORGRIGHT
 10
0.0
 20
0.0
 30
0.0
  9
$PUCSORGFRONT
 10
0.0
 20
0.0
 30
0.0
  9
$PUCSORGBACK
 10
0.0
 20
0.0
 30
0.0
  9
$USERI1
 70
     0
  9
$USERI2
 70
     0
  9
$USERI3
 70
     0
  9
$USERI4
 70
     0
  9
$USERI5
 70
     0
  9
$USERR1
 40
0.0
  9
$USERR2
 40
0.0
  9
$USERR3
 40
0.0
  9
$USERR4
 40
0.0
  9
$USERR5
 40
0.0
  9
$WORLDVIEW
 70
     1
  9
$SHADEDGE
 70
     3
  9
$SHADEDIF
 70
    70
  9
$TILEMODE
 70
     1
  9
$MAXACTVP
 70
    64
  9
$PINSBASE
 10
0.0
 20
0.0
 30
0.0
  9
$PLIMCHECK
 70
     0
  9
$PEXTMIN
 10
1.000000000000000E+20
 20
1.000000000000000E+20
 30
1.000000000000000E+20
  9
$PEXTMAX
 10
-1.000000000000000E+20
 20
-1.000000000000000E+20
 30
-1.000000000000000E+20
  9
$PLIMMIN
 10
0.0
 20
0.0
  9
$PLIMMAX
 10
0.0
 20
0.0
  9
$UNITMODE
 70
     0
  9
$VISRETAIN
 70
     1
  9
$PLINEGEN
 70
     0
  9
$PSLTSCALE
 70
     1
  9
$TREEDEPTH
 70
  3020
  9
$CMLSTYLE
  2
Standard
  9
$CMLJUST
 70
     0
  9
$CMLSCALE
 40
20.0
  9
$PROXYGRAPHICS
 70
     1
  9
$MEASUREMENT
 70
     1
  9
$CELWEIGHT
370
    -1
  9
$ENDCAPS
280
     0
  9
$JOINSTYLE
280
     0
  9
$LWDISPLAY
290
     1
  9
$INSUNITS
 70
     4
  9
$HYPERLINKBASE
  1

  9
$STYLESHEET
  1

  9
$XEDIT
290
     1
  9
$CEPSNTYPE
380
     0
  9
$PSTYLEMODE
290
     1
  9
$FINGERPRINTGUID
  2
{EBAD3ECB-CFA7-490A-9CB4-179563D910B1}
  9
$VERSIONGUID
  2
{FAEB1C32-E019-11D5-929B-00C0DF256EC4}
  9
$EXTNAMES
290
     1
  9
$PSVPSCALE
 40
0.0
  9
$OLESTARTUP
290
     0
  0
ENDSEC
  0
SECTION
  2
CLASSES
  0
CLASS
  1
ACDBDICTIONARYWDFLT
  2
AcDbDictionaryWithDefault
  3
ObjectDBX Classes
 90
        0
280
     0
281
     0
  0
CLASS
  1
VISUALSTYLE
  2
AcDbVisualStyle
  3
ObjectDBX Classes
 90
     4095
280
     0
281
     0
  0
CLASS
  1
MATERIAL
  2
AcDbMaterial
  3
ObjectDBX Classes
 90
     1153
280
     0
281
     0
  0
CLASS
  1
SCALE
  2
AcDbScale
  3
ObjectDBX Classes
 90
     1153
280
     0
281
     0
  0
CLASS
  1
TABLESTYLE
  2
AcDbTableStyle
  3
ObjectDBX Classes
 90
     4095
280
     0
281
     0
  0
CLASS
  1
MLEADERSTYLE
  2
AcDbMLeaderStyle
  3
ACDB_MLEADERSTYLE_CLASS
 90
     4095
280
     0
281
     0
  0
CLASS
  1
SUN
  2
AcDbSun
  3
SCENEOE
 90
     1153
280
     0
281
     0
  0
CLASS
  1
ACDBPLACEHOLDER
  2
AcDbPlaceHolder
  3
ObjectDBX Classes
 90
        0
280
     0
281
     0
  0
CLASS
  1
LAYOUT
  2
AcDbLayout
  3
ObjectDBX Classes
 90
        0
280
     0
281
     0
  0
CLASS
  1
DICTIONARYVAR
  2
AcDbDictionaryVar
  3
ObjectDBX Classes
 90
        0
280
     0
281
     0
  0
ENDSEC
  0
SECTION
  2
TABLES
  0
TABLE
  2
VPORT
  5
8
330
0
100
AcDbSymbolTable
 70
     1
  0
VPORT
  5
29
330
8
100
AcDbSymbolTableRecord
100
AcDbViewportTableRecord
  2
*Active
 70
     0
 10
0.0
 20
0.0
 11
1.0
 21
1.0
 12
16.55780709753974
 22
-0.572367956893181
 13
0.0
 23
0.0
 14
10.0
 24
10.0
 15
10.0
 25
10.0
 16
0.0
 26
0.0
 36
1.0
 17
0.0
 27
0.0
 37
0.0
 40
99.3577796055186
 41
2.727272727272727
 42
50.0
 43
0.0
 44
0.0
 50
0.0
 51
0.0
 71
    16
 72
  2000
 73
     1
 74
     3
 75
     0
 76
     0
 77
     0
 78
     0
281
     0
 65
     1
110
0.0
120
0.0
130
0.0
111
1.0
121
0.0
131
0.0
112
0.0
122
1.0
132
0.0
 79
     0
146
0.0
  0
ENDTAB
  0
TABLE
  2
LTYPE
  5
5
330
0
100
AcDbSymbolTable
 70
     6
  0
LTYPE
  5
14
330
5
100
AcDbSymbolTableRecord
100
AcDbLinetypeTableRecord
  2
ByBlock
 70
     0
  3

 72
    65
 73
     0
 40
0.0
  0
LTYPE
  5
15
330
5
100
AcDbSymbolTableRecord
100
AcDbLinetypeTableRecord
  2
ByLayer
 70
     0
  3

 72
    65
 73
     0
 40
0.0
  0
LTYPE
  5
16
330
5
100
AcDbSymbolTableRecord
100
AcDbLinetypeTableRecord
  2
Continuous
 70
     0
  3
Solid line
 72
    65
 73
     0
 40
0.0
  0
LTYPE
  5
6E
330
5
100
AcDbSymbolTableRecord
100
AcDbLinetypeTableRecord
  2
HIDDEN
 70
     0
  3
Hidden __ __ __ __ __ __ __ __ __ __ __ __ __ __
 72
    65
 73
     2
 40
1.905
 49
1.27
 74
     0
 49
-0.635
 74
     0
  0
LTYPE
  5
6F
330
5
100
AcDbSymbolTableRecord
100
AcDbLinetypeTableRecord
  2
PHANTOM
 70
     0
  3
Phantom ______  __  __  ______  __  __  ______
 72
    65
 73
     6
 40
12.7
 49
6.35
 74
     0
 49
-1.27
 74
     0
 49
1.27
 74
     0
 49
-1.27
 74
     0
 49
1.27
 74
     0
 49
-1.27
 74
     0
  0
LTYPE
  5
70
330
5
100
AcDbSymbolTableRecord
100
AcDbLinetypeTableRecord
  2
CENTER
 70
     0
  3
Center ____ _ ____ _ ____ _ ____ _ ____ _ ____
 72
    65
 73
     4
 40
10.16
 49
6.35
 74
     0
 49
-1.27
 74
     0
 49
1.27
 74
     0
 49
-1.27
 74
     0
  0
LTYPE
  5
71
330
5
100
AcDbSymbolTableRecord
100
AcDbLinetypeTableRecord
  2
CENTERX2
 70
     0
  3
Center (2x) ________  __  ________  __  _____
 72
    65
 73
     4
 40
20.32
 49
12.7
 74
     0
 49
-2.54
 74
     0
 49
2.54
 74
     0
 49
-2.54
 74
     0
  0
LTYPE
  5
72
330
5
100
AcDbSymbolTableRecord
100
AcDbLinetypeTableRecord
  2
DOT2
 70
     0
  3
Dot (.5x) ........................................
 72
    65
 73
     2
 40
0.635
 49
0.0
 74
     0
 49
-0.635
 74
     0
  0
ENDTAB
  0
TABLE
  2
LAYER
  5
2
330
0
100
AcDbSymbolTable
 70
    17
  0
LAYER
  5
10
330
2
100
AcDbSymbolTableRecord
100
AcDbLayerTableRecord
  2
0
 70
     0
 62
     7
  6
Continuous
370
    -3
390
F
  0
LAYER
  5
73
330
2
100
AcDbSymbolTableRecord
100
AcDbLayerTableRecord
  2
FORMAT
 70
     0
 62
     2
  6
Continuous
370
    -3
390
F
  0
LAYER
  5
74
330
2
100
AcDbSymbolTableRecord
100
AcDbLayerTableRecord
  2
외형선
 70
     0
 62
   100
  6
Continuous
370
    35
390
F
  0
LAYER
  5
75
330
2
100
AcDbSymbolTableRecord
100
AcDbLayerTableRecord
  2
숨은선
 70
     0
 62
     2
  6
HIDDEN
370
    25
390
F
  0
LAYER
  5
76
330
2
100
AcDbSymbolTableRecord
100
AcDbLayerTableRecord
  2
중심선
 70
     0
 62
     1
  6
CENTERX2
370
    -3
390
F
  0
LAYER
  5
77
330
2
100
AcDbSymbolTableRecord
100
AcDbLayerTableRecord
  2
파단선
 70
     0
 62
     4
  6
Continuous
370
    -3
390
F
  0
LAYER
  5
78
330
2
100
AcDbSymbolTableRecord
100
AcDbLayerTableRecord
  2
해칭선
 70
     0
 62
   100
  6
Continuous
370
    -3
390
F
  0
LAYER
  5
79
330
2
100
AcDbSymbolTableRecord
100
AcDbLayerTableRecord
  2
가는실선
 70
     0
 62
     4
  6
Continuous
370
    -3
390
F
  0
LAYER
  5
7A
330
2
100
AcDbSymbolTableRecord
100
AcDbLayerTableRecord
  2
치수_보조선
 70
     0
 62
     4
  6
Continuous
370
    -3
390
F
  0
LAYER
  5
7B
330
2
100
AcDbSymbolTableRecord
100
AcDbLayerTableRecord
  2
치수문자_일반주서
 70
     0
 62
     7
  6
Continuous
370
    25
390
F
  0
LAYER
  5
7C
330
2
100
AcDbSymbolTableRecord
100
AcDbLayerTableRecord
  2
개별주서
 70
     0
 62
   100
  6
Continuous
370
    35
390
F
  0
LAYER
  5
7D
330
2
100
AcDbSymbolTableRecord
100
AcDbLayerTableRecord
  2
중간선
 70
     0
 62
     2
  6
Continuous
370
    25
390
F
  0
LAYER
  5
7E
330
2
100
AcDbSymbolTableRecord
100
AcDbLayerTableRecord
  2
윤곽선
 70
     0
 62
     3
  6
Continuous
370
    50
390
F
  0
LAYER
  5
7F
330
2
100
AcDbSymbolTableRecord
100
AcDbLayerTableRecord
  2
중심마크
 70
     0
 62
   100
  6
Continuous
370
    35
390
F
  0
LAYER
  5
80
330
2
100
AcDbSymbolTableRecord
100
AcDbLayerTableRecord
  2
가상선
 70
     0
 62
     4
  6
PHANTOM
370
    -3
390
F
  0
LAYER
  5
81
330
2
100
AcDbSymbolTableRecord
100
AcDbLayerTableRecord
  2
특수지정선
 70
     0
 62
     5
  6
CENTERX2
370
    70
390
F
  0
LAYER
  5
132
330
2
100
AcDbSymbolTableRecord
100
AcDbLayerTableRecord
  2
Defpoints
 70
     0
 62
     7
  6
Continuous
290
     0
370
    -3
390
F
  0
ENDTAB
  0
TABLE
  2
STYLE
  5
3
330
0
100
AcDbSymbolTable
 70
     2
  0
STYLE
  5
11
330
3
100
AcDbSymbolTableRecord
100
AcDbTextStyleTableRecord
  2
Standard
 70
     0
 40
0.0
 41
1.0
 50
0.0
 71
     0
 42
3.5
  3
txt
  4

  0
STYLE
  5
97
330
3
100
AcDbSymbolTableRecord
100
AcDbTextStyleTableRecord
  2
SLDTEXTSTYLE0
 70
     0
 40
0.0
 41
0.75
 50
0.0
 71
     0
 42
3.5
  3
TXT
  4

  0
ENDTAB
  0
TABLE
  2
VIEW
  5
6
330
0
100
AcDbSymbolTable
 70
     0
  0
ENDTAB
  0
TABLE
  2
UCS
  5
7
330
0
100
AcDbSymbolTable
 70
     0
  0
ENDTAB
  0
TABLE
  2
APPID
  5
9
330
0
100
AcDbSymbolTable
 70
     2
  0
APPID
  5
12
330
9
100
AcDbSymbolTableRecord
100
AcDbRegAppTableRecord
  2
ACAD
 70
     0
  0
APPID
  5
128
330
9
100
AcDbSymbolTableRecord
100
AcDbRegAppTableRecord
  2
PE_URL
 70
     0
  0
ENDTAB
  0
TABLE
  2
DIMSTYLE
  5
A
330
0
100
AcDbSymbolTable
 70
     4
100
AcDbDimStyleTable
  0
DIMSTYLE
105
27
330
A
100
AcDbSymbolTableRecord
100
AcDbDimStyleTableRecord
  2
ISO-25
 70
     0
 41
2.5
 42
0.625
 43
3.75
 44
1.25
 73
     0
 74
     0
 77
     1
 78
     8
140
2.5
141
2.5
143
0.03937007874016
147
0.625
171
     3
172
     1
178
     0
271
     2
272
     2
274
     3
278
    44
283
     0
284
     8
340
11
  0
DIMSTYLE
105
CF
102
{ACAD_REACTORS
330
CE
102
}
330
A
100
AcDbSymbolTableRecord
100
AcDbDimStyleTableRecord
  2
SLDDIMSTYLE0
 70
     0
 41
3.302
 44
0.0
 45
0.000000001
 73
     0
 74
     0
 77
     1
 78
    12
 79
     3
140
3.5
147
0.875
172
     1
173
     1
178
     0
271
     1
272
     1
276
     2
284
    12
289
     0
340
97
  0
DIMSTYLE
105
DD
102
{ACAD_REACTORS
330
DC
330
F5
102
}
330
A
100
AcDbSymbolTableRecord
100
AcDbDimStyleTableRecord
  2
SLDDIMSTYLE1
 70
     0
 41
3.302
 44
0.0
 45
0.000000001
 73
     0
 74
     0
 77
     1
 78
    12
 79
     3
140
3.5
147
0.875
173
     1
178
     0
271
     2
272
     2
276
     2
284
    12
340
97
  0
DIMSTYLE
105
E8
102
{ACAD_REACTORS
330
E7
102
}
330
A
100
AcDbSymbolTableRecord
100
AcDbDimStyleTableRecord
  2
SLDDIMSTYLE2
 70
     0
 41
3.302
 44
0.0
 45
0.000000001
 73
     0
 74
     0
 77
     1
 78
    12
 79
     3
140
3.5
147
0.875
172
     1
173
     1
178
     0
271
     2
272
     2
276
     2
284
    12
289
     0
340
97
  0
ENDTAB
  0
TABLE
  2
BLOCK_RECORD
  5
1
330
0
100
AcDbSymbolTable
 70
     7
  0
BLOCK_RECORD
  5
1F
330
1
100
AcDbSymbolTableRecord
100
AcDbBlockTableRecord
  2
*Model_Space
340
22
  0
BLOCK_RECORD
  5
1B
330
1
100
AcDbSymbolTableRecord
100
AcDbBlockTableRecord
  2
*Paper_Space
340
1E
  0
BLOCK_RECORD
  5
23
330
1
100
AcDbSymbolTableRecord
100
AcDbBlockTableRecord
  2
*Paper_Space0
340
26
  0
BLOCK_RECORD
  5
82
330
1
100
AcDbSymbolTableRecord
100
AcDbBlockTableRecord
  2
블럭10
340
0
102
{BLKREFS
331
C7
102
}
  0
BLOCK_RECORD
  5
D0
330
1
100
AcDbSymbolTableRecord
100
AcDbBlockTableRecord
  2
_D
340
0
  0
BLOCK_RECORD
  5
DE
330
1
100
AcDbSymbolTableRecord
100
AcDbBlockTableRecord
  2
_D_1
340
0
  0
BLOCK_RECORD
  5
E9
330
1
100
AcDbSymbolTableRecord
100
AcDbBlockTableRecord
  2
_D_2
340
0
  0
BLOCK_RECORD
  5
F6
330
1
100
AcDbSymbolTableRecord
100
AcDbBlockTableRecord
  2
_D_3
340
0
  0
BLOCK_RECORD
  5
FF
330
1
100
AcDbSymbolTableRecord
100
AcDbBlockTableRecord
  2
SW_DOWELSYMBOL_0
340
0
102
{BLKREFS
331
105
102
}
  0
ENDTAB
  0
ENDSEC
  0
SECTION
  2
BLOCKS
  0
BLOCK
  5
20
330
1F
100
AcDbEntity
  8
0
100
AcDbBlockBegin
  2
*Model_Space
 70
     0
 10
0.0
 20
0.0
 30
0.0
  3
*Model_Space
  1

  0
ENDBLK
  5
21
330
1F
100
AcDbEntity
  8
0
100
AcDbBlockEnd
  0
BLOCK
  5
1C
330
1B
100
AcDbEntity
 67
     1
  8
0
100
AcDbBlockBegin
  2
*Paper_Space
 70
     0
 10
0.0
 20
0.0
 30
0.0
  3
*Paper_Space
  1

  0
ENDBLK
  5
1D
330
1B
100
AcDbEntity
 67
     1
  8
0
100
AcDbBlockEnd
  0
BLOCK
  5
24
330
23
100
AcDbEntity
  8
0
100
AcDbBlockBegin
  2
*Paper_Space0
 70
     0
 10
0.0
 20
0.0
 30
0.0
  3
*Paper_Space0
  1

  0
ENDBLK
  5
25
330
23
100
AcDbEntity
  8
0
100
AcDbBlockEnd
  0
BLOCK
  5
83
330
82
100
AcDbEntity
  8
0
100
AcDbBlockBegin
  2
블럭10
 70
     2
 10
0.0
 20
0.0
 30
0.0
  3
블럭10
  1

  0
ELLIPSE
  5
85
330
82
100
AcDbEntity
  8
중심선
100
AcDbEllipse
 10
20.54032771741204
 20
12.0471743016438
 30
0.0
 11
6.600054785286829
 21
-1.261213355974178E-13
 31
0.0
210
0.0
220
0.0
230
1.0
 40
0.636358354079598
 41
0.9219305317359503
 42
6.513795318482858
  0
ELLIPSE
  5
86
330
82
100
AcDbEntity
  8
중심선
100
AcDbEllipse
 10
20.54032771746488
 20
12.04717430159265
 30
0.0
 11
3.960054785062283
 21
1.540847449632565E-10
 31
0.0
210
0.0
220
0.0
230
1.0
 40
0.3939339440162632
 41
1.131841032648279
 42
5.62031148352944
  0
LINE
  5
87
330
82
100
AcDbEntity
  8
중심선
100
AcDbLine
 10
2.268634060543552
 20
16.24717430164393
 30
0.0
 11
5.714909304380834
 21
16.24717430164393
 31
0.0
  0
LINE
  5
88
330
82
100
AcDbEntity
  8
중심선
100
AcDbLine
 10
5.245725140726316
 20
7.84717430164391
 30
0.0
 11
8.692000384563599
 21
7.84717430164391
 31
0.0
  0
LINE
  5
89
330
82
100
AcDbEntity
  8
중심선
100
AcDbLine
 10
15.74043728645272
 20
16.24717430164393
 30
0.0
 11
8.692000384563599
 21
7.84717430164391
 31
0.0
  0
LINE
  5
8A
330
82
100
AcDbEntity
  8
중심선
100
AcDbLine
 10
0.1404042013395286
 20
13.71084872107135
 30
0.0
 11
3.58671253028996
 21
13.71088815037384
 31
0.0
  0
LINE
  5
8B
330
82
100
AcDbEntity
  8
중심선
100
AcDbLine
 10
2.750260043222114
 20
10.84717430164391
 30
0.0
 11
6.196535287059397
 21
10.84717430164391
 31
0.0
  0
LINE
  5
8C
330
82
100
AcDbEntity
  8
중심선
100
AcDbLine
 10
12.29416204261559
 20
16.24717430164393
 30
0.0
 11
5.245725140726316
 21
7.84717430164391
 31
0.0
  0
LINE
  5
8D
330
82
100
AcDbEntity
  8
중심선
100
AcDbLine
 10
10.72767329541681
 20
16.24717430164393
 30
0.0
 11
6.196535287059397
 21
10.84717430164391
 31
0.0
  0
LINE
  5
8E
330
82
100
AcDbEntity
  8
중심선
100
AcDbLine
 10
7.28139805157953
 20
16.24717430164393
 30
0.0
 11
2.750260043222114
 21
10.84717430164391
 31
0.0
  0
LINE
  5
8F
330
82
100
AcDbEntity
  8
중심선
100
AcDbLine
 10
5.714909304380834
 20
16.24717430164393
 30
0.0
 11
3.58671253028996
 21
13.71088815037384
 31
0.0
  0
LINE
  5
90
330
82
100
AcDbEntity
  8
중심선
100
AcDbLine
 10
2.268634060543552
 20
16.24717430164393
 30
0.0
 11
0.1404042013395286
 21
13.71084872107135
 31
0.0
  0
LINE
  5
91
330
82
100
AcDbEntity
  8
중심선
100
AcDbLine
 10
7.28139805157953
 20
16.24717430164393
 30
0.0
 11
10.72767329541681
 21
16.24717430164393
 31
0.0
  0
LINE
  5
92
330
82
100
AcDbEntity
  8
중심선
100
AcDbLine
 10
12.29416204261559
 20
16.24717430164393
 30
0.0
 11
15.74043728645272
 21
16.24717430164393
 31
0.0
  0
LINE
  5
93
330
82
100
AcDbEntity
  8
중심선
100
AcDbLine
 10
19.22036997980202
 20
11.08717430171403
 30
0.0
 11
23.66174974927406
 21
11.08717430171406
 31
0.0
  0
LINE
  5
94
330
82
100
AcDbEntity
  8
중심선
100
AcDbLine
 10
19.22039502424796
 20
13.00717430171391
 30
0.0
 11
19.22036997980202
 21
11.08717430171403
 31
0.0
  0
LINE
  5
95
330
82
100
AcDbEntity
  8
중심선
100
AcDbLine
 10
19.22039502424796
 20
13.00717430171391
 30
0.0
 11
26.96566020931264
 21
13.00717430171391
 31
0.0
  0
LINE
  5
96
330
82
100
AcDbEntity
  8
중심선
100
AcDbLine
 10
22.22332737316547
 20
13.45928029700563
 30
0.0
 11
24.52862924686651
 21
15.39360700705356
 31
0.0
  0
ATTDEF
  5
98
330
82
100
AcDbEntity
  8
FORMAT
 62
     2
100
AcDbText
 10
-17.58524845355718
 20
2.075366912832191
 30
0.0
 40
4.233333333333333
  1
SEME3614014SE [ 4 FLUTE ]
 41
0.75
  7
SLDTEXTSTYLE0
 11
-17.58524845355718
 21
-0.0412997538344756
 31
0.0
100
AcDbAttributeDefinition
  3

  2
AUTOATTR0
 70
     0
 74
     1
  0
ENDBLK
  5
84
330
82
100
AcDbEntity
  8
0
100
AcDbBlockEnd
  0
BLOCK
  5
D1
330
D0
100
AcDbEntity
  8
0
100
AcDbBlockBegin
  2
_D
 70
     0
 10
0.0
 20
0.0
 30
0.0
  3
_D
  1

  0
LINE
  5
D3
330
D0
100
AcDbEntity
  8
치수문자_일반주서
 62
     0
370
    -2
100
AcDbLine
 10
47.06250000000004
 20
-7.000000000000002
 30
0.0
 11
60.00000000000004
 21
-6.999999999999955
 31
0.0
  0
LINE
  5
D4
330
D0
100
AcDbEntity
  8
치수문자_일반주서
 62
     0
370
    -2
100
AcDbLine
 10
47.06250000000004
 20
6.999999999999998
 30
0.0
 11
59.99999999999999
 21
7.000000000000045
 31
0.0
  0
LINE
  5
D5
330
D0
100
AcDbEntity
  8
치수문자_일반주서
 62
     0
370
    -2
100
AcDbLine
 10
60.00000000000002
 20
-3.697999999999955
 30
0.0
 11
60.0
 21
3.698000000000046
 31
0.0
  0
SOLID
  5
D6
330
D0
100
AcDbEntity
  8
치수문자_일반주서
 62
     0
100
AcDbTrace
 10
59.44966666666669
 20
-3.697999999999957
 30
0.0
 11
60.55033333333336
 21
-3.697999999999953
 31
0.0
 12
60.00000000000004
 22
-6.999999999999955
 32
0.0
 13
60.00000000000004
 23
-6.999999999999955
 33
0.0
  0
SOLID
  5
D7
330
D0
100
AcDbEntity
  8
치수문자_일반주서
 62
     0
100
AcDbTrace
 10
60.55033333333333
 20
3.698000000000047
 30
0.0
 11
59.44966666666667
 21
3.698000000000044
 31
0.0
 12
59.99999999999999
 22
7.000000000000045
 32
0.0
 13
59.99999999999999
 23
7.000000000000045
 33
0.0
  0
MTEXT
  5
D8
330
D0
100
AcDbEntity
  8
치수문자_일반주서
 62
     0
100
AcDbMText
 10
55.62500000000001
 20
-0.0000000000000129
 30
0.0
 40
3.5
 41
0.0
 71
     2
 72
     1
  1
\A1;%%c14
  7
SLDTEXTSTYLE0
 11
-3.552713678800501E-15
 21
1.0
 31
0.0
 73
     1
 44
1.0
  0
POINT
  5
D9
330
D0
100
AcDbEntity
  8
Defpoints
 62
     0
100
AcDbPoint
 10
47.00000000000004
 20
-7.000000000000002
 30
0.0
  0
POINT
  5
DA
330
D0
100
AcDbEntity
  8
Defpoints
 62
     0
100
AcDbPoint
 10
47.00000000000004
 20
6.999999999999998
 30
0.0
  0
POINT
  5
DB
330
D0
100
AcDbEntity
  8
Defpoints
 62
     0
100
AcDbPoint
 10
60.00000000000001
 20
7.000000000000047
 30
0.0
  0
ENDBLK
  5
D2
330
D0
100
AcDbEntity
  8
0
100
AcDbBlockEnd
  0
BLOCK
  5
DF
330
DE
100
AcDbEntity
  8
0
100
AcDbBlockBegin
  2
_D_1
 70
     0
 10
0.0
 20
0.0
 30
0.0
  3
_D_1
  1

  0
LINE
  5
E1
330
DE
100
AcDbEntity
  8
치수문자_일반주서
 62
     0
370
    -2
100
AcDbLine
 10
-53.00000000000001
 20
6.56249999999999
 30
0.0
 11
-53.0
 21
21.32836952549911
 31
0.0
  0
LINE
  5
E2
330
DE
100
AcDbEntity
  8
치수문자_일반주서
 62
     0
370
    -2
100
AcDbLine
 10
47.0
 20
-0.4374999999999992
 30
0.0
 11
47.0
 21
21.32836952549911
 31
0.0
  0
LINE
  5
E3
330
DE
100
AcDbEntity
  8
치수문자_일반주서
 62
     0
370
    -2
100
AcDbLine
 10
-49.698
 20
21.32836952549911
 30
0.0
 11
43.698
 21
21.32836952549911
 31
0.0
  0
SOLID
  5
E4
330
DE
100
AcDbEntity
  8
치수문자_일반주서
 62
     0
100
AcDbTrace
 10
-49.698
 20
21.87870285883244
 30
0.0
 11
-49.698
 21
20.77803619216577
 31
0.0
 12
-53.0
 22
21.32836952549911
 32
0.0
 13
-53.0
 23
21.32836952549911
 33
0.0
  0
SOLID
  5
E5
330
DE
100
AcDbEntity
  8
치수문자_일반주서
 62
     0
100
AcDbTrace
 10
43.698
 20
20.77803619216577
 30
0.0
 11
43.698
 21
21.87870285883244
 31
0.0
 12
47.0
 22
21.32836952549911
 32
0.0
 13
47.0
 23
21.32836952549911
 33
0.0
  0
MTEXT
  5
E6
330
DE
100
AcDbEntity
  8
치수문자_일반주서
 62
     0
100
AcDbMText
 10
-3.000000000000004
 20
25.70336952549911
 30
0.0
 40
3.5
 41
0.0
 71
     2
 72
     1
  1
\A1;100
  7
SLDTEXTSTYLE0
 73
     1
 44
1.0
  0
POINT
  5
133
330
DE
100
AcDbEntity
  8
Defpoints
 62
     0
100
AcDbPoint
 10
-53.00000000000001
 20
6.49999999999999
 30
0.0
  0
POINT
  5
134
330
DE
100
AcDbEntity
  8
Defpoints
 62
     0
100
AcDbPoint
 10
47.0
 20
-0.4999999999999992
 30
0.0
  0
POINT
  5
135
330
DE
100
AcDbEntity
  8
Defpoints
 62
     0
100
AcDbPoint
 10
47.0
 20
21.32836952549911
 30
0.0
  0
ENDBLK
  5
E0
330
DE
100
AcDbEntity
  8
0
100
AcDbBlockEnd
  0
BLOCK
  5
EA
330
E9
100
AcDbEntity
  8
0
100
AcDbBlockBegin
  2
_D_2
 70
     0
 10
0.0
 20
0.0
 30
0.0
  3
_D_2
  1

  0
LINE
  5
EC
330
E9
100
AcDbEntity
  8
치수문자_일반주서
 62
     0
370
    -2
100
AcDbLine
 10
-52.56250000000001
 20
7.000000000000004
 30
0.0
 11
-66.49263956161991
 21
6.999999999999953
 31
0.0
  0
LINE
  5
ED
330
E9
100
AcDbEntity
  8
치수문자_일반주서
 62
     0
370
    -2
100
AcDbLine
 10
-52.56250000000001
 20
-7.000000000000008
 30
0.0
 11
-66.49263956161987
 21
-7.00000000000006
 31
0.0
  0
LINE
  5
EE
330
E9
100
AcDbEntity
  8
치수문자_일반주서
 62
     0
370
    -2
100
AcDbLine
 10
-66.4926395616199
 20
3.697999999999953
 30
0.0
 11
-66.49263956161988
 21
-3.698000000000061
 31
0.0
  0
SOLID
  5
EF
330
E9
100
AcDbEntity
  8
치수문자_일반주서
 62
     0
100
AcDbTrace
 10
-65.94230622828657
 20
3.697999999999955
 30
0.0
 11
-67.04297289495322
 21
3.697999999999952
 31
0.0
 12
-66.49263956161991
 22
6.999999999999953
 32
0.0
 13
-66.49263956161991
 23
6.999999999999953
 33
0.0
  0
SOLID
  5
F0
330
E9
100
AcDbEntity
  8
치수문자_일반주서
 62
     0
100
AcDbTrace
 10
-67.04297289495321
 20
-3.698000000000063
 30
0.0
 11
-65.94230622828655
 21
-3.698000000000059
 31
0.0
 12
-66.49263956161987
 22
-7.00000000000006
 32
0.0
 13
-66.49263956161987
 23
-7.00000000000006
 33
0.0
  0
MTEXT
  5
F1
330
E9
100
AcDbEntity
  8
치수문자_일반주서
 62
     0
100
AcDbMText
 10
-70.86763956161988
 20
-2.542623647210794
 30
0.0
 40
3.5
 41
0.0
 71
     2
 72
     1
  1
\A1;%%c14
  7
SLDTEXTSTYLE0
 11
-3.045183153257570E-15
 21
1.0
 31
0.0
 73
     1
 44
1.0
  0
POINT
  5
F2
330
E9
100
AcDbEntity
  8
Defpoints
 62
     0
100
AcDbPoint
 10
-52.50000000000001
 20
7.000000000000004
 30
0.0
  0
POINT
  5
F3
330
E9
100
AcDbEntity
  8
Defpoints
 62
     0
100
AcDbPoint
 10
-52.50000000000001
 20
-7.000000000000008
 30
0.0
  0
POINT
  5
F4
330
E9
100
AcDbEntity
  8
Defpoints
 62
     0
100
AcDbPoint
 10
-66.49263956161988
 20
-7.00000000000006
 30
0.0
  0
ENDBLK
  5
EB
330
E9
100
AcDbEntity
  8
0
100
AcDbBlockEnd
  0
BLOCK
  5
F7
330
F6
100
AcDbEntity
  8
0
100
AcDbBlockBegin
  2
_D_3
 70
     0
 10
0.0
 20
0.0
 30
0.0
  3
_D_3
  1

  0
LINE
  5
F9
330
F6
100
AcDbEntity
  8
치수문자_일반주서
 62
     0
370
    -2
100
AcDbLine
 10
47.0
 20
7.044620021884475
 30
0.0
 11
47.0
 21
10.26844139523111
 31
0.0
  0
LINE
  5
FA
330
F6
100
AcDbEntity
  8
치수문자_일반주서
 62
     0
370
    -2
100
AcDbLine
 10
11.99999999999999
 20
7.059008282085062
 30
0.0
 11
11.99999999999999
 21
10.26844139523111
 31
0.0
  0
LINE
  5
FB
330
F6
100
AcDbEntity
  8
치수문자_일반주서
 62
     0
370
    -2
100
AcDbLine
 10
43.698
 20
10.26844139523111
 30
0.0
 11
15.30199999999999
 21
10.26844139523111
 31
0.0
  0
SOLID
  5
FC
330
F6
100
AcDbEntity
  8
치수문자_일반주서
 62
     0
100
AcDbTrace
 10
43.698
 20
9.718108061897773
 30
0.0
 11
43.698
 21
10.81877472856444
 31
0.0
 12
47.0
 22
10.26844139523111
 32
0.0
 13
47.0
 23
10.26844139523111
 33
0.0
  0
SOLID
  5
FD
330
F6
100
AcDbEntity
  8
치수문자_일반주서
 62
     0
100
AcDbTrace
 10
15.30199999999999
 20
10.81877472856444
 30
0.0
 11
15.30199999999999
 21
9.718108061897773
 31
0.0
 12
11.99999999999999
 22
10.26844139523111
 32
0.0
 13
11.99999999999999
 23
10.26844139523111
 33
0.0
  0
MTEXT
  5
FE
330
F6
100
AcDbEntity
  8
치수문자_일반주서
 62
     0
100
AcDbMText
 10
29.5
 20
14.64344139523111
 30
0.0
 40
3.5
 41
0.0
 71
     2
 72
     1
  1
\A1;35
  7
SLDTEXTSTYLE0
 73
     1
 44
1.0
  0
POINT
  5
136
330
F6
100
AcDbEntity
  8
Defpoints
 62
     0
100
AcDbPoint
 10
47.0
 20
6.982120021884475
 30
0.0
  0
POINT
  5
137
330
F6
100
AcDbEntity
  8
Defpoints
 62
     0
100
AcDbPoint
 10
11.99999999999999
 20
6.996508282085062
 30
0.0
  0
POINT
  5
138
330
F6
100
AcDbEntity
  8
Defpoints
 62
     0
100
AcDbPoint
 10
11.99999999999999
 20
10.2684413952311
 30
0.0
  0
ENDBLK
  5
F8
330
F6
100
AcDbEntity
  8
0
100
AcDbBlockEnd
  0
BLOCK
  5
100
330
FF
100
AcDbEntity
  8
0
100
AcDbBlockBegin
  2
SW_DOWELSYMBOL_0
 70
     0
 10
0.0
 20
0.0
 30
0.0
  3
SW_DOWELSYMBOL_0
  1

  0
CIRCLE
  5
102
330
FF
100
AcDbEntity
  8
해칭선
 62
     0
100
AcDbCircle
 10
0.0
 20
0.0
 30
0.0
 40
3.000000000000001
  0
HATCH
  5
103
330
FF
100
AcDbEntity
  8
0
  6
Continuous
 62
     0
370
    18
100
AcDbHatch
 10
0.0
 20
0.0
 30
0.0
210
0.0
220
0.0
230
1.0
  2
SOLID
 70
     1
 71
     0
 91
        1
 92
        0
 93
        3
 72
     2
 10
-0.0000000000000087
 20
-0.0000000000000035
 40
3.000000000000001
 50
0.0
 51
90.0
 73
     1
 72
     1
 10
-0.0000000000000087
 20
2.999999999999998
 11
-0.0000000000000087
 21
-0.0000000000000036
 72
     1
 10
-0.0000000000000087
 20
-0.0000000000000035
 11
2.999999999999993
 21
-0.0000000000000035
 97
        0
 75
     0
 76
     1
 98
        1
 10
0.0
 20
0.0
  0
HATCH
  5
104
330
FF
100
AcDbEntity
  8
0
  6
Continuous
 62
     0
370
    18
100
AcDbHatch
 10
0.0
 20
0.0
 30
0.0
210
0.0
220
0.0
230
1.0
  2
SOLID
 70
     1
 71
     0
 91
        1
 92
        0
 93
        3
 72
     2
 10
-0.0000000000000087
 20
-0.0000000000000035
 40
3.000000000000001
 50
180.0
 51
270.0000000000008
 73
     1
 72
     1
 10
-0.0000000000000087
 20
-3.000000000000005
 11
-0.0000000000000087
 21
-0.0000000000000036
 72
     1
 10
-0.0000000000000087
 20
-0.0000000000000035
 11
-3.00000000000001
 21
-0.0000000000000035
 97
        0
 75
     0
 76
     1
 98
        1
 10
0.0
 20
0.0
  0
ENDBLK
  5
101
330
FF
100
AcDbEntity
  8
0
100
AcDbBlockEnd
  0
ENDSEC
  0
SECTION
  2
ENTITIES
  0
LINE
  5
99
330
1F
100
AcDbEntity
  8
0
  6
Continuous
 62
     4
370
    25
100
AcDbLine
 10
11.61750478630426
 20
6.999999999999999
 30
0.0
 11
-52.50000000000001
 21
6.999999999999996
 31
0.0
  0
LINE
  5
9A
330
1F
100
AcDbEntity
  8
0
  6
Continuous
 62
     4
370
    25
100
AcDbLine
 10
-52.50000000000001
 20
-7.000000000000004
 30
0.0
 11
11.61750478630419
 21
-7.000000000000001
 31
0.0
  0
LINE
  5
9B
330
1F
100
AcDbEntity
  8
0
  6
Continuous
 62
     4
370
    25
100
AcDbLine
 10
-52.50000000000001
 20
6.999999999999992
 30
0.0
 11
-53.00000000000001
 21
6.499999999999992
 31
0.0
  0
LINE
  5
9C
330
1F
100
AcDbEntity
  8
0
  6
Continuous
 62
     4
370
    25
100
AcDbLine
 10
-53.00000000000001
 20
-6.500000000000001
 30
0.0
 11
-52.50000000000001
 21
-7.000000000000003
 31
0.0
  0
LINE
  5
9D
330
1F
100
AcDbEntity
  8
0
  6
Continuous
 62
     1
370
    25
100
AcDbLine
 10
44.2926744073565
 20
-7.000000000000004
 30
0.0
 11
47.0
 21
-7.000000000000004
 31
0.0
1001
PE_URL
1000

  0
LINE
  5
9E
330
1F
100
AcDbEntity
  8
0
  6
Continuous
 62
     1
370
    25
100
AcDbLine
 10
30.66256786056669
 20
7.000000000000001
 30
0.0
 11
25.24607755512859
 21
7.000000000000001
 31
0.0
1001
PE_URL
1000

  0
LINE
  5
9F
330
1F
100
AcDbEntity
  8
0
  6
Continuous
 62
     1
370
    25
100
AcDbLine
 10
25.24607755512854
 20
-7.000000000000004
 30
0.0
 11
30.66256786056669
 21
-7.000000000000004
 31
0.0
1001
PE_URL
1000

  0
LINE
  5
A0
330
1F
100
AcDbEntity
  8
0
  6
Continuous
 62
     1
370
    25
100
AcDbLine
 10
47.0
 20
7.000000000000001
 30
0.0
 11
44.2926744073565
 21
7.000000000000001
 31
0.0
1001
PE_URL
1000

  0
SPLINE
  5
A1
330
1F
100
AcDbEntity
  8
0
  6
Continuous
 62
     4
370
    25
100
AcDbSpline
210
0.0
220
0.0
230
1.0
 70
    24
 71
     3
 72
    14
 73
    10
 74
     0
 42
0.000000001
 43
0.00000001
 40
0.0
 40
0.0
 40
0.0
 40
0.0
 40
0.25
 40
0.25
 40
0.5
 40
0.5
 40
0.75
 40
0.75
 40
1.0
 40
1.0
 40
1.0
 40
1.0
 10
11.99999999999999
 20
6.139098615708443
 30
0.0
 10
11.99999999999999
 20
5.851324470164284
 30
0.0
 10
11.99999999999999
 20
5.556463528228844
 30
0.0
 10
11.99999999999999
 20
4.952475755499664
 30
0.0
 10
11.99999999999999
 20
4.640286917498484
 30
0.0
 10
11.99999999999999
 20
4.025862299006373
 30
0.0
 10
11.99999999999999
 20
3.721466357392366
 30
0.0
 10
11.99999999999999
 20
3.118632606034516
 30
0.0
 10
11.99999999999999
 20
2.821432642941836
 30
0.0
 10
11.99999999999999
 20
2.539055458564845
 30
0.0
  0
SPLINE
  5
A2
330
1F
100
AcDbEntity
  8
0
  6
Continuous
 62
     4
370
    25
100
AcDbSpline
210
0.0
220
0.0
230
1.0
 70
     8
 71
     3
 72
    14
 73
    10
 74
     0
 42
0.000000001
 43
0.00000001
 40
0.0
 40
0.0
 40
0.0
 40
0.0
 40
0.25
 40
0.25
 40
0.5
 40
0.5
 40
0.75
 40
0.75
 40
1.0
 40
1.0
 40
1.0
 40
1.0
 10
11.20461812274886
 20
0.2389548230186632
 30
0.0
 10
11.09429332180044
 20
0.3027248136019376
 30
0.0
 10
10.99516758283784
 20
0.379931927413682
 30
0.0
 10
10.81865439027224
 20
0.5602808328021288
 30
0.0
 10
10.74261727576609
 20
0.662872002011025
 30
0.0
 10
10.62142462611607
 20
0.8819244020740767
 30
0.0
 10
10.57504684274339
 20
1.000969516018992
 30
0.0
 10
10.51486898196789
 20
1.242095820653795
 30
0.0
 10
10.50012555774956
 20
1.36647474650326
 30
0.0
 10
10.50012555774956
 20
1.490865771082968
 30
0.0
  0
SPLINE
  5
A3
330
1F
100
AcDbEntity
  8
0
  6
Continuous
 62
     4
370
    25
100
AcDbSpline
210
0.0
220
0.0
230
1.0
 70
     8
 71
     3
 72
    20
 73
    16
 74
     0
 42
0.000000001
 43
0.00000001
 40
0.0
 40
0.0
 40
0.0
 40
0.0
 40
0.1249999999999999
 40
0.1249999999999999
 40
0.2499999999999998
 40
0.2499999999999998
 40
0.3749999999999998
 40
0.3749999999999998
 40
0.5
 40
0.5
 40
0.7500000000000001
 40
0.7500000000000001
 40
0.8750000000000001
 40
0.8750000000000001
 40
1.0
 40
1.0
 40
1.0
 40
1.0
 10
10.50012555774956
 20
5.318518152358027
 30
0.0
 10
10.50012555774956
 20
5.382545290418483
 30
0.0
 10
10.50881570345305
 20
5.444044136349881
 30
0.0
 10
10.54440649353837
 20
5.562184054886817
 30
0.0
 10
10.57177111020318
 20
5.619444116238101
 30
0.0
 10
10.64462457920461
 20
5.725690463514947
 30
0.0
 10
10.68972141316104
 20
5.77460243124759
 30
0.0
 10
10.79766426302548
 20
5.864744405055196
 30
0.0
 10
10.86113801702412
 20
5.906100028638618
 30
0.0
 10
11.07008375319267
 20
6.013841676188535
 30
0.0
 10
11.23990723527542
 20
6.067010697643814
 30
0.0
 10
11.51401232280468
 20
6.116187910681044
 30
0.0
 10
11.61028245670217
 20
6.12781908464386
 30
0.0
 10
11.8040262492364
 20
6.140891913833631
 30
0.0
 10
11.90163544716583
 20
6.142500263345786
 30
0.0
 10
11.99999999999999
 20
6.139098615708441
 30
0.0
  0
SPLINE
  5
A4
330
1F
100
AcDbEntity
  8
0
  6
Continuous
 62
     4
370
    25
100
AcDbSpline
210
0.0
220
0.0
230
1.0
 70
     8
 71
     3
 72
     8
 73
     4
 74
     0
 42
0.000000001
 43
0.00000001
 40
0.0
 40
0.0
 40
0.0
 40
0.0
 40
1.0
 40
1.0
 40
1.0
 40
1.0
 10
12.0
 20
-0.2210698050731129
 30
0.0
 10
11.73406961845279
 20
-0.0676225242583676
 30
0.0
 10
11.46982561614408
 20
0.0856594695619804
 30
0.0
 10
11.20461812274886
 20
0.2389548230186634
 30
0.0
  0
SPLINE
  5
A5
330
1F
100
AcDbEntity
  8
0
  6
Continuous
 62
     4
370
    25
100
AcDbSpline
210
0.0
220
0.0
230
1.0
 70
     8
 71
     3
 72
    14
 73
    10
 74
     0
 42
0.000000001
 43
0.00000001
 40
0.0
 40
0.0
 40
0.0
 40
0.0
 40
0.2499999999999999
 40
0.2499999999999999
 40
0.4999999999999999
 40
0.4999999999999999
 40
0.7499999999999999
 40
0.7499999999999999
 40
1.0
 40
1.0
 40
1.0
 40
1.0
 10
11.20461812274886
 20
-6.995920282032682
 30
0.0
 10
11.09429332180044
 20
-6.993742134455319
 30
0.0
 10
10.99516758283784
 20
-6.990266089572702
 30
0.0
 10
10.81865439027224
 20
-6.978126801720713
 30
0.0
 10
10.74261727576609
 20
-6.969414936327809
 30
0.0
 10
10.62142462611607
 20
-6.945095621716489
 30
0.0
 10
10.57504684274339
 20
-6.929139806607823
 30
0.0
 10
10.51486898196789
 20
-6.890001190408519
 30
0.0
 10
10.50012555774956
 20
-6.866509675115739
 30
0.0
 10
10.50012555774956
 20
-6.839394655421883
 30
0.0
  0
SPLINE
  5
A6
330
1F
100
AcDbEntity
  8
0
  6
Continuous
 62
     4
370
    25
100
AcDbSpline
210
0.0
220
0.0
230
1.0
 70
     8
 71
     3
 72
     8
 73
     4
 74
     0
 42
0.000000001
 43
0.00000001
 40
0.0
 40
0.0
 40
0.0
 40
0.0
 40
1.0
 40
1.0
 40
1.0
 40
1.0
 10
12.0
 20
-6.996508282085071
 30
0.0
 10
11.73406961845279
 20
-7.001356780663367
 30
0.0
 10
11.46982561614408
 20
-7.001156285671674
 30
0.0
 10
11.20461812274886
 20
-6.995920282032683
 30
0.0
  0
LINE
  5
A7
330
1F
100
AcDbEntity
  8
0
  6
Continuous
 62
     4
370
    25
100
AcDbLine
 10
12.0
 20
6.996508282085069
 30
0.0
 11
11.61750478630426
 21
6.999421349461914
 31
0.0
  0
LINE
  5
A8
330
1F
100
AcDbEntity
  8
0
  6
Continuous
 62
     4
370
    25
100
AcDbLine
 10
11.99999999999999
 20
6.996508282085069
 30
0.0
 11
11.99999999999999
 21
6.139098615708443
 31
0.0
  0
LINE
  5
A9
330
1F
100
AcDbEntity
  8
0
  6
Continuous
 62
     4
370
    25
100
AcDbLine
 10
10.50012555774956
 20
5.318518152358028
 30
0.0
 11
10.50012555774956
 21
1.490865771082968
 31
0.0
  0
LINE
  5
AA
330
1F
100
AcDbEntity
  8
0
  6
Continuous
 62
     4
370
    25
100
AcDbLine
 10
11.99999999999999
 20
-0.2210698050731104
 30
0.0
 11
11.99999999999999
 21
-3.363252620099642
 31
0.0
  0
SPLINE
  5
AB
330
1F
100
AcDbEntity
  8
0
  6
Continuous
 62
     4
370
    25
100
AcDbSpline
210
0.0
220
0.0
230
1.0
 70
     8
 71
     3
 72
    20
 73
    16
 74
     0
 42
0.000000001
 43
0.00000001
 40
0.0
 40
0.0
 40
0.0
 40
0.0
 40
0.1250000000000001
 40
0.1250000000000001
 40
0.2500000000000001
 40
0.2500000000000001
 40
0.3750000000000002
 40
0.3750000000000002
 40
0.5000000000000002
 40
0.5000000000000002
 40
0.7500000000000002
 40
0.7500000000000002
 40
0.8750000000000001
 40
0.8750000000000001
 40
1.0
 40
1.0
 40
1.0
 40
1.0
 10
10.50012555774956
 20
-4.55119376241428
 30
0.0
 10
10.50012555774956
 20
-4.476371745643582
 30
0.0
 10
10.50881570345305
 20
-4.401308752575165
 30
0.0
 10
10.54440649353837
 20
-4.251028561840433
 30
0.0
 10
10.57177111020318
 20
-4.17493330623815
 30
0.0
 10
10.64462457920461
 20
-4.027988207911433
 30
0.0
 10
10.68972141316105
 20
-3.957340650172827
 30
0.0
 10
10.79766426302549
 20
-3.822479734917463
 30
0.0
 10
10.86113801702412
 20
-3.758004545847953
 30
0.0
 10
11.07008375319267
 20
-3.584992489996651
 30
0.0
 10
11.23990723527542
 20
-3.492255341359071
 30
0.0
 10
11.51401232280469
 20
-3.404902639560079
 30
0.0
 10
11.61028245670217
 20
-3.383787433761308
 30
0.0
 10
11.8040262492364
 20
-3.360004558571191
 30
0.0
 10
11.90163544716583
 20
-3.357043437305363
 30
0.0
 10
11.99999999999999
 20
-3.363252620099642
 30
0.0
  0
LINE
  5
AC
330
1F
100
AcDbEntity
  8
0
  6
Continuous
 62
     4
370
    25
100
AcDbLine
 10
10.50012555774956
 20
-4.551193762414282
 30
0.0
 11
10.50012555774956
 21
-6.839394655421884
 31
0.0
  0
LINE
  5
AD
330
1F
100
AcDbEntity
  8
0
  6
Continuous
 62
     4
370
    25
100
AcDbLine
 10
-52.50000000000001
 20
6.999999999999992
 30
0.0
 11
-52.50000000000001
 21
-7.00000000000001
 31
0.0
  0
LINE
  5
AE
330
1F
100
AcDbEntity
  8
0
  6
Continuous
 62
     4
370
    25
100
AcDbLine
 10
-53.00000000000001
 20
6.49999999999999
 30
0.0
 11
-53.00000000000001
 21
-6.499999999999999
 31
0.0
  0
SPLINE
  5
AF
330
1F
100
AcDbEntity
  8
0
  6
Continuous
 62
     1
370
    25
100
AcDbSpline
210
0.0
220
0.0
230
1.0
 70
     8
 71
     3
 72
    23
 73
    19
 74
     0
 42
0.000000001
 43
0.00000001
 40
0.0
 40
0.0
 40
0.0
 40
0.0
 40
0.0663814968815869
 40
0.1327896530161592
 40
0.1991633933284543
 40
0.2655109236778009
 40
0.3318486390127355
 40
0.3970076039841449
 40
0.4621961725939369
 40
0.5274233224575612
 40
0.5926164162666951
 40
0.6591096641918919
 40
0.7255927811389117
 40
0.7920816348185475
 40
0.8585920646977094
 40
0.9251390831733397
 40
0.9916765371441006
 40
1.0
 40
1.0
 40
1.0
 40
1.0
 10
11.99999999999999
 20
6.214633091140022
 30
0.0
 10
12.71455321492016
 20
6.006042897501498
 30
0.0
 10
14.14394661410922
 20
5.588778739008019
 30
0.0
 10
16.28816382777225
 20
4.737228115817041
 30
0.0
 10
18.43163010340964
 20
3.751655066151887
 30
0.0
 10
20.57419409730294
 20
2.645579578153452
 30
0.0
 10
22.70362911545515
 20
1.465205226246524
 30
0.0
 10
24.82057023942684
 20
0.2470447962533718
 30
0.0
 10
26.92574280548765
 20
-0.9712992126100253
 30
0.0
 10
29.03171154688232
 20
-2.159943122633185
 30
0.0
 10
31.15131660875319
 20
-3.291824160318362
 30
0.0
 10
33.28432206714484
 20
-4.329990274321065
 30
0.0
 10
35.43119473813091
 20
-5.239945045488986
 30
0.0
 10
37.57829948522575
 20
-5.984386864568517
 30
0.0
 10
39.72620576913388
 20
-6.547428273187713
 30
0.0
 10
41.87496960044067
 20
-6.883696308867195
 30
0.0
 10
43.39728918129875
 20
-7.026791885747981
 30
0.0
 10
44.20308179755099
 20
-6.991878133392184
 30
0.0
 10
44.2926744073565
 20
-6.9879962236693
 30
0.0
  0
LINE
  5
B0
330
1F
100
AcDbEntity
  8
0
  6
Continuous
 62
     4
370
    25
100
AcDbLine
 10
11.99999999999999
 20
6.214633091140075
 30
0.0
 11
11.99999999999999
 21
6.996508282085062
 31
0.0
  0
SPLINE
  5
B1
330
1F
100
AcDbEntity
  8
0
  6
Continuous
 62
     1
370
    25
100
AcDbSpline
210
0.0
220
0.0
230
1.0
 70
     8
 71
     3
 72
    58
 73
    54
 74
     0
 42
0.000000001
 43
0.00000001
 40
0.0
 40
0.0
 40
0.0
 40
0.0
 40
0.0625000000000007
 40
0.0625000000000007
 40
0.093750000000001
 40
0.093750000000001
 40
0.1250000000000013
 40
0.1250000000000013
 40
0.1562500000000012
 40
0.1562500000000012
 40
0.1875000000000011
 40
0.1875000000000011
 40
0.2500000000000011
 40
0.2500000000000011
 40
0.2812500000000012
 40
0.2812500000000012
 40
0.3125000000000012
 40
0.3125000000000012
 40
0.3437500000000013
 40
0.3437500000000013
 40
0.3750000000000013
 40
0.3750000000000013
 40
0.4375000000000014
 40
0.4375000000000014
 40
0.5000000000000014
 40
0.5000000000000014
 40
0.5312500000000013
 40
0.5312500000000013
 40
0.5625000000000012
 40
0.5625000000000012
 40
0.5937500000000011
 40
0.5937500000000011
 40
0.625000000000001
 40
0.625000000000001
 40
0.6875000000000009
 40
0.6875000000000009
 40
0.7187500000000008
 40
0.7187500000000008
 40
0.7500000000000007
 40
0.7500000000000007
 40
0.7812500000000006
 40
0.7812500000000006
 40
0.8125000000000004
 40
0.8125000000000004
 40
0.8437500000000004
 40
0.8437500000000004
 40
0.8750000000000004
 40
0.8750000000000004
 40
0.9375000000000003
 40
0.9375000000000003
 40
0.9687500000000002
 40
0.9687500000000002
 40
1.0
 40
1.0
 40
1.0
 40
1.0
 10
47.0
 20
-6.826159888485148
 30
0.0
 10
46.27485555240553
 20
-6.733095561581757
 30
0.0
 10
45.53938302536079
 20
-6.602396693329229
 30
0.0
 10
44.4473812490058
 20
-6.35443166599696
 30
0.0
 10
44.08512474019162
 20
-6.263205352845166
 30
0.0
 10
43.35502381686129
 20
-6.063545150744516
 30
0.0
 10
42.98889567349961
 20
-5.955233759638848
 30
0.0
 10
42.2589498033148
 20
-5.722972964108737
 30
0.0
 10
41.89684158392441
 20
-5.599239775051674
 30
0.0
 10
41.16858630377503
 20
-5.336503486667584
 30
0.0
 10
40.80266555250648
 20
-5.197495202964041
 30
0.0
 10
39.70621005002909
 20
-4.760012247649675
 30
0.0
 10
38.98177972270715
 20
-4.441812748716955
 30
0.0
 10
37.88517432713666
 20
-3.929578727252705
 30
0.0
 10
37.51935937067287
 20
-3.753209190690606
 30
0.0
 10
36.79162292078312
 20
-3.391417303512335
 30
0.0
 10
36.42918611218131
 20
-3.205927826956933
 30
0.0
 10
35.6989408770938
 20
-2.825841955955179
 30
0.0
 10
35.33281815739407
 20
-2.631523414838324
 30
0.0
 10
34.60303807412822
 20
-2.236709963659248
 30
0.0
 10
34.24104612654247
 20
-2.036530987651372
 30
0.0
 10
33.14829803875985
 20
-1.427300895889499
 30
0.0
 10
32.41430422833284
 20
-1.01013674724757
 30
0.0
 10
30.96262807483455
 20
-0.1724750871096422
 30
0.0
 10
30.22707561411832
 20
0.2514285632482902
 30
0.0
 10
29.13588397902327
 20
0.87949916513049
 30
0.0
 10
28.77323486909056
 20
1.087743524135076
 30
0.0
 10
28.04285607072348
 20
1.501683165695326
 30
0.0
 10
27.67674419807926
 20
1.707065041053776
 30
0.0
 10
26.94714062736591
 20
2.112152510538823
 30
0.0
 10
26.58523292827647
 20
2.311576360243599
 30
0.0
 10
25.8565014208458
 20
2.704523442754696
 30
0.0
 10
25.49049652812313
 20
2.897883928882265
 30
0.0
 10
24.39425562268434
 20
3.465057018780541
 30
0.0
 10
23.66971817307296
 20
3.825334404839792
 30
0.0
 10
22.57302761784944
 20
4.333375075835512
 30
0.0
 10
22.20734008862247
 20
4.49707110713654
 30
0.0
 10
21.48016497039649
 20
4.811231896577773
 30
0.0
 10
21.11727156797465
 20
4.961919746241973
 30
0.0
 10
20.3867699613683
 20
5.250065974996896
 30
0.0
 10
20.02067435863655
 20
5.387301993444515
 30
0.0
 10
19.29125801744515
 20
5.646447477647739
 30
0.0
 10
18.92940253942119
 20
5.768218319613924
 30
0.0
 10
18.20044892395043
 20
5.996395931944063
 30
0.0
 10
17.8344100858752
 20
6.102654724972694
 30
0.0
 10
17.10367051545092
 20
6.298176454860105
 30
0.0
 10
16.74010698758618
 20
6.387356115532282
 30
0.0
 10
15.65037262448688
 20
6.628577981416067
 30
0.0
 10
14.91478426313941
 20
6.754768926753076
 30
0.0
 10
13.82446644060147
 20
6.887508484710398
 30
0.0
 10
13.46129676648075
 20
6.922489665119456
 30
0.0
 10
12.73068311271096
 20
6.973695196786939
 30
0.0
 10
12.36460920194374
 20
6.989860650522964
 30
0.0
 10
12.00000000000009
 20
6.99650828208341
 30
0.0
  0
LINE
  5
B2
330
1F
100
AcDbEntity
  8
0
  6
Continuous
 62
     1
370
    25
100
AcDbLine
 10
47.0
 20
-7.000000000000008
 30
0.0
 11
47.0
 21
-6.82615988848683
 31
0.0
1001
PE_URL
1000

  0
SPLINE
  5
B3
330
1F
100
AcDbEntity
  8
0
  6
Continuous
 62
     1
370
    25
100
AcDbSpline
210
0.0
220
0.0
230
1.0
 70
     8
 71
     3
 72
    19
 73
    15
 74
     0
 42
0.000000001
 43
0.00000001
 40
0.0
 40
0.0
 40
0.0
 40
0.0
 40
0.0559466732268323
 40
0.1406558993862892
 40
0.225406140816229
 40
0.3101694578075105
 40
0.3948878641964344
 40
0.4813103899853322
 40
0.5677246095782058
 40
0.654143638976122
 40
0.740580576333245
 40
0.8270484534347617
 40
0.9135411299664588
 40
1.0
 40
1.0
 40
1.0
 40
1.0
 10
37.44920243805006
 20
-5.909523596573774
 30
0.0
 10
36.97463689001223
 20
-6.05598957962954
 30
0.0
 10
35.78152852222113
 20
-6.424220671631722
 30
0.0
 10
33.86950038621962
 20
-6.787673712027495
 30
0.0
 10
31.71276026049135
 20
-7.011913830140264
 30
0.0
 10
29.55581898135868
 20
-7.007389446116425
 30
0.0
 10
27.38505904786809
 20
-6.782373212980782
 30
0.0
 10
25.20032105400088
 20
-6.336231300720159
 30
0.0
 10
23.00122176742646
 20
-5.679269766265319
 30
0.0
 10
20.80196990170825
 20
-4.835802439045334
 30
0.0
 10
18.60217278128396
 20
-3.833543006844443
 30
0.0
 10
16.40159453061407
 20
-2.70517698408043
 30
0.0
 10
14.20060167954038
 20
-1.488781820181677
 30
0.0
 10
12.7334382986681
 20
-0.6435854071497691
 30
0.0
 10
12.0000000000001
 20
-0.2210698050728787
 30
0.0
  0
SPLINE
  5
B4
330
1F
100
AcDbEntity
  8
0
  6
Continuous
 62
     1
370
    25
100
AcDbSpline
210
0.0
220
0.0
230
1.0
 70
     8
 71
     3
 72
    21
 73
    17
 74
     0
 42
0.000000001
 43
0.00000001
 40
0.0
 40
0.0
 40
0.0
 40
0.0
 40
0.000360233172588
 40
0.0775689830139775
 40
0.1547663111040456
 40
0.2305919251082441
 40
0.3064519889238863
 40
0.3823569498194953
 40
0.4582222796183945
 40
0.5356006012856237
 40
0.6129671335138853
 40
0.6903403415890266
 40
0.7677386579294336
 40
0.8451795524905656
 40
0.9226093168188175
 40
1.0
 40
1.0
 40
1.0
 40
1.0
 10
18.42189160738024
 20
5.919080911655876
 30
0.0
 10
18.4252238098215
 20
5.920245054121328
 30
0.0
 10
19.14274672063138
 20
6.170919767057238
 30
0.0
 10
20.57417686068414
 20
6.506576947156447
 30
0.0
 10
22.70363364228501
 20
6.885219455781763
 30
0.0
 10
24.82056903536803
 20
7.029964476287042
 30
0.0
 10
26.92574312732867
 20
6.968132055956375
 30
0.0
 10
29.03171146465311
 20
6.69540456013524
 30
0.0
 10
31.15131661653524
 20
6.218463372519706
 30
0.0
 10
33.28432212137889
 20
5.546683345604539
 30
0.0
 10
35.43119451375059
 20
4.696888991032426
 30
0.0
 10
37.57830032872197
 20
3.700125301437983
 30
0.0
 10
39.72620261772002
 20
2.587191560210902
 30
0.0
 10
41.87498136846005
 20
1.394212874694324
 30
0.0
 10
44.02358335312926
 20
0.155037736897776
 30
0.0
 10
45.45559653230839
 20
-0.6685075796920736
 30
0.0
 10
46.17142238118002
 20
-1.080176294689605
 30
0.0
  0
SPLINE
  5
B5
330
1F
100
AcDbEntity
  8
0
  6
Continuous
 62
     1
370
    25
100
AcDbSpline
210
0.0
220
0.0
230
1.0
 70
     8
 71
     3
 72
    10
 73
     6
 74
     0
 42
0.000000001
 43
0.00000001
 40
0.0
 40
0.0
 40
0.0
 40
0.0
 40
0.5
 40
0.5
 40
1.0
 40
1.0
 40
1.0
 40
1.0
 10
47.0
 20
-5.171500304077868
 30
0.0
 10
46.41875193251537
 20
-4.844748980112358
 30
0.0
 10
45.85423925776821
 20
-4.48020773412656
 30
0.0
 10
44.75129461025517
 20
-3.692232827165307
 30
0.0
 10
44.21287839851838
 20
-3.268763576462859
 30
0.0
 10
43.68519967534952
 20
-2.821048174980276
 30
0.0
1001
PE_URL
1000

  0
LINE
  5
B6
330
1F
100
AcDbEntity
  8
0
  6
Continuous
 62
     1
370
    25
100
AcDbLine
 10
47.0
 20
-6.82615988848683
 30
0.0
 11
47.0
 21
-5.171500304077866
 31
0.0
1001
PE_URL
1000

  0
SPLINE
  5
B7
330
1F
100
AcDbEntity
  8
0
  6
Continuous
 62
     1
370
    25
100
AcDbSpline
210
0.0
220
0.0
230
1.0
 70
    24
 71
     3
 72
    16
 73
    12
 74
     0
 42
0.000000001
 43
0.00000001
 40
0.0
 40
0.0
 40
0.0
 40
0.0
 40
0.1409185302649901
 40
0.2965397642014349
 40
0.4002907760916254
 40
0.5039730675131473
 40
0.607993721050926
 40
0.7120326655936655
 40
0.811478909400761
 40
0.9109831850587682
 40
0.9999999999999999
 40
0.9999999999999999
 40
0.9999999999999999
 40
0.9999999999999999
 10
46.16679533351444
 20
-1.083416188344718
 30
0.0
 10
46.1595429681726
 20
-1.088494349226925
 30
0.0
 10
46.14428156355586
 20
-1.099180499783241
 30
0.0
 10
45.99496344964196
 20
-1.203734168737015
 30
0.0
 10
45.77405667674056
 20
-1.358414756364134
 30
0.0
 10
45.52130666067393
 20
-1.535392222896625
 30
0.0
 10
45.20755482685279
 20
-1.755083622065297
 30
0.0
 10
44.85033739598556
 20
-2.005209959938442
 30
0.0
 10
44.46225299926238
 20
-2.276949579985569
 30
0.0
 10
44.07263827016094
 20
-2.549760750299956
 30
0.0
 10
43.80946576299709
 20
-2.734036123665613
 30
0.0
 10
43.68519967534951
 20
-2.821048174980276
 30
0.0
1001
PE_URL
1000

  0
SPLINE
  5
B8
330
1F
100
AcDbEntity
  8
0
  6
Continuous
 62
     1
370
    25
100
AcDbSpline
210
0.0
220
0.0
230
1.0
 70
     8
 71
     3
 72
    15
 73
    11
 74
     0
 42
0.000000001
 43
0.00000001
 40
0.0
 40
0.0
 40
0.0
 40
0.0
 40
0.1344218853754457
 40
0.2687867272156812
 40
0.4031156417570255
 40
0.5374298820424156
 40
0.6717507570862135
 40
0.8037031422412324
 40
0.9357194172818445
 40
1.0
 40
1.0
 40
1.0
 40
1.0
 10
47.0
 20
1.550335827107542
 30
0.0
 10
46.26788398487106
 20
1.957443087459426
 30
0.0
 10
44.80396263680282
 20
2.77148484732685
 30
0.0
 10
42.60868631546101
 20
3.888522338303093
 30
0.0
 10
40.41409403562209
 20
4.882165358240202
 30
0.0
 10
38.21979951750652
 20
5.714354630270023
 30
0.0
 10
36.0384030742801
 20
6.35943429255164
 30
0.0
 10
33.86950518430388
 20
6.785069737113928
 30
0.0
 10
32.08176437356759
 20
6.994916665100499
 30
0.0
 10
31.01266255287891
 20
6.977923355399583
 30
0.0
 10
30.66256786056669
 20
6.972358621137624
 30
0.0
1001
PE_URL
1000

  0
LINE
  5
B9
330
1F
100
AcDbEntity
  8
0
  6
Continuous
 62
     1
370
    25
100
AcDbLine
 10
47.0
 20
-0.5000000000000235
 30
0.0
 11
47.0
 21
1.550335827107678
 31
0.0
1001
PE_URL
1000

  0
LINE
  5
BA
330
1F
100
AcDbEntity
  8
0
  6
Continuous
 62
     1
370
    25
100
AcDbLine
 10
47.0
 20
-0.5000000000000241
 30
0.0
 11
46.17142238118003
 21
-1.080176294689617
 31
0.0
1001
PE_URL
1000

  0
SPLINE
  5
BB
330
1F
100
AcDbEntity
  8
0
  6
Continuous
 62
     1
370
    25
100
AcDbSpline
210
0.0
220
0.0
230
1.0
 70
     8
 71
     3
 72
    14
 73
    10
 74
     0
 42
0.000000001
 43
0.00000001
 40
0.0
 40
0.0
 40
0.0
 40
0.0
 40
0.1618298770125674
 40
0.3237247459857648
 40
0.4855357134420024
 40
0.6472827842511362
 40
0.809005927269398
 40
0.9678554227304484
 40
0.9999999999999999
 40
0.9999999999999999
 40
0.9999999999999999
 40
0.9999999999999999
 10
11.99999999999999
 20
-3.221542416686069
 30
0.0
 10
12.714553239683
 20
-3.578032184638875
 30
0.0
 10
14.14394668840771
 20
-4.291154889218848
 30
0.0
 10
16.28816353050328
 20
-5.199936349944079
 30
0.0
 10
18.43163121732253
 20
-5.952869513151037
 30
0.0
 10
20.57418994071535
 20
-6.523247001144653
 30
0.0
 10
22.70364450961851
 20
-6.870028951744425
 30
0.0
 10
24.26081896497511
 20
-7.019697098928827
 30
0.0
 10
25.10414463189155
 20
-6.98828677916077
 30
0.0
 10
25.24607755512854
 20
-6.983000377146248
 30
0.0
  0
SPLINE
  5
BC
330
1F
100
AcDbEntity
  8
0
  6
Continuous
 62
     1
370
    25
100
AcDbSpline
210
0.0
220
0.0
230
1.0
 70
     8
 71
     3
 72
    12
 73
     8
 74
     0
 42
0.000000001
 43
0.00000001
 40
0.0
 40
0.0
 40
0.0
 40
0.0
 40
0.0147780543735157
 40
0.2610307312782566
 40
0.5074188762568155
 40
0.753771608970988
 40
1.0
 40
1.0
 40
1.0
 40
1.0
 10
37.44920243805006
 20
5.909523596573774
 30
0.0
 10
37.49216364248174
 20
5.924458682553622
 30
0.0
 10
38.25100471356983
 20
6.188263126392264
 30
0.0
 10
39.72620871362256
 20
6.53207545170406
 30
0.0
 10
41.87497974274218
 20
6.897988469064782
 30
0.0
 10
44.0235837592951
 20
7.043870139574887
 30
0.0
 10
45.45559666767422
 20
6.958720473256415
 30
0.0
 10
46.17142238118004
 20
6.916156387213229
 30
0.0
1001
PE_URL
1000

  0
SPLINE
  5
BD
330
1F
100
AcDbEntity
  8
0
  6
Continuous
 62
     1
370
    25
100
AcDbSpline
210
0.0
220
0.0
230
1.0
 70
     8
 71
     3
 72
    20
 73
    16
 74
     0
 42
0.000000001
 43
0.00000001
 40
0.0
 40
0.0
 40
0.0
 40
0.0
 40
0.25
 40
0.25
 40
0.375
 40
0.375
 40
0.5
 40
0.5
 40
0.625
 40
0.625
 40
0.75
 40
0.75
 40
0.875
 40
0.875
 40
1.0
 40
1.0
 40
1.0
 40
1.0
 10
46.17142238118004
 20
6.916156387213237
 30
0.0
 10
46.17541616014828
 20
6.47791408114764
 30
0.0
 10
46.13476373443663
 20
6.048876774370245
 30
0.0
 10
45.9842638866228
 20
5.423777985945897
 30
0.0
 10
45.91796223141554
 20
5.217055618836853
 30
0.0
 10
45.75549162355836
 20
4.829499225385047
 30
0.0
 10
45.65910589508373
 20
4.646608771318799
 30
0.0
 10
45.43269586377504
 20
4.305001980548563
 30
0.0
 10
45.30515649783021
 20
4.150564906622087
 30
0.0
 10
45.02730392036327
 20
3.879607694045397
 30
0.0
 10
44.87443426251259
 20
3.760964557577484
 30
0.0
 10
44.55360061272494
 20
3.565588174131646
 30
0.0
 10
44.38671460963299
 20
3.488825159167522
 30
0.0
 10
44.04123315451078
 20
3.373174463829235
 30
0.0
 10
43.86293065014333
 20
3.334792535070936
 30
0.0
 10
43.68519967534954
 20
3.314800324650461
 30
0.0
1001
PE_URL
1000

  0
SPLINE
  5
BE
330
1F
100
AcDbEntity
  8
0
  6
Continuous
 62
     1
370
    25
100
AcDbSpline
210
0.0
220
0.0
230
1.0
 70
     8
 71
     3
 72
    10
 73
     6
 74
     0
 42
0.000000001
 43
0.00000001
 40
0.0
 40
0.0
 40
0.0
 40
0.0
 40
0.2601528970032636
 40
0.5212370264193069
 40
1.0
 40
1.0
 40
1.0
 40
1.0
 10
47.0
 20
1.700287060049834
 30
0.0
 10
46.71598393185563
 20
1.851286073237068
 30
0.0
 10
46.14693514354628
 20
2.153824609354065
 30
0.0
 10
45.0802047594389
 20
2.685715211213296
 30
0.0
 10
44.32461960597674
 20
3.025562172280412
 30
0.0
 10
43.83567237160935
 20
3.24548077571052
 30
0.0
1001
PE_URL
1000

  0
LINE
  5
BF
330
1F
100
AcDbEntity
  8
0
  6
Continuous
 62
     1
370
    25
100
AcDbLine
 10
47.0
 20
1.555921529991743
 30
0.0
 11
47.0
 21
1.700287060049834
 31
0.0
1001
PE_URL
1000

  0
SPLINE
  5
C0
330
1F
100
AcDbEntity
  8
0
  6
Continuous
 62
     1
370
    25
100
AcDbSpline
210
0.0
220
0.0
230
1.0
 70
     8
 71
     3
 72
    10
 73
     6
 74
     0
 42
0.000000001
 43
0.00000001
 40
0.0
 40
0.0
 40
0.0
 40
0.0
 40
0.314572423322836
 40
0.6573532012506034
 40
1.0
 40
1.0
 40
1.0
 40
1.0
 10
18.42189160738015
 20
-5.919080911655874
 30
0.0
 10
17.74852991057238
 20
-6.112361062352179
 30
0.0
 10
16.34142479207362
 20
-6.516253191408972
 30
0.0
 10
14.2005994264044
 20
-6.886979999713453
 30
0.0
 10
12.73343754772065
 20
-6.960003612554018
 30
0.0
 10
12.0000000000001
 20
-6.996508282083412
 30
0.0
  0
LINE
  5
C1
330
1F
100
AcDbEntity
  8
0
  6
Continuous
 62
     1
370
    25
100
AcDbLine
 10
47.0
 20
-0.4999999999999992
 30
0.0
 11
47.0
 21
-5.171500304077862
 31
0.0
1001
PE_URL
1000

  0
ELLIPSE
  5
C2
330
1F
100
AcDbEntity
  8
0
  6
Continuous
 62
     1
370
    25
100
AcDbEllipse
 10
47.71407400337105
 20
-0.0000000000000013
 30
0.0
 11
9.997036047194776
 21
0.0
 31
0.0
210
0.0
220
0.0
230
1.0
 40
0.7002075382097118
 41
1.642285776680417
 42
1.725726287459305
1001
PE_URL
1000

  0
LINE
  5
C3
330
1F
100
AcDbEntity
  8
0
  6
Continuous
 62
     1
370
    25
100
AcDbLine
 10
47.0
 20
1.700287060049834
 30
0.0
 11
47.0
 21
6.982120021884475
 31
0.0
1001
PE_URL
1000

  0
LINE
  5
C4
330
1F
100
AcDbEntity
  8
0
  6
Continuous
 62
     1
370
    25
100
AcDbLine
 10
47.0
 20
6.982120021884475
 30
0.0
 11
47.0
 21
7.000000000000004
 31
0.0
1001
PE_URL
1000

  0
LINE
  5
C5
330
1F
100
AcDbEntity
  8
중심선
100
AcDbLine
 10
-56.00000000000001
 20
-0.0000000000000061
 30
0.0
 11
50.00000000000001
 21
0.0000000000000069
 31
0.0
  0
CIRCLE
  5
C6
330
1F
100
AcDbEntity
  8
해칭선
100
AcDbCircle
 10
0.0
 20
0.0
 30
0.0
 40
3.000000000000001
  0
INSERT
  5
C7
330
1F
100
AcDbEntity
  8
0
  6
Continuous
 62
     7
100
AcDbBlockReference
 66
     1
  2
블럭10
 10
-16.9402729321252
 20
-52.04717430164393
 30
0.0
  0
ATTRIB
  5
C8
330
C7
100
AcDbEntity
  8
FORMAT
 62
     2
100
AcDbText
 10
-34.52552138568239
 20
-49.97180738881174
 30
0.0
 40
4.233333333333333
  1
SEME3614014SE [ 4 FLUTE ]
 41
0.75
  7
SLDTEXTSTYLE0
 11
-34.52552138568239
 21
-52.08847405547841
 31
0.0
100
AcDbAttribute
  2
AUTOATTR0
 70
     0
 74
     1
  0
SEQEND
  5
C9
330
C7
100
AcDbEntity
  8
0
  6
Continuous
 62
     7
  0
HATCH
  5
CA
330
1F
100
AcDbEntity
  8
중심선
100
AcDbHatch
 10
0.0
 20
0.0
 30
0.0
210
0.0
220
0.0
230
1.0
  2
SOLID
 70
     1
 71
     0
 91
        1
 92
        0
 93
        4
 72
     1
 10
-11.22536362774435
 20
-35.8
 11
-14.67163887158164
 21
-35.8
 72
     1
 10
-14.67163887158164
 20
-35.8
 11
-16.79986873078566
 21
-38.33632558057259
 72
     1
 10
-16.79986873078566
 20
-38.33632558057259
 11
-13.35356040183523
 21
-38.3362861512701
 72
     1
 10
-13.35356040183523
 20
-38.3362861512701
 11
-11.22536362774435
 21
-35.8
 97
        0
 75
     0
 76
     1
 98
        1
 10
0.5001255577495769
 20
-0.0000000000000018
  0
HATCH
  5
CB
330
1F
100
AcDbEntity
  8
중심선
100
AcDbHatch
 10
0.0
 20
0.0
 30
0.0
210
0.0
220
0.0
230
1.0
  2
SOLID
 70
     1
 71
     0
 91
        1
 92
        0
 93
        4
 72
     1
 10
-6.212599636708347
 20
-35.8
 11
-9.658874880545685
 21
-35.80000000000003
 72
     1
 10
-9.658874880545685
 20
-35.80000000000003
 11
-14.19001288890307
 21
-41.20000000000002
 72
     1
 10
-14.19001288890307
 20
-41.20000000000002
 11
-10.74373764506579
 21
-41.20000000000002
 72
     1
 10
-10.74373764506579
 20
-41.20000000000002
 11
-6.212599636708347
 21
-35.8
 97
        0
 75
     0
 76
     1
 98
        1
 10
0.5001255577495769
 20
-0.0000000000000018
  0
HATCH
  5
CC
330
1F
100
AcDbEntity
  8
중심선
100
AcDbHatch
 10
0.0
 20
0.0
 30
0.0
210
0.0
220
0.0
230
1.0
  2
SOLID
 70
     1
 71
     0
 91
        1
 92
        0
 93
        4
 72
     1
 10
-1.19983564567248
 20
-35.8
 11
-4.646110889509568
 21
-35.8
 72
     1
 10
-4.646110889509568
 20
-35.8
 11
-11.69454779139887
 21
-44.20000000000002
 72
     1
 10
-11.69454779139887
 20
-44.20000000000002
 11
-8.24827254756159
 21
-44.20000000000002
 72
     1
 10
-8.24827254756159
 20
-44.20000000000002
 11
-1.19983564567248
 21
-35.8
 97
        0
 75
     0
 76
     1
 98
        1
 10
0.5001255577495769
 20
-0.0000000000000018
  0
HATCH
  5
CD
330
1F
100
AcDbEntity
  8
중심선
100
AcDbHatch
 10
0.0
 20
0.0
 30
0.0
210
0.0
220
0.0
230
1.0
  2
SOLID
 70
     1
 71
     0
 91
        1
 92
        0
 93
        6
 72
     3
 10
3.600054785339692
 20
-40.00000000005127
 11
3.960054785062284
 21
1.540882976769353E-10
 40
0.3939339440162627
 50
17.09539180608438
 51
320.0019657685083
 73
     0
 72
     1
 10
5.283054441040259
 20
-38.58789400463833
 11
7.588356314741325
 21
-36.65356729459038
 72
     3
 10
3.600054785286845
 20
-40.00000000000015
 11
6.600054785286829
 21
-1.278976924368180E-13
 40
0.636358354079598
 50
39.99873849337411
 51
368.4976242363725
 73
     1
 72
     1
 10
10.02538727718745
 20
-39.03999999993002
 11
2.280122092122768
 21
-39.03999999993002
 72
     1
 10
2.280122092122768
 20
-39.03999999993002
 11
2.280097047676834
 21
-40.95999999992991
 72
     1
 10
2.280097047676834
 20
-40.95999999992991
 11
6.72147681714887
 21
-40.95999999992988
 97
        0
 75
     0
 76
     1
 98
        1
 10
0.5001255577495769
 20
-0.0000000000000018
  0
DIMENSION
  5
CE
330
1F
100
AcDbEntity
  8
치수문자_일반주서
100
AcDbDimension
  2
_D
 10
59.99999999999999
 20
7.000000000000045
 30
0.0
 11
60.00000000000001
 21
0.0000000000000025
 31
0.0
 70
   160
  1
%%c<>
 71
     2
 42
14.0
 52
-270.0
  3
SLDDIMSTYLE0
100
AcDbAlignedDimension
 13
47.00000000000004
 23
-7.000000000000002
 33
0.0
 14
47.00000000000004
 24
6.999999999999998
 34
0.0
 50
90.0000000000002
100
AcDbRotatedDimension
  0
DIMENSION
  5
DC
330
1F
100
AcDbEntity
  8
치수문자_일반주서
100
AcDbDimension
  2
_D_1
 10
47.0
 20
21.32836952549911
 30
0.0
 11
-3.000000000000004
 21
21.32836952549911
 31
0.0
 70
   160
  1
<>
 71
     2
 42
100.0
  3
SLDDIMSTYLE1
100
AcDbAlignedDimension
 13
-53.00000000000001
 23
6.49999999999999
 33
0.0
 14
47.0
 24
-0.4999999999999992
 34
0.0
 50
-0.0000000000000041
100
AcDbRotatedDimension
  0
DIMENSION
  5
E7
330
1F
100
AcDbEntity
  8
치수문자_일반주서
100
AcDbDimension
  2
_D_2
 10
-66.49263956161987
 20
-7.00000000000006
 30
0.0
 11
-66.49263956161988
 21
-2.542623647210781
 31
0.0
 70
   160
  1
%%c<>
 71
     2
 42
14.00000000000001
 52
-270.0
  3
SLDDIMSTYLE2
100
AcDbAlignedDimension
 13
-52.50000000000001
 23
7.000000000000004
 33
0.0
 14
-52.50000000000001
 24
-7.000000000000008
 34
0.0
 50
90.0000000000002
100
AcDbRotatedDimension
  0
DIMENSION
  5
F5
330
1F
100
AcDbEntity
  8
치수문자_일반주서
100
AcDbDimension
  2
_D_3
 10
11.99999999999999
 20
10.26844139523111
 30
0.0
 11
29.5
 21
10.26844139523111
 31
0.0
 70
   160
  1
<>
 71
     2
 42
35.00000000000001
  3
SLDDIMSTYLE1
100
AcDbAlignedDimension
 13
47.0
 23
6.982120021884475
 33
0.0
 14
11.99999999999999
 24
6.996508282085062
 34
0.0
 50
0.0000000000000174
100
AcDbRotatedDimension
  0
INSERT
  5
105
330
1F
100
AcDbEntity
  8
해칭선
100
AcDbBlockReference
  2
SW_DOWELSYMBOL_0
 10
0.0
 20
0.0
 30
0.0
  0
ENDSEC
  0
SECTION
  2
OBJECTS
  0
DICTIONARY
  5
C
330
0
100
AcDbDictionary
281
     1
  3
ACAD_DETAILVIEWSTYLE
350
130
  3
ACAD_GROUP
350
D
  3
ACAD_LAYOUT
350
1A
  3
ACAD_MLINESTYLE
350
17
  3
ACAD_PLOTSETTINGS
350
19
  3
ACAD_PLOTSTYLENAME
350
E
  3
ACAD_SCALELIST
350
47
  3
ACAD_SECTIONVIEWSTYLE
350
131
  3
AcDbVariableDictionary
350
12B
  3
APPDATA
350
127
  3
DWGPROPS
350
139
  0
DICTIONARY
  5
130
102
{ACAD_REACTORS
330
C
102
}
330
C
100
AcDbDictionary
281
     1
  0
DICTIONARY
  5
D
102
{ACAD_REACTORS
330
C
102
}
330
C
100
AcDbDictionary
281
     1
  0
DICTIONARY
  5
1A
102
{ACAD_REACTORS
330
C
102
}
330
C
100
AcDbDictionary
281
     1
  3
Layout1
350
1E
  3
Layout2
350
26
  3
Model
350
22
  0
DICTIONARY
  5
17
102
{ACAD_REACTORS
330
C
102
}
330
C
100
AcDbDictionary
281
     1
  3
Standard
350
18
  0
DICTIONARY
  5
19
102
{ACAD_REACTORS
330
C
102
}
330
C
100
AcDbDictionary
281
     1
  0
ACDBDICTIONARYWDFLT
  5
E
102
{ACAD_REACTORS
330
C
102
}
330
C
100
AcDbDictionary
281
     1
  3
Normal
350
F
100
AcDbDictionaryWithDefault
340
F
  0
DICTIONARY
  5
47
102
{ACAD_REACTORS
330
C
102
}
330
C
100
AcDbDictionary
281
     1
  3
A0
350
48
  3
A1
350
49
  3
A2
350
4A
  3
A3
350
4B
  3
A4
350
4C
  3
A5
350
4D
  3
A6
350
4E
  3
A7
350
4F
  3
A8
350
50
  3
A9
350
51
  3
B0
350
52
  3
B1
350
53
  3
B2
350
54
  3
B3
350
55
  3
B4
350
56
  3
B5
350
57
  3
B6
350
58
  3
B7
350
59
  3
B8
350
5A
  3
B9
350
5B
  3
C0
350
5C
  3
C1
350
5D
  3
C2
350
5E
  3
C3
350
5F
  3
C4
350
60
  3
C5
350
61
  3
C6
350
62
  3
C7
350
63
  3
C8
350
64
  3
C9
350
65
  3
D0
350
66
  3
D1
350
67
  3
D2
350
68
  0
DICTIONARY
  5
131
102
{ACAD_REACTORS
330
C
102
}
330
C
100
AcDbDictionary
281
     1
  0
DICTIONARY
  5
12B
102
{ACAD_REACTORS
330
C
102
}
330
C
100
AcDbDictionary
281
     1
  0
DICTIONARY
  5
127
102
{ACAD_REACTORS
330
C
102
}
330
C
100
AcDbDictionary
281
     1
  0
XRECORD
  5
139
102
{ACAD_REACTORS
330
C
102
}
330
C
100
AcDbXrecord
280
     1
  1
DWGPROPS COOKIE
  2

  3

  4

  6

  7

  8
12011908
  9

300
=
301
=
302
=
303
=
304
=
305
=
306
=
307
=
308
=
309
=
 40
0.0
 41
2458250.182006794
 42
2458264.355099641
  1

 90
        0
  0
LAYOUT
  5
1E
102
{ACAD_REACTORS
330
1A
102
}
330
1A
100
AcDbPlotSettings
  1

  2
none_device
  4

  6

 40
0.0
 41
0.0
 42
0.0
 43
0.0
 44
0.0
 45
0.0
 46
0.0
 47
0.0
 48
0.0
 49
0.0
140
0.0
141
0.0
142
1.0
143
1.0
 70
   688
 72
     1
 73
     0
 74
     5
  7

 75
    16
147
1.0
148
0.0
149
0.0
100
AcDbLayout
  1
Layout1
 70
     1
 71
     1
 10
0.0
 20
0.0
 11
420.0
 21
297.0
 12
0.0
 22
0.0
 32
0.0
 14
1.000000000000000E+20
 24
1.000000000000000E+20
 34
1.000000000000000E+20
 15
-1.000000000000000E+20
 25
-1.000000000000000E+20
 35
-1.000000000000000E+20
146
0.0
 13
0.0
 23
0.0
 33
0.0
 16
1.0
 26
0.0
 36
0.0
 17
0.0
 27
1.0
 37
0.0
 76
     0
330
1B
  0
LAYOUT
  5
26
102
{ACAD_REACTORS
330
1A
102
}
330
1A
100
AcDbPlotSettings
  1

  2
none_device
  4

  6

 40
0.0
 41
0.0
 42
0.0
 43
0.0
 44
0.0
 45
0.0
 46
0.0
 47
0.0
 48
0.0
 49
0.0
140
0.0
141
0.0
142
1.0
143
1.0
 70
   688
 72
     1
 73
     0
 74
     5
  7

 75
    16
147
1.0
148
0.0
149
0.0
100
AcDbLayout
  1
Layout2
 70
     1
 71
     2
 10
0.0
 20
0.0
 11
0.0
 21
0.0
 12
0.0
 22
0.0
 32
0.0
 14
0.0
 24
0.0
 34
0.0
 15
0.0
 25
0.0
 35
0.0
146
0.0
 13
0.0
 23
0.0
 33
0.0
 16
1.0
 26
0.0
 36
0.0
 17
0.0
 27
1.0
 37
0.0
 76
     0
330
23
  0
LAYOUT
  5
22
102
{ACAD_REACTORS
330
1A
102
}
330
1A
100
AcDbPlotSettings
  1

  2
none_device
  4
ANSI_A_(11.00_x_8.50_Inches)
  6

 40
6.35
 41
19.05
 42
6.35000508
 43
19.05000254
 44
279.4
 45
215.9
 46
144.9310462957418
 47
114.9520612185566
 48
0.0
 49
0.0
140
0.0
141
0.0
142
0.082463860320991
143
1.0
 70
  1696
 72
     0
 73
     0
 74
     0
  7

 75
     0
147
0.0235690232323232
148
0.0
149
0.0
100
AcDbLayout
  1
Model
 70
     1
 71
     0
 10
0.0
 20
0.0
 11
420.0
 21
297.0
 12
0.0
 22
0.0
 32
0.0
 14
-70.86763956161991
 24
-49.97180738881174
 34
0.0
 15
60.55033333333336
 25
25.70336952549911
 35
0.0
146
0.0
 13
0.0
 23
0.0
 33
0.0
 16
1.0
 26
0.0
 36
0.0
 17
0.0
 27
1.0
 37
0.0
 76
     0
330
1F
331
29
  0
MLINESTYLE
  5
18
102
{ACAD_REACTORS
330
17
102
}
330
17
100
AcDbMlineStyle
  2
Standard
 70
     0
  3

 62
   256
 51
90.0
 52
90.0
 71
     2
 49
0.5
 62
   256
  6
BYLAYER
 49
-0.5
 62
   256
  6
BYLAYER
  0
ACDBPLACEHOLDER
  5
F
102
{ACAD_REACTORS
330
E
102
}
330
E
  0
SCALE
  5
48
102
{ACAD_REACTORS
330
47
102
}
330
47
100
AcDbScale
 70
     0
300
1:1
140
1.0
141
1.0
290
     1
  0
SCALE
  5
49
102
{ACAD_REACTORS
330
47
102
}
330
47
100
AcDbScale
 70
     0
300
1:2
140
1.0
141
2.0
290
     0
  0
SCALE
  5
4A
102
{ACAD_REACTORS
330
47
102
}
330
47
100
AcDbScale
 70
     0
300
1:4
140
1.0
141
4.0
290
     0
  0
SCALE
  5
4B
102
{ACAD_REACTORS
330
47
102
}
330
47
100
AcDbScale
 70
     0
300
1:5
140
1.0
141
5.0
290
     0
  0
SCALE
  5
4C
102
{ACAD_REACTORS
330
47
102
}
330
47
100
AcDbScale
 70
     0
300
1:8
140
1.0
141
8.0
290
     0
  0
SCALE
  5
4D
102
{ACAD_REACTORS
330
47
102
}
330
47
100
AcDbScale
 70
     0
300
1:10
140
1.0
141
10.0
290
     0
  0
SCALE
  5
4E
102
{ACAD_REACTORS
330
47
102
}
330
47
100
AcDbScale
 70
     0
300
1:16
140
1.0
141
16.0
290
     0
  0
SCALE
  5
4F
102
{ACAD_REACTORS
330
47
102
}
330
47
100
AcDbScale
 70
     0
300
1:20
140
1.0
141
20.0
290
     0
  0
SCALE
  5
50
102
{ACAD_REACTORS
330
47
102
}
330
47
100
AcDbScale
 70
     0
300
1:30
140
1.0
141
30.0
290
     0
  0
SCALE
  5
51
102
{ACAD_REACTORS
330
47
102
}
330
47
100
AcDbScale
 70
     0
300
1:40
140
1.0
141
40.0
290
     0
  0
SCALE
  5
52
102
{ACAD_REACTORS
330
47
102
}
330
47
100
AcDbScale
 70
     0
300
1:50
140
1.0
141
50.0
290
     0
  0
SCALE
  5
53
102
{ACAD_REACTORS
330
47
102
}
330
47
100
AcDbScale
 70
     0
300
1:100
140
1.0
141
100.0
290
     0
  0
SCALE
  5
54
102
{ACAD_REACTORS
330
47
102
}
330
47
100
AcDbScale
 70
     0
300
2:1
140
2.0
141
1.0
290
     0
  0
SCALE
  5
55
102
{ACAD_REACTORS
330
47
102
}
330
47
100
AcDbScale
 70
     0
300
4:1
140
4.0
141
1.0
290
     0
  0
SCALE
  5
56
102
{ACAD_REACTORS
330
47
102
}
330
47
100
AcDbScale
 70
     0
300
8:1
140
8.0
141
1.0
290
     0
  0
SCALE
  5
57
102
{ACAD_REACTORS
330
47
102
}
330
47
100
AcDbScale
 70
     0
300
10:1
140
10.0
141
1.0
290
     0
  0
SCALE
  5
58
102
{ACAD_REACTORS
330
47
102
}
330
47
100
AcDbScale
 70
     0
300
100:1
140
100.0
141
1.0
290
     0
  0
SCALE
  5
59
102
{ACAD_REACTORS
330
47
102
}
330
47
100
AcDbScale
 70
     0
300
1/128" = 1'-0"
140
0.0078125
141
12.0
290
     0
  0
SCALE
  5
5A
102
{ACAD_REACTORS
330
47
102
}
330
47
100
AcDbScale
 70
     0
300
1/64" = 1'-0"
140
0.015625
141
12.0
290
     0
  0
SCALE
  5
5B
102
{ACAD_REACTORS
330
47
102
}
330
47
100
AcDbScale
 70
     0
300
1/32" = 1'-0"
140
0.03125
141
12.0
290
     0
  0
SCALE
  5
5C
102
{ACAD_REACTORS
330
47
102
}
330
47
100
AcDbScale
 70
     0
300
1/16" = 1'-0"
140
0.0625
141
12.0
290
     0
  0
SCALE
  5
5D
102
{ACAD_REACTORS
330
47
102
}
330
47
100
AcDbScale
 70
     0
300
3/32" = 1'-0"
140
0.09375
141
12.0
290
     0
  0
SCALE
  5
5E
102
{ACAD_REACTORS
330
47
102
}
330
47
100
AcDbScale
 70
     0
300
1/8" = 1'-0"
140
0.125
141
12.0
290
     0
  0
SCALE
  5
5F
102
{ACAD_REACTORS
330
47
102
}
330
47
100
AcDbScale
 70
     0
300
3/16" = 1'-0"
140
0.1875
141
12.0
290
     0
  0
SCALE
  5
60
102
{ACAD_REACTORS
330
47
102
}
330
47
100
AcDbScale
 70
     0
300
1/4" = 1'-0"
140
0.25
141
12.0
290
     0
  0
SCALE
  5
61
102
{ACAD_REACTORS
330
47
102
}
330
47
100
AcDbScale
 70
     0
300
3/8" = 1'-0"
140
0.375
141
12.0
290
     0
  0
SCALE
  5
62
102
{ACAD_REACTORS
330
47
102
}
330
47
100
AcDbScale
 70
     0
300
1/2" = 1'-0"
140
0.5
141
12.0
290
     0
  0
SCALE
  5
63
102
{ACAD_REACTORS
330
47
102
}
330
47
100
AcDbScale
 70
     0
300
3/4" = 1'-0"
140
0.75
141
12.0
290
     0
  0
SCALE
  5
64
102
{ACAD_REACTORS
330
47
102
}
330
47
100
AcDbScale
 70
     0
300
1" = 1'-0"
140
1.0
141
12.0
290
     0
  0
SCALE
  5
65
102
{ACAD_REACTORS
330
47
102
}
330
47
100
AcDbScale
 70
     0
300
1-1/2" = 1'-0"
140
1.5
141
12.0
290
     0
  0
SCALE
  5
66
102
{ACAD_REACTORS
330
47
102
}
330
47
100
AcDbScale
 70
     0
300
3" = 1'-0"
140
3.0
141
12.0
290
     0
  0
SCALE
  5
67
102
{ACAD_REACTORS
330
47
102
}
330
47
100
AcDbScale
 70
     0
300
6" = 1'-0"
140
6.0
141
12.0
290
     0
  0
SCALE
  5
68
102
{ACAD_REACTORS
330
47
102
}
330
47
100
AcDbScale
 70
     0
300
1'-0" = 1'-0"
140
12.0
141
12.0
290
     0
  0
ENDSEC
  0
EOF
