  0
SECTION
  2
HEADER
  9
$ACADVER
  1
AC1015
  9
$ACADMAINTVER
 70
     6
  9
$DWGCODEPAGE
  3
ANSI_949
  9
$INSBASE
 10
0.0
 20
0.0
 30
0.0
  9
$EXTMIN
 10
-59.71763956161993
 20
-49.97180738881174
 30
0.0
  9
$EXTMAX
 10
51.70033333333337
 20
24.70336952549911
 30
0.0
  9
$LIMMIN
 10
0.0
 20
0.0
  9
$LIMMAX
 10
420.0
 20
297.0
  9
$ORTHOMODE
 70
     1
  9
$REGENMODE
 70
     1
  9
$FILLMODE
 70
     1
  9
$QTEXTMODE
 70
     0
  9
$MIRRTEXT
 70
     1
  9
$LTSCALE
 40
1.0
  9
$ATTMODE
 70
     1
  9
$TEXTSIZE
 40
3.5
  9
$TRACEWID
 40
1.0
  9
$TEXTSTYLE
  7
Standard
  9
$CLAYER
  8
0
  9
$CELTYPE
  6
ByLayer
  9
$CECOLOR
 62
   256
  9
$CELTSCALE
 40
1.0
  9
$DISPSILH
 70
     0
  9
$DIMSCALE
 40
1.0
  9
$DIMASZ
 40
3.302
  9
$DIMEXO
 40
1.0
  9
$DIMDLI
 40
3.75
  9
$DIMRND
 40
0.0
  9
$DIMDLE
 40
0.0
  9
$DIMEXE
 40
1.0
  9
$DIMTP
 40
0.0
  9
$DIMTM
 40
0.0
  9
$DIMTXT
 40
3.5
  9
$DIMCEN
 40
2.5
  9
$DIMTSZ
 40
0.0
  9
$DIMTOL
 70
     0
  9
$DIMLIM
 70
     0
  9
$DIMTIH
 70
     1
  9
$DIMTOH
 70
     1
  9
$DIMSE1
 70
     0
  9
$DIMSE2
 70
     0
  9
$DIMTAD
 70
     1
  9
$DIMZIN
 70
     0
  9
$DIMBLK
  1

  9
$DIMASO
 70
     1
  9
$DIMSHO
 70
     1
  9
$DIMPOST
  1

  9
$DIMAPOST
  1

  9
$DIMALT
 70
     0
  9
$DIMALTD
 70
     3
  9
$DIMALTF
 40
0.0393700787401575
  9
$DIMLFAC
 40
1.0
  9
$DIMTOFL
 70
     1
  9
$DIMTVP
 40
0.0
  9
$DIMTIX
 70
     0
  9
$DIMSOXD
 70
     0
  9
$DIMSAH
 70
     0
  9
$DIMBLK1
  1

  9
$DIMBLK2
  1

  9
$DIMSTYLE
  2
ISO-25
  9
$DIMCLRD
 70
     0
  9
$DIMCLRE
 70
     0
  9
$DIMCLRT
 70
     0
  9
$DIMTFAC
 40
1.0
  9
$DIMGAP
 40
1.524
  9
$DIMJUST
 70
     0
  9
$DIMSD1
 70
     0
  9
$DIMSD2
 70
     0
  9
$DIMTOLJ
 70
     0
  9
$DIMTZIN
 70
     0
  9
$DIMALTZ
 70
     0
  9
$DIMALTTZ
 70
     0
  9
$DIMUPT
 70
     0
  9
$DIMDEC
 70
     2
  9
$DIMTDEC
 70
     2
  9
$DIMALTU
 70
     2
  9
$DIMALTTD
 70
     3
  9
$DIMTXSTY
  7
Standard
  9
$DIMAUNIT
 70
     0
  9
$DIMADEC
 70
     2
  9
$DIMALTRND
 40
0.0
  9
$DIMAZIN
 70
     0
  9
$DIMDSEP
 70
    44
  9
$DIMATFIT
 70
     3
  9
$DIMFRAC
 70
     0
  9
$DIMLDRBLK
  1

  9
$DIMLUNIT
 70
     2
  9
$DIMLWD
 70
    -2
  9
$DIMLWE
 70
    -2
  9
$DIMTMOVE
 70
     0
  9
$LUNITS
 70
     2
  9
$LUPREC
 70
     2
  9
$SKETCHINC
 40
1.0
  9
$FILLETRAD
 40
10.0
  9
$AUNITS
 70
     0
  9
$AUPREC
 70
     2
  9
$MENU
  1
.
  9
$ELEVATION
 40
0.0
  9
$PELEVATION
 40
0.0
  9
$THICKNESS
 40
0.0
  9
$LIMCHECK
 70
     0
  9
$CHAMFERA
 40
0.0
  9
$CHAMFERB
 40
0.0
  9
$CHAMFERC
 40
0.0
  9
$CHAMFERD
 40
0.0
  9
$SKPOLY
 70
     0
  9
$TDCREATE
 40
2458250.483033403
  9
$TDUCREATE
 40
2458250.108033403
  9
$TDUPDATE
 40
2459702.726681898
  9
$TDUUPDATE
 40
2459702.351681898
  9
$TDINDWG
 40
0.001961875
  9
$TDUSRTIMER
 40
0.0011869907
  9
$USRTIMER
 70
     1
  9
$ANGBASE
 50
0.0
  9
$ANGDIR
 70
     0
  9
$PDMODE
 70
     0
  9
$PDSIZE
 40
-1.0
  9
$PLINEWID
 40
0.0
  9
$SPLFRAME
 70
     0
  9
$SPLINETYPE
 70
     6
  9
$SPLINESEGS
 70
     8
  9
$HANDSEED
  5
173
  9
$SURFTAB1
 70
     6
  9
$SURFTAB2
 70
     6
  9
$SURFTYPE
 70
     6
  9
$SURFU
 70
     6
  9
$SURFV
 70
     6
  9
$UCSBASE
  2

  9
$UCSNAME
  2

  9
$UCSORG
 10
0.0
 20
0.0
 30
0.0
  9
$UCSXDIR
 10
1.0
 20
0.0
 30
0.0
  9
$UCSYDIR
 10
0.0
 20
1.0
 30
0.0
  9
$UCSORTHOREF
  2

  9
$UCSORTHOVIEW
 70
     0
  9
$UCSORGTOP
 10
0.0
 20
0.0
 30
0.0
  9
$UCSORGBOTTOM
 10
0.0
 20
0.0
 30
0.0
  9
$UCSORGLEFT
 10
0.0
 20
0.0
 30
0.0
  9
$UCSORGRIGHT
 10
0.0
 20
0.0
 30
0.0
  9
$UCSORGFRONT
 10
0.0
 20
0.0
 30
0.0
  9
$UCSORGBACK
 10
0.0
 20
0.0
 30
0.0
  9
$PUCSBASE
  2

  9
$PUCSNAME
  2

  9
$PUCSORG
 10
0.0
 20
0.0
 30
0.0
  9
$PUCSXDIR
 10
1.0
 20
0.0
 30
0.0
  9
$PUCSYDIR
 10
0.0
 20
1.0
 30
0.0
  9
$PUCSORTHOREF
  2

  9
$PUCSORTHOVIEW
 70
     0
  9
$PUCSORGTOP
 10
0.0
 20
0.0
 30
0.0
  9
$PUCSORGBOTTOM
 10
0.0
 20
0.0
 30
0.0
  9
$PUCSORGLEFT
 10
0.0
 20
0.0
 30
0.0
  9
$PUCSORGRIGHT
 10
0.0
 20
0.0
 30
0.0
  9
$PUCSORGFRONT
 10
0.0
 20
0.0
 30
0.0
  9
$PUCSORGBACK
 10
0.0
 20
0.0
 30
0.0
  9
$USERI1
 70
     0
  9
$USERI2
 70
     0
  9
$USERI3
 70
     0
  9
$USERI4
 70
     0
  9
$USERI5
 70
     0
  9
$USERR1
 40
0.0
  9
$USERR2
 40
0.0
  9
$USERR3
 40
0.0
  9
$USERR4
 40
0.0
  9
$USERR5
 40
0.0
  9
$WORLDVIEW
 70
     1
  9
$SHADEDGE
 70
     3
  9
$SHADEDIF
 70
    70
  9
$TILEMODE
 70
     1
  9
$MAXACTVP
 70
    64
  9
$PINSBASE
 10
0.0
 20
0.0
 30
0.0
  9
$PLIMCHECK
 70
     0
  9
$PEXTMIN
 10
1.000000000000000E+20
 20
1.000000000000000E+20
 30
1.000000000000000E+20
  9
$PEXTMAX
 10
-1.000000000000000E+20
 20
-1.000000000000000E+20
 30
-1.000000000000000E+20
  9
$PLIMMIN
 10
0.0
 20
0.0
  9
$PLIMMAX
 10
0.0
 20
0.0
  9
$UNITMODE
 70
     0
  9
$VISRETAIN
 70
     1
  9
$PLINEGEN
 70
     0
  9
$PSLTSCALE
 70
     1
  9
$TREEDEPTH
 70
  3020
  9
$CMLSTYLE
  2
Standard
  9
$CMLJUST
 70
     0
  9
$CMLSCALE
 40
20.0
  9
$PROXYGRAPHICS
 70
     1
  9
$MEASUREMENT
 70
     1
  9
$CELWEIGHT
370
    -1
  9
$ENDCAPS
280
     0
  9
$JOINSTYLE
280
     0
  9
$LWDISPLAY
290
     1
  9
$INSUNITS
 70
     4
  9
$HYPERLINKBASE
  1

  9
$STYLESHEET
  1

  9
$XEDIT
290
     1
  9
$CEPSNTYPE
380
     0
  9
$PSTYLEMODE
290
     1
  9
$FINGERPRINTGUID
  2
{1D63A81A-AE62-461A-A9C7-B2D1C3A9B9A0}
  9
$VERSIONGUID
  2
{FAEB1C32-E019-11D5-929B-00C0DF256EC4}
  9
$EXTNAMES
290
     1
  9
$PSVPSCALE
 40
0.0
  9
$OLESTARTUP
290
     0
  0
ENDSEC
  0
SECTION
  2
CLASSES
  0
CLASS
  1
ACDBDICTIONARYWDFLT
  2
AcDbDictionaryWithDefault
  3
ObjectDBX Classes
 90
        0
280
     0
281
     0
  0
CLASS
  1
VISUALSTYLE
  2
AcDbVisualStyle
  3
ObjectDBX Classes
 90
     4095
280
     0
281
     0
  0
CLASS
  1
MATERIAL
  2
AcDbMaterial
  3
ObjectDBX Classes
 90
     1153
280
     0
281
     0
  0
CLASS
  1
SCALE
  2
AcDbScale
  3
ObjectDBX Classes
 90
     1153
280
     0
281
     0
  0
CLASS
  1
TABLESTYLE
  2
AcDbTableStyle
  3
ObjectDBX Classes
 90
     4095
280
     0
281
     0
  0
CLASS
  1
MLEADERSTYLE
  2
AcDbMLeaderStyle
  3
ACDB_MLEADERSTYLE_CLASS
 90
     4095
280
     0
281
     0
  0
CLASS
  1
SUN
  2
AcDbSun
  3
SCENEOE
 90
     1153
280
     0
281
     0
  0
CLASS
  1
ACDBPLACEHOLDER
  2
AcDbPlaceHolder
  3
ObjectDBX Classes
 90
        0
280
     0
281
     0
  0
CLASS
  1
LAYOUT
  2
AcDbLayout
  3
ObjectDBX Classes
 90
        0
280
     0
281
     0
  0
CLASS
  1
SORTENTSTABLE
  2
AcDbSortentsTable
  3
ObjectDBX Classes
 90
        0
280
     0
281
     0
  0
CLASS
  1
DIMASSOC
  2
AcDbDimAssoc
  3
"AcDbDimAssoc|Product Desc:     AcDim ARX App For Dimension|Company:          Autodesk, Inc.|WEB Address:      www.autodesk.com"
 90
        0
280
     0
281
     0
  0
CLASS
  1
BREAKDATA
  2
AcDbBreakData
  3
ObjectDBX Classes
 90
     1024
280
     0
281
     0
  0
ENDSEC
  0
SECTION
  2
TABLES
  0
TABLE
  2
VPORT
  5
8
330
0
100
AcDbSymbolTable
 70
     1
  0
VPORT
  5
29
330
8
100
AcDbSymbolTableRecord
100
AcDbViewportTableRecord
  2
*Active
 70
     0
 10
0.0
 20
0.0
 11
1.0
 21
1.0
 12
24.3688718826447
 22
6.320398787220965
 13
0.0
 23
0.0
 14
10.0
 24
10.0
 15
10.0
 25
10.0
 16
0.0
 26
0.0
 36
1.0
 17
0.0
 27
0.0
 37
0.0
 40
58.31531769655844
 41
1.531481481481481
 42
50.0
 43
0.0
 44
0.0
 50
0.0
 51
0.0
 71
    16
 72
  2000
 73
     1
 74
     3
 75
     0
 76
     0
 77
     0
 78
     0
281
     0
 65
     1
110
0.0
120
0.0
130
0.0
111
1.0
121
0.0
131
0.0
112
0.0
122
1.0
132
0.0
 79
     0
146
0.0
  0
ENDTAB
  0
TABLE
  2
LTYPE
  5
5
330
0
100
AcDbSymbolTable
 70
     6
  0
LTYPE
  5
14
330
5
100
AcDbSymbolTableRecord
100
AcDbLinetypeTableRecord
  2
ByBlock
 70
     0
  3

 72
    65
 73
     0
 40
0.0
  0
LTYPE
  5
15
330
5
100
AcDbSymbolTableRecord
100
AcDbLinetypeTableRecord
  2
ByLayer
 70
     0
  3

 72
    65
 73
     0
 40
0.0
  0
LTYPE
  5
16
330
5
100
AcDbSymbolTableRecord
100
AcDbLinetypeTableRecord
  2
Continuous
 70
     0
  3
Solid line
 72
    65
 73
     0
 40
0.0
  0
LTYPE
  5
6E
330
5
100
AcDbSymbolTableRecord
100
AcDbLinetypeTableRecord
  2
HIDDEN
 70
     0
  3
Hidden __ __ __ __ __ __ __ __ __ __ __ __ __ __
 72
    65
 73
     2
 40
1.905
 49
1.27
 74
     0
 49
-0.635
 74
     0
  0
LTYPE
  5
6F
330
5
100
AcDbSymbolTableRecord
100
AcDbLinetypeTableRecord
  2
PHANTOM
 70
     0
  3
Phantom ______  __  __  ______  __  __  ______
 72
    65
 73
     6
 40
12.7
 49
6.35
 74
     0
 49
-1.27
 74
     0
 49
1.27
 74
     0
 49
-1.27
 74
     0
 49
1.27
 74
     0
 49
-1.27
 74
     0
  0
LTYPE
  5
70
330
5
100
AcDbSymbolTableRecord
100
AcDbLinetypeTableRecord
  2
CENTER
 70
     0
  3
Center ____ _ ____ _ ____ _ ____ _ ____ _ ____
 72
    65
 73
     4
 40
10.16
 49
6.35
 74
     0
 49
-1.27
 74
     0
 49
1.27
 74
     0
 49
-1.27
 74
     0
  0
LTYPE
  5
71
330
5
100
AcDbSymbolTableRecord
100
AcDbLinetypeTableRecord
  2
CENTERX2
 70
     0
  3
Center (2x) ________  __  ________  __  _____
 72
    65
 73
     4
 40
20.32
 49
12.7
 74
     0
 49
-2.54
 74
     0
 49
2.54
 74
     0
 49
-2.54
 74
     0
  0
LTYPE
  5
72
330
5
100
AcDbSymbolTableRecord
100
AcDbLinetypeTableRecord
  2
DOT2
 70
     0
  3
Dot (.5x) ........................................
 72
    65
 73
     2
 40
0.635
 49
0.0
 74
     0
 49
-0.635
 74
     0
  0
ENDTAB
  0
TABLE
  2
LAYER
  5
2
330
0
100
AcDbSymbolTable
 70
    17
  0
LAYER
  5
10
330
2
100
AcDbSymbolTableRecord
100
AcDbLayerTableRecord
  2
0
 70
     0
 62
     7
  6
Continuous
370
    -3
390
F
  0
LAYER
  5
73
330
2
100
AcDbSymbolTableRecord
100
AcDbLayerTableRecord
  2
FORMAT
 70
     0
 62
     2
  6
Continuous
370
    -3
390
F
  0
LAYER
  5
74
330
2
100
AcDbSymbolTableRecord
100
AcDbLayerTableRecord
  2
외형선
 70
     0
 62
   100
  6
Continuous
370
    35
390
F
  0
LAYER
  5
75
330
2
100
AcDbSymbolTableRecord
100
AcDbLayerTableRecord
  2
숨은선
 70
     0
 62
     2
  6
HIDDEN
370
    25
390
F
  0
LAYER
  5
76
330
2
100
AcDbSymbolTableRecord
100
AcDbLayerTableRecord
  2
중심선
 70
     0
 62
     1
  6
CENTERX2
370
    -3
390
F
  0
LAYER
  5
77
330
2
100
AcDbSymbolTableRecord
100
AcDbLayerTableRecord
  2
파단선
 70
     0
 62
     4
  6
Continuous
370
    -3
390
F
  0
LAYER
  5
78
330
2
100
AcDbSymbolTableRecord
100
AcDbLayerTableRecord
  2
해칭선
 70
     0
 62
   100
  6
Continuous
370
    -3
390
F
  0
LAYER
  5
79
330
2
100
AcDbSymbolTableRecord
100
AcDbLayerTableRecord
  2
가는실선
 70
     0
 62
     4
  6
Continuous
370
    -3
390
F
  0
LAYER
  5
7A
330
2
100
AcDbSymbolTableRecord
100
AcDbLayerTableRecord
  2
치수_보조선
 70
     0
 62
     4
  6
Continuous
370
    -3
390
F
  0
LAYER
  5
7B
330
2
100
AcDbSymbolTableRecord
100
AcDbLayerTableRecord
  2
치수문자_일반주서
 70
     0
 62
     7
  6
Continuous
370
    25
390
F
  0
LAYER
  5
7C
330
2
100
AcDbSymbolTableRecord
100
AcDbLayerTableRecord
  2
개별주서
 70
     0
 62
   100
  6
Continuous
370
    35
390
F
  0
LAYER
  5
7D
330
2
100
AcDbSymbolTableRecord
100
AcDbLayerTableRecord
  2
중간선
 70
     0
 62
     2
  6
Continuous
370
    25
390
F
  0
LAYER
  5
7E
330
2
100
AcDbSymbolTableRecord
100
AcDbLayerTableRecord
  2
윤곽선
 70
     0
 62
     3
  6
Continuous
370
    50
390
F
  0
LAYER
  5
7F
330
2
100
AcDbSymbolTableRecord
100
AcDbLayerTableRecord
  2
중심마크
 70
     0
 62
   100
  6
Continuous
370
    35
390
F
  0
LAYER
  5
80
330
2
100
AcDbSymbolTableRecord
100
AcDbLayerTableRecord
  2
가상선
 70
     0
 62
     4
  6
PHANTOM
370
    -3
390
F
  0
LAYER
  5
81
330
2
100
AcDbSymbolTableRecord
100
AcDbLayerTableRecord
  2
특수지정선
 70
     0
 62
     5
  6
CENTERX2
370
    70
390
F
  0
LAYER
  5
12A
330
2
100
AcDbSymbolTableRecord
100
AcDbLayerTableRecord
  2
Defpoints
 70
     0
 62
     7
  6
Continuous
290
     0
370
    -3
390
F
  0
ENDTAB
  0
TABLE
  2
STYLE
  5
3
330
0
100
AcDbSymbolTable
 70
     2
  0
STYLE
  5
11
330
3
100
AcDbSymbolTableRecord
100
AcDbTextStyleTableRecord
  2
Standard
 70
     0
 40
0.0
 41
1.0
 50
0.0
 71
     0
 42
3.5
  3
txt
  4

  0
STYLE
  5
97
330
3
100
AcDbSymbolTableRecord
100
AcDbTextStyleTableRecord
  2
SLDTEXTSTYLE0
 70
     0
 40
0.0
 41
0.75
 50
0.0
 71
     0
 42
3.5
  3
TXT
  4

  0
ENDTAB
  0
TABLE
  2
VIEW
  5
6
330
0
100
AcDbSymbolTable
 70
     0
  0
ENDTAB
  0
TABLE
  2
UCS
  5
7
330
0
100
AcDbSymbolTable
 70
     0
  0
ENDTAB
  0
TABLE
  2
APPID
  5
9
330
0
100
AcDbSymbolTable
 70
     3
  0
APPID
  5
12
330
9
100
AcDbSymbolTableRecord
100
AcDbRegAppTableRecord
  2
ACAD
 70
     0
  0
APPID
  5
128
330
9
100
AcDbSymbolTableRecord
100
AcDbRegAppTableRecord
  2
PE_URL
 70
     0
  0
APPID
  5
16F
330
9
100
AcDbSymbolTableRecord
100
AcDbRegAppTableRecord
  2
ENABLE_CUSTOM_SPLIT
 70
     0
  0
ENDTAB
  0
TABLE
  2
DIMSTYLE
  5
A
330
0
100
AcDbSymbolTable
 70
     4
100
AcDbDimStyleTable
  0
DIMSTYLE
105
27
330
A
100
AcDbSymbolTableRecord
100
AcDbDimStyleTableRecord
  2
ISO-25
 70
     0
 41
2.5
 42
0.625
 43
3.75
 44
1.25
 73
     0
 74
     0
 77
     1
 78
     8
140
2.5
141
2.5
143
0.03937007874016
147
0.625
171
     3
172
     1
178
     0
271
     2
272
     2
274
     3
278
    44
283
     0
284
     8
340
11
  0
DIMSTYLE
105
CF
102
{ACAD_REACTORS
330
CE
102
}
330
A
100
AcDbSymbolTableRecord
100
AcDbDimStyleTableRecord
  2
SLDDIMSTYLE0
 70
     0
 41
3.302
 44
0.0
 45
0.000000001
 73
     0
 74
     0
 77
     1
 78
    12
 79
     3
140
3.5
147
0.875
172
     1
173
     1
178
     0
271
     1
272
     1
276
     2
284
    12
289
     0
340
97
  0
DIMSTYLE
105
DD
102
{ACAD_REACTORS
330
DC
330
F5
330
15E
102
}
330
A
100
AcDbSymbolTableRecord
100
AcDbDimStyleTableRecord
  2
SLDDIMSTYLE1
 70
     0
 41
3.302
 44
0.0
 45
0.000000001
 73
     0
 74
     0
 77
     1
 78
    12
 79
     3
140
3.5
147
0.875
173
     1
178
     0
271
     2
272
     2
276
     2
284
    12
340
97
  0
DIMSTYLE
105
E8
102
{ACAD_REACTORS
330
E7
102
}
330
A
100
AcDbSymbolTableRecord
100
AcDbDimStyleTableRecord
  2
SLDDIMSTYLE2
 70
     0
 41
3.302
 44
0.0
 45
0.000000001
 73
     0
 74
     0
 77
     1
 78
    12
 79
     3
140
3.5
147
0.875
172
     1
173
     1
178
     0
271
     2
272
     2
276
     2
284
    12
289
     0
340
97
  0
ENDTAB
  0
TABLE
  2
BLOCK_RECORD
  5
1
330
0
100
AcDbSymbolTable
 70
     8
  0
BLOCK_RECORD
  5
1F
102
{ACAD_XDICTIONARY
360
156
102
}
330
1
100
AcDbSymbolTableRecord
100
AcDbBlockTableRecord
  2
*Model_Space
340
22
  0
BLOCK_RECORD
  5
1B
330
1
100
AcDbSymbolTableRecord
100
AcDbBlockTableRecord
  2
*Paper_Space
340
1E
  0
BLOCK_RECORD
  5
23
330
1
100
AcDbSymbolTableRecord
100
AcDbBlockTableRecord
  2
*Paper_Space0
340
26
  0
BLOCK_RECORD
  5
82
330
1
100
AcDbSymbolTableRecord
100
AcDbBlockTableRecord
  2
블럭10
340
0
102
{BLKREFS
331
C7
102
}
  0
BLOCK_RECORD
  5
D0
330
1
100
AcDbSymbolTableRecord
100
AcDbBlockTableRecord
  2
_D
340
0
  0
BLOCK_RECORD
  5
DE
330
1
100
AcDbSymbolTableRecord
100
AcDbBlockTableRecord
  2
_D_1
340
0
  0
BLOCK_RECORD
  5
E9
330
1
100
AcDbSymbolTableRecord
100
AcDbBlockTableRecord
  2
_D_2
340
0
  0
BLOCK_RECORD
  5
F6
330
1
100
AcDbSymbolTableRecord
100
AcDbBlockTableRecord
  2
_D_3
340
0
  0
BLOCK_RECORD
  5
FF
330
1
100
AcDbSymbolTableRecord
100
AcDbBlockTableRecord
  2
SW_DOWELSYMBOL_0
340
0
102
{BLKREFS
331
105
102
}
  0
BLOCK_RECORD
  5
161
330
1
100
AcDbSymbolTableRecord
100
AcDbBlockTableRecord
  2
*D7
340
0
  0
ENDTAB
  0
ENDSEC
  0
SECTION
  2
BLOCKS
  0
BLOCK
  5
20
330
1F
100
AcDbEntity
  8
0
100
AcDbBlockBegin
  2
*Model_Space
 70
     0
 10
0.0
 20
0.0
 30
0.0
  3
*Model_Space
  1

  0
ENDBLK
  5
21
330
1F
100
AcDbEntity
  8
0
100
AcDbBlockEnd
  0
BLOCK
  5
1C
330
1B
100
AcDbEntity
 67
     1
  8
0
100
AcDbBlockBegin
  2
*Paper_Space
 70
     0
 10
0.0
 20
0.0
 30
0.0
  3
*Paper_Space
  1

  0
ENDBLK
  5
1D
330
1B
100
AcDbEntity
 67
     1
  8
0
100
AcDbBlockEnd
  0
BLOCK
  5
24
330
23
100
AcDbEntity
  8
0
100
AcDbBlockBegin
  2
*Paper_Space0
 70
     0
 10
0.0
 20
0.0
 30
0.0
  3
*Paper_Space0
  1

  0
ENDBLK
  5
25
330
23
100
AcDbEntity
  8
0
100
AcDbBlockEnd
  0
BLOCK
  5
83
330
82
100
AcDbEntity
  8
0
100
AcDbBlockBegin
  2
블럭10
 70
     2
 10
0.0
 20
0.0
 30
0.0
  3
블럭10
  1

  0
ELLIPSE
  5
85
330
82
100
AcDbEntity
  8
중심선
100
AcDbEllipse
 10
20.54032771741204
 20
12.0471743016438
 30
0.0
 11
6.600054785286829
 21
-1.261213355974178E-13
 31
0.0
210
0.0
220
0.0
230
1.0
 40
0.636358354079598
 41
0.9219305317359503
 42
6.513795318482858
  0
ELLIPSE
  5
86
330
82
100
AcDbEntity
  8
중심선
100
AcDbEllipse
 10
20.54032771746488
 20
12.04717430159265
 30
0.0
 11
3.960054785062283
 21
1.540847449632565E-10
 31
0.0
210
0.0
220
0.0
230
1.0
 40
0.3939339440162632
 41
1.131841032648279
 42
5.62031148352944
  0
LINE
  5
87
330
82
100
AcDbEntity
  8
중심선
100
AcDbLine
 10
2.268634060543552
 20
16.24717430164393
 30
0.0
 11
5.714909304380834
 21
16.24717430164393
 31
0.0
  0
LINE
  5
88
330
82
100
AcDbEntity
  8
중심선
100
AcDbLine
 10
5.245725140726316
 20
7.84717430164391
 30
0.0
 11
8.692000384563599
 21
7.84717430164391
 31
0.0
  0
LINE
  5
89
330
82
100
AcDbEntity
  8
중심선
100
AcDbLine
 10
15.74043728645272
 20
16.24717430164393
 30
0.0
 11
8.692000384563599
 21
7.84717430164391
 31
0.0
  0
LINE
  5
8A
330
82
100
AcDbEntity
  8
중심선
100
AcDbLine
 10
0.1404042013395286
 20
13.71084872107135
 30
0.0
 11
3.58671253028996
 21
13.71088815037384
 31
0.0
  0
LINE
  5
8B
330
82
100
AcDbEntity
  8
중심선
100
AcDbLine
 10
2.750260043222114
 20
10.84717430164391
 30
0.0
 11
6.196535287059397
 21
10.84717430164391
 31
0.0
  0
LINE
  5
8C
330
82
100
AcDbEntity
  8
중심선
100
AcDbLine
 10
12.29416204261559
 20
16.24717430164393
 30
0.0
 11
5.245725140726316
 21
7.84717430164391
 31
0.0
  0
LINE
  5
8D
330
82
100
AcDbEntity
  8
중심선
100
AcDbLine
 10
10.72767329541681
 20
16.24717430164393
 30
0.0
 11
6.196535287059397
 21
10.84717430164391
 31
0.0
  0
LINE
  5
8E
330
82
100
AcDbEntity
  8
중심선
100
AcDbLine
 10
7.28139805157953
 20
16.24717430164393
 30
0.0
 11
2.750260043222114
 21
10.84717430164391
 31
0.0
  0
LINE
  5
8F
330
82
100
AcDbEntity
  8
중심선
100
AcDbLine
 10
5.714909304380834
 20
16.24717430164393
 30
0.0
 11
3.58671253028996
 21
13.71088815037384
 31
0.0
  0
LINE
  5
90
330
82
100
AcDbEntity
  8
중심선
100
AcDbLine
 10
2.268634060543552
 20
16.24717430164393
 30
0.0
 11
0.1404042013395286
 21
13.71084872107135
 31
0.0
  0
LINE
  5
91
330
82
100
AcDbEntity
  8
중심선
100
AcDbLine
 10
7.28139805157953
 20
16.24717430164393
 30
0.0
 11
10.72767329541681
 21
16.24717430164393
 31
0.0
  0
LINE
  5
92
330
82
100
AcDbEntity
  8
중심선
100
AcDbLine
 10
12.29416204261559
 20
16.24717430164393
 30
0.0
 11
15.74043728645272
 21
16.24717430164393
 31
0.0
  0
LINE
  5
93
330
82
100
AcDbEntity
  8
중심선
100
AcDbLine
 10
19.22036997980202
 20
11.08717430171403
 30
0.0
 11
23.66174974927406
 21
11.08717430171406
 31
0.0
  0
LINE
  5
94
330
82
100
AcDbEntity
  8
중심선
100
AcDbLine
 10
19.22039502424796
 20
13.00717430171391
 30
0.0
 11
19.22036997980202
 21
11.08717430171403
 31
0.0
  0
LINE
  5
95
330
82
100
AcDbEntity
  8
중심선
100
AcDbLine
 10
19.22039502424796
 20
13.00717430171391
 30
0.0
 11
26.96566020931264
 21
13.00717430171391
 31
0.0
  0
LINE
  5
96
330
82
100
AcDbEntity
  8
중심선
100
AcDbLine
 10
22.22332737316547
 20
13.45928029700563
 30
0.0
 11
24.52862924686651
 21
15.39360700705356
 31
0.0
  0
ATTDEF
  5
98
330
82
100
AcDbEntity
  8
FORMAT
 62
     2
100
AcDbText
 10
-12.95993919485777
 20
2.075366912832191
 30
0.0
 40
4.233333333333333
  1
SEME36120E [ 4 FLUTE ]
 41
0.75
  7
SLDTEXTSTYLE0
 11
-12.95993919485777
 21
-0.0412997538344756
 31
0.0
100
AcDbAttributeDefinition
  3

  2
AUTOATTR0
 70
     0
 74
     1
  0
ENDBLK
  5
84
330
82
100
AcDbEntity
  8
0
100
AcDbBlockEnd
  0
BLOCK
  5
D1
330
D0
100
AcDbEntity
  8
0
100
AcDbBlockBegin
  2
_D
 70
     0
 10
0.0
 20
0.0
 30
0.0
  3
_D
  1

  0
LINE
  5
D3
330
D0
100
AcDbEntity
  8
치수문자_일반주서
 62
     0
370
    -2
100
AcDbLine
 10
38.21250000000003
 20
-6.000000000000004
 30
0.0
 11
51.15000000000003
 21
-5.999999999999956
 31
0.0
  0
LINE
  5
D4
330
D0
100
AcDbEntity
  8
치수문자_일반주서
 62
     0
370
    -2
100
AcDbLine
 10
38.21250000000003
 20
6.000000000000002
 30
0.0
 11
51.14999999999999
 21
6.00000000000005
 31
0.0
  0
LINE
  5
D5
330
D0
100
AcDbEntity
  8
치수문자_일반주서
 62
     0
370
    -2
100
AcDbLine
 10
51.15000000000002
 20
-2.697999999999956
 30
0.0
 11
51.15000000000001
 21
2.69800000000005
 31
0.0
  0
SOLID
  5
D6
330
D0
100
AcDbEntity
  8
치수문자_일반주서
 62
     0
100
AcDbTrace
 10
50.59966666666669
 20
-2.697999999999958
 30
0.0
 11
51.70033333333335
 21
-2.697999999999955
 31
0.0
 12
51.15000000000003
 22
-5.999999999999956
 32
0.0
 13
51.15000000000003
 23
-5.999999999999956
 33
0.0
  0
SOLID
  5
D7
330
D0
100
AcDbEntity
  8
치수문자_일반주서
 62
     0
100
AcDbTrace
 10
51.70033333333334
 20
2.698000000000051
 30
0.0
 11
50.59966666666667
 21
2.698000000000048
 31
0.0
 12
51.14999999999999
 22
6.00000000000005
 32
0.0
 13
51.14999999999999
 23
6.00000000000005
 33
0.0
  0
MTEXT
  5
D8
330
D0
100
AcDbEntity
  8
치수문자_일반주서
 62
     0
100
AcDbMText
 10
46.77500000000001
 20
-0.0000000000000126
 30
0.0
 40
3.5
 41
0.0
 71
     2
 72
     1
  1
\A1;%%c12
  7
SLDTEXTSTYLE0
 11
-3.552713678800499E-15
 21
1.0
 31
0.0
 73
     1
 44
1.0
  0
POINT
  5
D9
330
D0
100
AcDbEntity
  8
Defpoints
 62
     0
100
AcDbPoint
 10
38.15000000000003
 20
-6.000000000000004
 30
0.0
  0
POINT
  5
DA
330
D0
100
AcDbEntity
  8
Defpoints
 62
     0
100
AcDbPoint
 10
38.15000000000003
 20
6.000000000000002
 30
0.0
  0
POINT
  5
DB
330
D0
100
AcDbEntity
  8
Defpoints
 62
     0
100
AcDbPoint
 10
51.14999999999999
 20
6.000000000000051
 30
0.0
  0
ENDBLK
  5
D2
330
D0
100
AcDbEntity
  8
0
100
AcDbBlockEnd
  0
BLOCK
  5
DF
330
DE
100
AcDbEntity
  8
0
100
AcDbBlockBegin
  2
_D_1
 70
     0
 10
0.0
 20
0.0
 30
0.0
  3
_D_1
  1

  0
LINE
  5
E1
330
DE
100
AcDbEntity
  8
치수문자_일반주서
 62
     0
370
    -2
100
AcDbLine
 10
-41.85000000000002
 20
5.562499999999994
 30
0.0
 11
-41.85000000000001
 21
20.32836952549911
 31
0.0
  0
LINE
  5
E2
330
DE
100
AcDbEntity
  8
치수문자_일반주서
 62
     0
370
    -2
100
AcDbLine
 10
38.14999999999999
 20
-0.4374999999999982
 30
0.0
 11
38.15
 21
20.32836952549911
 31
0.0
  0
LINE
  5
E3
330
DE
100
AcDbEntity
  8
치수문자_일반주서
 62
     0
370
    -2
100
AcDbLine
 10
-38.54800000000001
 20
20.32836952549911
 30
0.0
 11
34.848
 21
20.32836952549911
 31
0.0
  0
SOLID
  5
E4
330
DE
100
AcDbEntity
  8
치수문자_일반주서
 62
     0
100
AcDbTrace
 10
-38.54800000000001
 20
20.87870285883244
 30
0.0
 11
-38.54800000000001
 21
19.77803619216578
 31
0.0
 12
-41.85000000000001
 22
20.32836952549911
 32
0.0
 13
-41.85000000000001
 23
20.32836952549911
 33
0.0
  0
SOLID
  5
E5
330
DE
100
AcDbEntity
  8
치수문자_일반주서
 62
     0
100
AcDbTrace
 10
34.848
 20
19.77803619216578
 30
0.0
 11
34.848
 21
20.87870285883244
 31
0.0
 12
38.15
 22
20.32836952549911
 32
0.0
 13
38.15
 23
20.32836952549911
 33
0.0
  0
MTEXT
  5
E6
330
DE
100
AcDbEntity
  8
치수문자_일반주서
 62
     0
100
AcDbMText
 10
-1.850000000000005
 20
24.70336952549911
 30
0.0
 40
3.5
 41
0.0
 71
     2
 72
     1
  1
\A1;80
  7
SLDTEXTSTYLE0
 73
     1
 44
1.0
  0
POINT
  5
12B
330
DE
100
AcDbEntity
  8
Defpoints
 62
     0
100
AcDbPoint
 10
-41.85000000000002
 20
5.499999999999994
 30
0.0
  0
POINT
  5
12C
330
DE
100
AcDbEntity
  8
Defpoints
 62
     0
100
AcDbPoint
 10
38.14999999999999
 20
-0.4999999999999982
 30
0.0
  0
POINT
  5
12D
330
DE
100
AcDbEntity
  8
Defpoints
 62
     0
100
AcDbPoint
 10
38.14999999999999
 20
20.32836952549911
 30
0.0
  0
ENDBLK
  5
E0
330
DE
100
AcDbEntity
  8
0
100
AcDbBlockEnd
  0
BLOCK
  5
EA
330
E9
100
AcDbEntity
  8
0
100
AcDbBlockBegin
  2
_D_2
 70
     0
 10
0.0
 20
0.0
 30
0.0
  3
_D_2
  1

  0
LINE
  5
EC
330
E9
100
AcDbEntity
  8
치수문자_일반주서
 62
     0
370
    -2
100
AcDbLine
 10
-41.41250000000002
 20
6.000000000000004
 30
0.0
 11
-55.34263956161994
 21
5.999999999999956
 31
0.0
  0
LINE
  5
ED
330
E9
100
AcDbEntity
  8
치수문자_일반주서
 62
     0
370
    -2
100
AcDbLine
 10
-41.41250000000002
 20
-6.000000000000006
 30
0.0
 11
-55.3426395616199
 21
-6.000000000000057
 31
0.0
  0
LINE
  5
EE
330
E9
100
AcDbEntity
  8
치수문자_일반주서
 62
     0
370
    -2
100
AcDbLine
 10
-55.34263956161993
 20
2.697999999999956
 30
0.0
 11
-55.34263956161991
 21
-2.698000000000057
 31
0.0
  0
SOLID
  5
EF
330
E9
100
AcDbEntity
  8
치수문자_일반주서
 62
     0
100
AcDbTrace
 10
-54.79230622828659
 20
2.697999999999957
 30
0.0
 11
-55.89297289495326
 21
2.697999999999954
 31
0.0
 12
-55.34263956161994
 22
5.999999999999956
 32
0.0
 13
-55.34263956161994
 23
5.999999999999956
 33
0.0
  0
SOLID
  5
F0
330
E9
100
AcDbEntity
  8
치수문자_일반주서
 62
     0
100
AcDbTrace
 10
-55.89297289495325
 20
-2.698000000000059
 30
0.0
 11
-54.79230622828658
 21
-2.698000000000055
 31
0.0
 12
-55.3426395616199
 22
-6.000000000000057
 32
0.0
 13
-55.3426395616199
 23
-6.000000000000057
 33
0.0
  0
MTEXT
  5
F1
330
E9
100
AcDbEntity
  8
치수문자_일반주서
 62
     0
100
AcDbMText
 10
-59.71763956161991
 20
-2.179391697609249
 30
0.0
 40
3.5
 41
0.0
 71
     2
 72
     1
  1
\A1;%%c12
  7
SLDTEXTSTYLE0
 11
-3.552713678800497E-15
 21
1.0
 31
0.0
 73
     1
 44
1.0
  0
POINT
  5
F2
330
E9
100
AcDbEntity
  8
Defpoints
 62
     0
100
AcDbPoint
 10
-41.35000000000002
 20
6.000000000000004
 30
0.0
  0
POINT
  5
F3
330
E9
100
AcDbEntity
  8
Defpoints
 62
     0
100
AcDbPoint
 10
-41.35000000000002
 20
-6.000000000000006
 30
0.0
  0
POINT
  5
F4
330
E9
100
AcDbEntity
  8
Defpoints
 62
     0
100
AcDbPoint
 10
-55.34263956161989
 20
-6.000000000000059
 30
0.0
  0
ENDBLK
  5
EB
330
E9
100
AcDbEntity
  8
0
100
AcDbBlockEnd
  0
BLOCK
  5
F7
330
F6
100
AcDbEntity
  8
0
100
AcDbBlockBegin
  2
_D_3
 70
     0
 10
0.0
 20
0.0
 30
0.0
  3
_D_3
  1

  0
LINE
  5
F9
330
F6
100
AcDbEntity
  8
치수문자_일반주서
 62
     0
370
    -2
100
AcDbLine
 10
38.14999999999999
 20
6.041630371550702
 30
0.0
 11
38.14999999999999
 21
9.265451744897343
 31
0.0
  0
LINE
  5
FA
330
F6
100
AcDbEntity
  8
치수문자_일반주서
 62
     0
370
    -2
100
AcDbLine
 10
8.149999999999993
 20
6.059507098930053
 30
0.0
 11
8.149999999999993
 21
9.265451744897343
 31
0.0
  0
LINE
  5
FB
330
F6
100
AcDbEntity
  8
치수문자_일반주서
 62
     0
370
    -2
100
AcDbLine
 10
34.84799999999999
 20
9.265451744897343
 30
0.0
 11
11.45199999999999
 21
9.265451744897343
 31
0.0
  0
SOLID
  5
FC
330
F6
100
AcDbEntity
  8
치수문자_일반주서
 62
     0
100
AcDbTrace
 10
34.84799999999999
 20
8.71511841156401
 30
0.0
 11
34.84799999999999
 21
9.815785078230675
 31
0.0
 12
38.14999999999999
 22
9.265451744897343
 32
0.0
 13
38.14999999999999
 23
9.265451744897343
 33
0.0
  0
SOLID
  5
FD
330
F6
100
AcDbEntity
  8
치수문자_일반주서
 62
     0
100
AcDbTrace
 10
11.45199999999999
 20
9.815785078230675
 30
0.0
 11
11.45199999999999
 21
8.71511841156401
 31
0.0
 12
8.149999999999993
 22
9.265451744897343
 32
0.0
 13
8.149999999999993
 23
9.265451744897343
 33
0.0
  0
MTEXT
  5
FE
330
F6
100
AcDbEntity
  8
치수문자_일반주서
 62
     0
100
AcDbMText
 10
23.14999999999999
 20
13.64045174489734
 30
0.0
 40
3.5
 41
0.0
 71
     2
 72
     1
  1
\A1;30
  7
SLDTEXTSTYLE0
 73
     1
 44
1.0
  0
POINT
  5
12E
330
F6
100
AcDbEntity
  8
Defpoints
 62
     0
100
AcDbPoint
 10
38.14999999999999
 20
5.979130371550702
 30
0.0
  0
POINT
  5
12F
330
F6
100
AcDbEntity
  8
Defpoints
 62
     0
100
AcDbPoint
 10
8.149999999999993
 20
5.997007098930053
 30
0.0
  0
POINT
  5
130
330
F6
100
AcDbEntity
  8
Defpoints
 62
     0
100
AcDbPoint
 10
8.149999999999993
 20
9.265451744897343
 30
0.0
  0
ENDBLK
  5
F8
330
F6
100
AcDbEntity
  8
0
100
AcDbBlockEnd
  0
BLOCK
  5
100
330
FF
100
AcDbEntity
  8
0
100
AcDbBlockBegin
  2
SW_DOWELSYMBOL_0
 70
     0
 10
0.0
 20
0.0
 30
0.0
  3
SW_DOWELSYMBOL_0
  1

  0
CIRCLE
  5
102
330
FF
100
AcDbEntity
  8
해칭선
 62
     0
100
AcDbCircle
 10
0.0
 20
0.0
 30
0.0
 40
3.000000000000001
  0
HATCH
  5
103
330
FF
100
AcDbEntity
  8
0
  6
Continuous
 62
     0
370
    18
100
AcDbHatch
 10
0.0
 20
0.0
 30
0.0
210
0.0
220
0.0
230
1.0
  2
SOLID
 70
     1
 71
     0
 91
        1
 92
        0
 93
        3
 72
     2
 10
0.0
 20
0.0
 40
3.000000000000001
 50
0.0
 51
90.0
 73
     1
 72
     1
 10
0.0
 20
3.000000000000001
 11
0.0
 21
0.0
 72
     1
 10
0.0
 20
0.0
 11
3.000000000000001
 21
0.0
 97
        0
 75
     0
 76
     1
 98
        1
 10
0.0
 20
0.0
  0
HATCH
  5
104
330
FF
100
AcDbEntity
  8
0
  6
Continuous
 62
     0
370
    18
100
AcDbHatch
 10
0.0
 20
0.0
 30
0.0
210
0.0
220
0.0
230
1.0
  2
SOLID
 70
     1
 71
     0
 91
        1
 92
        0
 93
        3
 72
     2
 10
0.0
 20
0.0
 40
3.000000000000001
 50
180.0
 51
270.0000000000007
 73
     1
 72
     1
 10
0.0
 20
-3.000000000000001
 11
0.0
 21
0.0
 72
     1
 10
0.0
 20
0.0
 11
-3.000000000000001
 21
0.0
 97
        0
 75
     0
 76
     1
 98
        1
 10
0.0
 20
0.0
  0
ENDBLK
  5
101
330
FF
100
AcDbEntity
  8
0
100
AcDbBlockEnd
  0
BLOCK
  5
162
330
161
100
AcDbEntity
  8
0
100
AcDbBlockBegin
  2
*D7
 70
     1
 10
0.0
 20
0.0
 30
0.0
  3
*D7
  1

  0
LINE
  5
164
330
161
100
AcDbEntity
  8
치수문자_일반주서
 62
     0
370
    -2
100
AcDbLine
 10
0.1499999999999932
 20
5.9125
 30
0.0
 11
0.1499999999999915
 21
14.75
 31
0.0
  0
LINE
  5
165
330
161
100
AcDbEntity
  8
치수문자_일반주서
 62
     0
370
    -2
100
AcDbLine
 10
38.14999999999999
 20
6.104130371550702
 30
0.0
 11
38.14999999999999
 21
14.75
 31
0.0
  0
LINE
  5
166
330
161
100
AcDbEntity
  8
치수문자_일반주서
 62
     0
370
    -2
100
AcDbLine
 10
3.451999999999992
 20
14.75
 30
0.0
 11
34.84799999999999
 21
14.75
 31
0.0
  0
SOLID
  5
167
330
161
100
AcDbEntity
  8
치수문자_일반주서
 62
     0
100
AcDbTrace
 10
3.451999999999992
 20
15.30033333333333
 30
0.0
 11
3.451999999999992
 21
14.19966666666667
 31
0.0
 12
0.1499999999999915
 22
14.75
 32
0.0
 13
0.1499999999999915
 23
14.75
 33
0.0
  0
SOLID
  5
168
330
161
100
AcDbEntity
  8
치수문자_일반주서
 62
     0
100
AcDbTrace
 10
34.84799999999999
 20
14.19966666666667
 30
0.0
 11
34.84799999999999
 21
15.30033333333333
 31
0.0
 12
38.14999999999999
 22
14.75
 32
0.0
 13
38.14999999999999
 23
14.75
 33
0.0
  0
MTEXT
  5
169
330
161
100
AcDbEntity
  8
치수문자_일반주서
 62
     0
100
AcDbMText
 10
18.59133577752271
 20
17.375
 30
0.0
 40
3.5
 41
0.0
 71
     5
 72
     1
  1
\A1;38
  7
SLDTEXTSTYLE0
 73
     1
 44
1.0
  0
POINT
  5
16A
330
161
100
AcDbEntity
  8
Defpoints
 62
     0
100
AcDbPoint
 10
0.1499999999999932
 20
5.85
 30
0.0
  0
POINT
  5
16B
330
161
100
AcDbEntity
  8
Defpoints
 62
     0
100
AcDbPoint
 10
38.14999999999999
 20
6.041630371550702
 30
0.0
  0
POINT
  5
16C
330
161
100
AcDbEntity
  8
Defpoints
 62
     0
100
AcDbPoint
 10
38.14999999999999
 20
14.75
 30
0.0
  0
ENDBLK
  5
163
330
161
100
AcDbEntity
  8
0
100
AcDbBlockEnd
  0
ENDSEC
  0
SECTION
  2
ENTITIES
  0
LINE
  5
99
330
1F
100
AcDbEntity
  8
0
  6
Continuous
 62
     4
370
    25
100
AcDbLine
 10
-0.0000000000000062
 20
5.999999999999999
 30
0.0
 11
-41.35000000000002
 21
5.999999999999997
 31
0.0
  0
LINE
  5
9A
330
1F
100
AcDbEntity
  8
0
  6
Continuous
 62
     4
370
    25
100
AcDbLine
 10
-41.35000000000002
 20
-6.000000000000003
 30
0.0
 11
0.0000000000000018
 21
-6.000000000000001
 31
0.0
  0
LINE
  5
9B
330
1F
100
AcDbEntity
  8
0
  6
Continuous
 62
     4
370
    25
100
AcDbLine
 10
-41.35000000000002
 20
5.999999999999992
 30
0.0
 11
-41.85000000000002
 21
5.499999999999994
 31
0.0
  0
LINE
  5
9C
330
1F
100
AcDbEntity
  8
0
  6
Continuous
 62
     4
370
    25
100
AcDbLine
 10
-41.85000000000002
 20
-5.500000000000001
 30
0.0
 11
-41.35000000000002
 21
-5.999999999999999
 31
0.0
  0
LINE
  5
9D
330
1F
100
AcDbEntity
  8
0
  6
Continuous
 62
     1
370
    25
100
AcDbLine
 10
35.82946597303622
 20
-6.000000000000003
 30
0.0
 11
38.14999999999999
 21
-6.000000000000003
 31
0.0
1001
PE_URL
1000

  0
LINE
  5
9E
330
1F
100
AcDbEntity
  8
0
  6
Continuous
 62
     1
370
    25
100
AcDbLine
 10
24.14648673762861
 20
6.000000000000003
 30
0.0
 11
19.50378276573095
 21
6.000000000000003
 31
0.0
1001
PE_URL
1000

  0
LINE
  5
9F
330
1F
100
AcDbEntity
  8
0
  6
Continuous
 62
     1
370
    25
100
AcDbLine
 10
19.50378276573085
 20
-6.000000000000003
 30
0.0
 11
24.14648673762859
 21
-6.000000000000003
 31
0.0
1001
PE_URL
1000

  0
LINE
  5
A0
330
1F
100
AcDbEntity
  8
0
  6
Continuous
 62
     1
370
    25
100
AcDbLine
 10
38.14999999999999
 20
6.000000000000003
 30
0.0
 11
35.82946597303622
 21
6.000000000000003
 31
0.0
1001
PE_URL
1000

  0
SPLINE
  5
A3
330
1F
100
AcDbEntity
  8
0
  6
Continuous
 62
     4
370
    25
100
AcDbSpline
210
0.0
220
0.0
230
1.0
 70
    24
 71
     3
 72
    12
 73
     8
 74
     0
 42
0.000000001
 43
0.00000001
 40
0.0
 40
0.0
 40
0.0
 40
0.0
 40
0.5
 40
0.5
 40
0.75
 40
0.75
 40
1.0
 40
1.0
 40
1.0
 40
1.0
 10
8.149999999999991
 20
5.303933326390808
 30
0.0
 10
8.149999999999991
 20
4.968439724180152
 30
0.0
 10
8.149999999999991
 20
4.622937258720168
 30
0.0
 10
8.149999999999991
 20
4.089082848353492
 30
0.0
 10
8.149999999999991
 20
3.908871787530129
 30
0.0
 10
8.149999999999991
 20
3.552043497466583
 30
0.0
 10
8.149999999999991
 20
3.3743317967748
 30
0.0
 10
8.149999999999991
 20
-5.997007098930061
 30
0.0
  0
LINE
  5
AB
330
1F
100
AcDbEntity
  8
0
  6
Continuous
 62
     4
370
    25
100
AcDbLine
 10
-41.35000000000002
 20
5.999999999999992
 30
0.0
 11
-41.35000000000002
 21
-5.999999999999999
 31
0.0
  0
LINE
  5
AC
330
1F
100
AcDbEntity
  8
0
  6
Continuous
 62
     4
370
    25
100
AcDbLine
 10
8.149999999999991
 20
5.997007098930061
 30
0.0
 11
8.149999999999991
 21
5.303933326390804
 31
0.0
  0
LINE
  5
AD
330
1F
100
AcDbEntity
  8
0
  6
Continuous
 62
     4
370
    25
100
AcDbLine
 10
8.149999999999991
 20
-0.1894884043483786
 30
0.0
 11
8.149999999999991
 21
-2.80504746291418
 31
0.0
  0
LINE
  5
AE
330
1F
100
AcDbEntity
  8
0
  6
Continuous
 62
     4
370
    25
100
AcDbLine
 10
-41.85000000000002
 20
5.499999999999994
 30
0.0
 11
-41.85000000000002
 21
-5.500000000000006
 31
0.0
  0
SPLINE
  5
AF
330
1F
100
AcDbEntity
  8
0
  6
Continuous
 62
     1
370
    25
100
AcDbSpline
210
0.0
220
0.0
230
1.0
 70
     8
 71
     3
 72
    23
 73
    19
 74
     0
 42
0.000000001
 43
0.00000001
 40
0.0
 40
0.0
 40
0.0
 40
0.0
 40
0.066508290978114
 40
0.1330434240915103
 40
0.199545120357211
 40
0.2660206493675878
 40
0.332485898166181
 40
0.3977690158788554
 40
0.4630799922075368
 40
0.528431080956442
 40
0.5937523934699938
 40
0.660375099554953
 40
0.7269862687956022
 40
0.7936012720246522
 40
0.8602354615881025
 40
0.9269040974419065
 40
0.9935750501500105
 40
1.0
 40
1.0
 40
1.0
 40
1.0
 10
8.149999999999988
 20
5.326828363834304
 30
0.0
 10
8.763644195603653
 20
5.147663479332608
 30
0.0
 10
9.991180247971283
 20
4.789261401027664
 30
0.0
 10
11.83260252979535
 20
4.05752878236581
 30
0.0
 10
13.67340084536056
 20
3.210578979088066
 30
0.0
 10
15.51342969119751
 20
2.26010175986403
 30
0.0
 10
17.34216776384477
 20
1.245926418248419
 30
0.0
 10
19.16014002932357
 20
0.1995458980945052
 30
0.0
 10
20.96797690365236
 20
-0.8466530062764077
 30
0.0
 10
22.77654049042806
 20
-1.866881654209448
 30
0.0
 10
24.59689631632043
 20
-2.83774140394502
 30
0.0
 10
26.42875622690588
 20
-3.727480313938168
 30
0.0
 10
28.27248027645595
 20
-4.506376343944495
 30
0.0
 10
30.11633651579896
 20
-5.142316552003534
 30
0.0
 10
31.96081682148667
 20
-5.622024452864165
 30
0.0
 10
33.80604917058122
 20
-5.905376422565961
 30
0.0
 10
35.09578228965096
 20
-6.025013421133543
 30
0.0
 10
35.77018742245788
 20
-5.994467738460753
 30
0.0
 10
35.82946597303622
 20
-5.991782848166796
 30
0.0
  0
LINE
  5
B0
330
1F
100
AcDbEntity
  8
0
  6
Continuous
 62
     4
370
    25
100
AcDbLine
 10
8.149999999999991
 20
5.326828363834346
 30
0.0
 11
8.149999999999993
 21
5.997007098930053
 31
0.0
  0
SPLINE
  5
B1
330
1F
100
AcDbEntity
  8
0
  6
Continuous
 62
     1
370
    25
100
AcDbSpline
210
0.0
220
0.0
230
1.0
 70
     8
 71
     3
 72
    56
 73
    52
 74
     0
 42
0.000000001
 43
0.00000001
 40
0.0
 40
0.0
 40
0.0
 40
0.0
 40
0.0625000000000002
 40
0.0625000000000002
 40
0.0937500000000003
 40
0.0937500000000003
 40
0.1250000000000004
 40
0.1250000000000004
 40
0.1562500000000005
 40
0.1562500000000005
 40
0.1875000000000006
 40
0.1875000000000006
 40
0.2500000000000005
 40
0.2500000000000005
 40
0.2812500000000003
 40
0.2812500000000003
 40
0.3125000000000001
 40
0.3125000000000001
 40
0.3437499999999999
 40
0.3437499999999999
 40
0.3749999999999998
 40
0.3749999999999998
 40
0.4374999999999994
 40
0.4374999999999994
 40
0.499999999999999
 40
0.499999999999999
 40
0.531249999999999
 40
0.531249999999999
 40
0.5624999999999989
 40
0.5624999999999989
 40
0.5937499999999988
 40
0.5937499999999988
 40
0.6249999999999986
 40
0.6249999999999986
 40
0.6874999999999986
 40
0.6874999999999986
 40
0.7187499999999987
 40
0.7187499999999987
 40
0.7499999999999988
 40
0.7499999999999988
 40
0.7812499999999989
 40
0.7812499999999989
 40
0.8124999999999991
 40
0.8124999999999991
 40
0.8749999999999993
 40
0.8749999999999993
 40
0.9374999999999997
 40
0.9374999999999997
 40
0.9687499999999999
 40
0.9687499999999999
 40
1.0
 40
1.0
 40
1.0
 40
1.0
 10
38.14999999999998
 20
-5.850994190130126
 30
0.0
 10
37.52844761634759
 20
-5.771224767070075
 30
0.0
 10
36.89804259316638
 20
-5.659197165710767
 30
0.0
 10
35.9620410705764
 20
-5.446655713711679
 30
0.0
 10
35.65153549159283
 20
-5.368461731010142
 30
0.0
 10
35.02573470016682
 20
-5.19732441492387
 30
0.0
 10
34.71191057728536
 20
-5.10448607969044
 30
0.0
 10
34.08624268855554
 20
-4.905405397807487
 30
0.0
 10
33.77586421479234
 20
-4.799348378615719
 30
0.0
 10
33.15164540323573
 20
-4.574145845715068
 30
0.0
 10
32.83799904500556
 20
-4.454995888254892
 30
0.0
 10
31.89818004288207
 20
-4.080010497985436
 30
0.0
 10
31.2772397623204
 20
-3.807268070328815
 30
0.0
 10
30.33729228040285
 20
-3.368210337645175
 30
0.0
 10
30.0237366034339
 20
-3.217036449163375
 30
0.0
 10
29.39996250352839
 20
-2.906929117296285
 30
0.0
 10
29.08930238186969
 20
-2.747938137391654
 30
0.0
 10
28.46337789465184
 20
-2.42215024796158
 30
0.0
 10
28.14955842062347
 20
-2.255591498432847
 30
0.0
 10
27.52403263496706
 20
-1.917179968850782
 30
0.0
 10
27.21375382275068
 20
-1.745597989415458
 30
0.0
 10
26.2771126046513
 20
-1.223400767905284
 30
0.0
 10
25.6479750528567
 20
-0.865831497640773
 30
0.0
 10
24.40368120700104
 20
-0.1478357889511208
 30
0.0
 10
23.77320766924426
 20
0.2155101970699637
 30
0.0
 10
22.83790055344851
 20
0.7538564272547055
 30
0.0
 10
22.52705845922048
 20
0.9323515921157801
 30
0.0
 10
21.90101948919155
 20
1.287156999167423
 30
0.0
 10
21.58720931263937
 20
1.463198606617522
 30
0.0
 10
20.96183482345651
 20
1.810416437604706
 30
0.0
 10
20.65162822423697
 20
1.981351165923085
 30
0.0
 10
20.02700121786782
 20
2.318162950932594
 30
0.0
 10
19.71328273839126
 20
2.483900510470513
 30
0.0
 10
18.77364767658658
 20
2.970048873240467
 30
0.0
 10
18.15261557691969
 20
3.278858061291251
 30
0.0
 10
17.2125951010138
 20
3.714321493573294
 30
0.0
 10
16.8991486473907
 20
3.854632377545602
 30
0.0
 10
16.27585568891126
 20
4.123913054209518
 30
0.0
 10
15.96480420112112
 20
4.253074068207407
 30
0.0
 10
15.3386599668871
 20
4.500056549997341
 30
0.0
 10
15.02486373597418
 20
4.61768742295244
 30
0.0
 10
14.3996497292387
 20
4.839812123698064
 30
0.0
 10
14.08948789093244
 20
4.94418713109765
 30
0.0
 10
13.15226181389861
 20
5.237558346950688
 30
0.0
 10
12.52430152167366
 20
5.405956137346586
 30
0.0
 10
11.27889082098875
 20
5.681638269785203
 30
0.0
 10
10.64838651126236
 20
5.789801937216923
 30
0.0
 10
9.713828377658404
 20
5.90357870118034
 30
0.0
 10
9.402540085554934
 20
5.93356257010239
 30
0.0
 10
8.776299810895113
 20
5.977453025817375
 30
0.0
 10
8.462522173094634
 20
5.991309129019681
 30
0.0
 10
8.150000000000093
 20
5.997007098928638
 30
0.0
  0
LINE
  5
B2
330
1F
100
AcDbEntity
  8
0
  6
Continuous
 62
     1
370
    25
100
AcDbLine
 10
38.14999999999998
 20
-6.000000000000006
 30
0.0
 11
38.14999999999999
 21
-5.850994190131567
 31
0.0
1001
PE_URL
1000

  0
SPLINE
  5
B3
330
1F
100
AcDbEntity
  8
0
  6
Continuous
 62
     1
370
    25
100
AcDbSpline
210
0.0
220
0.0
230
1.0
 70
     8
 71
     3
 72
    19
 73
    15
 74
     0
 42
0.000000001
 43
0.00000001
 40
0.0
 40
0.0
 40
0.0
 40
0.0
 40
0.0560516356630005
 40
0.1407514436185367
 40
0.2254922622843654
 40
0.3102461550577594
 40
0.3949551422220792
 40
0.481368059317708
 40
0.5677726711408182
 40
0.6541820922342038
 40
0.74060941929574
 40
0.8270676826617043
 40
0.9135507427005805
 40
1.0
 40
1.0
 40
1.0
 40
1.0
 10
29.96602748735427
 20
-5.064595506199254
 30
0.0
 10
29.55844855429442
 20
-5.190394512155206
 30
0.0
 10
28.53497577712898
 20
-5.506288802921908
 30
0.0
 10
26.89528604662864
 20
-5.818016166618778
 30
0.0
 10
25.04665165150193
 20
-6.010209139746678
 30
0.0
 10
23.19784484125766
 20
-6.006334537483573
 30
0.0
 10
21.33719346957573
 20
-5.813462554991153
 30
0.0
 10
19.46456090343622
 20
-5.431055454379339
 30
0.0
 10
17.57961865779227
 20
-4.867945499536034
 30
0.0
 10
15.69454563003613
 20
-4.144973523042538
 30
0.0
 10
13.8090052411004
 20
-3.285894004832023
 30
0.0
 10
11.92279531195495
 20
-2.318723129487836
 30
0.0
 10
10.0362300110346
 20
-1.27609870294388
 30
0.0
 10
8.778661398858363
 20
-0.5516446346768099
 30
0.0
 10
8.150000000000084
 20
-0.189488404348182
 30
0.0
  0
SPLINE
  5
B4
330
1F
100
AcDbEntity
  8
0
  6
Continuous
 62
     1
370
    25
100
AcDbSpline
210
0.0
220
0.0
230
1.0
 70
     8
 71
     3
 72
    21
 73
    17
 74
     0
 42
0.000000001
 43
0.00000001
 40
0.0
 40
0.0
 40
0.0
 40
0.0
 40
0.0007734125255522
 40
0.0779510219565201
 40
0.1551166961357987
 40
0.230909924655698
 40
0.3067354968277272
 40
0.3826076392301471
 40
0.4584452116382153
 40
0.5357936925906048
 40
0.6131287793500113
 40
0.6904683173422809
 40
0.7678301305303227
 40
0.8452319356128681
 40
0.9226364305465361
 40
0.9999999999999999
 40
0.9999999999999999
 40
0.9999999999999999
 40
0.9999999999999999
 10
13.65518207359253
 20
5.073308758434705
 30
0.0
 10
13.6613285469375
 20
5.075454924023712
 30
0.0
 10
14.28082184817052
 20
5.291763550305111
 30
0.0
 10
15.51341519814571
 20
5.580311408948729
 30
0.0
 10
17.34217157003796
 20
5.903833437317044
 30
0.0
 10
19.16013901704506
 20
6.026220651679434
 30
0.0
 10
20.96797717399492
 20
5.970817463546489
 30
0.0
 10
22.77654042224675
 20
5.734016510895288
 30
0.0
 10
24.59689631924531
 20
5.321651100512308
 30
0.0
 10
26.42875628631236
 20
4.741871256570969
 30
0.0
 10
28.27248003631865
 20
4.009309949395473
 30
0.0
 10
30.11633741712502
 20
3.150821234952168
 30
0.0
 10
31.96081345455607
 20
2.193050529414977
 30
0.0
 10
33.80606174378729
 20
1.167082520899636
 30
0.0
 10
35.65135414969408
 20
0.1023326714291997
 30
0.0
 10
36.88125499821347
 20
-0.6045552530660723
 30
0.0
 10
37.49604281049301
 20
-0.957905753759236
 30
0.0
  0
SPLINE
  5
B5
330
1F
100
AcDbEntity
  8
0
  6
Continuous
 62
     1
370
    25
100
AcDbSpline
210
0.0
220
0.0
230
1.0
 70
     8
 71
     3
 72
     8
 73
     4
 74
     0
 42
0.000000001
 43
0.00000001
 40
0.0
 40
0.0
 40
0.0
 40
0.0
 40
1.0
 40
1.0
 40
1.0
 40
1.0
 10
38.14999999999999
 20
-4.474290814540876
 30
0.0
 10
37.1612668397746
 20
-3.917955780000522
 30
0.0
 10
36.22855960571097
 20
-3.235662551569951
 30
0.0
 10
35.33130034237618
 20
-2.473674748217332
 30
0.0
1001
PE_URL
1000

  0
LINE
  5
B6
330
1F
100
AcDbEntity
  8
0
  6
Continuous
 62
     1
370
    25
100
AcDbLine
 10
38.14999999999999
 20
-5.850994190131567
 30
0.0
 11
38.14999999999999
 21
-4.474290814540876
 31
0.0
1001
PE_URL
1000

  0
SPLINE
  5
B7
330
1F
100
AcDbEntity
  8
0
  6
Continuous
 62
     1
370
    25
100
AcDbSpline
210
0.0
220
0.0
230
1.0
 70
    24
 71
     3
 72
    16
 73
    12
 74
     0
 42
0.000000001
 43
0.00000001
 40
0.0
 40
0.0
 40
0.0
 40
0.0
 40
0.1330509223838891
 40
0.2876825575020792
 40
0.3906029798816386
 40
0.4934537076659279
 40
0.5966534115287343
 40
0.6998704028935893
 40
0.7983280591613353
 40
0.8968429368798289
 40
1.0
 40
1.0
 40
1.0
 40
1.0
 10
37.49067244793896
 20
-0.9616661221025082
 30
0.0
 10
37.48550187432429
 20
-0.9652865967243653
 30
0.0
 10
37.47432206576252
 20
-0.9731147829550638
 30
0.0
 10
37.35086707531511
 20
-1.059558897895939
 30
0.0
 10
37.1644418680495
 20
-1.190095233335631
 30
0.0
 10
36.95022168179659
 20
-1.340093822586614
 30
0.0
 10
36.68348741609699
 20
-1.526863166128295
 30
0.0
 10
36.37931462142791
 20
-1.739847249873915
 30
0.0
 10
36.0485845719359
 20
-1.971426923640678
 30
0.0
 10
35.69892731998631
 20
-2.216259567245483
 30
0.0
 10
35.45570884301586
 20
-2.386562978252067
 30
0.0
 10
35.33130034237619
 20
-2.473674748217333
 30
0.0
1001
PE_URL
1000

  0
SPLINE
  5
B8
330
1F
100
AcDbEntity
  8
0
  6
Continuous
 62
     1
370
    25
100
AcDbSpline
210
0.0
220
0.0
230
1.0
 70
     8
 71
     3
 72
    15
 73
    11
 74
     0
 42
0.000000001
 43
0.00000001
 40
0.0
 40
0.0
 40
0.0
 40
0.0
 40
0.1344218853754454
 40
0.2687867272156809
 40
0.4031156417570254
 40
0.5374298820424158
 40
0.6717507570862136
 40
0.8037031422412327
 40
0.9357194172818444
 40
1.0
 40
1.0
 40
1.0
 40
1.0
 10
38.14999999999998
 20
1.328859280377895
 30
0.0
 10
37.52247198703231
 20
1.677808360679509
 30
0.0
 10
36.2676822601167
 20
2.375558440565873
 30
0.0
 10
34.38601684182372
 20
3.333019147116939
 30
0.0
 10
32.50493774481891
 20
4.184713164205889
 30
0.0
 10
30.62411387214845
 20
4.898018254517162
 30
0.0
 10
28.75434549224006
 20
5.450943679329977
 30
0.0
 10
26.89529015797474
 20
5.815774060383367
 30
0.0
 10
25.36294089162936
 20
5.995642855800429
 30
0.0
 10
24.44656790246764
 20
5.981077161771071
 30
0.0
 10
24.14648673762861
 20
5.976307389546535
 30
0.0
1001
PE_URL
1000

  0
LINE
  5
B9
330
1F
100
AcDbEntity
  8
0
  6
Continuous
 62
     1
370
    25
100
AcDbLine
 10
38.14999999999999
 20
-0.5000000000000192
 30
0.0
 11
38.14999999999999
 21
1.32885928037801
 31
0.0
1001
PE_URL
1000

  0
LINE
  5
BA
330
1F
100
AcDbEntity
  8
0
  6
Continuous
 62
     1
370
    25
100
AcDbLine
 10
38.14999999999999
 20
-0.50000000000002
 30
0.0
 11
37.49604281049301
 21
-0.9579057537592484
 31
0.0
1001
PE_URL
1000

  0
SPLINE
  5
BB
330
1F
100
AcDbEntity
  8
0
  6
Continuous
 62
     1
370
    25
100
AcDbSpline
210
0.0
220
0.0
230
1.0
 70
     8
 71
     3
 72
    14
 73
    10
 74
     0
 42
0.000000001
 43
0.00000001
 40
0.0
 40
0.0
 40
0.0
 40
0.0
 40
0.1621391817732055
 40
0.3243438014307369
 40
0.4864669060914651
 40
0.6485262181437074
 40
0.8105604682810731
 40
0.9697128255867223
 40
0.9999999999999999
 40
0.9999999999999999
 40
0.9999999999999999
 40
0.9999999999999999
 10
8.149999999999988
 20
-2.7613220714452
 30
0.0
 10
8.763644216601413
 20
-3.067453416897731
 30
0.0
 10
9.991180310973043
 20
-3.679839659601645
 30
0.0
 10
11.83260227772244
 20
-4.459933963042266
 30
0.0
 10
13.67340178993386
 20
-5.105812363831857
 30
0.0
 10
15.51342616651026
 20
-5.594603619411232
 30
0.0
 10
17.34218081753671
 20
-5.890583449121838
 30
0.0
 10
18.67219551521359
 20
-6.017769058702774
 30
0.0
 10
19.38915660790223
 20
-5.990411440485086
 30
0.0
 10
19.50378276573085
 20
-5.986037564837417
 30
0.0
  0
SPLINE
  5
BC
330
1F
100
AcDbEntity
  8
0
  6
Continuous
 62
     1
370
    25
100
AcDbSpline
210
0.0
220
0.0
230
1.0
 70
     8
 71
     3
 72
    12
 73
     8
 74
     0
 42
0.000000001
 43
0.00000001
 40
0.0
 40
0.0
 40
0.0
 40
0.0
 40
0.0199420789938793
 40
0.2648897274779833
 40
0.5099640007154824
 40
0.7550467907221718
 40
1.0
 40
1.0
 40
1.0
 40
1.0
 10
29.96602748735427
 20
5.064595506199253
 30
0.0
 10
30.01607663844506
 20
5.08194098736668
 30
0.0
 10
30.68087723406071
 20
5.312340224117504
 30
0.0
 10
31.96081793826342
 20
5.609030244671479
 30
0.0
 10
33.80606054780362
 20
5.918173072341764
 30
0.0
 10
35.65135444850991
 20
6.038373218415162
 30
0.0
 10
36.88125509780119
 20
5.961478400771241
 30
0.0
 10
37.49604281049302
 20
5.923041158637575
 30
0.0
1001
PE_URL
1000

  0
SPLINE
  5
BD
330
1F
100
AcDbEntity
  8
0
  6
Continuous
 62
     1
370
    25
100
AcDbSpline
210
0.0
220
0.0
230
1.0
 70
     8
 71
     3
 72
    20
 73
    16
 74
     0
 42
0.000000001
 43
0.00000001
 40
0.0
 40
0.0
 40
0.0
 40
0.0
 40
0.2499999999999997
 40
0.2499999999999997
 40
0.3749999999999997
 40
0.3749999999999997
 40
0.4999999999999998
 40
0.4999999999999998
 40
0.6249999999999998
 40
0.6249999999999998
 40
0.7499999999999999
 40
0.7499999999999999
 40
0.8749999999999999
 40
0.8749999999999999
 40
1.0
 40
1.0
 40
1.0
 40
1.0
 10
37.49604281049301
 20
5.92304115863758
 30
0.0
 10
37.50112885140026
 20
5.54253497923388
 30
0.0
 10
37.46712971161332
 20
5.169800947532966
 30
0.0
 10
37.33707733190623
 20
4.626419842655086
 30
0.0
 10
37.27953167146963
 20
4.446911123490398
 30
0.0
 10
37.1380893569288
 20
4.110784893826111
 30
0.0
 10
37.05394834380398
 20
3.952221520663261
 30
0.0
 10
36.85565846706188
 20
3.656336941975036
 30
0.0
 10
36.74458529726807
 20
3.523839668565564
 30
0.0
 10
36.50152993231174
 20
3.291097136675
 30
0.0
 10
36.36750383993008
 20
3.189532317023825
 30
0.0
 10
36.08775629808969
 20
3.024135119926172
 30
0.0
 10
35.94214789655803
 20
2.959667403985351
 30
0.0
 10
35.64048002212699
 20
2.863956824433934
 30
0.0
 10
35.48578115845349
 20
2.833394590183152
 30
0.0
 10
35.33130034237636
 20
2.818699657623624
 30
0.0
1001
PE_URL
1000

  0
SPLINE
  5
BE
330
1F
100
AcDbEntity
  8
0
  6
Continuous
 62
     1
370
    25
100
AcDbSpline
210
0.0
220
0.0
230
1.0
 70
     8
 71
     3
 72
    10
 73
     6
 74
     0
 42
0.000000001
 43
0.00000001
 40
0.0
 40
0.0
 40
0.0
 40
0.0
 40
0.2859139788440889
 40
0.5728541094390904
 40
1.0
 40
1.0
 40
1.0
 40
1.0
 10
38.14999999999999
 20
1.446523558810441
 30
0.0
 10
37.90851798914181
 20
1.574813068556972
 30
0.0
 10
37.42468728301478
 20
1.831852522008465
 30
0.0
 10
36.59859202917386
 20
2.244361393627255
 30
0.0
 10
36.03398643251495
 20
2.49859418891985
 30
0.0
 10
35.69625546837962
 20
2.650668995788719
 30
0.0
1001
PE_URL
1000

  0
LINE
  5
BF
330
1F
100
AcDbEntity
  8
0
  6
Continuous
 62
     1
370
    25
100
AcDbLine
 10
38.14999999999999
 20
1.333637950769972
 30
0.0
 11
38.14999999999999
 21
1.446523558810441
 31
0.0
1001
PE_URL
1000

  0
SPLINE
  5
C0
330
1F
100
AcDbEntity
  8
0
  6
Continuous
 62
     1
370
    25
100
AcDbSpline
210
0.0
220
0.0
230
1.0
 70
     8
 71
     3
 72
    10
 73
     6
 74
     0
 42
0.000000001
 43
0.00000001
 40
0.0
 40
0.0
 40
0.0
 40
0.0
 40
0.3146600209046314
 40
0.6573969914802376
 40
0.9999999999999999
 40
0.9999999999999999
 40
0.9999999999999999
 40
0.9999999999999999
 10
13.65518207359245
 20
-5.0733087584347
 30
0.0
 10
13.07778039409572
 20
-5.239046852154725
 30
0.0
 10
11.87145578417067
 20
-5.585311763318124
 30
0.0
 10
10.03622808187403
 20
-5.903127654263142
 30
0.0
 10
8.778660755888643
 20
-5.965718028845885
 30
0.0
 10
8.150000000000084
 20
-5.997007098928636
 30
0.0
  0
LINE
  5
C1
330
1F
100
AcDbEntity
  8
0
  6
Continuous
 62
     1
370
    25
100
AcDbLine
 10
38.14999999999999
 20
-0.4999999999999982
 30
0.0
 11
38.14999999999999
 21
-4.474290814540877
 31
0.0
1001
PE_URL
1000

  0
ELLIPSE
  5
C2
330
1F
100
AcDbEntity
  8
0
  6
Continuous
 62
     1
370
    25
100
AcDbEllipse
 10
38.86407400337104
 20
-0.0000000000000002
 30
0.0
 11
8.56888804045267
 21
0.0
 31
0.0
210
0.0
220
0.0
230
1.0
 40
0.7002075382097116
 41
1.654226413405511
 42
1.731133393454128
1001
PE_URL
1000

  0
LINE
  5
C3
330
1F
100
AcDbEntity
  8
0
  6
Continuous
 62
     1
370
    25
100
AcDbLine
 10
38.14999999999999
 20
1.446523558810441
 30
0.0
 11
38.14999999999999
 21
5.979130371550702
 31
0.0
1001
PE_URL
1000

  0
LINE
  5
C4
330
1F
100
AcDbEntity
  8
0
  6
Continuous
 62
     1
370
    25
100
AcDbLine
 10
38.14999999999999
 20
5.979130371550702
 30
0.0
 11
38.14999999999998
 21
6.000000000000004
 31
0.0
1001
PE_URL
1000

  0
LINE
  5
C5
330
1F
100
AcDbEntity
  8
중심선
100
AcDbLine
 10
-44.85000000000001
 20
-0.000000000000005
 30
0.0
 11
41.15
 21
0.000000000000005
 31
0.0
  0
CIRCLE
  5
C6
330
1F
100
AcDbEntity
  8
해칭선
100
AcDbCircle
 10
0.0
 20
0.0
 30
0.0
 40
3.000000000000001
  0
INSERT
  5
C7
330
1F
100
AcDbEntity
  8
0
  6
Continuous
 62
     7
100
AcDbBlockReference
 66
     1
  2
블럭10
 10
-13.9402729321252
 20
-52.04717430164393
 30
0.0
  0
ATTRIB
  5
C8
330
C7
100
AcDbEntity
  8
FORMAT
 62
     2
100
AcDbText
 10
-26.90021212698296
 20
-49.97180738881174
 30
0.0
 40
4.233333333333333
  1
SEME36120E [ 4 FLUTE ]
 41
0.75
  7
SLDTEXTSTYLE0
 11
-26.90021212698296
 21
-52.08847405547841
 31
0.0
100
AcDbAttribute
  2
AUTOATTR0
 70
     0
 74
     1
  0
SEQEND
  5
C9
330
C7
100
AcDbEntity
  8
0
  6
Continuous
 62
     7
  0
HATCH
  5
CA
330
1F
100
AcDbEntity
  8
중심선
100
AcDbHatch
 10
0.0
 20
0.0
 30
0.0
210
0.0
220
0.0
230
1.0
  2
SOLID
 70
     1
 71
     0
 91
        1
 92
        0
 93
        4
 72
     1
 10
-8.225363627744343
 20
-35.8
 11
-11.67163887158162
 21
-35.8
 72
     1
 10
-11.67163887158162
 20
-35.8
 11
-13.79986873078565
 21
-38.33632558057262
 72
     1
 10
-13.79986873078565
 20
-38.33632558057262
 11
-10.35356040183519
 21
-38.33628615127013
 72
     1
 10
-10.35356040183519
 20
-38.33628615127013
 11
-8.225363627744343
 21
-35.8
 97
        0
 75
     0
 76
     1
 98
        1
 10
-1.500117814335539
 20
-0.0000000000000006
  0
HATCH
  5
CB
330
1F
100
AcDbEntity
  8
중심선
100
AcDbHatch
 10
0.0
 20
0.0
 30
0.0
210
0.0
220
0.0
230
1.0
  2
SOLID
 70
     1
 71
     0
 91
        1
 92
        0
 93
        4
 72
     1
 10
-3.212599636708391
 20
-35.8
 11
-6.658874880545646
 21
-35.8
 72
     1
 10
-6.658874880545646
 20
-35.8
 11
-11.19001288890306
 21
-41.20000000000002
 72
     1
 10
-11.19001288890306
 20
-41.20000000000002
 11
-7.74373764506578
 21
-41.20000000000002
 72
     1
 10
-7.74373764506578
 20
-41.20000000000002
 11
-3.212599636708391
 21
-35.8
 97
        0
 75
     0
 76
     1
 98
        1
 10
-1.500117814335539
 20
-0.0000000000000006
  0
HATCH
  5
CC
330
1F
100
AcDbEntity
  8
중심선
100
AcDbHatch
 10
0.0
 20
0.0
 30
0.0
210
0.0
220
0.0
230
1.0
  2
SOLID
 70
     1
 71
     0
 91
        1
 92
        0
 93
        4
 72
     1
 10
1.800164354327532
 20
-35.79999999999997
 11
-1.646110889509584
 21
-35.8
 72
     1
 10
-1.646110889509584
 20
-35.8
 11
-8.694547791398861
 21
-44.20000000000002
 72
     1
 10
-8.694547791398861
 20
-44.20000000000002
 11
-5.248272547561578
 21
-44.20000000000002
 72
     1
 10
-5.248272547561578
 20
-44.20000000000002
 11
1.800164354327531
 21
-35.79999999999997
 97
        0
 75
     0
 76
     1
 98
        1
 10
-1.500117814335539
 20
-0.0000000000000006
  0
HATCH
  5
CD
330
1F
100
AcDbEntity
  8
중심선
100
AcDbHatch
 10
0.0
 20
0.0
 30
0.0
210
0.0
220
0.0
230
1.0
  2
SOLID
 70
     1
 71
     0
 91
        1
 92
        0
 93
        6
 72
     3
 10
6.600054785339704
 20
-40.00000000005127
 11
3.960054785062283
 21
1.540882976769353E-10
 40
0.3939339440162628
 50
17.09539180608436
 51
320.0019657685082
 73
     0
 72
     1
 10
8.28305444104027
 20
-38.58789400463833
 11
10.58835631474134
 21
-36.6535672945904
 72
     3
 10
6.600054785286858
 20
-40.00000000000015
 11
6.600054785286829
 21
-1.278976924368180E-13
 40
0.636358354079598
 50
39.99873849337393
 51
368.4976242363724
 73
     1
 72
     1
 10
13.02538727718747
 20
-39.03999999993002
 11
5.280122092122779
 21
-39.03999999993002
 72
     1
 10
5.280122092122779
 20
-39.03999999993002
 11
5.280097047676846
 21
-40.95999999992991
 72
     1
 10
5.280097047676846
 20
-40.95999999992991
 11
9.721476817148883
 21
-40.95999999992988
 97
        0
 75
     0
 76
     1
 98
        1
 10
-1.500117814335539
 20
-0.0000000000000006
  0
DIMENSION
  5
CE
330
1F
100
AcDbEntity
  8
치수문자_일반주서
100
AcDbDimension
  2
_D
 10
51.14999999999999
 20
6.00000000000005
 30
0.0
 11
51.15000000000001
 21
0.0000000000000028
 31
0.0
 70
   160
  1
%%c<>
 71
     2
 42
12.00000000000001
 52
-270.0
  3
SLDDIMSTYLE0
100
AcDbAlignedDimension
 13
38.15000000000003
 23
-6.000000000000004
 33
0.0
 14
38.15000000000003
 24
6.000000000000002
 34
0.0
 50
90.0000000000002
100
AcDbRotatedDimension
  0
DIMENSION
  5
DC
330
1F
100
AcDbEntity
  8
치수문자_일반주서
100
AcDbDimension
  2
_D_1
 10
38.15
 20
20.32836952549911
 30
0.0
 11
-1.850000000000005
 21
20.32836952549911
 31
0.0
 70
   160
  1
<>
 71
     2
 42
80.0
  3
SLDDIMSTYLE1
100
AcDbAlignedDimension
 13
-41.85000000000002
 23
5.499999999999994
 33
0.0
 14
38.14999999999999
 24
-0.4999999999999982
 34
0.0
 50
-0.0000000000000025
100
AcDbRotatedDimension
  0
DIMENSION
  5
E7
330
1F
100
AcDbEntity
  8
치수문자_일반주서
100
AcDbDimension
  2
_D_2
 10
-55.3426395616199
 20
-6.000000000000057
 30
0.0
 11
-55.34263956161991
 21
-2.179391697609234
 31
0.0
 70
   160
  1
%%c<>
 71
     2
 42
12.00000000000001
 52
-270.0
  3
SLDDIMSTYLE2
100
AcDbAlignedDimension
 13
-41.35000000000002
 23
6.000000000000004
 33
0.0
 14
-41.35000000000002
 24
-6.000000000000006
 34
0.0
 50
90.0000000000002
100
AcDbRotatedDimension
  0
DIMENSION
  5
F5
330
1F
100
AcDbEntity
  8
치수문자_일반주서
100
AcDbDimension
  2
_D_3
 10
8.149999999999993
 20
9.265451744897343
 30
0.0
 11
23.14999999999999
 21
9.265451744897343
 31
0.0
 70
   160
  1
<>
 71
     2
 42
30.0
  3
SLDDIMSTYLE1
100
AcDbAlignedDimension
 13
38.14999999999999
 23
5.979130371550702
 33
0.0
 14
8.149999999999993
 24
5.997007098930053
 34
0.0
 50
-0.0000000000000136
100
AcDbRotatedDimension
  0
INSERT
  5
105
330
1F
100
AcDbEntity
  8
해칭선
100
AcDbBlockReference
  2
SW_DOWELSYMBOL_0
 10
0.0
 20
0.0
 30
0.0
  0
LINE
  5
155
330
1F
100
AcDbEntity
  8
0
  6
Continuous
 62
     4
370
    25
100
AcDbLine
 10
7.81135647374761
 20
-6.000000000000001
 30
0.0
 11
7.82230378384523
 21
-6.000000000000001
 31
0.0
  0
LINE
  5
158
330
1F
100
AcDbEntity
  8
0
  6
Continuous
 62
     4
370
    25
100
AcDbLine
 10
0.1499999999999932
 20
5.85
 30
0.0
 11
0.1499999999999932
 21
-5.849999999999998
 31
0.0
1001
PE_URL
1000

  0
LINE
  5
159
330
1F
100
AcDbEntity
  8
0
  6
Continuous
 62
     4
370
    25
100
AcDbLine
 10
0.1499999999999932
 20
5.85
 30
0.0
 11
-0.0000000000000062
 21
5.999999999999999
 31
0.0
1001
PE_URL
1000

  0
LINE
  5
15A
330
1F
100
AcDbEntity
  8
0
  6
Continuous
 62
     4
370
    25
100
AcDbLine
 10
0.1500000000000057
 20
-5.849999999999998
 30
0.0
 11
0.0000000000000064
 21
-5.999999999999998
 31
0.0
1001
PE_URL
1000

  0
LINE
  5
15B
330
1F
100
AcDbEntity
  8
0
  6
Continuous
 62
     4
370
    25
100
AcDbLine
 10
0.0000000000000064
 20
-5.999999999999998
 30
0.0
 11
-0.0000000000000062
 21
5.999999999999999
 31
0.0
1001
PE_URL
1000

  0
LINE
  5
15C
102
{ACAD_REACTORS
102
}
330
1F
100
AcDbEntity
  8
0
  6
Continuous
 62
     4
370
    25
100
AcDbLine
 10
0.1499999999999932
 20
5.85
 30
0.0
 11
8.149999999999991
 21
5.85
 31
0.0
1001
PE_URL
1000

  0
LINE
  5
15D
330
1F
100
AcDbEntity
  8
0
  6
Continuous
 62
     4
370
    25
100
AcDbLine
 10
0.1499999999999946
 20
-5.849999999999999
 30
0.0
 11
8.149999999999993
 21
-5.849999999999997
 31
0.0
1001
PE_URL
1000

  0
DIMENSION
  5
15E
102
{ACAD_REACTORS
102
}
102
{ACAD_XDICTIONARY
360
15F
102
}
330
1F
100
AcDbEntity
  8
치수문자_일반주서
100
AcDbDimension
  2
*D7
 10
38.14999999999999
 20
14.75
 30
0.0
 11
18.59133577752271
 21
14.75
 31
0.0
 70
   160
 71
     5
 42
38.0
  3
SLDDIMSTYLE1
100
AcDbAlignedDimension
 13
0.1499999999999932
 23
5.85
 33
0.0
 14
38.14999999999999
 24
6.041630371550702
 34
0.0
100
AcDbRotatedDimension
1001
ENABLE_CUSTOM_SPLIT
1070
     1
1001
PE_URL
1000

  0
ENDSEC
  0
SECTION
  2
OBJECTS
  0
DICTIONARY
  5
C
330
0
100
AcDbDictionary
281
     1
  3
ACAD_GROUP
350
D
  3
ACAD_LAYOUT
350
1A
  3
ACAD_MLINESTYLE
350
17
  3
ACAD_PLOTSETTINGS
350
19
  3
ACAD_PLOTSTYLENAME
350
E
  3
ACAD_SCALELIST
350
47
  3
APPDATA
350
127
  3
DWGPROPS
350
172
  0
DICTIONARY
  5
156
330
1F
100
AcDbDictionary
280
     1
281
     1
  3
ACAD_SORTENTS
360
157
  3
DIM_BOUNDING_BOXES_V1
360
171
  0
DICTIONARY
  5
15F
330
15E
100
AcDbDictionary
280
     1
281
     1
  3
ACAD_CUSTOM_BREAKDATA
360
170
  0
DICTIONARY
  5
D
102
{ACAD_REACTORS
330
C
102
}
330
C
100
AcDbDictionary
281
     1
  0
DICTIONARY
  5
1A
102
{ACAD_REACTORS
330
C
102
}
330
C
100
AcDbDictionary
281
     1
  3
Layout1
350
1E
  3
Layout2
350
26
  3
Model
350
22
  0
DICTIONARY
  5
17
102
{ACAD_REACTORS
330
C
102
}
330
C
100
AcDbDictionary
281
     1
  3
Standard
350
18
  0
DICTIONARY
  5
19
102
{ACAD_REACTORS
330
C
102
}
330
C
100
AcDbDictionary
281
     1
  0
ACDBDICTIONARYWDFLT
  5
E
102
{ACAD_REACTORS
330
C
102
}
330
C
100
AcDbDictionary
281
     1
  3
Normal
350
F
100
AcDbDictionaryWithDefault
340
F
  0
DICTIONARY
  5
47
102
{ACAD_REACTORS
330
C
102
}
330
C
100
AcDbDictionary
281
     1
  3
A0
350
48
  3
A1
350
49
  3
A2
350
4A
  3
A3
350
4B
  3
A4
350
4C
  3
A5
350
4D
  3
A6
350
4E
  3
A7
350
4F
  3
A8
350
50
  3
A9
350
51
  3
B0
350
52
  3
B1
350
53
  3
B2
350
54
  3
B3
350
55
  3
B4
350
56
  3
B5
350
57
  3
B6
350
58
  3
B7
350
59
  3
B8
350
5A
  3
B9
350
5B
  3
C0
350
5C
  3
C1
350
5D
  3
C2
350
5E
  3
C3
350
5F
  3
C4
350
60
  3
C5
350
61
  3
C6
350
62
  3
C7
350
63
  3
C8
350
64
  3
C9
350
65
  3
D0
350
66
  3
D1
350
67
  3
D2
350
68
  0
DICTIONARY
  5
127
102
{ACAD_REACTORS
330
C
102
}
330
C
100
AcDbDictionary
281
     1
  0
XRECORD
  5
172
102
{ACAD_REACTORS
330
C
102
}
330
C
100
AcDbXrecord
280
     1
  1
DWGPROPS COOKIE
  2

  3

  4

  6

  7

  8
12016016
  9

300
=
301
=
302
=
303
=
304
=
305
=
306
=
307
=
308
=
309
=
 40
0.0
 41
2458250.108033403
 42
2459702.351681898
  1

 90
        0
  0
SORTENTSTABLE
  5
157
102
{ACAD_REACTORS
330
156
102
}
330
156
100
AcDbSortentsTable
330
1F
331
9B
  5
9C
331
9C
  5
9D
331
9D
  5
9E
331
9E
  5
9F
331
9F
  5
A0
331
A0
  5
A1
331
0
  5
A2
331
0
  5
A3
331
A3
  5
A4
331
0
  5
A5
331
0
  5
A6
331
0
  5
A7
331
0
  5
A8
331
0
  5
A9
331
0
  5
AA
331
0
  5
AB
331
AB
  5
AC
331
AC
  5
AD
331
AD
  5
AE
331
AE
  5
AF
331
AF
  5
B0
331
B0
  5
B1
331
B1
  5
B2
331
B2
  5
B3
331
B3
  5
B4
331
B4
  5
B5
331
B5
  5
B6
331
B6
  5
B7
331
B7
  5
B8
331
B8
  5
B9
331
B9
  5
BA
331
BA
  5
BB
331
BB
  5
BC
331
BC
  5
BD
331
BD
  5
BE
331
BE
  5
BF
331
BF
  5
C0
331
C0
  5
C1
331
C1
  5
C2
331
C2
  5
C3
331
C3
  5
C4
331
C4
  5
C5
331
C5
  5
C6
331
C6
  5
C7
331
C7
  5
CA
331
CA
  5
CB
331
CB
  5
CC
331
CC
  5
CD
331
CD
  5
CE
331
CE
  5
DC
331
DC
  5
E7
331
E7
  5
F5
331
F5
  5
105
331
105
  5
154
331
0
  5
155
331
155
  5
9B
  0
DICTIONARY
  5
171
102
{ACAD_REACTORS
330
156
102
}
330
156
100
AcDbDictionary
281
     1
  0
BREAKDATA
  5
170
102
{ACAD_REACTORS
330
15F
102
}
330
15F
100
AcDbBreakData
 70
     0
330
15E
 90
        0
  0
LAYOUT
  5
1E
102
{ACAD_REACTORS
330
1A
102
}
330
1A
100
AcDbPlotSettings
  1

  2
none_device
  4

  6

 40
0.0
 41
0.0
 42
0.0
 43
0.0
 44
0.0
 45
0.0
 46
0.0
 47
0.0
 48
0.0
 49
0.0
140
0.0
141
0.0
142
1.0
143
1.0
 70
   688
 72
     1
 73
     0
 74
     5
  7

 75
    16
147
1.0
148
0.0
149
0.0
100
AcDbLayout
  1
Layout1
 70
     1
 71
     1
 10
0.0
 20
0.0
 11
420.0
 21
297.0
 12
0.0
 22
0.0
 32
0.0
 14
1.000000000000000E+20
 24
1.000000000000000E+20
 34
1.000000000000000E+20
 15
-1.000000000000000E+20
 25
-1.000000000000000E+20
 35
-1.000000000000000E+20
146
0.0
 13
0.0
 23
0.0
 33
0.0
 16
1.0
 26
0.0
 36
0.0
 17
0.0
 27
1.0
 37
0.0
 76
     0
330
1B
  0
LAYOUT
  5
26
102
{ACAD_REACTORS
330
1A
102
}
330
1A
100
AcDbPlotSettings
  1

  2
none_device
  4

  6

 40
0.0
 41
0.0
 42
0.0
 43
0.0
 44
0.0
 45
0.0
 46
0.0
 47
0.0
 48
0.0
 49
0.0
140
0.0
141
0.0
142
1.0
143
1.0
 70
   688
 72
     1
 73
     0
 74
     5
  7

 75
    16
147
1.0
148
0.0
149
0.0
100
AcDbLayout
  1
Layout2
 70
     1
 71
     2
 10
0.0
 20
0.0
 11
0.0
 21
0.0
 12
0.0
 22
0.0
 32
0.0
 14
0.0
 24
0.0
 34
0.0
 15
0.0
 25
0.0
 35
0.0
146
0.0
 13
0.0
 23
0.0
 33
0.0
 16
1.0
 26
0.0
 36
0.0
 17
0.0
 27
1.0
 37
0.0
 76
     0
330
23
  0
LAYOUT
  5
22
102
{ACAD_REACTORS
330
1A
102
}
330
1A
100
AcDbPlotSettings
  1

  2
none_device
  4
ANSI_A_(11.00_x_8.50_Inches)
  6

 40
6.35
 41
19.05
 42
6.35000508
 43
19.05000254
 44
279.4
 45
215.9
 46
134.6553150237905
 47
120.8360243382327
 48
0.0
 49
0.0
140
0.0
141
0.0
142
0.0971819476631723
143
1.0
 70
  1696
 72
     0
 73
     0
 74
     0
  7

 75
     0
147
0.0235690232323232
148
0.0
149
0.0
100
AcDbLayout
  1
Model
 70
     1
 71
     0
 10
0.0
 20
0.0
 11
420.0
 21
297.0
 12
0.0
 22
0.0
 32
0.0
 14
-59.71763956161993
 24
-49.97180738881174
 34
0.0
 15
51.70033333333337
 25
24.70336952549911
 35
0.0
146
0.0
 13
0.0
 23
0.0
 33
0.0
 16
1.0
 26
0.0
 36
0.0
 17
0.0
 27
1.0
 37
0.0
 76
     0
330
1F
331
29
  0
MLINESTYLE
  5
18
102
{ACAD_REACTORS
330
17
102
}
330
17
100
AcDbMlineStyle
  2
Standard
 70
     0
  3

 62
   256
 51
90.0
 52
90.0
 71
     2
 49
0.5
 62
   256
  6
BYLAYER
 49
-0.5
 62
   256
  6
BYLAYER
  0
ACDBPLACEHOLDER
  5
F
102
{ACAD_REACTORS
330
E
102
}
330
E
  0
SCALE
  5
48
102
{ACAD_REACTORS
330
47
102
}
330
47
100
AcDbScale
 70
     0
300
1:1
140
1.0
141
1.0
290
     1
  0
SCALE
  5
49
102
{ACAD_REACTORS
330
47
102
}
330
47
100
AcDbScale
 70
     0
300
1:2
140
1.0
141
2.0
290
     0
  0
SCALE
  5
4A
102
{ACAD_REACTORS
330
47
102
}
330
47
100
AcDbScale
 70
     0
300
1:4
140
1.0
141
4.0
290
     0
  0
SCALE
  5
4B
102
{ACAD_REACTORS
330
47
102
}
330
47
100
AcDbScale
 70
     0
300
1:5
140
1.0
141
5.0
290
     0
  0
SCALE
  5
4C
102
{ACAD_REACTORS
330
47
102
}
330
47
100
AcDbScale
 70
     0
300
1:8
140
1.0
141
8.0
290
     0
  0
SCALE
  5
4D
102
{ACAD_REACTORS
330
47
102
}
330
47
100
AcDbScale
 70
     0
300
1:10
140
1.0
141
10.0
290
     0
  0
SCALE
  5
4E
102
{ACAD_REACTORS
330
47
102
}
330
47
100
AcDbScale
 70
     0
300
1:16
140
1.0
141
16.0
290
     0
  0
SCALE
  5
4F
102
{ACAD_REACTORS
330
47
102
}
330
47
100
AcDbScale
 70
     0
300
1:20
140
1.0
141
20.0
290
     0
  0
SCALE
  5
50
102
{ACAD_REACTORS
330
47
102
}
330
47
100
AcDbScale
 70
     0
300
1:30
140
1.0
141
30.0
290
     0
  0
SCALE
  5
51
102
{ACAD_REACTORS
330
47
102
}
330
47
100
AcDbScale
 70
     0
300
1:40
140
1.0
141
40.0
290
     0
  0
SCALE
  5
52
102
{ACAD_REACTORS
330
47
102
}
330
47
100
AcDbScale
 70
     0
300
1:50
140
1.0
141
50.0
290
     0
  0
SCALE
  5
53
102
{ACAD_REACTORS
330
47
102
}
330
47
100
AcDbScale
 70
     0
300
1:100
140
1.0
141
100.0
290
     0
  0
SCALE
  5
54
102
{ACAD_REACTORS
330
47
102
}
330
47
100
AcDbScale
 70
     0
300
2:1
140
2.0
141
1.0
290
     0
  0
SCALE
  5
55
102
{ACAD_REACTORS
330
47
102
}
330
47
100
AcDbScale
 70
     0
300
4:1
140
4.0
141
1.0
290
     0
  0
SCALE
  5
56
102
{ACAD_REACTORS
330
47
102
}
330
47
100
AcDbScale
 70
     0
300
8:1
140
8.0
141
1.0
290
     0
  0
SCALE
  5
57
102
{ACAD_REACTORS
330
47
102
}
330
47
100
AcDbScale
 70
     0
300
10:1
140
10.0
141
1.0
290
     0
  0
SCALE
  5
58
102
{ACAD_REACTORS
330
47
102
}
330
47
100
AcDbScale
 70
     0
300
100:1
140
100.0
141
1.0
290
     0
  0
SCALE
  5
59
102
{ACAD_REACTORS
330
47
102
}
330
47
100
AcDbScale
 70
     0
300
1/128" = 1'-0"
140
0.0078125
141
12.0
290
     0
  0
SCALE
  5
5A
102
{ACAD_REACTORS
330
47
102
}
330
47
100
AcDbScale
 70
     0
300
1/64" = 1'-0"
140
0.015625
141
12.0
290
     0
  0
SCALE
  5
5B
102
{ACAD_REACTORS
330
47
102
}
330
47
100
AcDbScale
 70
     0
300
1/32" = 1'-0"
140
0.03125
141
12.0
290
     0
  0
SCALE
  5
5C
102
{ACAD_REACTORS
330
47
102
}
330
47
100
AcDbScale
 70
     0
300
1/16" = 1'-0"
140
0.0625
141
12.0
290
     0
  0
SCALE
  5
5D
102
{ACAD_REACTORS
330
47
102
}
330
47
100
AcDbScale
 70
     0
300
3/32" = 1'-0"
140
0.09375
141
12.0
290
     0
  0
SCALE
  5
5E
102
{ACAD_REACTORS
330
47
102
}
330
47
100
AcDbScale
 70
     0
300
1/8" = 1'-0"
140
0.125
141
12.0
290
     0
  0
SCALE
  5
5F
102
{ACAD_REACTORS
330
47
102
}
330
47
100
AcDbScale
 70
     0
300
3/16" = 1'-0"
140
0.1875
141
12.0
290
     0
  0
SCALE
  5
60
102
{ACAD_REACTORS
330
47
102
}
330
47
100
AcDbScale
 70
     0
300
1/4" = 1'-0"
140
0.25
141
12.0
290
     0
  0
SCALE
  5
61
102
{ACAD_REACTORS
330
47
102
}
330
47
100
AcDbScale
 70
     0
300
3/8" = 1'-0"
140
0.375
141
12.0
290
     0
  0
SCALE
  5
62
102
{ACAD_REACTORS
330
47
102
}
330
47
100
AcDbScale
 70
     0
300
1/2" = 1'-0"
140
0.5
141
12.0
290
     0
  0
SCALE
  5
63
102
{ACAD_REACTORS
330
47
102
}
330
47
100
AcDbScale
 70
     0
300
3/4" = 1'-0"
140
0.75
141
12.0
290
     0
  0
SCALE
  5
64
102
{ACAD_REACTORS
330
47
102
}
330
47
100
AcDbScale
 70
     0
300
1" = 1'-0"
140
1.0
141
12.0
290
     0
  0
SCALE
  5
65
102
{ACAD_REACTORS
330
47
102
}
330
47
100
AcDbScale
 70
     0
300
1-1/2" = 1'-0"
140
1.5
141
12.0
290
     0
  0
SCALE
  5
66
102
{ACAD_REACTORS
330
47
102
}
330
47
100
AcDbScale
 70
     0
300
3" = 1'-0"
140
3.0
141
12.0
290
     0
  0
SCALE
  5
67
102
{ACAD_REACTORS
330
47
102
}
330
47
100
AcDbScale
 70
     0
300
6" = 1'-0"
140
6.0
141
12.0
290
     0
  0
SCALE
  5
68
102
{ACAD_REACTORS
330
47
102
}
330
47
100
AcDbScale
 70
     0
300
1'-0" = 1'-0"
140
12.0
141
12.0
290
     0
  0
ENDSEC
  0
EOF
