  0
SECTION
  2
HEADER
  9
$ACADVER
  1
AC1015
  9
$ACADMAINTVER
 70
     6
  9
$DWGCODEPAGE
  3
ANSI_949
  9
$INSBASE
 10
0.0
 20
0.0
 30
0.0
  9
$EXTMIN
 10
-61.06860145594323
 20
-49.97180738881174
 30
0.0
  9
$EXTMAX
 10
45.60337143901005
 20
24.70336952549912
 30
0.0
  9
$LIMMIN
 10
0.0
 20
0.0
  9
$LIMMAX
 10
420.0
 20
297.0
  9
$ORTHOMODE
 70
     0
  9
$REGENMODE
 70
     1
  9
$FILLMODE
 70
     1
  9
$QTEXTMODE
 70
     0
  9
$MIRRTEXT
 70
     1
  9
$LTSCALE
 40
1.0
  9
$ATTMODE
 70
     1
  9
$TEXTSIZE
 40
3.5
  9
$TRACEWID
 40
1.0
  9
$TEXTSTYLE
  7
Standard
  9
$CLAYER
  8
0
  9
$CELTYPE
  6
ByLayer
  9
$CECOLOR
 62
   256
  9
$CELTSCALE
 40
1.0
  9
$DISPSILH
 70
     0
  9
$DIMSCALE
 40
1.0
  9
$DIMASZ
 40
3.302
  9
$DIMEXO
 40
1.0
  9
$DIMDLI
 40
3.75
  9
$DIMRND
 40
0.0
  9
$DIMDLE
 40
0.0
  9
$DIMEXE
 40
1.0
  9
$DIMTP
 40
0.0
  9
$DIMTM
 40
0.0
  9
$DIMTXT
 40
3.5
  9
$DIMCEN
 40
2.5
  9
$DIMTSZ
 40
0.0
  9
$DIMTOL
 70
     0
  9
$DIMLIM
 70
     0
  9
$DIMTIH
 70
     1
  9
$DIMTOH
 70
     1
  9
$DIMSE1
 70
     0
  9
$DIMSE2
 70
     0
  9
$DIMTAD
 70
     1
  9
$DIMZIN
 70
     0
  9
$DIMBLK
  1

  9
$DIMASO
 70
     1
  9
$DIMSHO
 70
     1
  9
$DIMPOST
  1

  9
$DIMAPOST
  1

  9
$DIMALT
 70
     0
  9
$DIMALTD
 70
     3
  9
$DIMALTF
 40
0.0393700787401575
  9
$DIMLFAC
 40
1.0
  9
$DIMTOFL
 70
     1
  9
$DIMTVP
 40
0.0
  9
$DIMTIX
 70
     0
  9
$DIMSOXD
 70
     0
  9
$DIMSAH
 70
     0
  9
$DIMBLK1
  1

  9
$DIMBLK2
  1

  9
$DIMSTYLE
  2
ISO-25
  9
$DIMCLRD
 70
     0
  9
$DIMCLRE
 70
     0
  9
$DIMCLRT
 70
     0
  9
$DIMTFAC
 40
1.0
  9
$DIMGAP
 40
1.524
  9
$DIMJUST
 70
     0
  9
$DIMSD1
 70
     0
  9
$DIMSD2
 70
     0
  9
$DIMTOLJ
 70
     0
  9
$DIMTZIN
 70
     0
  9
$DIMALTZ
 70
     0
  9
$DIMALTTZ
 70
     0
  9
$DIMUPT
 70
     0
  9
$DIMDEC
 70
     2
  9
$DIMTDEC
 70
     2
  9
$DIMALTU
 70
     2
  9
$DIMALTTD
 70
     3
  9
$DIMTXSTY
  7
Standard
  9
$DIMAUNIT
 70
     0
  9
$DIMADEC
 70
     2
  9
$DIMALTRND
 40
0.0
  9
$DIMAZIN
 70
     0
  9
$DIMDSEP
 70
    44
  9
$DIMATFIT
 70
     3
  9
$DIMFRAC
 70
     0
  9
$DIMLDRBLK
  1

  9
$DIMLUNIT
 70
     2
  9
$DIMLWD
 70
    -2
  9
$DIMLWE
 70
    -2
  9
$DIMTMOVE
 70
     0
  9
$LUNITS
 70
     2
  9
$LUPREC
 70
     2
  9
$SKETCHINC
 40
1.0
  9
$FILLETRAD
 40
10.0
  9
$AUNITS
 70
     0
  9
$AUPREC
 70
     2
  9
$MENU
  1
.
  9
$ELEVATION
 40
0.0
  9
$PELEVATION
 40
0.0
  9
$THICKNESS
 40
0.0
  9
$LIMCHECK
 70
     0
  9
$CHAMFERA
 40
0.0
  9
$CHAMFERB
 40
0.0
  9
$CHAMFERC
 40
0.0
  9
$CHAMFERD
 40
0.0
  9
$SKPOLY
 70
     0
  9
$TDCREATE
 40
2458250.482602778
  9
$TDUCREATE
 40
2458250.107602778
  9
$TDUPDATE
 40
2458264.710717535
  9
$TDUUPDATE
 40
2458264.335717535
  9
$TDINDWG
 40
0.0007905208
  9
$TDUSRTIMER
 40
0.0007905093
  9
$USRTIMER
 70
     1
  9
$ANGBASE
 50
0.0
  9
$ANGDIR
 70
     0
  9
$PDMODE
 70
     0
  9
$PDSIZE
 40
-1.0
  9
$PLINEWID
 40
0.0
  9
$SPLFRAME
 70
     0
  9
$SPLINETYPE
 70
     6
  9
$SPLINESEGS
 70
     8
  9
$HANDSEED
  5
141
  9
$SURFTAB1
 70
     6
  9
$SURFTAB2
 70
     6
  9
$SURFTYPE
 70
     6
  9
$SURFU
 70
     6
  9
$SURFV
 70
     6
  9
$UCSBASE
  2

  9
$UCSNAME
  2

  9
$UCSORG
 10
0.0
 20
0.0
 30
0.0
  9
$UCSXDIR
 10
1.0
 20
0.0
 30
0.0
  9
$UCSYDIR
 10
0.0
 20
1.0
 30
0.0
  9
$UCSORTHOREF
  2

  9
$UCSORTHOVIEW
 70
     0
  9
$UCSORGTOP
 10
0.0
 20
0.0
 30
0.0
  9
$UCSORGBOTTOM
 10
0.0
 20
0.0
 30
0.0
  9
$UCSORGLEFT
 10
0.0
 20
0.0
 30
0.0
  9
$UCSORGRIGHT
 10
0.0
 20
0.0
 30
0.0
  9
$UCSORGFRONT
 10
0.0
 20
0.0
 30
0.0
  9
$UCSORGBACK
 10
0.0
 20
0.0
 30
0.0
  9
$PUCSBASE
  2

  9
$PUCSNAME
  2

  9
$PUCSORG
 10
0.0
 20
0.0
 30
0.0
  9
$PUCSXDIR
 10
1.0
 20
0.0
 30
0.0
  9
$PUCSYDIR
 10
0.0
 20
1.0
 30
0.0
  9
$PUCSORTHOREF
  2

  9
$PUCSORTHOVIEW
 70
     0
  9
$PUCSORGTOP
 10
0.0
 20
0.0
 30
0.0
  9
$PUCSORGBOTTOM
 10
0.0
 20
0.0
 30
0.0
  9
$PUCSORGLEFT
 10
0.0
 20
0.0
 30
0.0
  9
$PUCSORGRIGHT
 10
0.0
 20
0.0
 30
0.0
  9
$PUCSORGFRONT
 10
0.0
 20
0.0
 30
0.0
  9
$PUCSORGBACK
 10
0.0
 20
0.0
 30
0.0
  9
$USERI1
 70
     0
  9
$USERI2
 70
     0
  9
$USERI3
 70
     0
  9
$USERI4
 70
     0
  9
$USERI5
 70
     0
  9
$USERR1
 40
0.0
  9
$USERR2
 40
0.0
  9
$USERR3
 40
0.0
  9
$USERR4
 40
0.0
  9
$USERR5
 40
0.0
  9
$WORLDVIEW
 70
     1
  9
$SHADEDGE
 70
     3
  9
$SHADEDIF
 70
    70
  9
$TILEMODE
 70
     1
  9
$MAXACTVP
 70
    64
  9
$PINSBASE
 10
0.0
 20
0.0
 30
0.0
  9
$PLIMCHECK
 70
     0
  9
$PEXTMIN
 10
1.000000000000000E+20
 20
1.000000000000000E+20
 30
1.000000000000000E+20
  9
$PEXTMAX
 10
-1.000000000000000E+20
 20
-1.000000000000000E+20
 30
-1.000000000000000E+20
  9
$PLIMMIN
 10
0.0
 20
0.0
  9
$PLIMMAX
 10
0.0
 20
0.0
  9
$UNITMODE
 70
     0
  9
$VISRETAIN
 70
     1
  9
$PLINEGEN
 70
     0
  9
$PSLTSCALE
 70
     1
  9
$TREEDEPTH
 70
  3020
  9
$CMLSTYLE
  2
Standard
  9
$CMLJUST
 70
     0
  9
$CMLSCALE
 40
20.0
  9
$PROXYGRAPHICS
 70
     1
  9
$MEASUREMENT
 70
     1
  9
$CELWEIGHT
370
    -1
  9
$ENDCAPS
280
     0
  9
$JOINSTYLE
280
     0
  9
$LWDISPLAY
290
     1
  9
$INSUNITS
 70
     4
  9
$HYPERLINKBASE
  1

  9
$STYLESHEET
  1

  9
$XEDIT
290
     1
  9
$CEPSNTYPE
380
     0
  9
$PSTYLEMODE
290
     1
  9
$FINGERPRINTGUID
  2
{99193F97-285C-455A-979F-0E5AB7699BFF}
  9
$VERSIONGUID
  2
{FAEB1C32-E019-11D5-929B-00C0DF256EC4}
  9
$EXTNAMES
290
     1
  9
$PSVPSCALE
 40
0.0
  9
$OLESTARTUP
290
     0
  0
ENDSEC
  0
SECTION
  2
CLASSES
  0
CLASS
  1
ACDBDICTIONARYWDFLT
  2
AcDbDictionaryWithDefault
  3
ObjectDBX Classes
 90
        0
280
     0
281
     0
  0
CLASS
  1
VISUALSTYLE
  2
AcDbVisualStyle
  3
ObjectDBX Classes
 90
     4095
280
     0
281
     0
  0
CLASS
  1
MATERIAL
  2
AcDbMaterial
  3
ObjectDBX Classes
 90
     1153
280
     0
281
     0
  0
CLASS
  1
SCALE
  2
AcDbScale
  3
ObjectDBX Classes
 90
     1153
280
     0
281
     0
  0
CLASS
  1
TABLESTYLE
  2
AcDbTableStyle
  3
ObjectDBX Classes
 90
     4095
280
     0
281
     0
  0
CLASS
  1
MLEADERSTYLE
  2
AcDbMLeaderStyle
  3
ACDB_MLEADERSTYLE_CLASS
 90
     4095
280
     0
281
     0
  0
CLASS
  1
SUN
  2
AcDbSun
  3
SCENEOE
 90
     1153
280
     0
281
     0
  0
CLASS
  1
ACDBPLACEHOLDER
  2
AcDbPlaceHolder
  3
ObjectDBX Classes
 90
        0
280
     0
281
     0
  0
CLASS
  1
LAYOUT
  2
AcDbLayout
  3
ObjectDBX Classes
 90
        0
280
     0
281
     0
  0
ENDSEC
  0
SECTION
  2
TABLES
  0
TABLE
  2
VPORT
  5
8
330
0
100
AcDbSymbolTable
 70
     1
  0
VPORT
  5
29
330
8
100
AcDbSymbolTableRecord
100
AcDbViewportTableRecord
  2
*Active
 70
     0
 10
0.0
 20
0.0
 11
1.0
 21
1.0
 12
-12.9631113523607
 22
-12.3509375272598
 13
0.0
 23
0.0
 14
10.0
 24
10.0
 15
10.0
 25
10.0
 16
0.0
 26
0.0
 36
1.0
 17
0.0
 27
0.0
 37
0.0
 40
78.46622368441487
 41
2.223011363636364
 42
50.0
 43
0.0
 44
0.0
 50
0.0
 51
0.0
 71
    16
 72
  2000
 73
     1
 74
     3
 75
     0
 76
     0
 77
     0
 78
     0
281
     0
 65
     1
110
0.0
120
0.0
130
0.0
111
1.0
121
0.0
131
0.0
112
0.0
122
1.0
132
0.0
 79
     0
146
0.0
  0
ENDTAB
  0
TABLE
  2
LTYPE
  5
5
330
0
100
AcDbSymbolTable
 70
     6
  0
LTYPE
  5
14
330
5
100
AcDbSymbolTableRecord
100
AcDbLinetypeTableRecord
  2
ByBlock
 70
     0
  3

 72
    65
 73
     0
 40
0.0
  0
LTYPE
  5
15
330
5
100
AcDbSymbolTableRecord
100
AcDbLinetypeTableRecord
  2
ByLayer
 70
     0
  3

 72
    65
 73
     0
 40
0.0
  0
LTYPE
  5
16
330
5
100
AcDbSymbolTableRecord
100
AcDbLinetypeTableRecord
  2
Continuous
 70
     0
  3
Solid line
 72
    65
 73
     0
 40
0.0
  0
LTYPE
  5
6E
330
5
100
AcDbSymbolTableRecord
100
AcDbLinetypeTableRecord
  2
HIDDEN
 70
     0
  3
Hidden __ __ __ __ __ __ __ __ __ __ __ __ __ __
 72
    65
 73
     2
 40
1.905
 49
1.27
 74
     0
 49
-0.635
 74
     0
  0
LTYPE
  5
6F
330
5
100
AcDbSymbolTableRecord
100
AcDbLinetypeTableRecord
  2
PHANTOM
 70
     0
  3
Phantom ______  __  __  ______  __  __  ______
 72
    65
 73
     6
 40
12.7
 49
6.35
 74
     0
 49
-1.27
 74
     0
 49
1.27
 74
     0
 49
-1.27
 74
     0
 49
1.27
 74
     0
 49
-1.27
 74
     0
  0
LTYPE
  5
70
330
5
100
AcDbSymbolTableRecord
100
AcDbLinetypeTableRecord
  2
CENTER
 70
     0
  3
Center ____ _ ____ _ ____ _ ____ _ ____ _ ____
 72
    65
 73
     4
 40
10.16
 49
6.35
 74
     0
 49
-1.27
 74
     0
 49
1.27
 74
     0
 49
-1.27
 74
     0
  0
LTYPE
  5
71
330
5
100
AcDbSymbolTableRecord
100
AcDbLinetypeTableRecord
  2
CENTERX2
 70
     0
  3
Center (2x) ________  __  ________  __  _____
 72
    65
 73
     4
 40
20.32
 49
12.7
 74
     0
 49
-2.54
 74
     0
 49
2.54
 74
     0
 49
-2.54
 74
     0
  0
LTYPE
  5
72
330
5
100
AcDbSymbolTableRecord
100
AcDbLinetypeTableRecord
  2
DOT2
 70
     0
  3
Dot (.5x) ........................................
 72
    65
 73
     2
 40
0.635
 49
0.0
 74
     0
 49
-0.635
 74
     0
  0
ENDTAB
  0
TABLE
  2
LAYER
  5
2
330
0
100
AcDbSymbolTable
 70
    17
  0
LAYER
  5
10
330
2
100
AcDbSymbolTableRecord
100
AcDbLayerTableRecord
  2
0
 70
     0
 62
     7
  6
Continuous
370
    -3
390
F
  0
LAYER
  5
73
330
2
100
AcDbSymbolTableRecord
100
AcDbLayerTableRecord
  2
FORMAT
 70
     0
 62
     2
  6
Continuous
370
    -3
390
F
  0
LAYER
  5
74
330
2
100
AcDbSymbolTableRecord
100
AcDbLayerTableRecord
  2
외형선
 70
     0
 62
   100
  6
Continuous
370
    35
390
F
  0
LAYER
  5
75
330
2
100
AcDbSymbolTableRecord
100
AcDbLayerTableRecord
  2
숨은선
 70
     0
 62
     2
  6
HIDDEN
370
    25
390
F
  0
LAYER
  5
76
330
2
100
AcDbSymbolTableRecord
100
AcDbLayerTableRecord
  2
중심선
 70
     0
 62
     1
  6
CENTERX2
370
    -3
390
F
  0
LAYER
  5
77
330
2
100
AcDbSymbolTableRecord
100
AcDbLayerTableRecord
  2
파단선
 70
     0
 62
     4
  6
Continuous
370
    -3
390
F
  0
LAYER
  5
78
330
2
100
AcDbSymbolTableRecord
100
AcDbLayerTableRecord
  2
해칭선
 70
     0
 62
   100
  6
Continuous
370
    -3
390
F
  0
LAYER
  5
79
330
2
100
AcDbSymbolTableRecord
100
AcDbLayerTableRecord
  2
가는실선
 70
     0
 62
     4
  6
Continuous
370
    -3
390
F
  0
LAYER
  5
7A
330
2
100
AcDbSymbolTableRecord
100
AcDbLayerTableRecord
  2
치수_보조선
 70
     0
 62
     4
  6
Continuous
370
    -3
390
F
  0
LAYER
  5
7B
330
2
100
AcDbSymbolTableRecord
100
AcDbLayerTableRecord
  2
치수문자_일반주서
 70
     0
 62
     7
  6
Continuous
370
    25
390
F
  0
LAYER
  5
7C
330
2
100
AcDbSymbolTableRecord
100
AcDbLayerTableRecord
  2
개별주서
 70
     0
 62
   100
  6
Continuous
370
    35
390
F
  0
LAYER
  5
7D
330
2
100
AcDbSymbolTableRecord
100
AcDbLayerTableRecord
  2
중간선
 70
     0
 62
     2
  6
Continuous
370
    25
390
F
  0
LAYER
  5
7E
330
2
100
AcDbSymbolTableRecord
100
AcDbLayerTableRecord
  2
윤곽선
 70
     0
 62
     3
  6
Continuous
370
    50
390
F
  0
LAYER
  5
7F
330
2
100
AcDbSymbolTableRecord
100
AcDbLayerTableRecord
  2
중심마크
 70
     0
 62
   100
  6
Continuous
370
    35
390
F
  0
LAYER
  5
80
330
2
100
AcDbSymbolTableRecord
100
AcDbLayerTableRecord
  2
가상선
 70
     0
 62
     4
  6
PHANTOM
370
    -3
390
F
  0
LAYER
  5
81
330
2
100
AcDbSymbolTableRecord
100
AcDbLayerTableRecord
  2
특수지정선
 70
     0
 62
     5
  6
CENTERX2
370
    70
390
F
  0
LAYER
  5
135
330
2
100
AcDbSymbolTableRecord
100
AcDbLayerTableRecord
  2
Defpoints
 70
     0
 62
     7
  6
Continuous
290
     0
370
    -3
390
F
  0
ENDTAB
  0
TABLE
  2
STYLE
  5
3
330
0
100
AcDbSymbolTable
 70
     2
  0
STYLE
  5
11
330
3
100
AcDbSymbolTableRecord
100
AcDbTextStyleTableRecord
  2
Standard
 70
     0
 40
0.0
 41
1.0
 50
0.0
 71
     0
 42
3.5
  3
txt
  4

  0
STYLE
  5
97
330
3
100
AcDbSymbolTableRecord
100
AcDbTextStyleTableRecord
  2
SLDTEXTSTYLE0
 70
     0
 40
0.0
 41
0.75
 50
0.0
 71
     0
 42
3.5
  3
TXT
  4

  0
ENDTAB
  0
TABLE
  2
VIEW
  5
6
330
0
100
AcDbSymbolTable
 70
     0
  0
ENDTAB
  0
TABLE
  2
UCS
  5
7
330
0
100
AcDbSymbolTable
 70
     0
  0
ENDTAB
  0
TABLE
  2
APPID
  5
9
330
0
100
AcDbSymbolTable
 70
     2
  0
APPID
  5
12
330
9
100
AcDbSymbolTableRecord
100
AcDbRegAppTableRecord
  2
ACAD
 70
     0
  0
APPID
  5
134
330
9
100
AcDbSymbolTableRecord
100
AcDbRegAppTableRecord
  2
PE_URL
 70
     0
  0
ENDTAB
  0
TABLE
  2
DIMSTYLE
  5
A
330
0
100
AcDbSymbolTable
 70
     4
100
AcDbDimStyleTable
  0
DIMSTYLE
105
27
330
A
100
AcDbSymbolTableRecord
100
AcDbDimStyleTableRecord
  2
ISO-25
 70
     0
 41
2.5
 42
0.625
 43
3.75
 44
1.25
 73
     0
 74
     0
 77
     1
 78
     8
140
2.5
141
2.5
143
0.03937007874016
147
0.625
171
     3
172
     1
178
     0
271
     2
272
     2
274
     3
278
    44
283
     0
284
     8
340
11
  0
DIMSTYLE
105
DB
102
{ACAD_REACTORS
330
DA
102
}
330
A
100
AcDbSymbolTableRecord
100
AcDbDimStyleTableRecord
  2
SLDDIMSTYLE0
 70
     0
 41
3.302
 44
0.0
 45
0.000000001
 73
     0
 74
     0
 77
     1
 78
    12
 79
     3
140
3.5
147
0.875
172
     1
173
     1
178
     0
271
     1
272
     1
276
     2
284
    12
289
     0
340
97
  0
DIMSTYLE
105
E9
102
{ACAD_REACTORS
330
E8
330
101
102
}
330
A
100
AcDbSymbolTableRecord
100
AcDbDimStyleTableRecord
  2
SLDDIMSTYLE1
 70
     0
 41
3.302
 44
0.0
 45
0.000000001
 73
     0
 74
     0
 77
     1
 78
    12
 79
     3
140
3.5
147
0.875
173
     1
178
     0
271
     2
272
     2
276
     2
284
    12
340
97
  0
DIMSTYLE
105
F4
102
{ACAD_REACTORS
330
F3
102
}
330
A
100
AcDbSymbolTableRecord
100
AcDbDimStyleTableRecord
  2
SLDDIMSTYLE2
 70
     0
 41
3.302
 44
0.0
 45
0.000000001
 73
     0
 74
     0
 77
     1
 78
    12
 79
     3
140
3.5
147
0.875
172
     1
173
     1
178
     0
271
     2
272
     2
276
     2
284
    12
289
     0
340
97
  0
ENDTAB
  0
TABLE
  2
BLOCK_RECORD
  5
1
330
0
100
AcDbSymbolTable
 70
     7
  0
BLOCK_RECORD
  5
1F
330
1
100
AcDbSymbolTableRecord
100
AcDbBlockTableRecord
  2
*Model_Space
340
22
  0
BLOCK_RECORD
  5
1B
330
1
100
AcDbSymbolTableRecord
100
AcDbBlockTableRecord
  2
*Paper_Space
340
1E
  0
BLOCK_RECORD
  5
23
330
1
100
AcDbSymbolTableRecord
100
AcDbBlockTableRecord
  2
*Paper_Space0
340
26
  0
BLOCK_RECORD
  5
82
330
1
100
AcDbSymbolTableRecord
100
AcDbBlockTableRecord
  2
블럭10
340
0
102
{BLKREFS
331
D3
102
}
  0
BLOCK_RECORD
  5
DC
330
1
100
AcDbSymbolTableRecord
100
AcDbBlockTableRecord
  2
_D
340
0
  0
BLOCK_RECORD
  5
EA
330
1
100
AcDbSymbolTableRecord
100
AcDbBlockTableRecord
  2
_D_1
340
0
  0
BLOCK_RECORD
  5
F5
330
1
100
AcDbSymbolTableRecord
100
AcDbBlockTableRecord
  2
_D_2
340
0
  0
BLOCK_RECORD
  5
102
330
1
100
AcDbSymbolTableRecord
100
AcDbBlockTableRecord
  2
_D_3
340
0
  0
BLOCK_RECORD
  5
10B
330
1
100
AcDbSymbolTableRecord
100
AcDbBlockTableRecord
  2
SW_DOWELSYMBOL_0
340
0
102
{BLKREFS
331
111
102
}
  0
ENDTAB
  0
ENDSEC
  0
SECTION
  2
BLOCKS
  0
BLOCK
  5
20
330
1F
100
AcDbEntity
  8
0
100
AcDbBlockBegin
  2
*Model_Space
 70
     0
 10
0.0
 20
0.0
 30
0.0
  3
*Model_Space
  1

  0
ENDBLK
  5
21
330
1F
100
AcDbEntity
  8
0
100
AcDbBlockEnd
  0
BLOCK
  5
1C
330
1B
100
AcDbEntity
 67
     1
  8
0
100
AcDbBlockBegin
  2
*Paper_Space
 70
     0
 10
0.0
 20
0.0
 30
0.0
  3
*Paper_Space
  1

  0
ENDBLK
  5
1D
330
1B
100
AcDbEntity
 67
     1
  8
0
100
AcDbBlockEnd
  0
BLOCK
  5
24
330
23
100
AcDbEntity
  8
0
100
AcDbBlockBegin
  2
*Paper_Space0
 70
     0
 10
0.0
 20
0.0
 30
0.0
  3
*Paper_Space0
  1

  0
ENDBLK
  5
25
330
23
100
AcDbEntity
  8
0
100
AcDbBlockEnd
  0
BLOCK
  5
83
330
82
100
AcDbEntity
  8
0
100
AcDbBlockBegin
  2
블럭10
 70
     2
 10
0.0
 20
0.0
 30
0.0
  3
블럭10
  1

  0
ELLIPSE
  5
85
330
82
100
AcDbEntity
  8
중심선
100
AcDbEllipse
 10
20.54032771741204
 20
12.0471743016438
 30
0.0
 11
6.600054785286829
 21
-1.261213355974178E-13
 31
0.0
210
0.0
220
0.0
230
1.0
 40
0.636358354079598
 41
0.9219305317359503
 42
6.513795318482858
  0
ELLIPSE
  5
86
330
82
100
AcDbEntity
  8
중심선
100
AcDbEllipse
 10
20.54032771746488
 20
12.04717430159265
 30
0.0
 11
3.960054785062283
 21
1.540847449632565E-10
 31
0.0
210
0.0
220
0.0
230
1.0
 40
0.3939339440162632
 41
1.131841032648279
 42
5.62031148352944
  0
LINE
  5
87
330
82
100
AcDbEntity
  8
중심선
100
AcDbLine
 10
2.268634060543552
 20
16.24717430164393
 30
0.0
 11
5.714909304380834
 21
16.24717430164393
 31
0.0
  0
LINE
  5
88
330
82
100
AcDbEntity
  8
중심선
100
AcDbLine
 10
5.245725140726316
 20
7.84717430164391
 30
0.0
 11
8.692000384563599
 21
7.84717430164391
 31
0.0
  0
LINE
  5
89
330
82
100
AcDbEntity
  8
중심선
100
AcDbLine
 10
15.74043728645272
 20
16.24717430164393
 30
0.0
 11
8.692000384563599
 21
7.84717430164391
 31
0.0
  0
LINE
  5
8A
330
82
100
AcDbEntity
  8
중심선
100
AcDbLine
 10
0.1404042013395286
 20
13.71084872107135
 30
0.0
 11
3.58671253028996
 21
13.71088815037384
 31
0.0
  0
LINE
  5
8B
330
82
100
AcDbEntity
  8
중심선
100
AcDbLine
 10
2.750260043222114
 20
10.84717430164391
 30
0.0
 11
6.196535287059397
 21
10.84717430164391
 31
0.0
  0
LINE
  5
8C
330
82
100
AcDbEntity
  8
중심선
100
AcDbLine
 10
12.29416204261559
 20
16.24717430164393
 30
0.0
 11
5.245725140726316
 21
7.84717430164391
 31
0.0
  0
LINE
  5
8D
330
82
100
AcDbEntity
  8
중심선
100
AcDbLine
 10
10.72767329541681
 20
16.24717430164393
 30
0.0
 11
6.196535287059397
 21
10.84717430164391
 31
0.0
  0
LINE
  5
8E
330
82
100
AcDbEntity
  8
중심선
100
AcDbLine
 10
7.28139805157953
 20
16.24717430164393
 30
0.0
 11
2.750260043222114
 21
10.84717430164391
 31
0.0
  0
LINE
  5
8F
330
82
100
AcDbEntity
  8
중심선
100
AcDbLine
 10
5.714909304380834
 20
16.24717430164393
 30
0.0
 11
3.58671253028996
 21
13.71088815037384
 31
0.0
  0
LINE
  5
90
330
82
100
AcDbEntity
  8
중심선
100
AcDbLine
 10
2.268634060543552
 20
16.24717430164393
 30
0.0
 11
0.1404042013395286
 21
13.71084872107135
 31
0.0
  0
LINE
  5
91
330
82
100
AcDbEntity
  8
중심선
100
AcDbLine
 10
7.28139805157953
 20
16.24717430164393
 30
0.0
 11
10.72767329541681
 21
16.24717430164393
 31
0.0
  0
LINE
  5
92
330
82
100
AcDbEntity
  8
중심선
100
AcDbLine
 10
12.29416204261559
 20
16.24717430164393
 30
0.0
 11
15.74043728645272
 21
16.24717430164393
 31
0.0
  0
LINE
  5
93
330
82
100
AcDbEntity
  8
중심선
100
AcDbLine
 10
19.22036997980202
 20
11.08717430171403
 30
0.0
 11
23.66174974927406
 21
11.08717430171406
 31
0.0
  0
LINE
  5
94
330
82
100
AcDbEntity
  8
중심선
100
AcDbLine
 10
19.22039502424796
 20
13.00717430171391
 30
0.0
 11
19.22036997980202
 21
11.08717430171403
 31
0.0
  0
LINE
  5
95
330
82
100
AcDbEntity
  8
중심선
100
AcDbLine
 10
19.22039502424796
 20
13.00717430171391
 30
0.0
 11
26.96566020931264
 21
13.00717430171391
 31
0.0
  0
LINE
  5
96
330
82
100
AcDbEntity
  8
중심선
100
AcDbLine
 10
22.22332737316547
 20
13.45928029700563
 30
0.0
 11
24.52862924686651
 21
15.39360700705356
 31
0.0
  0
ATTDEF
  5
98
330
82
100
AcDbEntity
  8
FORMAT
 62
     2
100
AcDbText
 10
-12.95993919485777
 20
2.075366912832191
 30
0.0
 40
4.233333333333333
  1
SEME36105E [ 4 FLUTE ]
 41
0.75
  7
SLDTEXTSTYLE0
 11
-12.95993919485777
 21
-0.0412997538344756
 31
0.0
100
AcDbAttributeDefinition
  3

  2
AUTOATTR0
 70
     0
 74
     1
  0
ENDBLK
  5
84
330
82
100
AcDbEntity
  8
0
100
AcDbBlockEnd
  0
BLOCK
  5
DD
330
DC
100
AcDbEntity
  8
0
100
AcDbBlockBegin
  2
_D
 70
     0
 10
0.0
 20
0.0
 30
0.0
  3
_D
  1

  0
LINE
  5
DF
330
DC
100
AcDbEntity
  8
치수문자_일반주서
 62
     0
370
    -2
100
AcDbLine
 10
31.86153810567668
 20
-5.250000000000003
 30
0.0
 11
45.05303810567671
 21
-5.249999999999954
 31
0.0
  0
LINE
  5
E0
330
DC
100
AcDbEntity
  8
치수문자_일반주서
 62
     0
370
    -2
100
AcDbLine
 10
31.86153810567668
 20
5.250000000000004
 30
0.0
 11
45.05303810567667
 21
5.250000000000053
 31
0.0
  0
LINE
  5
E1
330
DC
100
AcDbEntity
  8
치수문자_일반주서
 62
     0
370
    -2
100
AcDbLine
 10
45.05303810567667
 20
5.250000000000053
 30
0.0
 11
45.05303810567661
 21
22.79150000000005
 31
0.0
  0
LINE
  5
E2
330
DC
100
AcDbEntity
  8
치수문자_일반주서
 62
     0
370
    -2
100
AcDbLine
 10
45.05303810567671
 20
-5.249999999999954
 30
0.0
 11
45.05303810567667
 21
5.250000000000053
 31
0.0
  0
LINE
  5
E3
330
DC
100
AcDbEntity
  8
치수문자_일반주서
 62
     0
370
    -2
100
AcDbLine
 10
45.05303810567672
 20
-8.551999999999953
 30
0.0
 11
45.05303810567673
 21
-11.85399999999995
 31
0.0
  0
LINE
  5
E4
330
DC
100
AcDbEntity
  8
치수문자_일반주서
 62
     0
370
    -2
100
AcDbLine
 10
45.05303810567666
 20
8.552000000000053
 30
0.0
 11
45.05303810567664
 21
11.85400000000005
 31
0.0
  0
SOLID
  5
E5
330
DC
100
AcDbEntity
  8
치수문자_일반주서
 62
     0
100
AcDbTrace
 10
45.60337143901005
 20
-8.551999999999952
 30
0.0
 11
44.50270477234339
 21
-8.551999999999955
 31
0.0
 12
45.05303810567671
 22
-5.249999999999954
 32
0.0
 13
45.05303810567671
 23
-5.249999999999954
 33
0.0
  0
SOLID
  5
E6
330
DC
100
AcDbEntity
  8
치수문자_일반주서
 62
     0
100
AcDbTrace
 10
44.50270477234332
 20
8.552000000000051
 30
0.0
 11
45.60337143900999
 21
8.552000000000055
 31
0.0
 12
45.05303810567667
 22
5.250000000000053
 32
0.0
 13
45.05303810567667
 23
5.250000000000053
 33
0.0
  0
MTEXT
  5
E7
330
DC
100
AcDbEntity
  8
치수문자_일반주서
 62
     0
100
AcDbMText
 10
40.67803810567663
 20
17.32275000000004
 30
0.0
 40
3.5
 41
0.0
 71
     2
 72
     1
  1
\A1;%%c10.5
  7
SLDTEXTSTYLE0
 11
-3.383536836952856E-15
 21
1.0
 31
0.0
 73
     1
 44
1.0
  0
POINT
  5
136
330
DC
100
AcDbEntity
  8
Defpoints
 62
     0
100
AcDbPoint
 10
31.79903810567668
 20
-5.250000000000003
 30
0.0
  0
POINT
  5
137
330
DC
100
AcDbEntity
  8
Defpoints
 62
     0
100
AcDbPoint
 10
31.79903810567668
 20
5.250000000000004
 30
0.0
  0
POINT
  5
138
330
DC
100
AcDbEntity
  8
Defpoints
 62
     0
100
AcDbPoint
 10
45.05303810567667
 20
5.250000000000054
 30
0.0
  0
ENDBLK
  5
DE
330
DC
100
AcDbEntity
  8
0
100
AcDbBlockEnd
  0
BLOCK
  5
EB
330
EA
100
AcDbEntity
  8
0
100
AcDbBlockBegin
  2
_D_1
 70
     0
 10
0.0
 20
0.0
 30
0.0
  3
_D_1
  1

  0
LINE
  5
ED
330
EA
100
AcDbEntity
  8
치수문자_일반주서
 62
     0
370
    -2
100
AcDbLine
 10
-43.20096189432335
 20
5.562499999999994
 30
0.0
 11
-43.20096189432334
 21
20.32836952549911
 31
0.0
  0
LINE
  5
EE
330
EA
100
AcDbEntity
  8
치수문자_일반주서
 62
     0
370
    -2
100
AcDbLine
 10
31.79903810567666
 20
-0.4374999999999971
 30
0.0
 11
31.79903810567667
 21
20.32836952549911
 31
0.0
  0
LINE
  5
EF
330
EA
100
AcDbEntity
  8
치수문자_일반주서
 62
     0
370
    -2
100
AcDbLine
 10
-39.89896189432334
 20
20.32836952549911
 30
0.0
 11
28.49703810567667
 21
20.32836952549911
 31
0.0
  0
SOLID
  5
F0
330
EA
100
AcDbEntity
  8
치수문자_일반주서
 62
     0
100
AcDbTrace
 10
-39.89896189432334
 20
20.87870285883244
 30
0.0
 11
-39.89896189432334
 21
19.77803619216578
 31
0.0
 12
-43.20096189432334
 22
20.32836952549911
 32
0.0
 13
-43.20096189432334
 23
20.32836952549911
 33
0.0
  0
SOLID
  5
F1
330
EA
100
AcDbEntity
  8
치수문자_일반주서
 62
     0
100
AcDbTrace
 10
28.49703810567667
 20
19.77803619216578
 30
0.0
 11
28.49703810567667
 21
20.87870285883244
 31
0.0
 12
31.79903810567667
 22
20.32836952549911
 32
0.0
 13
31.79903810567667
 23
20.32836952549911
 33
0.0
  0
MTEXT
  5
F2
330
EA
100
AcDbEntity
  8
치수문자_일반주서
 62
     0
100
AcDbMText
 10
-5.700961894323351
 20
24.70336952549911
 30
0.0
 40
3.5
 41
0.0
 71
     2
 72
     1
  1
\A1;75
  7
SLDTEXTSTYLE0
 73
     1
 44
1.0
  0
POINT
  5
13A
330
EA
100
AcDbEntity
  8
Defpoints
 62
     0
100
AcDbPoint
 10
-43.20096189432335
 20
5.499999999999994
 30
0.0
  0
POINT
  5
13B
330
EA
100
AcDbEntity
  8
Defpoints
 62
     0
100
AcDbPoint
 10
31.79903810567666
 20
-0.4999999999999971
 30
0.0
  0
POINT
  5
13C
330
EA
100
AcDbEntity
  8
Defpoints
 62
     0
100
AcDbPoint
 10
31.79903810567666
 20
20.32836952549911
 30
0.0
  0
ENDBLK
  5
EC
330
EA
100
AcDbEntity
  8
0
100
AcDbBlockEnd
  0
BLOCK
  5
F6
330
F5
100
AcDbEntity
  8
0
100
AcDbBlockBegin
  2
_D_2
 70
     0
 10
0.0
 20
0.0
 30
0.0
  3
_D_2
  1

  0
LINE
  5
F8
330
F5
100
AcDbEntity
  8
치수문자_일반주서
 62
     0
370
    -2
100
AcDbLine
 10
-42.76346189432333
 20
6.000000000000006
 30
0.0
 11
-56.69360145594325
 21
5.999999999999956
 31
0.0
  0
LINE
  5
F9
330
F5
100
AcDbEntity
  8
치수문자_일반주서
 62
     0
370
    -2
100
AcDbLine
 10
-42.76346189432333
 20
-6.000000000000004
 30
0.0
 11
-56.6936014559432
 21
-6.000000000000055
 31
0.0
  0
LINE
  5
FA
330
F5
100
AcDbEntity
  8
치수문자_일반주서
 62
     0
370
    -2
100
AcDbLine
 10
-56.69360145594323
 20
2.697999999999956
 30
0.0
 11
-56.69360145594322
 21
-2.698000000000055
 31
0.0
  0
SOLID
  5
FB
330
F5
100
AcDbEntity
  8
치수문자_일반주서
 62
     0
100
AcDbTrace
 10
-56.1432681226099
 20
2.697999999999958
 30
0.0
 11
-57.24393478927657
 21
2.697999999999954
 31
0.0
 12
-56.69360145594325
 22
5.999999999999956
 32
0.0
 13
-56.69360145594325
 23
5.999999999999956
 33
0.0
  0
SOLID
  5
FC
330
F5
100
AcDbEntity
  8
치수문자_일반주서
 62
     0
100
AcDbTrace
 10
-57.24393478927655
 20
-2.698000000000057
 30
0.0
 11
-56.14326812260988
 21
-2.698000000000054
 31
0.0
 12
-56.6936014559432
 22
-6.000000000000055
 32
0.0
 13
-56.6936014559432
 23
-6.000000000000055
 33
0.0
  0
MTEXT
  5
FD
330
F5
100
AcDbEntity
  8
치수문자_일반주서
 62
     0
100
AcDbMText
 10
-61.06860145594322
 20
-2.179391697609248
 30
0.0
 40
3.5
 41
0.0
 71
     2
 72
     1
  1
\A1;%%c12
  7
SLDTEXTSTYLE0
 11
-3.552713678800497E-15
 21
1.0
 31
0.0
 73
     1
 44
1.0
  0
POINT
  5
FE
330
F5
100
AcDbEntity
  8
Defpoints
 62
     0
100
AcDbPoint
 10
-42.70096189432333
 20
6.000000000000006
 30
0.0
  0
POINT
  5
FF
330
F5
100
AcDbEntity
  8
Defpoints
 62
     0
100
AcDbPoint
 10
-42.70096189432333
 20
-6.000000000000004
 30
0.0
  0
POINT
  5
100
330
F5
100
AcDbEntity
  8
Defpoints
 62
     0
100
AcDbPoint
 10
-56.69360145594322
 20
-6.000000000000057
 30
0.0
  0
ENDBLK
  5
F7
330
F5
100
AcDbEntity
  8
0
100
AcDbBlockEnd
  0
BLOCK
  5
103
330
102
100
AcDbEntity
  8
0
100
AcDbBlockBegin
  2
_D_3
 70
     0
 10
0.0
 20
0.0
 30
0.0
  3
_D_3
  1

  0
LINE
  5
105
330
102
100
AcDbEntity
  8
치수문자_일반주서
 62
     0
370
    -2
100
AcDbLine
 10
31.79903810567666
 20
5.288636240091725
 30
0.0
 11
31.79903810567666
 21
8.512457613438357
 31
0.0
  0
LINE
  5
106
330
102
100
AcDbEntity
  8
치수문자_일반주서
 62
     0
370
    -2
100
AcDbLine
 10
5.799038105676647
 20
5.303336181484672
 30
0.0
 11
5.799038105676647
 21
8.512457613438357
 31
0.0
  0
LINE
  5
107
330
102
100
AcDbEntity
  8
치수문자_일반주서
 62
     0
370
    -2
100
AcDbLine
 10
28.49703810567666
 20
8.512457613438357
 30
0.0
 11
9.101038105676647
 21
8.512457613438357
 31
0.0
  0
SOLID
  5
108
330
102
100
AcDbEntity
  8
치수문자_일반주서
 62
     0
100
AcDbTrace
 10
28.49703810567666
 20
7.962124280105024
 30
0.0
 11
28.49703810567666
 21
9.06279094677169
 31
0.0
 12
31.79903810567666
 22
8.512457613438357
 32
0.0
 13
31.79903810567666
 23
8.512457613438357
 33
0.0
  0
SOLID
  5
109
330
102
100
AcDbEntity
  8
치수문자_일반주서
 62
     0
100
AcDbTrace
 10
9.101038105676647
 20
9.06279094677169
 30
0.0
 11
9.101038105676647
 21
7.962124280105024
 31
0.0
 12
5.799038105676647
 22
8.512457613438357
 32
0.0
 13
5.799038105676647
 23
8.512457613438357
 33
0.0
  0
MTEXT
  5
10A
330
102
100
AcDbEntity
  8
치수문자_일반주서
 62
     0
100
AcDbMText
 10
18.79903810567665
 20
12.88745761343836
 30
0.0
 40
3.5
 41
0.0
 71
     2
 72
     1
  1
\A1;26
  7
SLDTEXTSTYLE0
 73
     1
 44
1.0
  0
POINT
  5
13D
330
102
100
AcDbEntity
  8
Defpoints
 62
     0
100
AcDbPoint
 10
31.79903810567666
 20
5.226136240091725
 30
0.0
  0
POINT
  5
13E
330
102
100
AcDbEntity
  8
Defpoints
 62
     0
100
AcDbPoint
 10
5.799038105676647
 20
5.240836181484672
 30
0.0
  0
POINT
  5
13F
330
102
100
AcDbEntity
  8
Defpoints
 62
     0
100
AcDbPoint
 10
5.799038105676647
 20
8.51245761343835
 30
0.0
  0
ENDBLK
  5
104
330
102
100
AcDbEntity
  8
0
100
AcDbBlockEnd
  0
BLOCK
  5
10C
330
10B
100
AcDbEntity
  8
0
100
AcDbBlockBegin
  2
SW_DOWELSYMBOL_0
 70
     0
 10
0.0
 20
0.0
 30
0.0
  3
SW_DOWELSYMBOL_0
  1

  0
CIRCLE
  5
10E
330
10B
100
AcDbEntity
  8
해칭선
 62
     0
100
AcDbCircle
 10
0.0
 20
0.0
 30
0.0
 40
3.000000000000001
  0
HATCH
  5
10F
330
10B
100
AcDbEntity
  8
0
  6
Continuous
 62
     0
370
    18
100
AcDbHatch
 10
0.0
 20
0.0
 30
0.0
210
0.0
220
0.0
230
1.0
  2
SOLID
 70
     1
 71
     0
 91
        1
 92
        0
 93
        3
 72
     2
 10
0.0
 20
0.0
 40
3.000000000000001
 50
0.0
 51
90.0
 73
     1
 72
     1
 10
0.0
 20
3.000000000000001
 11
0.0
 21
0.0
 72
     1
 10
0.0
 20
0.0
 11
3.000000000000001
 21
0.0
 97
        0
 75
     0
 76
     1
 98
        1
 10
0.0
 20
0.0
  0
HATCH
  5
110
330
10B
100
AcDbEntity
  8
0
  6
Continuous
 62
     0
370
    18
100
AcDbHatch
 10
0.0
 20
0.0
 30
0.0
210
0.0
220
0.0
230
1.0
  2
SOLID
 70
     1
 71
     0
 91
        1
 92
        0
 93
        3
 72
     2
 10
0.0
 20
0.0
 40
3.000000000000001
 50
180.0
 51
270.0000000000008
 73
     1
 72
     1
 10
0.0
 20
-3.000000000000001
 11
0.0
 21
0.0
 72
     1
 10
0.0
 20
0.0
 11
-3.000000000000001
 21
0.0
 97
        0
 75
     0
 76
     1
 98
        1
 10
0.0
 20
0.0
  0
ENDBLK
  5
10D
330
10B
100
AcDbEntity
  8
0
100
AcDbBlockEnd
  0
ENDSEC
  0
SECTION
  2
ENTITIES
  0
LINE
  5
99
330
1F
100
AcDbEntity
  8
0
  6
Continuous
 62
     4
370
    25
100
AcDbLine
 10
1.999999999999998
 20
5.999999999999999
 30
0.0
 11
-42.70096189432335
 21
5.999999999999997
 31
0.0
  0
LINE
  5
9A
330
1F
100
AcDbEntity
  8
0
  6
Continuous
 62
     4
370
    25
100
AcDbLine
 10
-42.70096189432335
 20
-5.999999999999999
 30
0.0
 11
1.999999999999998
 21
-5.999999999999997
 31
0.0
  0
LINE
  5
9B
330
1F
100
AcDbEntity
  8
0
  6
Continuous
 62
     4
370
    25
100
AcDbLine
 10
2.000000000000002
 20
-5.999999999999999
 30
0.0
 11
4.799038105676649
 21
-5.249999999999998
 31
0.0
  0
LINE
  5
9C
330
1F
100
AcDbEntity
  8
0
  6
Continuous
 62
     4
370
    25
100
AcDbLine
 10
4.799038105676649
 20
5.250000000000002
 30
0.0
 11
1.999999999999998
 21
6.000000000000001
 31
0.0
  0
LINE
  5
9D
330
1F
100
AcDbEntity
  8
0
  6
Continuous
 62
     4
370
    25
100
AcDbLine
 10
-42.70096189432335
 20
5.999999999999994
 30
0.0
 11
-43.20096189432335
 21
5.499999999999994
 31
0.0
  0
LINE
  5
9E
330
1F
100
AcDbEntity
  8
0
  6
Continuous
 62
     4
370
    25
100
AcDbLine
 10
-43.20096189432335
 20
-5.499999999999997
 30
0.0
 11
-42.70096189432335
 21
-5.999999999999997
 31
0.0
  0
LINE
  5
9F
330
1F
100
AcDbEntity
  8
0
  6
Continuous
 62
     4
370
    25
100
AcDbLine
 10
5.262538533520246
 20
5.250000000000002
 30
0.0
 11
4.799038105676649
 21
5.250000000000002
 31
0.0
  0
LINE
  5
A0
330
1F
100
AcDbEntity
  8
0
  6
Continuous
 62
     4
370
    25
100
AcDbLine
 10
4.799038105676649
 20
-5.249999999999998
 30
0.0
 11
5.262538533520184
 21
-5.249999999999998
 31
0.0
  0
LINE
  5
A1
330
1F
100
AcDbEntity
  8
0
  6
Continuous
 62
     1
370
    25
100
AcDbLine
 10
29.76839210538189
 20
-5.250000000000002
 30
0.0
 11
31.79903810567666
 21
-5.250000000000002
 31
0.0
1001
PE_URL
1000

  0
LINE
  5
A2
330
1F
100
AcDbEntity
  8
0
  6
Continuous
 62
     1
370
    25
100
AcDbLine
 10
19.54623643834962
 20
5.250000000000004
 30
0.0
 11
15.48477729512151
 21
5.250000000000004
 31
0.0
1001
PE_URL
1000

  0
LINE
  5
A3
330
1F
100
AcDbEntity
  8
0
  6
Continuous
 62
     1
370
    25
100
AcDbLine
 10
15.48477729512143
 20
-5.250000000000002
 30
0.0
 11
19.54623643834961
 21
-5.250000000000002
 31
0.0
1001
PE_URL
1000

  0
LINE
  5
A4
330
1F
100
AcDbEntity
  8
0
  6
Continuous
 62
     1
370
    25
100
AcDbLine
 10
31.79903810567666
 20
5.250000000000004
 30
0.0
 11
29.76839210538189
 21
5.250000000000004
 31
0.0
1001
PE_URL
1000

  0
LINE
  5
A5
330
1F
100
AcDbEntity
  8
0
  6
Continuous
 62
     4
370
    25
100
AcDbLine
 10
1.999999999999998
 20
6.000000000000001
 30
0.0
 11
2.000000000000002
 21
-5.999999999999999
 31
0.0
  0
LINE
  5
A6
330
1F
100
AcDbEntity
  8
0
  6
Continuous
 62
     4
370
    25
100
AcDbLine
 10
-42.70096189432335
 20
5.999999999999994
 30
0.0
 11
-42.70096189432335
 21
-5.999999999999997
 31
0.0
  0
LINE
  5
A7
330
1F
100
AcDbEntity
  8
0
  6
Continuous
 62
     4
370
    25
100
AcDbLine
 10
4.799038105676649
 20
5.250000000000002
 30
0.0
 11
4.799038105676649
 21
4.564200911702876
 31
0.0
  0
SPLINE
  5
A8
330
1F
100
AcDbEntity
  8
0
  6
Continuous
 62
     4
370
    25
100
AcDbSpline
210
0.0
220
0.0
230
1.0
 70
     8
 71
     3
 72
    12
 73
     8
 74
     0
 42
0.000000001
 43
0.00000001
 40
0.0
 40
0.0
 40
0.0
 40
0.0
 40
0.2500000000000001
 40
0.2500000000000001
 40
0.5000000000000001
 40
0.5000000000000001
 40
1.0
 40
1.0
 40
1.0
 40
1.0
 10
4.299060676898232
 20
4.172282773228133
 30
0.0
 10
4.299060676898232
 20
4.229854972872771
 30
0.0
 10
4.30945289990775
 20
4.282283987729706
 30
0.0
 10
4.353050851917759
 20
4.37665942863925
 30
0.0
 10
4.386301908491392
 20
4.417786352901362
 30
0.0
 10
4.516410167812232
 20
4.518367876622009
 30
0.0
 10
4.645554090535555
 20
4.555819861038271
 30
0.0
 10
4.799038105676649
 20
4.564200911702876
 30
0.0
  0
LINE
  5
A9
330
1F
100
AcDbEntity
  8
0
  6
Continuous
 62
     4
370
    25
100
AcDbLine
 10
4.299060676898232
 20
4.172282773228133
 30
0.0
 11
4.299060676898232
 21
1.166938764160515
 31
0.0
  0
SPLINE
  5
AA
330
1F
100
AcDbEntity
  8
0
  6
Continuous
 62
     4
370
    25
100
AcDbSpline
210
0.0
220
0.0
230
1.0
 70
     8
 71
     3
 72
    14
 73
    10
 74
     0
 42
0.000000001
 43
0.00000001
 40
0.0
 40
0.0
 40
0.0
 40
0.0
 40
0.2500000000000001
 40
0.2500000000000001
 40
0.5000000000000002
 40
0.5000000000000002
 40
0.7500000000000003
 40
0.7500000000000003
 40
1.0
 40
1.0
 40
1.0
 40
1.0
 10
4.799038105676649
 20
0.2685667425937664
 30
0.0
 10
4.722306187872807
 20
0.3142113011943827
 30
0.0
 10
4.652791174922784
 20
0.3691944469935767
 30
0.0
 10
4.528031974086767
 20
0.4980646401143344
 30
0.0
 10
4.473870831422602
 20
0.571392889037531
 30
0.0
 10
4.386899205885381
 20
0.7287589192007774
 30
0.0
 10
4.353315513317561
 20
0.8146049275160775
 30
0.0
 10
4.309759366673681
 20
0.9882016561205216
 30
0.0
 10
4.299060676898236
 20
1.077971615257201
 30
0.0
 10
4.299060676898232
 20
1.166938764160454
 30
0.0
  0
LINE
  5
AB
330
1F
100
AcDbEntity
  8
0
  6
Continuous
 62
     4
370
    25
100
AcDbLine
 10
4.799038105676649
 20
0.2685667425937664
 30
0.0
 11
4.799038105676649
 21
-2.59433421856377
 31
0.0
  0
SPLINE
  5
AC
330
1F
100
AcDbEntity
  8
0
  6
Continuous
 62
     4
370
    25
100
AcDbSpline
210
0.0
220
0.0
230
1.0
 70
     8
 71
     3
 72
    12
 73
     8
 74
     0
 42
0.000000001
 43
0.00000001
 40
0.0
 40
0.0
 40
0.0
 40
0.0
 40
0.2500000000000003
 40
0.2500000000000003
 40
0.5000000000000006
 40
0.5000000000000006
 40
1.0
 40
1.0
 40
1.0
 40
1.0
 10
4.299060676898232
 20
-3.402818506626252
 30
0.0
 10
4.299060676898232
 20
-3.332227760653051
 30
0.0
 10
4.309452899907754
 20
-3.259885024056544
 30
0.0
 10
4.353050851917759
 20
-3.111923660286743
 30
0.0
 10
4.386301908491395
 20
-3.037298607604785
 30
0.0
 10
4.516410167812237
 20
-2.823477787436138
 30
0.0
 10
4.645554090535555
 20
-2.692303040885701
 30
0.0
 10
4.799038105676649
 20
-2.59433421856377
 30
0.0
  0
LINE
  5
AD
330
1F
100
AcDbEntity
  8
0
  6
Continuous
 62
     4
370
    25
100
AcDbLine
 10
4.299060676898232
 20
-3.402818506626252
 30
0.0
 11
4.299060676898232
 21
-5.255984327365793
 31
0.0
  0
SPLINE
  5
AE
330
1F
100
AcDbEntity
  8
0
  6
Continuous
 62
     4
370
    25
100
AcDbSpline
210
0.0
220
0.0
230
1.0
 70
     8
 71
     3
 72
    14
 73
    10
 74
     0
 42
0.000000001
 43
0.00000001
 40
0.0
 40
0.0
 40
0.0
 40
0.0
 40
0.25
 40
0.25
 40
0.5
 40
0.5
 40
0.75
 40
0.75
 40
1.0
 40
1.0
 40
1.0
 40
1.0
 10
4.799038105676649
 20
-5.243126157625105
 30
0.0
 10
4.722306187872844
 20
-5.261375333327043
 30
0.0
 10
4.652791174922847
 20
-5.276665268940482
 30
0.0
 10
4.528031974086876
 20
-5.299639215372426
 30
0.0
 10
4.473870831422724
 20
-5.307024441801496
 30
0.0
 10
4.386899205885506
 20
-5.311233792763582
 30
0.0
 10
4.353315513317673
 20
-5.30799268227709
 30
0.0
 10
4.309759366673751
 20
-5.29030175676497
 30
0.0
 10
4.299060676898232
 20
-5.275736900494943
 30
0.0
 10
4.299060676898232
 20
-5.255984327365793
 30
0.0
  0
LINE
  5
AF
330
1F
100
AcDbEntity
  8
0
  6
Continuous
 62
     4
370
    25
100
AcDbLine
 10
4.799038105676649
 20
-5.243126157625103
 30
0.0
 11
4.799038105676649
 21
-5.249999999999998
 31
0.0
  0
LINE
  5
B0
330
1F
100
AcDbEntity
  8
0
  6
Continuous
 62
     4
370
    25
100
AcDbLine
 10
-43.20096189432335
 20
5.499999999999994
 30
0.0
 11
-43.20096189432335
 21
-5.499999999999997
 31
0.0
  0
SPLINE
  5
B1
330
1F
100
AcDbEntity
  8
0
  6
Continuous
 62
     4
370
    25
100
AcDbSpline
210
0.0
220
0.0
230
1.0
 70
     8
 71
     3
 72
    14
 73
    10
 74
     0
 42
0.000000001
 43
0.00000001
 40
0.0
 40
0.0
 40
0.0
 40
0.0
 40
0.25
 40
0.25
 40
0.5
 40
0.5
 40
0.75
 40
0.75
 40
1.0
 40
1.0
 40
1.0
 40
1.0
 10
4.799038105676649
 20
4.564200911702876
 30
0.0
 10
4.873669992430059
 20
4.587129164177088
 30
0.0
 10
4.952504220848329
 20
4.604455892939906
 30
0.0
 10
5.118290739182081
 20
4.629347991616053
 30
0.0
 10
5.205450190092213
 20
4.63673684541832
 30
0.0
 10
5.378456491321508
 20
4.641177025460152
 30
0.0
 10
5.466703862415624
 20
4.638305682861394
 30
0.0
 10
5.63741462412775
 20
4.62234362333802
 30
0.0
 10
5.719773006657325
 20
4.609447529238204
 30
0.0
 10
5.799038105676651
 20
4.591044282778566
 30
0.0
  0
SPLINE
  5
B2
330
1F
100
AcDbEntity
  8
0
  6
Continuous
 62
     4
370
    25
100
AcDbSpline
210
0.0
220
0.0
230
1.0
 70
    24
 71
     3
 72
     8
 73
     4
 74
     0
 42
0.000000001
 43
0.00000001
 40
0.0
 40
0.0
 40
0.0
 40
0.0
 40
1.0
 40
1.0
 40
1.0
 40
1.0
 10
5.799038105676651
 20
4.591044282778566
 30
0.0
 10
5.799038105676651
 20
4.384295002064256
 30
0.0
 10
5.799038105676651
 20
4.171892968832361
 30
0.0
 10
5.799038105676651
 20
3.953622180749365
 30
0.0
  0
SPLINE
  5
B3
330
1F
100
AcDbEntity
  8
0
  6
Continuous
 62
     4
370
    25
100
AcDbSpline
210
0.0
220
0.0
230
1.0
 70
     8
 71
     3
 72
     8
 73
     4
 74
     0
 42
0.000000001
 43
0.00000001
 40
0.0
 40
0.0
 40
0.0
 40
0.0
 40
0.0000339420205141
 40
0.0000339420205141
 40
0.0000339420205141
 40
0.0000339420205141
 10
4.828152440993522
 20
0.2511405995859035
 30
0.0
 10
4.818353988825734
 20
0.2567907205164444
 30
0.0
 10
4.808646613241825
 20
0.2626010109823201
 30
0.0
 10
4.799038105676747
 20
0.268566742593935
 30
0.0
  0
SPLINE
  5
B4
330
1F
100
AcDbEntity
  8
0
  6
Continuous
 62
     4
370
    25
100
AcDbSpline
210
0.0
220
0.0
230
1.0
 70
     8
 71
     3
 72
     8
 73
     4
 74
     0
 42
0.000000001
 43
0.00000001
 40
0.0
 40
0.0
 40
0.0
 40
0.0
 40
1.0
 40
1.0
 40
1.0
 40
1.0
 10
5.799038105676647
 20
-0.3100582507222961
 30
0.0
 10
5.474293481794474
 20
-0.1230121220794492
 30
0.0
 10
5.152636730967036
 20
0.0640319168045683
 30
0.0
 10
4.828152440993522
 20
0.2511405995859035
 30
0.0
  0
SPLINE
  5
B5
330
1F
100
AcDbEntity
  8
0
  6
Continuous
 62
     4
370
    25
100
AcDbSpline
210
0.0
220
0.0
230
1.0
 70
     8
 71
     3
 72
    14
 73
    10
 74
     0
 42
0.000000001
 43
0.00000001
 40
0.0
 40
0.0
 40
0.0
 40
0.0
 40
0.25
 40
0.25
 40
0.5
 40
0.5
 40
0.75
 40
0.75
 40
1.0
 40
1.0
 40
1.0
 40
1.0
 10
4.799038105676649
 20
-2.59433421856377
 30
0.0
 10
4.873669992430059
 20
-2.553996643667778
 30
0.0
 10
4.952504220848329
 20
-2.522334120677479
 30
0.0
 10
5.118290739182081
 20
-2.476352288928868
 30
0.0
 10
5.205450190092213
 20
-2.462355357878162
 30
0.0
 10
5.378456491321508
 20
-2.45397601872389
 30
0.0
 10
5.466703862415624
 20
-2.459452609984421
 30
0.0
 10
5.63741462412775
 20
-2.489322433155223
 30
0.0
 10
5.719773006657325
 20
-2.513350944439717
 30
0.0
 10
5.799038105676651
 20
-2.546529480207621
 30
0.0
  0
LINE
  5
B6
330
1F
100
AcDbEntity
  8
0
  6
Continuous
 62
     4
370
    25
100
AcDbLine
 10
5.799038105676647
 20
-0.3100582507222961
 30
0.0
 11
5.799038105676651
 21
-2.546529480207622
 31
0.0
  0
SPLINE
  5
B7
330
1F
100
AcDbEntity
  8
0
  6
Continuous
 62
     4
370
    25
100
AcDbSpline
210
0.0
220
0.0
230
1.0
 70
     8
 71
     3
 72
     8
 73
     4
 74
     0
 42
0.000000001
 43
0.00000001
 40
0.0
 40
0.0
 40
0.0
 40
0.0
 40
0.0000339420205141
 40
0.0000339420205141
 40
0.0000339420205141
 40
0.0000339420205141
 10
4.828152440993549
 20
-5.243989740571928
 30
0.0
 10
4.818353988825756
 20
-5.243719149890324
 30
0.0
 10
4.808646613241828
 20
-5.24343173812382
 30
0.0
 10
4.799038105676747
 20
-5.243126157625095
 30
0.0
  0
SPLINE
  5
B8
330
1F
100
AcDbEntity
  8
0
  6
Continuous
 62
     4
370
    25
100
AcDbSpline
210
0.0
220
0.0
230
1.0
 70
     8
 71
     3
 72
     8
 73
     4
 74
     0
 42
0.000000001
 43
0.00000001
 40
0.0
 40
0.0
 40
0.0
 40
0.0
 40
1.0
 40
1.0
 40
1.0
 40
1.0
 10
5.799038105676651
 20
-5.240836181483437
 30
0.0
 10
5.474293481794478
 20
-5.251902200996945
 30
0.0
 10
5.152636730967043
 20
-5.252950587009008
 30
0.0
 10
4.828152440993533
 20
-5.243989740572208
 30
0.0
  0
LINE
  5
B9
330
1F
100
AcDbEntity
  8
0
  6
Continuous
 62
     4
370
    25
100
AcDbLine
 10
5.799038105676647
 20
5.240836181483442
 30
0.0
 11
5.262538533520249
 21
5.249875984680681
 31
0.0
  0
LINE
  5
BA
330
1F
100
AcDbEntity
  8
0
  6
Continuous
 62
     4
370
    25
100
AcDbLine
 10
5.799038105676647
 20
5.240836181483441
 30
0.0
 11
5.799038105676651
 21
4.591044282778566
 31
0.0
  0
SPLINE
  5
BB
330
1F
100
AcDbEntity
  8
0
  6
Continuous
 62
     1
370
    25
100
AcDbSpline
210
0.0
220
0.0
230
1.0
 70
     8
 71
     3
 72
    23
 73
    19
 74
     0
 42
0.000000001
 43
0.00000001
 40
0.0
 40
0.0
 40
0.0
 40
0.0
 40
0.0666846726940655
 40
0.133402672499869
 40
0.2000433862625389
 40
0.2666567979529398
 40
0.333297848311126
 40
0.3988310734164155
 40
0.4643187240950468
 40
0.5297456555031514
 40
0.5951780444576236
 40
0.6620113624072281
 40
0.7288728737299875
 40
0.7956582610291372
 40
0.8624176718306211
 40
0.9292047576156444
 40
0.9960682591678074
 40
1.0
 40
1.0
 40
1.0
 40
1.0
 10
5.799038105676644
 20
4.592760161297061
 30
0.0
 10
6.331847004640959
 20
4.430057290094034
 30
0.0
 10
7.397731085374819
 20
4.104570233398659
 30
0.0
 10
8.9964728152204
 20
3.452631577577988
 30
0.0
 10
10.59400194472566
 20
2.703979659336169
 30
0.0
 10
12.19086929823452
 20
1.869536119297131
 30
0.0
 10
13.77893375671399
 20
0.9832408355119321
 30
0.0
 10
15.35865652654439
 20
0.0734485303421198
 30
0.0
 10
16.92827367849216
 20
-0.8335894474676021
 30
0.0
 10
18.4967448691661
 20
-1.715988302498315
 30
0.0
 10
20.07598237868725
 20
-2.55306821793845
 30
0.0
 10
21.66712128868599
 20
-3.31800075739743
 30
0.0
 10
23.26931026398589
 20
-3.985583735685348
 30
0.0
 10
24.87031349384254
 20
-4.529058382339257
 30
0.0
 10
26.47067751426298
 20
-4.93712144775344
 30
0.0
 10
28.07169071572444
 20
-5.174455087877634
 30
0.0
 10
29.17130226761221
 20
-5.273730027929283
 30
0.0
 10
29.73697637849722
 20
-5.246986517995169
 30
0.0
 10
29.76839210538189
 20
-5.245501269178118
 30
0.0
  0
LINE
  5
BC
330
1F
100
AcDbEntity
  8
0
  6
Continuous
 62
     4
370
    25
100
AcDbLine
 10
5.799038105676647
 20
4.592760161297103
 30
0.0
 11
5.799038105676647
 21
5.240836181484672
 31
0.0
  0
SPLINE
  5
BD
330
1F
100
AcDbEntity
  8
0
  6
Continuous
 62
     1
370
    25
100
AcDbSpline
210
0.0
220
0.0
230
1.0
 70
     8
 71
     3
 72
    50
 73
    46
 74
     0
 42
0.000000001
 43
0.00000001
 40
0.0
 40
0.0
 40
0.0
 40
0.0
 40
0.0625
 40
0.0625
 40
0.0937500000000002
 40
0.0937500000000002
 40
0.1250000000000003
 40
0.1250000000000003
 40
0.187500000000001
 40
0.187500000000001
 40
0.2187500000000012
 40
0.2187500000000012
 40
0.2500000000000013
 40
0.2500000000000013
 40
0.3125000000000016
 40
0.3125000000000016
 40
0.375000000000002
 40
0.375000000000002
 40
0.406250000000002
 40
0.406250000000002
 40
0.437500000000002
 40
0.437500000000002
 40
0.5000000000000019
 40
0.5000000000000019
 40
0.5312500000000018
 40
0.5312500000000018
 40
0.5625000000000017
 40
0.5625000000000017
 40
0.6250000000000016
 40
0.6250000000000016
 40
0.6875000000000014
 40
0.6875000000000014
 40
0.7187500000000013
 40
0.7187500000000013
 40
0.7500000000000013
 40
0.7500000000000013
 40
0.812500000000001
 40
0.812500000000001
 40
0.8437500000000009
 40
0.8437500000000009
 40
0.8750000000000008
 40
0.8750000000000008
 40
0.9375000000000004
 40
0.9375000000000004
 40
1.0
 40
1.0
 40
1.0
 40
1.0
 10
31.79903810567666
 20
-5.119619916363861
 30
0.0
 10
31.26080196546797
 20
-5.050505641432573
 30
0.0
 10
30.71442443747958
 20
-4.953696135544934
 30
0.0
 10
29.90210280336498
 20
-4.770146436999808
 30
0.0
 10
29.63359757852808
 20
-4.702725941837786
 30
0.0
 10
29.09216301632401
 20
-4.555206040288469
 30
0.0
 10
28.8201979467165
 20
-4.475163336314129
 30
0.0
 10
28.00543754412049
 20
-4.217565809389283
 30
0.0
 10
27.46803711726081
 20
-4.023086768932145
 30
0.0
 10
26.65339202296084
 20
-3.699849044537477
 30
0.0
 10
26.38139006549343
 20
-3.586958350592514
 30
0.0
 10
25.83973254408638
 20
-3.352263951408192
 30
0.0
 10
25.57121606153824
 20
-3.230647926639547
 30
0.0
 10
24.75923914825717
 20
-2.852453151652667
 30
0.0
 10
24.2127902886584
 20
-2.582892759741303
 30
0.0
 10
23.13558414731975
 20
-2.021861640470771
 30
0.0
 10
22.5900135213299
 20
-1.727852265441542
 30
0.0
 10
21.77736773752377
 20
-1.276399783644448
 30
0.0
 10
21.50882873979104
 20
-1.124456201367881
 30
0.0
 10
20.96763084129538
 20
-0.8172161867652731
 30
0.0
 10
20.69570961767963
 20
-0.6620527536476111
 30
0.0
 10
19.8808546849363
 20
-0.1947053713310287
 30
0.0
 10
19.3434159250121
 20
0.1184441666794498
 30
0.0
 10
18.52890690735226
 20
0.5863332971485781
 30
0.0
 10
18.25687502331058
 20
0.7418223208263283
 30
0.0
 10
17.7150082660963
 20
1.049995206102094
 30
0.0
 10
17.44643549618118
 20
1.20244525344084
 30
0.0
 10
16.63482384567629
 20
1.655507015675218
 30
0.0
 10
16.08831778351993
 20
1.951287533831488
 30
0.0
 10
15.01040471212535
 20
2.516347269387202
 30
0.0
 10
14.46560334699535
 20
2.787967244949585
 30
0.0
 10
13.65265401211029
 20
3.170296900536231
 30
0.0
 10
13.3840362137284
 20
3.293330437862008
 30
0.0
 10
12.84308866340543
 20
3.530893247548399
 30
0.0
 10
12.57121824016534
 20
3.64533378459139
 30
0.0
 10
11.75628956346257
 20
3.973518003709805
 30
0.0
 10
11.21877414066648
 20
4.171546839502859
 30
0.0
 10
10.40442195642243
 20
4.434770635333262
 30
0.0
 10
10.13236710965111
 20
4.516772414514215
 30
0.0
 10
9.590304857761714
 20
4.6683339496796
 30
0.0
 10
9.321630775579816
 20
4.737797835635242
 30
0.0
 10
8.510404898871101
 20
4.927501729939636
 30
0.0
 10
7.963855768177437
 20
5.028682582792897
 30
0.0
 10
6.88526275711315
 20
5.175806726760934
 30
0.0
 10
6.341192946752891
 20
5.222361676874343
 30
0.0
 10
5.79903810567672
 20
5.240836181483442
 30
0.0
  0
LINE
  5
BE
330
1F
100
AcDbEntity
  8
0
  6
Continuous
 62
     1
370
    25
100
AcDbLine
 10
31.79903810567665
 20
-5.250000000000002
 30
0.0
 11
31.79903810567666
 21
-5.119619916365121
 31
0.0
1001
PE_URL
1000

  0
SPLINE
  5
BF
330
1F
100
AcDbEntity
  8
0
  6
Continuous
 62
     1
370
    25
100
AcDbSpline
210
0.0
220
0.0
230
1.0
 70
     8
 71
     3
 72
    19
 73
    15
 74
     0
 42
0.000000001
 43
0.00000001
 40
0.0
 40
0.0
 40
0.0
 40
0.0
 40
0.0529196802665367
 40
0.1379625089659526
 40
0.2229167460374934
 40
0.3078502763789813
 40
0.3928312103901128
 40
0.4796333054817999
 40
0.5663798321348118
 40
0.6530622155860731
 40
0.739734359533147
 40
0.8264502634847037
 40
0.9132514556384238
 40
1.0
 40
1.0
 40
1.0
 40
1.0
 10
24.64309498396646
 20
-4.429664046583468
 30
0.0
 10
24.31065090587106
 20
-4.533225901881073
 30
0.0
 10
23.44396352465654
 20
-4.803213424822727
 30
0.0
 10
22.04351858166714
 20
-5.075493469583188
 30
0.0
 10
20.44247132322868
 20
-5.252587130314149
 30
0.0
 10
18.84183209239372
 20
-5.261092175686573
 30
0.0
 10
17.22945841826459
 20
-5.107334382869159
 30
0.0
 10
15.60510523597943
 20
-4.790459607003421
 30
0.0
 10
13.97046145971446
 20
-4.317115481504208
 30
0.0
 10
12.33689118609705
 20
-3.704627236091247
 30
0.0
 10
10.70353503919224
 20
-2.972929110708029
 30
0.0
 10
9.069320197382144
 20
-2.145045937297252
 30
0.0
 10
7.434062834725935
 20
-1.249432955781387
 30
0.0
 10
6.343936115615143
 20
-0.6231198199322571
 30
0.0
 10
5.799038105676724
 20
-0.3100582507223407
 30
0.0
  0
SPLINE
  5
C0
330
1F
100
AcDbEntity
  8
0
  6
Continuous
 62
     1
370
    25
100
AcDbSpline
210
0.0
220
0.0
230
1.0
 70
     8
 71
     3
 72
    21
 73
    17
 74
     0
 42
0.000000001
 43
0.00000001
 40
0.0
 40
0.0
 40
0.0
 40
0.0
 40
0.0108282312732916
 40
0.0871934089077817
 40
0.1635902713294859
 40
0.23871713015764
 40
0.3137917427624131
 40
0.3887967471942683
 40
0.463808008121433
 40
0.5404252848470953
 40
0.6170748822705638
 40
0.6936372116133604
 40
0.770169761669851
 40
0.8467340381456973
 40
0.9233859171550817
 40
1.0
 40
1.0
 40
1.0
 40
1.0
 10
10.36782525526276
 20
4.432296220699488
 30
0.0
 10
10.44328802701297
 20
4.458141471526948
 30
0.0
 10
11.05094556114418
 20
4.66625814975872
 30
0.0
 10
12.19085326163862
 20
4.926762820377976
 30
0.0
 10
13.77893797498823
 20
5.18629765777388
 30
0.0
 10
15.35865540554772
 20
5.275041808248102
 30
0.0
 10
16.92827397684608
 20
5.210013244749322
 30
0.0
 10
18.49674479527533
 20
4.989232287929691
 30
0.0
 10
20.07598237649029
 20
4.617924211834668
 30
0.0
 10
21.66712137534343
 20
4.103567588127392
 30
0.0
 10
23.26930992017389
 20
3.459147385156548
 30
0.0
 10
24.87031478056494
 20
2.707268343819314
 30
0.0
 10
26.47067271174898
 20
1.871702179499036
 30
0.0
 10
28.07170865656654
 20
0.9784995401456567
 30
0.0
 10
29.67394687695212
 20
0.0538575219278644
 30
0.0
 10
30.74216151508896
 20
-0.5595240546956992
 30
0.0
 10
31.27613712058034
 20
-0.8661392115017311
 30
0.0
  0
SPLINE
  5
C1
330
1F
100
AcDbEntity
  8
0
  6
Continuous
 62
     1
370
    25
100
AcDbSpline
210
0.0
220
0.0
230
1.0
 70
     8
 71
     3
 72
     8
 73
     4
 74
     0
 42
0.000000001
 43
0.00000001
 40
0.0
 40
0.0
 40
0.0
 40
0.0
 40
1.0
 40
1.0
 40
1.0
 40
1.0
 10
31.79903810567666
 20
-3.952034169092368
 30
0.0
 10
30.94037405420777
 20
-3.46872724038195
 30
0.0
 10
30.13087261981698
 20
-2.875383142176319
 30
0.0
 10
29.35203265958564
 20
-2.213411659393146
 30
0.0
1001
PE_URL
1000

  0
LINE
  5
C2
330
1F
100
AcDbEntity
  8
0
  6
Continuous
 62
     1
370
    25
100
AcDbLine
 10
31.79903810567666
 20
-5.119619916365121
 30
0.0
 11
31.79903810567666
 21
-3.952034169092368
 31
0.0
1001
PE_URL
1000

  0
SPLINE
  5
C3
330
1F
100
AcDbEntity
  8
0
  6
Continuous
 62
     1
370
    25
100
AcDbSpline
210
0.0
220
0.0
230
1.0
 70
    24
 71
     3
 72
    16
 73
    12
 74
     0
 42
0.000000001
 43
0.00000001
 40
0.0
 40
0.0
 40
0.0
 40
0.0
 40
0.1224671451625928
 40
0.2788159695138619
 40
0.3794972345417434
 40
0.4829205255287445
 40
0.5836874179740857
 40
0.6876945420038633
 40
0.784030032496222
 40
0.8827053000591306
 40
1.0
 40
1.0
 40
1.0
 40
1.0
 10
31.27066220887572
 20
-0.8699727859483454
 30
0.0
 10
31.26728936270877
 20
-0.8723344782596631
 30
0.0
 10
31.25961054099042
 20
-0.8777112471114173
 30
0.0
 10
31.15583221748786
 20
-0.9503776115306867
 30
0.0
 10
30.99519184801277
 20
-1.062859209177926
 30
0.0
 10
30.8105234324094
 20
-1.192165425852644
 30
0.0
 10
30.57903992894516
 20
-1.354251919949516
 30
0.0
 10
30.31532863963169
 20
-1.538904552637777
 30
0.0
 10
30.02649078811226
 20
-1.741150993592004
 30
0.0
 10
29.70652906494409
 20
-1.965190604092915
 30
0.0
 10
29.47680000985851
 20
-2.126048620209633
 30
0.0
 10
29.35203265958564
 20
-2.213411659393144
 30
0.0
1001
PE_URL
1000

  0
SPLINE
  5
C4
330
1F
100
AcDbEntity
  8
0
  6
Continuous
 62
     1
370
    25
100
AcDbSpline
210
0.0
220
0.0
230
1.0
 70
     8
 71
     3
 72
    15
 73
    11
 74
     0
 42
0.000000001
 43
0.00000001
 40
0.0
 40
0.0
 40
0.0
 40
0.0
 40
0.1331663601253371
 40
0.2662061068953072
 40
0.3992041316420651
 40
0.5322457227127744
 40
0.6654156553380127
 40
0.7962034259621773
 40
0.9268549511005915
 40
1.0
 40
1.0
 40
1.0
 40
1.0
 10
31.79903810567666
 20
1.162751870330659
 30
0.0
 10
31.25505302008754
 20
1.465206006299001
 30
0.0
 10
30.16760006494564
 20
2.069826707613769
 30
0.0
 10
28.5373007376683
 20
2.900839150133739
 30
0.0
 10
26.90756613280981
 20
3.641464789750431
 30
0.0
 10
25.27724251088161
 20
4.264147428777182
 30
0.0
 10
23.65548053615533
 20
4.7492248099907
 30
0.0
 10
22.04352331834058
 20
5.074467389751807
 30
0.0
 10
20.67718437218293
 20
5.240859805444448
 30
0.0
 10
19.8449392517641
 20
5.232839565326231
 30
0.0
 10
19.54623643834962
 20
5.229961004396529
 30
0.0
1001
PE_URL
1000

  0
LINE
  5
C5
330
1F
100
AcDbEntity
  8
0
  6
Continuous
 62
     1
370
    25
100
AcDbLine
 10
31.79903810567666
 20
-0.5000000000000153
 30
0.0
 11
31.79903810567666
 21
1.16275187033076
 31
0.0
1001
PE_URL
1000

  0
LINE
  5
C6
330
1F
100
AcDbEntity
  8
0
  6
Continuous
 62
     1
370
    25
100
AcDbLine
 10
31.79903810567666
 20
-0.500000000000016
 30
0.0
 11
31.27613712058034
 21
-0.8661392115017361
 31
0.0
1001
PE_URL
1000

  0
SPLINE
  5
C7
330
1F
100
AcDbEntity
  8
0
  6
Continuous
 62
     1
370
    25
100
AcDbSpline
210
0.0
220
0.0
230
1.0
 70
     8
 71
     3
 72
    14
 73
    10
 74
     0
 42
0.000000001
 43
0.00000001
 40
0.0
 40
0.0
 40
0.0
 40
0.0
 40
0.165028287541644
 40
0.3301390515498678
 40
0.4950585514664506
 40
0.6599104854184592
 40
0.8248308183267837
 40
0.9870095541484781
 40
1.0
 40
1.0
 40
1.0
 40
1.0
 10
5.799038105676644
 20
-2.543433525925668
 30
0.0
 10
6.331846962882905
 20
-2.804900302039398
 30
0.0
 10
7.397730960079778
 20
-3.327964527960097
 30
0.0
 10
8.996473316450748
 20
-3.988645210127464
 30
0.0
 10
10.59400006789895
 20
-4.531436624861723
 30
0.0
 10
12.19087630334817
 20
-4.937583371793904
 30
0.0
 10
13.778907783908
 20
-5.173558844787175
 30
0.0
 10
14.87728626231977
 20
-5.271609837811092
 30
0.0
 10
15.44283642039337
 20
-5.246135177287585
 30
0.0
 10
15.48477729512144
 20
-5.244245991102233
 30
0.0
  0
SPLINE
  5
C8
330
1F
100
AcDbEntity
  8
0
  6
Continuous
 62
     1
370
    25
100
AcDbSpline
210
0.0
220
0.0
230
1.0
 70
     8
 71
     3
 72
    12
 73
     8
 74
     0
 42
0.000000001
 43
0.00000001
 40
0.0
 40
0.0
 40
0.0
 40
0.0
 40
0.0342881652435838
 40
0.275532833771558
 40
0.5168775098063423
 40
0.7584983251328414
 40
1.0
 40
1.0
 40
1.0
 40
1.0
 10
24.64309498396646
 20
4.429664046583474
 30
0.0
 10
24.71890161844875
 20
4.45566235915582
 30
0.0
 10
25.32806856188848
 20
4.664579595918066
 30
0.0
 10
26.47065760302324
 20
4.926606105892301
 30
0.0
 10
28.07171269148021
 20
5.185962112733464
 30
0.0
 10
29.67394586832365
 20
5.283580427416528
 30
0.0
 10
30.74216117893475
 20
5.213227531916726
 30
0.0
 10
31.27613712058035
 20
5.178059758857464
 30
0.0
1001
PE_URL
1000

  0
SPLINE
  5
C9
330
1F
100
AcDbEntity
  8
0
  6
Continuous
 62
     1
370
    25
100
AcDbSpline
210
0.0
220
0.0
230
1.0
 70
     8
 71
     3
 72
    18
 73
    14
 74
     0
 42
0.000000001
 43
0.00000001
 40
0.0
 40
0.0
 40
0.0
 40
0.0
 40
0.2499999999999996
 40
0.2499999999999996
 40
0.3749999999999997
 40
0.3749999999999997
 40
0.4999999999999998
 40
0.4999999999999998
 40
0.6249999999999999
 40
0.6249999999999999
 40
0.75
 40
0.75
 40
1.0
 40
1.0
 40
1.0
 40
1.0
 10
31.27613712058034
 20
5.178059758857475
 30
0.0
 10
31.28207682548485
 20
4.840811310677381
 30
0.0
 10
31.25309610983505
 20
4.510248908942359
 30
0.0
 10
31.13835285639776
 20
4.028051450856658
 30
0.0
 10
31.08736660476764
 20
3.868961611025876
 30
0.0
 10
30.9616327285144
 20
3.571372350990886
 30
0.0
 10
30.88654091127317
 20
3.430910543485641
 30
0.0
 10
30.70936233786018
 20
3.169559421073064
 30
0.0
 10
30.61058109843643
 20
3.053515042844701
 30
0.0
 10
30.39347110683708
 20
2.849487958549321
 30
0.0
 10
30.27364368295288
 20
2.760887595808764
 30
0.0
 10
29.90007788636705
 20
2.546625046979272
 30
0.0
 10
29.62622881392787
 20
2.468270759667693
 30
0.0
 10
29.35203265958564
 20
2.447005446091006
 30
0.0
1001
PE_URL
1000

  0
SPLINE
  5
CA
330
1F
100
AcDbEntity
  8
0
  6
Continuous
 62
     1
370
    25
100
AcDbSpline
210
0.0
220
0.0
230
1.0
 70
     8
 71
     3
 72
    10
 73
     6
 74
     0
 42
0.000000001
 43
0.00000001
 40
0.0
 40
0.0
 40
0.0
 40
0.0
 40
0.3159648458799279
 40
0.633077209874369
 40
1.0
 40
1.0
 40
1.0
 40
1.0
 10
31.79903810567666
 20
1.256437685219473
 30
0.0
 10
31.58942538470272
 20
1.367717721016394
 30
0.0
 10
31.16943867327352
 20
1.59068193838318
 30
0.0
 10
30.51980848027745
 20
1.915644673235256
 30
0.0
 10
30.0946043146872
 20
2.107411386087506
 30
0.0
 10
29.86652086331531
 20
2.210276826422195
 30
0.0
1001
PE_URL
1000

  0
LINE
  5
CB
330
1F
100
AcDbEntity
  8
0
  6
Continuous
 62
     1
370
    25
100
AcDbLine
 10
31.79903810567666
 20
1.166978595976241
 30
0.0
 11
31.79903810567666
 21
1.256437685219473
 31
0.0
1001
PE_URL
1000

  0
SPLINE
  5
CC
330
1F
100
AcDbEntity
  8
0
  6
Continuous
 62
     1
370
    25
100
AcDbSpline
210
0.0
220
0.0
230
1.0
 70
     8
 71
     3
 72
    10
 73
     6
 74
     0
 42
0.000000001
 43
0.00000001
 40
0.0
 40
0.0
 40
0.0
 40
0.0
 40
0.2841430744884909
 40
0.6421801178948875
 40
1.0
 40
1.0
 40
1.0
 40
1.0
 10
10.3678252552627
 20
-4.432296220699484
 30
0.0
 10
9.93516088278101
 20
-4.560916202132164
 30
0.0
 10
8.95731386599417
 20
-4.85160495106179
 30
0.0
 10
7.434058542354654
 20
-5.133496033103405
 30
0.0
 10
6.343934685114107
 20
-5.205063368877242
 30
0.0
 10
5.799038105676727
 20
-5.240836181483439
 30
0.0
  0
ELLIPSE
  5
CD
330
1F
100
AcDbEntity
  8
0
  6
Continuous
 62
     1
370
    25
100
AcDbEllipse
 10
32.5131121090477
 20
0.0000000000000013
 30
0.0
 11
7.497777035396084
 21
0.0
 31
0.0
210
0.0
220
0.0
230
1.0
 40
0.7002075382097118
 41
1.666178985803105
 42
1.736532942311065
1001
PE_URL
1000

  0
LINE
  5
CE
330
1F
100
AcDbEntity
  8
0
  6
Continuous
 62
     1
370
    25
100
AcDbLine
 10
31.79903810567666
 20
1.256437685219473
 30
0.0
 11
31.79903810567666
 21
5.226136240091725
 31
0.0
1001
PE_URL
1000

  0
LINE
  5
CF
330
1F
100
AcDbEntity
  8
0
  6
Continuous
 62
     1
370
    25
100
AcDbLine
 10
31.79903810567666
 20
-0.4999999999999971
 30
0.0
 11
31.79903810567666
 21
-3.952034169092366
 31
0.0
1001
PE_URL
1000

  0
LINE
  5
D0
330
1F
100
AcDbEntity
  8
0
  6
Continuous
 62
     1
370
    25
100
AcDbLine
 10
31.79903810567666
 20
5.226136240091725
 30
0.0
 11
31.79903810567665
 21
5.250000000000005
 31
0.0
1001
PE_URL
1000

  0
LINE
  5
D1
330
1F
100
AcDbEntity
  8
중심선
100
AcDbLine
 10
-46.20096189432334
 20
-0.0000000000000034
 30
0.0
 11
34.79903810567666
 21
0.0000000000000065
 31
0.0
  0
CIRCLE
  5
D2
330
1F
100
AcDbEntity
  8
해칭선
100
AcDbCircle
 10
0.0
 20
0.0
 30
0.0
 40
3.000000000000001
  0
INSERT
  5
D3
330
1F
100
AcDbEntity
  8
0
  6
Continuous
 62
     7
100
AcDbBlockReference
 66
     1
  2
블럭10
 10
-19.64123482644855
 20
-52.04717430164393
 30
0.0
  0
ATTRIB
  5
D4
330
D3
100
AcDbEntity
  8
FORMAT
 62
     2
100
AcDbText
 10
-32.60117402130631
 20
-49.97180738881174
 30
0.0
 40
4.233333333333333
  1
SEME36105E [ 4 FLUTE ]
 41
0.75
  7
SLDTEXTSTYLE0
 11
-32.60117402130631
 21
-52.08847405547841
 31
0.0
100
AcDbAttribute
  2
AUTOATTR0
 70
     0
 74
     1
  0
SEQEND
  5
D5
330
D3
100
AcDbEntity
  8
0
  6
Continuous
 62
     7
  0
HATCH
  5
D6
330
1F
100
AcDbEntity
  8
중심선
100
AcDbHatch
 10
0.0
 20
0.0
 30
0.0
210
0.0
220
0.0
230
1.0
  2
SOLID
 70
     1
 71
     0
 91
        1
 92
        0
 93
        4
 72
     1
 10
-13.92632552206769
 20
-35.8
 11
-17.37260076590498
 21
-35.8
 72
     1
 10
-17.37260076590498
 20
-35.8
 11
-19.500830625109
 21
-38.33632558057259
 72
     1
 10
-19.500830625109
 20
-38.33632558057259
 11
-16.05452229615854
 21
-38.3362861512701
 72
     1
 10
-16.05452229615854
 20
-38.3362861512701
 11
-13.92632552206769
 21
-35.8
 97
        0
 75
     0
 76
     1
 98
        1
 10
-5.70107970865889
 20
0.0000000000000009
  0
HATCH
  5
D7
330
1F
100
AcDbEntity
  8
중심선
100
AcDbHatch
 10
0.0
 20
0.0
 30
0.0
210
0.0
220
0.0
230
1.0
  2
SOLID
 70
     1
 71
     0
 91
        1
 92
        0
 93
        4
 72
     1
 10
-8.913561531031743
 20
-35.80000000000003
 11
-12.359836774869
 21
-35.79999999999997
 72
     1
 10
-12.359836774869
 20
-35.79999999999997
 11
-16.89097478322642
 21
-41.20000000000002
 72
     1
 10
-16.89097478322641
 20
-41.20000000000002
 11
-13.44469953938913
 21
-41.20000000000002
 72
     1
 10
-13.44469953938913
 20
-41.20000000000002
 11
-8.913561531031743
 21
-35.80000000000003
 97
        0
 75
     0
 76
     1
 98
        1
 10
-5.70107970865889
 20
0.0000000000000009
  0
HATCH
  5
D8
330
1F
100
AcDbEntity
  8
중심선
100
AcDbHatch
 10
0.0
 20
0.0
 30
0.0
210
0.0
220
0.0
230
1.0
  2
SOLID
 70
     1
 71
     0
 91
        1
 92
        0
 93
        4
 72
     1
 10
-3.900797539995848
 20
-35.79999999999997
 11
-7.347072783832964
 21
-35.79999999999997
 72
     1
 10
-7.347072783832964
 20
-35.79999999999997
 11
-14.39550968572221
 21
-44.20000000000002
 72
     1
 10
-14.39550968572221
 20
-44.20000000000002
 11
-10.94923444188493
 21
-44.20000000000002
 72
     1
 10
-10.94923444188493
 20
-44.20000000000002
 11
-3.900797539995847
 21
-35.79999999999997
 97
        0
 75
     0
 76
     1
 98
        1
 10
-5.70107970865889
 20
0.0000000000000009
  0
HATCH
  5
D9
330
1F
100
AcDbEntity
  8
중심선
100
AcDbHatch
 10
0.0
 20
0.0
 30
0.0
210
0.0
220
0.0
230
1.0
  2
SOLID
 70
     1
 71
     0
 91
        1
 92
        0
 93
        6
 72
     3
 10
0.8990928910163518
 20
-40.00000000005127
 11
3.960054785062283
 21
1.540882976769353E-10
 40
0.3939339440162628
 50
17.09539180608437
 51
320.0019657685079
 73
     0
 72
     1
 10
2.582092546716947
 20
-38.5878940046383
 11
4.887394420418012
 21
-36.65356729459038
 72
     3
 10
0.8990928909635052
 20
-40.00000000000015
 11
6.600054785286829
 21
-1.278976924368180E-13
 40
0.636358354079598
 50
39.99873849337385
 51
368.4976242363725
 73
     1
 72
     1
 10
7.324425382864115
 20
-39.03999999993002
 11
-0.4208398022005726
 21
-39.03999999993002
 72
     1
 10
-0.4208398022005726
 20
-39.03999999993002
 11
-0.4208648466465066
 21
-40.95999999992991
 72
     1
 10
-0.4208648466465066
 20
-40.95999999992991
 11
4.02051492282553
 21
-40.95999999992988
 97
        0
 75
     0
 76
     1
 98
        1
 10
-5.70107970865889
 20
0.0000000000000009
  0
DIMENSION
  5
DA
330
1F
100
AcDbEntity
  8
치수문자_일반주서
100
AcDbDimension
  2
_D
 10
45.05303810567667
 20
5.250000000000053
 30
0.0
 11
45.05303810567663
 21
17.32275000000005
 31
0.0
 70
   160
  1
%%c<>
 71
     2
 42
10.50000000000001
 52
-270.0
  3
SLDDIMSTYLE0
100
AcDbAlignedDimension
 13
31.79903810567668
 23
-5.250000000000003
 33
0.0
 14
31.79903810567668
 24
5.250000000000004
 34
0.0
 50
90.0000000000002
100
AcDbRotatedDimension
  0
DIMENSION
  5
E8
330
1F
100
AcDbEntity
  8
치수문자_일반주서
100
AcDbDimension
  2
_D_1
 10
31.79903810567667
 20
20.32836952549911
 30
0.0
 11
-5.700961894323351
 21
20.32836952549911
 31
0.0
 70
   160
  1
<>
 71
     2
 42
75.0
  3
SLDDIMSTYLE1
100
AcDbAlignedDimension
 13
-43.20096189432335
 23
5.499999999999994
 33
0.0
 14
31.79903810567666
 24
-0.4999999999999971
 34
0.0
 50
-0.0000000000000054
100
AcDbRotatedDimension
  0
DIMENSION
  5
F3
330
1F
100
AcDbEntity
  8
치수문자_일반주서
100
AcDbDimension
  2
_D_2
 10
-56.6936014559432
 20
-6.000000000000055
 30
0.0
 11
-56.69360145594322
 21
-2.179391697609233
 31
0.0
 70
   160
  1
%%c<>
 71
     2
 42
12.00000000000001
 52
-270.0
  3
SLDDIMSTYLE2
100
AcDbAlignedDimension
 13
-42.70096189432333
 23
6.000000000000006
 33
0.0
 14
-42.70096189432333
 24
-6.000000000000004
 34
0.0
 50
90.0000000000002
100
AcDbRotatedDimension
  0
DIMENSION
  5
101
330
1F
100
AcDbEntity
  8
치수문자_일반주서
100
AcDbDimension
  2
_D_3
 10
5.799038105676647
 20
8.512457613438357
 30
0.0
 11
18.79903810567665
 21
8.512457613438357
 31
0.0
 70
   160
  1
<>
 71
     2
 42
26.00000000000001
  3
SLDDIMSTYLE1
100
AcDbAlignedDimension
 13
31.79903810567666
 23
5.226136240091725
 33
0.0
 14
5.799038105676647
 24
5.240836181484672
 34
0.0
 50
0.0000000000000235
100
AcDbRotatedDimension
  0
INSERT
  5
111
330
1F
100
AcDbEntity
  8
해칭선
100
AcDbBlockReference
  2
SW_DOWELSYMBOL_0
 10
0.0
 20
0.0
 30
0.0
  0
ENDSEC
  0
SECTION
  2
OBJECTS
  0
DICTIONARY
  5
C
330
0
100
AcDbDictionary
281
     1
  3
ACAD_GROUP
350
D
  3
ACAD_LAYOUT
350
1A
  3
ACAD_MLINESTYLE
350
17
  3
ACAD_PLOTSETTINGS
350
19
  3
ACAD_PLOTSTYLENAME
350
E
  3
ACAD_SCALELIST
350
47
  3
APPDATA
350
133
  3
DWGPROPS
350
140
  0
DICTIONARY
  5
D
102
{ACAD_REACTORS
330
C
102
}
330
C
100
AcDbDictionary
281
     1
  0
DICTIONARY
  5
1A
102
{ACAD_REACTORS
330
C
102
}
330
C
100
AcDbDictionary
281
     1
  3
Layout1
350
1E
  3
Layout2
350
26
  3
Model
350
22
  0
DICTIONARY
  5
17
102
{ACAD_REACTORS
330
C
102
}
330
C
100
AcDbDictionary
281
     1
  3
Standard
350
18
  0
DICTIONARY
  5
19
102
{ACAD_REACTORS
330
C
102
}
330
C
100
AcDbDictionary
281
     1
  0
ACDBDICTIONARYWDFLT
  5
E
102
{ACAD_REACTORS
330
C
102
}
330
C
100
AcDbDictionary
281
     1
  3
Normal
350
F
100
AcDbDictionaryWithDefault
340
F
  0
DICTIONARY
  5
47
102
{ACAD_REACTORS
330
C
102
}
330
C
100
AcDbDictionary
281
     1
  3
A0
350
48
  3
A1
350
49
  3
A2
350
4A
  3
A3
350
4B
  3
A4
350
4C
  3
A5
350
4D
  3
A6
350
4E
  3
A7
350
4F
  3
A8
350
50
  3
A9
350
51
  3
B0
350
52
  3
B1
350
53
  3
B2
350
54
  3
B3
350
55
  3
B4
350
56
  3
B5
350
57
  3
B6
350
58
  3
B7
350
59
  3
B8
350
5A
  3
B9
350
5B
  3
C0
350
5C
  3
C1
350
5D
  3
C2
350
5E
  3
C3
350
5F
  3
C4
350
60
  3
C5
350
61
  3
C6
350
62
  3
C7
350
63
  3
C8
350
64
  3
C9
350
65
  3
D0
350
66
  3
D1
350
67
  3
D2
350
68
  0
DICTIONARY
  5
133
102
{ACAD_REACTORS
330
C
102
}
330
C
100
AcDbDictionary
281
     1
  0
XRECORD
  5
140
102
{ACAD_REACTORS
330
C
102
}
330
C
100
AcDbXrecord
280
     1
  1
DWGPROPS COOKIE
  2

  3

  4

  6

  7

  8
12011908
  9

300
=
301
=
302
=
303
=
304
=
305
=
306
=
307
=
308
=
309
=
 40
0.0
 41
2458250.107602778
 42
2458264.335717535
  1

 90
        0
  0
LAYOUT
  5
1E
102
{ACAD_REACTORS
330
1A
102
}
330
1A
100
AcDbPlotSettings
  1

  2
none_device
  4

  6

 40
0.0
 41
0.0
 42
0.0
 43
0.0
 44
0.0
 45
0.0
 46
0.0
 47
0.0
 48
0.0
 49
0.0
140
0.0
141
0.0
142
1.0
143
1.0
 70
   688
 72
     1
 73
     0
 74
     5
  7

 75
    16
147
1.0
148
0.0
149
0.0
100
AcDbLayout
  1
Layout1
 70
     1
 71
     1
 10
0.0
 20
0.0
 11
420.0
 21
297.0
 12
0.0
 22
0.0
 32
0.0
 14
1.000000000000000E+20
 24
1.000000000000000E+20
 34
1.000000000000000E+20
 15
-1.000000000000000E+20
 25
-1.000000000000000E+20
 35
-1.000000000000000E+20
146
0.0
 13
0.0
 23
0.0
 33
0.0
 16
1.0
 26
0.0
 36
0.0
 17
0.0
 27
1.0
 37
0.0
 76
     0
330
1B
  0
LAYOUT
  5
26
102
{ACAD_REACTORS
330
1A
102
}
330
1A
100
AcDbPlotSettings
  1

  2
none_device
  4

  6

 40
0.0
 41
0.0
 42
0.0
 43
0.0
 44
0.0
 45
0.0
 46
0.0
 47
0.0
 48
0.0
 49
0.0
140
0.0
141
0.0
142
1.0
143
1.0
 70
   688
 72
     1
 73
     0
 74
     5
  7

 75
    16
147
1.0
148
0.0
149
0.0
100
AcDbLayout
  1
Layout2
 70
     1
 71
     2
 10
0.0
 20
0.0
 11
0.0
 21
0.0
 12
0.0
 22
0.0
 32
0.0
 14
0.0
 24
0.0
 34
0.0
 15
0.0
 25
0.0
 35
0.0
146
0.0
 13
0.0
 23
0.0
 33
0.0
 16
1.0
 26
0.0
 36
0.0
 17
0.0
 27
1.0
 37
0.0
 76
     0
330
23
  0
LAYOUT
  5
22
102
{ACAD_REACTORS
330
1A
102
}
330
1A
100
AcDbPlotSettings
  1

  2
none_device
  4
ANSI_A_(11.00_x_8.50_Inches)
  6

 40
6.35
 41
19.05
 42
6.35000508
 43
19.05000254
 44
279.4
 45
215.9
 46
138.5918371231471
 47
122.3320770825697
 48
0.0
 49
0.0
140
0.0
141
0.0
142
0.1017207063215766
143
1.0
 70
  1696
 72
     0
 73
     0
 74
     0
  7

 75
     0
147
0.0235690232323232
148
0.0
149
0.0
100
AcDbLayout
  1
Model
 70
     1
 71
     0
 10
0.0
 20
0.0
 11
420.0
 21
297.0
 12
0.0
 22
0.0
 32
0.0
 14
-61.06860145594323
 24
-49.97180738881174
 34
0.0
 15
45.60337143901005
 25
24.70336952549912
 35
0.0
146
0.0
 13
0.0
 23
0.0
 33
0.0
 16
1.0
 26
0.0
 36
0.0
 17
0.0
 27
1.0
 37
0.0
 76
     0
330
1F
331
29
  0
MLINESTYLE
  5
18
102
{ACAD_REACTORS
330
17
102
}
330
17
100
AcDbMlineStyle
  2
Standard
 70
     0
  3

 62
   256
 51
90.0
 52
90.0
 71
     2
 49
0.5
 62
   256
  6
BYLAYER
 49
-0.5
 62
   256
  6
BYLAYER
  0
ACDBPLACEHOLDER
  5
F
102
{ACAD_REACTORS
330
E
102
}
330
E
  0
SCALE
  5
48
102
{ACAD_REACTORS
330
47
102
}
330
47
100
AcDbScale
 70
     0
300
1:1
140
1.0
141
1.0
290
     1
  0
SCALE
  5
49
102
{ACAD_REACTORS
330
47
102
}
330
47
100
AcDbScale
 70
     0
300
1:2
140
1.0
141
2.0
290
     0
  0
SCALE
  5
4A
102
{ACAD_REACTORS
330
47
102
}
330
47
100
AcDbScale
 70
     0
300
1:4
140
1.0
141
4.0
290
     0
  0
SCALE
  5
4B
102
{ACAD_REACTORS
330
47
102
}
330
47
100
AcDbScale
 70
     0
300
1:5
140
1.0
141
5.0
290
     0
  0
SCALE
  5
4C
102
{ACAD_REACTORS
330
47
102
}
330
47
100
AcDbScale
 70
     0
300
1:8
140
1.0
141
8.0
290
     0
  0
SCALE
  5
4D
102
{ACAD_REACTORS
330
47
102
}
330
47
100
AcDbScale
 70
     0
300
1:10
140
1.0
141
10.0
290
     0
  0
SCALE
  5
4E
102
{ACAD_REACTORS
330
47
102
}
330
47
100
AcDbScale
 70
     0
300
1:16
140
1.0
141
16.0
290
     0
  0
SCALE
  5
4F
102
{ACAD_REACTORS
330
47
102
}
330
47
100
AcDbScale
 70
     0
300
1:20
140
1.0
141
20.0
290
     0
  0
SCALE
  5
50
102
{ACAD_REACTORS
330
47
102
}
330
47
100
AcDbScale
 70
     0
300
1:30
140
1.0
141
30.0
290
     0
  0
SCALE
  5
51
102
{ACAD_REACTORS
330
47
102
}
330
47
100
AcDbScale
 70
     0
300
1:40
140
1.0
141
40.0
290
     0
  0
SCALE
  5
52
102
{ACAD_REACTORS
330
47
102
}
330
47
100
AcDbScale
 70
     0
300
1:50
140
1.0
141
50.0
290
     0
  0
SCALE
  5
53
102
{ACAD_REACTORS
330
47
102
}
330
47
100
AcDbScale
 70
     0
300
1:100
140
1.0
141
100.0
290
     0
  0
SCALE
  5
54
102
{ACAD_REACTORS
330
47
102
}
330
47
100
AcDbScale
 70
     0
300
2:1
140
2.0
141
1.0
290
     0
  0
SCALE
  5
55
102
{ACAD_REACTORS
330
47
102
}
330
47
100
AcDbScale
 70
     0
300
4:1
140
4.0
141
1.0
290
     0
  0
SCALE
  5
56
102
{ACAD_REACTORS
330
47
102
}
330
47
100
AcDbScale
 70
     0
300
8:1
140
8.0
141
1.0
290
     0
  0
SCALE
  5
57
102
{ACAD_REACTORS
330
47
102
}
330
47
100
AcDbScale
 70
     0
300
10:1
140
10.0
141
1.0
290
     0
  0
SCALE
  5
58
102
{ACAD_REACTORS
330
47
102
}
330
47
100
AcDbScale
 70
     0
300
100:1
140
100.0
141
1.0
290
     0
  0
SCALE
  5
59
102
{ACAD_REACTORS
330
47
102
}
330
47
100
AcDbScale
 70
     0
300
1/128" = 1'-0"
140
0.0078125
141
12.0
290
     0
  0
SCALE
  5
5A
102
{ACAD_REACTORS
330
47
102
}
330
47
100
AcDbScale
 70
     0
300
1/64" = 1'-0"
140
0.015625
141
12.0
290
     0
  0
SCALE
  5
5B
102
{ACAD_REACTORS
330
47
102
}
330
47
100
AcDbScale
 70
     0
300
1/32" = 1'-0"
140
0.03125
141
12.0
290
     0
  0
SCALE
  5
5C
102
{ACAD_REACTORS
330
47
102
}
330
47
100
AcDbScale
 70
     0
300
1/16" = 1'-0"
140
0.0625
141
12.0
290
     0
  0
SCALE
  5
5D
102
{ACAD_REACTORS
330
47
102
}
330
47
100
AcDbScale
 70
     0
300
3/32" = 1'-0"
140
0.09375
141
12.0
290
     0
  0
SCALE
  5
5E
102
{ACAD_REACTORS
330
47
102
}
330
47
100
AcDbScale
 70
     0
300
1/8" = 1'-0"
140
0.125
141
12.0
290
     0
  0
SCALE
  5
5F
102
{ACAD_REACTORS
330
47
102
}
330
47
100
AcDbScale
 70
     0
300
3/16" = 1'-0"
140
0.1875
141
12.0
290
     0
  0
SCALE
  5
60
102
{ACAD_REACTORS
330
47
102
}
330
47
100
AcDbScale
 70
     0
300
1/4" = 1'-0"
140
0.25
141
12.0
290
     0
  0
SCALE
  5
61
102
{ACAD_REACTORS
330
47
102
}
330
47
100
AcDbScale
 70
     0
300
3/8" = 1'-0"
140
0.375
141
12.0
290
     0
  0
SCALE
  5
62
102
{ACAD_REACTORS
330
47
102
}
330
47
100
AcDbScale
 70
     0
300
1/2" = 1'-0"
140
0.5
141
12.0
290
     0
  0
SCALE
  5
63
102
{ACAD_REACTORS
330
47
102
}
330
47
100
AcDbScale
 70
     0
300
3/4" = 1'-0"
140
0.75
141
12.0
290
     0
  0
SCALE
  5
64
102
{ACAD_REACTORS
330
47
102
}
330
47
100
AcDbScale
 70
     0
300
1" = 1'-0"
140
1.0
141
12.0
290
     0
  0
SCALE
  5
65
102
{ACAD_REACTORS
330
47
102
}
330
47
100
AcDbScale
 70
     0
300
1-1/2" = 1'-0"
140
1.5
141
12.0
290
     0
  0
SCALE
  5
66
102
{ACAD_REACTORS
330
47
102
}
330
47
100
AcDbScale
 70
     0
300
3" = 1'-0"
140
3.0
141
12.0
290
     0
  0
SCALE
  5
67
102
{ACAD_REACTORS
330
47
102
}
330
47
100
AcDbScale
 70
     0
300
6" = 1'-0"
140
6.0
141
12.0
290
     0
  0
SCALE
  5
68
102
{ACAD_REACTORS
330
47
102
}
330
47
100
AcDbScale
 70
     0
300
1'-0" = 1'-0"
140
12.0
141
12.0
290
     0
  0
ENDSEC
  0
EOF
