  0
SECTION
  2
HEADER
  9
$ACADVER
  1
AC1015
  9
$ACADMAINTVER
 70
     6
  9
$DWGCODEPAGE
  3
ANSI_949
  9
$INSBASE
 10
0.0
 20
0.0
 30
0.0
  9
$EXTMIN
 10
-52.47715372602586
 20
-49.97180738881174
 30
0.0
  9
$EXTMAX
 10
28.94081916892739
 20
23.61341044024267
 30
0.0
  9
$LIMMIN
 10
0.0
 20
0.0
  9
$LIMMAX
 10
420.0
 20
297.0
  9
$ORTHOMODE
 70
     1
  9
$REGENMODE
 70
     1
  9
$FILLMODE
 70
     1
  9
$QTEXTMODE
 70
     0
  9
$MIRRTEXT
 70
     1
  9
$LTSCALE
 40
1.0
  9
$ATTMODE
 70
     1
  9
$TEXTSIZE
 40
3.5
  9
$TRACEWID
 40
1.0
  9
$TEXTSTYLE
  7
Standard
  9
$CLAYER
  8
0
  9
$CELTYPE
  6
ByLayer
  9
$CECOLOR
 62
   256
  9
$CELTSCALE
 40
1.0
  9
$DISPSILH
 70
     0
  9
$DIMSCALE
 40
1.0
  9
$DIMASZ
 40
3.302
  9
$DIMEXO
 40
1.0
  9
$DIMDLI
 40
3.75
  9
$DIMRND
 40
0.0
  9
$DIMDLE
 40
0.0
  9
$DIMEXE
 40
1.0
  9
$DIMTP
 40
0.0
  9
$DIMTM
 40
0.0
  9
$DIMTXT
 40
3.5
  9
$DIMCEN
 40
2.5
  9
$DIMTSZ
 40
0.0
  9
$DIMTOL
 70
     0
  9
$DIMLIM
 70
     0
  9
$DIMTIH
 70
     1
  9
$DIMTOH
 70
     1
  9
$DIMSE1
 70
     0
  9
$DIMSE2
 70
     0
  9
$DIMTAD
 70
     1
  9
$DIMZIN
 70
     0
  9
$DIMBLK
  1

  9
$DIMASO
 70
     1
  9
$DIMSHO
 70
     1
  9
$DIMPOST
  1

  9
$DIMAPOST
  1

  9
$DIMALT
 70
     0
  9
$DIMALTD
 70
     3
  9
$DIMALTF
 40
0.0393700787401575
  9
$DIMLFAC
 40
1.0
  9
$DIMTOFL
 70
     1
  9
$DIMTVP
 40
0.0
  9
$DIMTIX
 70
     0
  9
$DIMSOXD
 70
     0
  9
$DIMSAH
 70
     0
  9
$DIMBLK1
  1

  9
$DIMBLK2
  1

  9
$DIMSTYLE
  2
ISO-25
  9
$DIMCLRD
 70
     0
  9
$DIMCLRE
 70
     0
  9
$DIMCLRT
 70
     0
  9
$DIMTFAC
 40
1.0
  9
$DIMGAP
 40
1.524
  9
$DIMJUST
 70
     0
  9
$DIMSD1
 70
     0
  9
$DIMSD2
 70
     0
  9
$DIMTOLJ
 70
     0
  9
$DIMTZIN
 70
     0
  9
$DIMALTZ
 70
     0
  9
$DIMALTTZ
 70
     0
  9
$DIMUPT
 70
     0
  9
$DIMDEC
 70
     2
  9
$DIMTDEC
 70
     2
  9
$DIMALTU
 70
     2
  9
$DIMALTTD
 70
     3
  9
$DIMTXSTY
  7
Standard
  9
$DIMAUNIT
 70
     0
  9
$DIMADEC
 70
     2
  9
$DIMALTRND
 40
0.0
  9
$DIMAZIN
 70
     0
  9
$DIMDSEP
 70
    44
  9
$DIMATFIT
 70
     3
  9
$DIMFRAC
 70
     0
  9
$DIMLDRBLK
  1

  9
$DIMLUNIT
 70
     2
  9
$DIMLWD
 70
    -2
  9
$DIMLWE
 70
    -2
  9
$DIMTMOVE
 70
     0
  9
$LUNITS
 70
     2
  9
$LUPREC
 70
     2
  9
$SKETCHINC
 40
1.0
  9
$FILLETRAD
 40
10.0
  9
$AUNITS
 70
     0
  9
$AUPREC
 70
     2
  9
$MENU
  1
.
  9
$ELEVATION
 40
0.0
  9
$PELEVATION
 40
0.0
  9
$THICKNESS
 40
0.0
  9
$LIMCHECK
 70
     0
  9
$CHAMFERA
 40
0.0
  9
$CHAMFERB
 40
0.0
  9
$CHAMFERC
 40
0.0
  9
$CHAMFERD
 40
0.0
  9
$SKPOLY
 70
     0
  9
$TDCREATE
 40
2458250.43688478
  9
$TDUCREATE
 40
2458250.06188478
  9
$TDUPDATE
 40
2458264.650864606
  9
$TDUUPDATE
 40
2458264.275864606
  9
$TDINDWG
 40
0.0015008681
  9
$TDUSRTIMER
 40
0.0015008565
  9
$USRTIMER
 70
     1
  9
$ANGBASE
 50
0.0
  9
$ANGDIR
 70
     0
  9
$PDMODE
 70
     0
  9
$PDSIZE
 40
-1.0
  9
$PLINEWID
 40
0.0
  9
$SPLFRAME
 70
     0
  9
$SPLINETYPE
 70
     6
  9
$SPLINESEGS
 70
     8
  9
$HANDSEED
  5
14B
  9
$SURFTAB1
 70
     6
  9
$SURFTAB2
 70
     6
  9
$SURFTYPE
 70
     6
  9
$SURFU
 70
     6
  9
$SURFV
 70
     6
  9
$UCSBASE
  2

  9
$UCSNAME
  2

  9
$UCSORG
 10
0.0
 20
0.0
 30
0.0
  9
$UCSXDIR
 10
1.0
 20
0.0
 30
0.0
  9
$UCSYDIR
 10
0.0
 20
1.0
 30
0.0
  9
$UCSORTHOREF
  2

  9
$UCSORTHOVIEW
 70
     0
  9
$UCSORGTOP
 10
0.0
 20
0.0
 30
0.0
  9
$UCSORGBOTTOM
 10
0.0
 20
0.0
 30
0.0
  9
$UCSORGLEFT
 10
0.0
 20
0.0
 30
0.0
  9
$UCSORGRIGHT
 10
0.0
 20
0.0
 30
0.0
  9
$UCSORGFRONT
 10
0.0
 20
0.0
 30
0.0
  9
$UCSORGBACK
 10
0.0
 20
0.0
 30
0.0
  9
$PUCSBASE
  2

  9
$PUCSNAME
  2

  9
$PUCSORG
 10
0.0
 20
0.0
 30
0.0
  9
$PUCSXDIR
 10
1.0
 20
0.0
 30
0.0
  9
$PUCSYDIR
 10
0.0
 20
1.0
 30
0.0
  9
$PUCSORTHOREF
  2

  9
$PUCSORTHOVIEW
 70
     0
  9
$PUCSORGTOP
 10
0.0
 20
0.0
 30
0.0
  9
$PUCSORGBOTTOM
 10
0.0
 20
0.0
 30
0.0
  9
$PUCSORGLEFT
 10
0.0
 20
0.0
 30
0.0
  9
$PUCSORGRIGHT
 10
0.0
 20
0.0
 30
0.0
  9
$PUCSORGFRONT
 10
0.0
 20
0.0
 30
0.0
  9
$PUCSORGBACK
 10
0.0
 20
0.0
 30
0.0
  9
$USERI1
 70
     0
  9
$USERI2
 70
     0
  9
$USERI3
 70
     0
  9
$USERI4
 70
     0
  9
$USERI5
 70
     0
  9
$USERR1
 40
0.0
  9
$USERR2
 40
0.0
  9
$USERR3
 40
0.0
  9
$USERR4
 40
0.0
  9
$USERR5
 40
0.0
  9
$WORLDVIEW
 70
     1
  9
$SHADEDGE
 70
     3
  9
$SHADEDIF
 70
    70
  9
$TILEMODE
 70
     1
  9
$MAXACTVP
 70
    64
  9
$PINSBASE
 10
0.0
 20
0.0
 30
0.0
  9
$PLIMCHECK
 70
     0
  9
$PEXTMIN
 10
1.000000000000000E+20
 20
1.000000000000000E+20
 30
1.000000000000000E+20
  9
$PEXTMAX
 10
-1.000000000000000E+20
 20
-1.000000000000000E+20
 30
-1.000000000000000E+20
  9
$PLIMMIN
 10
0.0
 20
0.0
  9
$PLIMMAX
 10
0.0
 20
0.0
  9
$UNITMODE
 70
     0
  9
$VISRETAIN
 70
     1
  9
$PLINEGEN
 70
     0
  9
$PSLTSCALE
 70
     1
  9
$TREEDEPTH
 70
  3020
  9
$CMLSTYLE
  2
Standard
  9
$CMLJUST
 70
     0
  9
$CMLSCALE
 40
20.0
  9
$PROXYGRAPHICS
 70
     1
  9
$MEASUREMENT
 70
     1
  9
$CELWEIGHT
370
    -1
  9
$ENDCAPS
280
     0
  9
$JOINSTYLE
280
     0
  9
$LWDISPLAY
290
     1
  9
$INSUNITS
 70
     4
  9
$HYPERLINKBASE
  1

  9
$STYLESHEET
  1

  9
$XEDIT
290
     1
  9
$CEPSNTYPE
380
     0
  9
$PSTYLEMODE
290
     1
  9
$FINGERPRINTGUID
  2
{E826BE73-303D-4301-93E0-F2B50D411D09}
  9
$VERSIONGUID
  2
{FAEB1C32-E019-11D5-929B-00C0DF256EC4}
  9
$EXTNAMES
290
     1
  9
$PSVPSCALE
 40
0.0
  9
$OLESTARTUP
290
     0
  0
ENDSEC
  0
SECTION
  2
CLASSES
  0
CLASS
  1
ACDBDICTIONARYWDFLT
  2
AcDbDictionaryWithDefault
  3
ObjectDBX Classes
 90
        0
280
     0
281
     0
  0
CLASS
  1
VISUALSTYLE
  2
AcDbVisualStyle
  3
ObjectDBX Classes
 90
     4095
280
     0
281
     0
  0
CLASS
  1
MATERIAL
  2
AcDbMaterial
  3
ObjectDBX Classes
 90
     1153
280
     0
281
     0
  0
CLASS
  1
SCALE
  2
AcDbScale
  3
ObjectDBX Classes
 90
     1153
280
     0
281
     0
  0
CLASS
  1
TABLESTYLE
  2
AcDbTableStyle
  3
ObjectDBX Classes
 90
     4095
280
     0
281
     0
  0
CLASS
  1
MLEADERSTYLE
  2
AcDbMLeaderStyle
  3
ACDB_MLEADERSTYLE_CLASS
 90
     4095
280
     0
281
     0
  0
CLASS
  1
SUN
  2
AcDbSun
  3
SCENEOE
 90
     1153
280
     0
281
     0
  0
CLASS
  1
ACDBPLACEHOLDER
  2
AcDbPlaceHolder
  3
ObjectDBX Classes
 90
        0
280
     0
281
     0
  0
CLASS
  1
LAYOUT
  2
AcDbLayout
  3
ObjectDBX Classes
 90
        0
280
     0
281
     0
  0
ENDSEC
  0
SECTION
  2
TABLES
  0
TABLE
  2
VPORT
  5
8
330
0
100
AcDbSymbolTable
 70
     1
  0
VPORT
  5
29
330
8
100
AcDbSymbolTableRecord
100
AcDbViewportTableRecord
  2
*Active
 70
     0
 10
0.0
 20
0.0
 11
1.0
 21
1.0
 12
-1.392389076019565
 22
-7.017096678002289
 13
0.0
 23
0.0
 14
10.0
 24
10.0
 15
10.0
 25
10.0
 16
0.0
 26
0.0
 36
1.0
 17
0.0
 27
0.0
 37
0.0
 40
96.69308177181658
 41
2.223011363636364
 42
50.0
 43
0.0
 44
0.0
 50
0.0
 51
0.0
 71
    16
 72
  2000
 73
     1
 74
     3
 75
     0
 76
     0
 77
     0
 78
     0
281
     0
 65
     1
110
0.0
120
0.0
130
0.0
111
1.0
121
0.0
131
0.0
112
0.0
122
1.0
132
0.0
 79
     0
146
0.0
  0
ENDTAB
  0
TABLE
  2
LTYPE
  5
5
330
0
100
AcDbSymbolTable
 70
     6
  0
LTYPE
  5
14
330
5
100
AcDbSymbolTableRecord
100
AcDbLinetypeTableRecord
  2
ByBlock
 70
     0
  3

 72
    65
 73
     0
 40
0.0
  0
LTYPE
  5
15
330
5
100
AcDbSymbolTableRecord
100
AcDbLinetypeTableRecord
  2
ByLayer
 70
     0
  3

 72
    65
 73
     0
 40
0.0
  0
LTYPE
  5
16
330
5
100
AcDbSymbolTableRecord
100
AcDbLinetypeTableRecord
  2
Continuous
 70
     0
  3
Solid line
 72
    65
 73
     0
 40
0.0
  0
LTYPE
  5
6E
330
5
100
AcDbSymbolTableRecord
100
AcDbLinetypeTableRecord
  2
HIDDEN
 70
     0
  3
Hidden __ __ __ __ __ __ __ __ __ __ __ __ __ __
 72
    65
 73
     2
 40
1.905
 49
1.27
 74
     0
 49
-0.635
 74
     0
  0
LTYPE
  5
6F
330
5
100
AcDbSymbolTableRecord
100
AcDbLinetypeTableRecord
  2
PHANTOM
 70
     0
  3
Phantom ______  __  __  ______  __  __  ______
 72
    65
 73
     6
 40
12.7
 49
6.35
 74
     0
 49
-1.27
 74
     0
 49
1.27
 74
     0
 49
-1.27
 74
     0
 49
1.27
 74
     0
 49
-1.27
 74
     0
  0
LTYPE
  5
70
330
5
100
AcDbSymbolTableRecord
100
AcDbLinetypeTableRecord
  2
CENTER
 70
     0
  3
Center ____ _ ____ _ ____ _ ____ _ ____ _ ____
 72
    65
 73
     4
 40
10.16
 49
6.35
 74
     0
 49
-1.27
 74
     0
 49
1.27
 74
     0
 49
-1.27
 74
     0
  0
LTYPE
  5
71
330
5
100
AcDbSymbolTableRecord
100
AcDbLinetypeTableRecord
  2
CENTERX2
 70
     0
  3
Center (2x) ________  __  ________  __  _____
 72
    65
 73
     4
 40
20.32
 49
12.7
 74
     0
 49
-2.54
 74
     0
 49
2.54
 74
     0
 49
-2.54
 74
     0
  0
LTYPE
  5
72
330
5
100
AcDbSymbolTableRecord
100
AcDbLinetypeTableRecord
  2
DOT2
 70
     0
  3
Dot (.5x) ........................................
 72
    65
 73
     2
 40
0.635
 49
0.0
 74
     0
 49
-0.635
 74
     0
  0
ENDTAB
  0
TABLE
  2
LAYER
  5
2
330
0
100
AcDbSymbolTable
 70
    17
  0
LAYER
  5
10
330
2
100
AcDbSymbolTableRecord
100
AcDbLayerTableRecord
  2
0
 70
     0
 62
     7
  6
Continuous
370
    -3
390
F
  0
LAYER
  5
73
330
2
100
AcDbSymbolTableRecord
100
AcDbLayerTableRecord
  2
FORMAT
 70
     0
 62
     2
  6
Continuous
370
    -3
390
F
  0
LAYER
  5
74
330
2
100
AcDbSymbolTableRecord
100
AcDbLayerTableRecord
  2
외형선
 70
     0
 62
   100
  6
Continuous
370
    35
390
F
  0
LAYER
  5
75
330
2
100
AcDbSymbolTableRecord
100
AcDbLayerTableRecord
  2
숨은선
 70
     0
 62
     2
  6
HIDDEN
370
    25
390
F
  0
LAYER
  5
76
330
2
100
AcDbSymbolTableRecord
100
AcDbLayerTableRecord
  2
중심선
 70
     0
 62
     1
  6
CENTERX2
370
    -3
390
F
  0
LAYER
  5
77
330
2
100
AcDbSymbolTableRecord
100
AcDbLayerTableRecord
  2
파단선
 70
     0
 62
     4
  6
Continuous
370
    -3
390
F
  0
LAYER
  5
78
330
2
100
AcDbSymbolTableRecord
100
AcDbLayerTableRecord
  2
해칭선
 70
     0
 62
   100
  6
Continuous
370
    -3
390
F
  0
LAYER
  5
79
330
2
100
AcDbSymbolTableRecord
100
AcDbLayerTableRecord
  2
가는실선
 70
     0
 62
     4
  6
Continuous
370
    -3
390
F
  0
LAYER
  5
7A
330
2
100
AcDbSymbolTableRecord
100
AcDbLayerTableRecord
  2
치수_보조선
 70
     0
 62
     4
  6
Continuous
370
    -3
390
F
  0
LAYER
  5
7B
330
2
100
AcDbSymbolTableRecord
100
AcDbLayerTableRecord
  2
치수문자_일반주서
 70
     0
 62
     7
  6
Continuous
370
    25
390
F
  0
LAYER
  5
7C
330
2
100
AcDbSymbolTableRecord
100
AcDbLayerTableRecord
  2
개별주서
 70
     0
 62
   100
  6
Continuous
370
    35
390
F
  0
LAYER
  5
7D
330
2
100
AcDbSymbolTableRecord
100
AcDbLayerTableRecord
  2
중간선
 70
     0
 62
     2
  6
Continuous
370
    25
390
F
  0
LAYER
  5
7E
330
2
100
AcDbSymbolTableRecord
100
AcDbLayerTableRecord
  2
윤곽선
 70
     0
 62
     3
  6
Continuous
370
    50
390
F
  0
LAYER
  5
7F
330
2
100
AcDbSymbolTableRecord
100
AcDbLayerTableRecord
  2
중심마크
 70
     0
 62
   100
  6
Continuous
370
    35
390
F
  0
LAYER
  5
80
330
2
100
AcDbSymbolTableRecord
100
AcDbLayerTableRecord
  2
가상선
 70
     0
 62
     4
  6
PHANTOM
370
    -3
390
F
  0
LAYER
  5
81
330
2
100
AcDbSymbolTableRecord
100
AcDbLayerTableRecord
  2
특수지정선
 70
     0
 62
     5
  6
CENTERX2
370
    70
390
F
  0
LAYER
  5
13D
330
2
100
AcDbSymbolTableRecord
100
AcDbLayerTableRecord
  2
Defpoints
 70
     0
 62
     7
  6
Continuous
290
     0
370
    -3
390
F
  0
ENDTAB
  0
TABLE
  2
STYLE
  5
3
330
0
100
AcDbSymbolTable
 70
     2
  0
STYLE
  5
11
330
3
100
AcDbSymbolTableRecord
100
AcDbTextStyleTableRecord
  2
Standard
 70
     0
 40
0.0
 41
1.0
 50
0.0
 71
     0
 42
3.5
  3
txt
  4

  0
STYLE
  5
97
330
3
100
AcDbSymbolTableRecord
100
AcDbTextStyleTableRecord
  2
SLDTEXTSTYLE0
 70
     0
 40
0.0
 41
0.75
 50
0.0
 71
     0
 42
3.5
  3
TXT
  4

  0
ENDTAB
  0
TABLE
  2
VIEW
  5
6
330
0
100
AcDbSymbolTable
 70
     0
  0
ENDTAB
  0
TABLE
  2
UCS
  5
7
330
0
100
AcDbSymbolTable
 70
     0
  0
ENDTAB
  0
TABLE
  2
APPID
  5
9
330
0
100
AcDbSymbolTable
 70
     2
  0
APPID
  5
12
330
9
100
AcDbSymbolTableRecord
100
AcDbRegAppTableRecord
  2
ACAD
 70
     0
  0
APPID
  5
144
330
9
100
AcDbSymbolTableRecord
100
AcDbRegAppTableRecord
  2
PE_URL
 70
     0
  0
ENDTAB
  0
TABLE
  2
DIMSTYLE
  5
A
330
0
100
AcDbSymbolTable
 70
     4
100
AcDbDimStyleTable
  0
DIMSTYLE
105
27
330
A
100
AcDbSymbolTableRecord
100
AcDbDimStyleTableRecord
  2
ISO-25
 70
     0
 41
2.5
 42
0.625
 43
3.75
 44
1.25
 73
     0
 74
     0
 77
     1
 78
     8
140
2.5
141
2.5
143
0.03937007874016
147
0.625
171
     3
172
     1
178
     0
271
     2
272
     2
274
     3
278
    44
283
     0
284
     8
340
11
  0
DIMSTYLE
105
E2
102
{ACAD_REACTORS
330
E1
102
}
330
A
100
AcDbSymbolTableRecord
100
AcDbDimStyleTableRecord
  2
SLDDIMSTYLE0
 70
     0
 41
3.302
 44
0.0
 45
0.000000001
 73
     0
 74
     0
 77
     1
 78
    12
 79
     3
140
3.5
147
0.875
172
     1
173
     1
178
     0
271
     1
272
     1
276
     2
284
    12
289
     0
340
97
  0
DIMSTYLE
105
F0
102
{ACAD_REACTORS
330
EF
102
}
330
A
100
AcDbSymbolTableRecord
100
AcDbDimStyleTableRecord
  2
SLDDIMSTYLE1
 70
     0
 41
3.302
 44
0.0
 45
0.000000001
 73
     0
 74
     0
 77
     1
 78
    12
 79
     3
140
3.5
147
0.875
173
     1
178
     0
271
     2
272
     2
276
     2
284
    12
340
97
  0
DIMSTYLE
105
FB
102
{ACAD_REACTORS
330
FA
330
107
102
}
330
A
100
AcDbSymbolTableRecord
100
AcDbDimStyleTableRecord
  2
SLDDIMSTYLE2
 70
     0
 41
3.302
 44
0.0
 45
0.000000001
 73
     0
 74
     0
 77
     1
 78
    12
 79
     3
140
3.5
147
0.875
172
     1
173
     1
178
     0
271
     2
272
     2
276
     2
284
    12
289
     0
340
97
  0
ENDTAB
  0
TABLE
  2
BLOCK_RECORD
  5
1
330
0
100
AcDbSymbolTable
 70
     7
  0
BLOCK_RECORD
  5
1F
330
1
100
AcDbSymbolTableRecord
100
AcDbBlockTableRecord
  2
*Model_Space
340
22
  0
BLOCK_RECORD
  5
1B
330
1
100
AcDbSymbolTableRecord
100
AcDbBlockTableRecord
  2
*Paper_Space
340
1E
  0
BLOCK_RECORD
  5
23
330
1
100
AcDbSymbolTableRecord
100
AcDbBlockTableRecord
  2
*Paper_Space0
340
26
  0
BLOCK_RECORD
  5
82
330
1
100
AcDbSymbolTableRecord
100
AcDbBlockTableRecord
  2
블럭10
340
0
102
{BLKREFS
331
DA
102
}
  0
BLOCK_RECORD
  5
E3
330
1
100
AcDbSymbolTableRecord
100
AcDbBlockTableRecord
  2
_D
340
0
  0
BLOCK_RECORD
  5
F1
330
1
100
AcDbSymbolTableRecord
100
AcDbBlockTableRecord
  2
_D_1
340
0
  0
BLOCK_RECORD
  5
FC
330
1
100
AcDbSymbolTableRecord
100
AcDbBlockTableRecord
  2
_D_2
340
0
  0
BLOCK_RECORD
  5
108
330
1
100
AcDbSymbolTableRecord
100
AcDbBlockTableRecord
  2
_D_3
340
0
  0
BLOCK_RECORD
  5
114
330
1
100
AcDbSymbolTableRecord
100
AcDbBlockTableRecord
  2
SW_DOWELSYMBOL_0
340
0
102
{BLKREFS
331
11A
102
}
  0
ENDTAB
  0
ENDSEC
  0
SECTION
  2
BLOCKS
  0
BLOCK
  5
20
330
1F
100
AcDbEntity
  8
0
100
AcDbBlockBegin
  2
*Model_Space
 70
     0
 10
0.0
 20
0.0
 30
0.0
  3
*Model_Space
  1

  0
ENDBLK
  5
21
330
1F
100
AcDbEntity
  8
0
100
AcDbBlockEnd
  0
BLOCK
  5
1C
330
1B
100
AcDbEntity
 67
     1
  8
0
100
AcDbBlockBegin
  2
*Paper_Space
 70
     0
 10
0.0
 20
0.0
 30
0.0
  3
*Paper_Space
  1

  0
ENDBLK
  5
1D
330
1B
100
AcDbEntity
 67
     1
  8
0
100
AcDbBlockEnd
  0
BLOCK
  5
24
330
23
100
AcDbEntity
  8
0
100
AcDbBlockBegin
  2
*Paper_Space0
 70
     0
 10
0.0
 20
0.0
 30
0.0
  3
*Paper_Space0
  1

  0
ENDBLK
  5
25
330
23
100
AcDbEntity
  8
0
100
AcDbBlockEnd
  0
BLOCK
  5
83
330
82
100
AcDbEntity
  8
0
100
AcDbBlockBegin
  2
블럭10
 70
     2
 10
0.0
 20
0.0
 30
0.0
  3
블럭10
  1

  0
ELLIPSE
  5
85
330
82
100
AcDbEntity
  8
중심선
100
AcDbEllipse
 10
20.54032771741204
 20
12.0471743016438
 30
0.0
 11
6.600054785286829
 21
-1.261213355974178E-13
 31
0.0
210
0.0
220
0.0
230
1.0
 40
0.636358354079598
 41
0.9219305317359503
 42
6.513795318482858
  0
ELLIPSE
  5
86
330
82
100
AcDbEntity
  8
중심선
100
AcDbEllipse
 10
20.54032771746488
 20
12.04717430159265
 30
0.0
 11
3.960054785062283
 21
1.540847449632565E-10
 31
0.0
210
0.0
220
0.0
230
1.0
 40
0.3939339440162632
 41
1.131841032648279
 42
5.62031148352944
  0
LINE
  5
87
330
82
100
AcDbEntity
  8
중심선
100
AcDbLine
 10
2.268634060543552
 20
16.24717430164393
 30
0.0
 11
5.714909304380834
 21
16.24717430164393
 31
0.0
  0
LINE
  5
88
330
82
100
AcDbEntity
  8
중심선
100
AcDbLine
 10
5.245725140726316
 20
7.84717430164391
 30
0.0
 11
8.692000384563599
 21
7.84717430164391
 31
0.0
  0
LINE
  5
89
330
82
100
AcDbEntity
  8
중심선
100
AcDbLine
 10
15.74043728645272
 20
16.24717430164393
 30
0.0
 11
8.692000384563599
 21
7.84717430164391
 31
0.0
  0
LINE
  5
8A
330
82
100
AcDbEntity
  8
중심선
100
AcDbLine
 10
0.1404042013395286
 20
13.71084872107135
 30
0.0
 11
3.58671253028996
 21
13.71088815037384
 31
0.0
  0
LINE
  5
8B
330
82
100
AcDbEntity
  8
중심선
100
AcDbLine
 10
2.750260043222114
 20
10.84717430164391
 30
0.0
 11
6.196535287059397
 21
10.84717430164391
 31
0.0
  0
LINE
  5
8C
330
82
100
AcDbEntity
  8
중심선
100
AcDbLine
 10
12.29416204261559
 20
16.24717430164393
 30
0.0
 11
5.245725140726316
 21
7.84717430164391
 31
0.0
  0
LINE
  5
8D
330
82
100
AcDbEntity
  8
중심선
100
AcDbLine
 10
10.72767329541681
 20
16.24717430164393
 30
0.0
 11
6.196535287059397
 21
10.84717430164391
 31
0.0
  0
LINE
  5
8E
330
82
100
AcDbEntity
  8
중심선
100
AcDbLine
 10
7.28139805157953
 20
16.24717430164393
 30
0.0
 11
2.750260043222114
 21
10.84717430164391
 31
0.0
  0
LINE
  5
8F
330
82
100
AcDbEntity
  8
중심선
100
AcDbLine
 10
5.714909304380834
 20
16.24717430164393
 30
0.0
 11
3.58671253028996
 21
13.71088815037384
 31
0.0
  0
LINE
  5
90
330
82
100
AcDbEntity
  8
중심선
100
AcDbLine
 10
2.268634060543552
 20
16.24717430164393
 30
0.0
 11
0.1404042013395286
 21
13.71084872107135
 31
0.0
  0
LINE
  5
91
330
82
100
AcDbEntity
  8
중심선
100
AcDbLine
 10
7.28139805157953
 20
16.24717430164393
 30
0.0
 11
10.72767329541681
 21
16.24717430164393
 31
0.0
  0
LINE
  5
92
330
82
100
AcDbEntity
  8
중심선
100
AcDbLine
 10
12.29416204261559
 20
16.24717430164393
 30
0.0
 11
15.74043728645272
 21
16.24717430164393
 31
0.0
  0
LINE
  5
93
330
82
100
AcDbEntity
  8
중심선
100
AcDbLine
 10
19.22036997980202
 20
11.08717430171403
 30
0.0
 11
23.66174974927406
 21
11.08717430171406
 31
0.0
  0
LINE
  5
94
330
82
100
AcDbEntity
  8
중심선
100
AcDbLine
 10
19.22039502424796
 20
13.00717430171391
 30
0.0
 11
19.22036997980202
 21
11.08717430171403
 31
0.0
  0
LINE
  5
95
330
82
100
AcDbEntity
  8
중심선
100
AcDbLine
 10
19.22039502424796
 20
13.00717430171391
 30
0.0
 11
26.96566020931264
 21
13.00717430171391
 31
0.0
  0
LINE
  5
96
330
82
100
AcDbEntity
  8
중심선
100
AcDbLine
 10
22.22332737316547
 20
13.45928029700563
 30
0.0
 11
24.52862924686651
 21
15.39360700705356
 31
0.0
  0
ATTDEF
  5
98
330
82
100
AcDbEntity
  8
FORMAT
 62
     2
100
AcDbText
 10
-12.95993919485777
 20
2.075366912832191
 30
0.0
 40
4.233333333333333
  1
SEME36015E [ 4 FLUTE ]
 41
0.75
  7
SLDTEXTSTYLE0
 11
-12.95993919485777
 21
-0.0412997538344756
 31
0.0
100
AcDbAttributeDefinition
  3

  2
AUTOATTR0
 70
     0
 74
     1
  0
ENDBLK
  5
84
330
82
100
AcDbEntity
  8
0
100
AcDbBlockEnd
  0
BLOCK
  5
E4
330
E3
100
AcDbEntity
  8
0
100
AcDbBlockBegin
  2
_D
 70
     0
 10
0.0
 20
0.0
 30
0.0
  3
_D
  1

  0
LINE
  5
E6
330
E3
100
AcDbEntity
  8
치수문자_일반주서
 62
     0
370
    -2
100
AcDbLine
 10
15.45298583559405
 20
-0.750000000000004
 30
0.0
 11
28.39048583559405
 21
-0.7499999999999556
 31
0.0
  0
LINE
  5
E7
330
E3
100
AcDbEntity
  8
치수문자_일반주서
 62
     0
370
    -2
100
AcDbLine
 10
15.45298583559405
 20
0.7500000000000071
 30
0.0
 11
28.39048583559404
 21
0.7500000000000551
 31
0.0
  0
LINE
  5
E8
330
E3
100
AcDbEntity
  8
치수문자_일반주서
 62
     0
370
    -2
100
AcDbLine
 10
28.39048583559404
 20
0.7500000000000551
 30
0.0
 11
28.39048583559401
 21
16.10400000000006
 31
0.0
  0
LINE
  5
E9
330
E3
100
AcDbEntity
  8
치수문자_일반주서
 62
     0
370
    -2
100
AcDbLine
 10
28.39048583559405
 20
-0.7499999999999556
 30
0.0
 11
28.39048583559404
 21
0.7500000000000551
 31
0.0
  0
LINE
  5
EA
330
E3
100
AcDbEntity
  8
치수문자_일반주서
 62
     0
370
    -2
100
AcDbLine
 10
28.39048583559405
 20
-4.051999999999955
 30
0.0
 11
28.39048583559406
 21
-7.353999999999955
 31
0.0
  0
LINE
  5
EB
330
E3
100
AcDbEntity
  8
치수문자_일반주서
 62
     0
370
    -2
100
AcDbLine
 10
28.39048583559403
 20
4.052000000000055
 30
0.0
 11
28.39048583559403
 21
7.354000000000054
 31
0.0
  0
SOLID
  5
EC
330
E3
100
AcDbEntity
  8
치수문자_일반주서
 62
     0
100
AcDbTrace
 10
28.94081916892739
 20
-4.051999999999954
 30
0.0
 11
27.84015250226072
 21
-4.051999999999956
 31
0.0
 12
28.39048583559405
 22
-0.7499999999999556
 32
0.0
 13
28.39048583559405
 23
-0.7499999999999556
 33
0.0
  0
SOLID
  5
ED
330
E3
100
AcDbEntity
  8
치수문자_일반주서
 62
     0
100
AcDbTrace
 10
27.8401525022607
 20
4.052000000000054
 30
0.0
 11
28.94081916892737
 21
4.052000000000056
 31
0.0
 12
28.39048583559404
 22
0.7500000000000551
 32
0.0
 13
28.39048583559404
 23
0.7500000000000551
 33
0.0
  0
MTEXT
  5
EE
330
E3
100
AcDbEntity
  8
치수문자_일반주서
 62
     0
100
AcDbMText
 10
24.01548583559402
 20
11.72900000000005
 30
0.0
 40
3.5
 41
0.0
 71
     2
 72
     1
  1
\A1;%%c1.5
  7
SLDTEXTSTYLE0
 11
-2.368475785866983E-15
 21
1.0
 31
0.0
 73
     1
 44
1.0
  0
POINT
  5
13E
330
E3
100
AcDbEntity
  8
Defpoints
 62
     0
100
AcDbPoint
 10
15.39048583559405
 20
-0.7500000000000042
 30
0.0
  0
POINT
  5
13F
330
E3
100
AcDbEntity
  8
Defpoints
 62
     0
100
AcDbPoint
 10
15.39048583559405
 20
0.7500000000000069
 30
0.0
  0
POINT
  5
140
330
E3
100
AcDbEntity
  8
Defpoints
 62
     0
100
AcDbPoint
 10
28.39048583559404
 20
0.7500000000000555
 30
0.0
  0
ENDBLK
  5
E5
330
E3
100
AcDbEntity
  8
0
100
AcDbBlockEnd
  0
BLOCK
  5
F2
330
F1
100
AcDbEntity
  8
0
100
AcDbBlockBegin
  2
_D_1
 70
     0
 10
0.0
 20
0.0
 30
0.0
  3
_D_1
  1

  0
LINE
  5
F4
330
F1
100
AcDbEntity
  8
치수문자_일반주서
 62
     0
370
    -2
100
AcDbLine
 10
-34.60951416440596
 20
2.562499999999997
 30
0.0
 11
-34.60951416440596
 21
19.23841044024267
 31
0.0
  0
LINE
  5
F5
330
F1
100
AcDbEntity
  8
치수문자_일반주서
 62
     0
370
    -2
100
AcDbLine
 10
15.39048583559404
 20
0.8125000000000022
 30
0.0
 11
15.39048583559405
 21
19.23841044024267
 31
0.0
  0
LINE
  5
F6
330
F1
100
AcDbEntity
  8
치수문자_일반주서
 62
     0
370
    -2
100
AcDbLine
 10
-31.30751416440596
 20
19.23841044024267
 30
0.0
 11
12.08848583559405
 21
19.23841044024267
 31
0.0
  0
SOLID
  5
F7
330
F1
100
AcDbEntity
  8
치수문자_일반주서
 62
     0
100
AcDbTrace
 10
-31.30751416440596
 20
19.78874377357601
 30
0.0
 11
-31.30751416440596
 21
18.68807710690934
 31
0.0
 12
-34.60951416440596
 22
19.23841044024267
 32
0.0
 13
-34.60951416440596
 23
19.23841044024267
 33
0.0
  0
SOLID
  5
F8
330
F1
100
AcDbEntity
  8
치수문자_일반주서
 62
     0
100
AcDbTrace
 10
12.08848583559405
 20
18.68807710690934
 30
0.0
 11
12.08848583559405
 21
19.78874377357601
 31
0.0
 12
15.39048583559405
 22
19.23841044024267
 32
0.0
 13
15.39048583559405
 23
19.23841044024267
 33
0.0
  0
MTEXT
  5
F9
330
F1
100
AcDbEntity
  8
치수문자_일반주서
 62
     0
100
AcDbMText
 10
-9.609514164405962
 20
23.61341044024267
 30
0.0
 40
3.5
 41
0.0
 71
     2
 72
     1
  1
\A1;50
  7
SLDTEXTSTYLE0
 73
     1
 44
1.0
  0
POINT
  5
141
330
F1
100
AcDbEntity
  8
Defpoints
 62
     0
100
AcDbPoint
 10
-34.60951416440596
 20
2.499999999999997
 30
0.0
  0
POINT
  5
142
330
F1
100
AcDbEntity
  8
Defpoints
 62
     0
100
AcDbPoint
 10
15.39048583559404
 20
0.7500000000000022
 30
0.0
  0
POINT
  5
143
330
F1
100
AcDbEntity
  8
Defpoints
 62
     0
100
AcDbPoint
 10
15.39048583559404
 20
19.23841044024267
 30
0.0
  0
ENDBLK
  5
F3
330
F1
100
AcDbEntity
  8
0
100
AcDbBlockEnd
  0
BLOCK
  5
FD
330
FC
100
AcDbEntity
  8
0
100
AcDbBlockBegin
  2
_D_2
 70
     0
 10
0.0
 20
0.0
 30
0.0
  3
_D_2
  1

  0
LINE
  5
FF
330
FC
100
AcDbEntity
  8
치수문자_일반주서
 62
     0
370
    -2
100
AcDbLine
 10
15.39048583559404
 20
0.7938742737664477
 30
0.0
 11
15.39048583559404
 21
9.865620977966222
 31
0.0
  0
LINE
  5
100
330
FC
100
AcDbEntity
  8
치수문자_일반주서
 62
     0
370
    -2
100
AcDbLine
 10
11.39048583559404
 20
0.7819552726137724
 30
0.0
 11
11.39048583559404
 21
9.865620977966222
 31
0.0
  0
LINE
  5
101
330
FC
100
AcDbEntity
  8
치수문자_일반주서
 62
     0
370
    -2
100
AcDbLine
 10
12.08848583559404
 20
9.865620977966222
 30
0.0
 11
14.69248583559404
 21
9.865620977966222
 31
0.0
  0
SOLID
  5
102
330
FC
100
AcDbEntity
  8
치수문자_일반주서
 62
     0
100
AcDbTrace
 10
12.08848583559404
 20
9.315287644632889
 30
0.0
 11
12.08848583559404
 21
10.41595431129955
 31
0.0
 12
15.39048583559404
 22
9.865620977966222
 32
0.0
 13
15.39048583559404
 23
9.865620977966222
 33
0.0
  0
SOLID
  5
103
330
FC
100
AcDbEntity
  8
치수문자_일반주서
 62
     0
100
AcDbTrace
 10
14.69248583559404
 20
10.41595431129955
 30
0.0
 11
14.69248583559404
 21
9.315287644632889
 31
0.0
 12
11.39048583559404
 22
9.865620977966222
 32
0.0
 13
11.39048583559404
 23
9.865620977966222
 33
0.0
  0
MTEXT
  5
104
330
FC
100
AcDbEntity
  8
치수문자_일반주서
 62
     0
100
AcDbMText
 10
13.39048583559405
 20
14.24062097796622
 30
0.0
 40
3.5
 41
0.0
 71
     2
 72
     1
  1
\A1;4
  7
SLDTEXTSTYLE0
 73
     1
 44
1.0
  0
POINT
  5
105
330
FC
100
AcDbEntity
  8
Defpoints
 62
     0
100
AcDbPoint
 10
15.39048583559404
 20
0.7313742737664477
 30
0.0
  0
POINT
  5
106
330
FC
100
AcDbEntity
  8
Defpoints
 62
     0
100
AcDbPoint
 10
11.39048583559404
 20
0.7194552726137724
 30
0.0
  0
POINT
  5
148
330
FC
100
AcDbEntity
  8
Defpoints
 62
     0
100
AcDbPoint
 10
11.39048583559404
 20
9.865620977966223
 30
0.0
  0
ENDBLK
  5
FE
330
FC
100
AcDbEntity
  8
0
100
AcDbBlockEnd
  0
BLOCK
  5
109
330
108
100
AcDbEntity
  8
0
100
AcDbBlockBegin
  2
_D_3
 70
     0
 10
0.0
 20
0.0
 30
0.0
  3
_D_3
  1

  0
LINE
  5
10B
330
108
100
AcDbEntity
  8
치수문자_일반주서
 62
     0
370
    -2
100
AcDbLine
 10
-34.17201416440597
 20
3.000000000000004
 30
0.0
 11
-48.10215372602587
 21
2.999999999999952
 31
0.0
  0
LINE
  5
10C
330
108
100
AcDbEntity
  8
치수문자_일반주서
 62
     0
370
    -2
100
AcDbLine
 10
-34.17201416440597
 20
-3.000000000000001
 30
0.0
 11
-48.10215372602585
 21
-3.000000000000053
 31
0.0
  0
LINE
  5
10D
330
108
100
AcDbEntity
  8
치수문자_일반주서
 62
     0
370
    -2
100
AcDbLine
 10
-48.10215372602585
 20
-0.3020000000000476
 30
0.0
 11
-48.10215372602586
 21
0.3019999999999463
 31
0.0
  0
SOLID
  5
10E
330
108
100
AcDbEntity
  8
치수문자_일반주서
 62
     0
100
AcDbTrace
 10
-47.55182039269252
 20
-0.3020000000000456
 30
0.0
 11
-48.65248705935919
 21
-0.3020000000000495
 31
0.0
 12
-48.10215372602587
 22
2.999999999999952
 32
0.0
 13
-48.10215372602587
 23
2.999999999999952
 33
0.0
  0
SOLID
  5
10F
330
108
100
AcDbEntity
  8
치수문자_일반주서
 62
     0
100
AcDbTrace
 10
-48.6524870593592
 20
0.3019999999999444
 30
0.0
 11
-47.55182039269253
 21
0.3019999999999483
 31
0.0
 12
-48.10215372602585
 22
-3.000000000000053
 32
0.0
 13
-48.10215372602585
 23
-3.000000000000053
 33
0.0
  0
MTEXT
  5
110
330
108
100
AcDbEntity
  8
치수문자_일반주서
 62
     0
100
AcDbMText
 10
-52.47715372602585
 20
-1.089695848804633
 30
0.0
 40
3.5
 41
0.0
 71
     2
 72
     1
  1
\A1;%%c6
  7
SLDTEXTSTYLE0
 11
-3.552713678800498E-15
 21
1.0
 31
0.0
 73
     1
 44
1.0
  0
POINT
  5
111
330
108
100
AcDbEntity
  8
Defpoints
 62
     0
100
AcDbPoint
 10
-34.10951416440597
 20
3.000000000000004
 30
0.0
  0
POINT
  5
112
330
108
100
AcDbEntity
  8
Defpoints
 62
     0
100
AcDbPoint
 10
-34.10951416440597
 20
-3.000000000000001
 30
0.0
  0
POINT
  5
113
330
108
100
AcDbEntity
  8
Defpoints
 62
     0
100
AcDbPoint
 10
-48.10215372602585
 20
-3.000000000000053
 30
0.0
  0
ENDBLK
  5
10A
330
108
100
AcDbEntity
  8
0
100
AcDbBlockEnd
  0
BLOCK
  5
115
330
114
100
AcDbEntity
  8
0
100
AcDbBlockBegin
  2
SW_DOWELSYMBOL_0
 70
     0
 10
0.0
 20
0.0
 30
0.0
  3
SW_DOWELSYMBOL_0
  1

  0
CIRCLE
  5
117
330
114
100
AcDbEntity
  8
해칭선
 62
     0
100
AcDbCircle
 10
0.0
 20
0.0
 30
0.0
 40
3.000000000000001
  0
HATCH
  5
118
330
114
100
AcDbEntity
  8
0
  6
Continuous
 62
     0
370
    18
100
AcDbHatch
 10
0.0
 20
0.0
 30
0.0
210
0.0
220
0.0
230
1.0
  2
SOLID
 70
     1
 71
     0
 91
        1
 92
        0
 93
        3
 72
     2
 10
0.0
 20
0.0
 40
3.000000000000001
 50
0.0
 51
90.0
 73
     1
 72
     1
 10
0.0
 20
3.000000000000001
 11
0.0
 21
0.0
 72
     1
 10
0.0
 20
0.0
 11
3.000000000000001
 21
0.0
 97
        0
 75
     0
 76
     1
 98
        1
 10
0.0
 20
0.0
  0
HATCH
  5
119
330
114
100
AcDbEntity
  8
0
  6
Continuous
 62
     0
370
    18
100
AcDbHatch
 10
0.0
 20
0.0
 30
0.0
210
0.0
220
0.0
230
1.0
  2
SOLID
 70
     1
 71
     0
 91
        1
 92
        0
 93
        3
 72
     2
 10
0.0
 20
0.0
 40
3.000000000000001
 50
180.0
 51
270.0000000000008
 73
     1
 72
     1
 10
0.0
 20
-3.000000000000001
 11
0.0
 21
0.0
 72
     1
 10
0.0
 20
0.0
 11
-3.000000000000001
 21
0.0
 97
        0
 75
     0
 76
     1
 98
        1
 10
0.0
 20
0.0
  0
ENDBLK
  5
116
330
114
100
AcDbEntity
  8
0
100
AcDbBlockEnd
  0
ENDSEC
  0
SECTION
  2
ENTITIES
  0
LINE
  5
99
330
1F
100
AcDbEntity
  8
0
  6
Continuous
 62
     4
370
    25
100
AcDbLine
 10
1.993371518564087
 20
3.0
 30
0.0
 11
-34.10951416440597
 21
2.999999999999998
 31
0.0
  0
LINE
  5
9A
330
1F
100
AcDbEntity
  8
0
  6
Continuous
 62
     4
370
    25
100
AcDbLine
 10
-34.10951416440597
 20
-3.0
 30
0.0
 11
1.993371518564087
 21
-2.999999999999998
 31
0.0
  0
LINE
  5
9B
330
1F
100
AcDbEntity
  8
0
  6
Continuous
 62
     4
370
    25
100
AcDbLine
 10
1.993371518564087
 20
-2.999999999999997
 30
0.0
 11
9.890558314683537
 21
-0.8839551755020623
 31
0.0
  0
LINE
  5
9C
330
1F
100
AcDbEntity
  8
0
  6
Continuous
 62
     4
370
    25
100
AcDbLine
 10
9.890558314683537
 20
0.8839551755020657
 30
0.0
 11
1.993371518564087
 21
3.000000000000001
 31
0.0
  0
LINE
  5
9D
330
1F
100
AcDbEntity
  8
0
  6
Continuous
 62
     4
370
    25
100
AcDbLine
 10
-34.10951416440597
 20
2.999999999999997
 30
0.0
 11
-34.60951416440596
 21
2.499999999999997
 31
0.0
  0
LINE
  5
9E
330
1F
100
AcDbEntity
  8
0
  6
Continuous
 62
     4
370
    25
100
AcDbLine
 10
-34.60951416440596
 20
-2.5
 30
0.0
 11
-34.10951416440597
 21
-2.999999999999999
 31
0.0
  0
LINE
  5
9F
330
1F
100
AcDbEntity
  8
0
  6
Continuous
 62
     4
370
    25
100
AcDbLine
 10
11.0183606234515
 20
-0.7499999999999982
 30
0.0
 11
11.39048583559404
 21
-0.7499999999999981
 31
0.0
  0
LINE
  5
A0
330
1F
100
AcDbEntity
  8
0
  6
Continuous
 62
     4
370
    25
100
AcDbLine
 10
11.39048583559404
 20
0.7500000000000019
 30
0.0
 11
11.0183606234515
 21
0.7500000000000018
 31
0.0
  0
LINE
  5
A1
330
1F
100
AcDbEntity
  8
0
  6
Continuous
 62
     1
370
    25
100
AcDbLine
 10
15.19964084270751
 20
-0.0573030069589767
 30
0.0
 11
15.1760552068041
 21
-0.0433235439677526
 31
0.0
1001
PE_URL
1000

  0
SPLINE
  5
A2
330
1F
100
AcDbEntity
  8
0
  6
Continuous
 62
     1
370
    25
100
AcDbSpline
210
0.0
220
0.0
230
1.0
 70
     8
 71
     3
 72
     9
 73
     5
 74
     0
 42
0.000000001
 43
0.00000001
 40
0.0
 40
0.0
 40
0.0
 40
0.0
 40
0.5590014663775942
 40
1.0
 40
1.0
 40
1.0
 40
1.0
 10
15.39048583559404
 20
-0.1669836202489028
 30
0.0
 10
15.35515138657275
 20
-0.1475056600250692
 30
0.0
 10
15.29194144680234
 20
-0.1126614576474737
 30
0.0
 10
15.22788822124991
 20
-0.0742447282776415
 30
0.0
 10
15.19964084270751
 20
-0.0573030069589767
 30
0.0
1001
PE_URL
1000

  0
LINE
  5
A3
330
1F
100
AcDbEntity
  8
0
  6
Continuous
 62
     1
370
    25
100
AcDbLine
 10
13.41543972049643
 20
0.1266442465067038
 30
0.0
 11
13.45588965966839
 21
0.1064239205606674
 31
0.0
1001
PE_URL
1000

  0
LINE
  5
A4
330
1F
100
AcDbEntity
  8
0
  6
Continuous
 62
     1
370
    25
100
AcDbLine
 10
13.05948837579214
 20
-0.7499999999999987
 30
0.0
 11
13.64029917189601
 21
-0.7499999999999987
 31
0.0
1001
PE_URL
1000

  0
LINE
  5
A5
330
1F
100
AcDbEntity
  8
0
  6
Continuous
 62
     1
370
    25
100
AcDbLine
 10
15.09945949832821
 20
-0.7499999999999987
 30
0.0
 11
15.39048583559404
 21
-0.7499999999999987
 31
0.0
1001
PE_URL
1000

  0
LINE
  5
A6
330
1F
100
AcDbEntity
  8
0
  6
Continuous
 62
     1
370
    25
100
AcDbLine
 10
11.59958377790357
 20
0.7500000000000022
 30
0.0
 11
11.39048583559404
 21
0.7500000000000022
 31
0.0
  0
LINE
  5
A7
330
1F
100
AcDbEntity
  8
0
  6
Continuous
 62
     1
370
    25
100
AcDbLine
 10
13.64029917189601
 20
0.7500000000000022
 30
0.0
 11
13.05948837579215
 21
0.7500000000000022
 31
0.0
1001
PE_URL
1000

  0
LINE
  5
A8
330
1F
100
AcDbEntity
  8
0
  6
Continuous
 62
     1
370
    25
100
AcDbLine
 10
11.39048583559404
 20
-0.7499999999999987
 30
0.0
 11
11.59958377790356
 21
-0.7499999999999987
 31
0.0
  0
LINE
  5
A9
330
1F
100
AcDbEntity
  8
0
  6
Continuous
 62
     1
370
    25
100
AcDbLine
 10
15.39048583559404
 20
0.7500000000000022
 30
0.0
 11
15.09945949832821
 21
0.7500000000000022
 31
0.0
1001
PE_URL
1000

  0
LINE
  5
AA
330
1F
100
AcDbEntity
  8
0
  6
Continuous
 62
     4
370
    25
100
AcDbLine
 10
1.993371518564087
 20
3.000000000000001
 30
0.0
 11
1.993371518564087
 21
-3.0
 31
0.0
  0
LINE
  5
AB
330
1F
100
AcDbEntity
  8
0
  6
Continuous
 62
     4
370
    25
100
AcDbLine
 10
-34.10951416440597
 20
2.999999999999997
 30
0.0
 11
-34.10951416440597
 21
-3.000000000000001
 31
0.0
  0
SPLINE
  5
AC
330
1F
100
AcDbEntity
  8
0
  6
Continuous
 62
     4
370
    25
100
AcDbSpline
210
0.0
220
0.0
230
1.0
 70
     8
 71
     3
 72
     8
 73
     4
 74
     0
 42
0.000000001
 43
0.00000001
 40
0.0
 40
0.0
 40
0.0
 40
0.0
 40
1.0
 40
1.0
 40
1.0
 40
1.0
 10
10.12152894646292
 20
-0.6298514041341999
 30
0.0
 10
10.21040833415681
 20
-0.6482167896083175
 30
0.0
 10
10.29985213524847
 20
-0.6596425526857392
 30
0.0
 10
10.39048583559402
 20
-0.6639250079426878
 30
0.0
  0
SPLINE
  5
AD
330
1F
100
AcDbEntity
  8
0
  6
Continuous
 62
     4
370
    25
100
AcDbSpline
210
0.0
220
0.0
230
1.0
 70
     8
 71
     3
 72
    26
 73
    22
 74
     0
 42
0.000000001
 43
0.00000001
 40
0.0
 40
0.0
 40
0.0
 40
0.0
 40
0.0000472117044873
 40
0.0000472117044873
 40
0.0000472117044873
 40
0.0000943216110254
 40
0.0000943216110254
 40
0.0000943216110254
 40
0.0001429262628822
 40
0.0001429262628822
 40
0.0001429262628822
 40
0.0001942819998102
 40
0.0001942819998102
 40
0.0001942819998102
 40
0.0002472951799949
 40
0.0002472951799949
 40
0.0002472951799949
 40
0.0003003844791835
 40
0.0003003844791835
 40
0.0003003844791835
 40
0.0003276764761112
 40
0.0003276764761112
 40
0.0003276764761112
 40
0.0003276764761112
 10
9.890558314683537
 20
-0.7533829585396246
 30
0.0
 10
9.890558314683537
 20
-0.7451511974044706
 30
0.0
 10
9.893115037256369
 20
-0.7358448768855936
 30
0.0
 10
9.897966613975814
 20
-0.7263135456378301
 30
0.0
 10
9.902812297498137
 20
-0.7167937920723568
 30
0.0
 10
9.910061111219715
 20
-0.7068014438702157
 30
0.0
 10
9.919083590181012
 20
-0.6972199023999045
 30
0.0
 10
9.928393627792135
 20
-0.6873329841988498
 30
0.0
 10
9.939826276941288
 20
-0.6776312550552974
 30
0.0
 10
9.952516518696733
 20
-0.6689549382573126
 30
0.0
 10
9.965913024772762
 20
-0.6597957486262794
 30
0.0
 10
9.981067720468035
 20
-0.6515434280359412
 30
0.0
 10
9.996833914488997
 20
-0.6449616088894818
 30
0.0
 10
10.01309487941764
 20
-0.6381732406780457
 30
0.0
 10
10.03045730750381
 20
-0.6329852667685966
 30
0.0
 10
10.04750791830606
 20
-0.6298958304283262
 30
0.0
 10
10.06457834138715
 20
-0.626802804259228
 30
0.0
 10
10.08181275706025
 20
-0.6257323440788637
 30
0.0
 10
10.09771706943186
 20
-0.6267194757938481
 30
0.0
 10
10.1059814040746
 20
-0.6272324176072681
 30
0.0
 10
10.11398429616557
 20
-0.6282924328746828
 30
0.0
 10
10.12152894646292
 20
-0.6298514041342002
 30
0.0
  0
LINE
  5
AE
330
1F
100
AcDbEntity
  8
0
  6
Continuous
 62
     4
370
    25
100
AcDbLine
 10
9.890558314683537
 20
-0.7533829585396248
 30
0.0
 11
9.890558314683537
 21
-0.8839551755020623
 31
0.0
  0
SPLINE
  5
AF
330
1F
100
AcDbEntity
  8
0
  6
Continuous
 62
     4
370
    25
100
AcDbSpline
210
0.0
220
0.0
230
1.0
 70
     8
 71
     3
 72
    14
 73
    10
 74
     0
 42
0.000000001
 43
0.00000001
 40
0.0
 40
0.0
 40
0.0
 40
0.0
 40
0.0000509425397568
 40
0.0000509425397568
 40
0.0000509425397568
 40
0.0001020263140774
 40
0.0001020263140774
 40
0.0001020263140774
 40
0.0001497021170713
 40
0.0001497021170713
 40
0.0001497021170713
 40
0.0001497021170713
 10
9.95785087349632
 20
-0.8244380193216984
 30
0.0
 10
9.944173716891022
 20
-0.8307936594925585
 30
0.0
 10
9.931772443487025
 20
-0.837436121478082
 30
0.0
 10
9.921656106607934
 20
-0.8436279310054001
 30
0.0
 10
9.911523674002432
 20
-0.8498295920899881
 30
0.0
 10
9.903404439126065
 20
-0.8557463005559062
 30
0.0
 10
9.898111613667485
 20
-0.8606462960929734
 30
0.0
 10
9.89316657258002
 20
-0.8652243195794465
 30
0.0
 10
9.890558314683464
 20
-0.8690355443914558
 30
0.0
 10
9.89055831468346
 20
-0.8716750346567776
 30
0.0
  0
SPLINE
  5
B0
330
1F
100
AcDbEntity
  8
0
  6
Continuous
 62
     4
370
    25
100
AcDbSpline
210
0.0
220
0.0
230
1.0
 70
     8
 71
     3
 72
     9
 73
     5
 74
     0
 42
0.000000001
 43
0.00000001
 40
0.0
 40
0.0
 40
0.0
 40
0.0
 40
0.4457347938490325
 40
0.9999999999999999
 40
0.9999999999999999
 40
0.9999999999999999
 40
0.9999999999999999
 10
10.28886336196779
 20
-0.6553836622264692
 30
0.0
 10
10.23842842310045
 20
-0.6825671000436461
 30
0.0
 10
10.12527831778376
 20
-0.74355277626255
 30
0.0
 10
10.01755703339494
 20
-0.7955936009165702
 30
0.0
 10
9.95785087349632
 20
-0.8244380193216972
 30
0.0
  0
LINE
  5
B1
330
1F
100
AcDbEntity
  8
0
  6
Continuous
 62
     4
370
    25
100
AcDbLine
 10
10.28886336196779
 20
0.6553836622264725
 30
0.0
 11
10.39048583559404
 21
0.6639250079427423
 31
0.0
  0
LINE
  5
B2
330
1F
100
AcDbEntity
  8
0
  6
Continuous
 62
     4
370
    25
100
AcDbLine
 10
9.890558314683537
 20
0.8839551755020657
 30
0.0
 11
9.890558314683537
 21
0.871675034656766
 31
0.0
  0
SPLINE
  5
B3
330
1F
100
AcDbEntity
  8
0
  6
Continuous
 62
     4
370
    25
100
AcDbSpline
210
0.0
220
0.0
230
1.0
 70
     8
 71
     3
 72
    14
 73
    10
 74
     0
 42
0.000000001
 43
0.00000001
 40
0.0
 40
0.0
 40
0.0
 40
0.0
 40
0.0000509425397568
 40
0.0000509425397568
 40
0.0000509425397568
 40
0.0001020263140774
 40
0.0001020263140774
 40
0.0001020263140774
 40
0.0001497021170713
 40
0.0001497021170713
 40
0.0001497021170713
 40
0.0001497021170713
 10
9.95785087349632
 20
0.8244380193217019
 30
0.0
 10
9.944173716891019
 20
0.830793659492562
 30
0.0
 10
9.931772443487025
 20
0.8374361214780855
 30
0.0
 10
9.921656106607934
 20
0.8436279310054037
 30
0.0
 10
9.911523674002432
 20
0.8498295920899916
 30
0.0
 10
9.903404439126065
 20
0.8557463005559098
 30
0.0
 10
9.898111613667485
 20
0.860646296092977
 30
0.0
 10
9.89316657258002
 20
0.8652243195794501
 30
0.0
 10
9.890558314683464
 20
0.8690355443914595
 30
0.0
 10
9.89055831468346
 20
0.8716750346567813
 30
0.0
  0
SPLINE
  5
B4
330
1F
100
AcDbEntity
  8
0
  6
Continuous
 62
     4
370
    25
100
AcDbSpline
210
0.0
220
0.0
230
1.0
 70
     8
 71
     3
 72
     8
 73
     4
 74
     0
 42
0.000000001
 43
0.00000001
 40
0.0
 40
0.0
 40
0.0
 40
0.0
 40
1.0
 40
1.0
 40
1.0
 40
1.0
 10
10.39048583559405
 20
0.6014200781469043
 30
0.0
 10
10.24005436337019
 20
0.6817529905798843
 30
0.0
 10
10.09820987727393
 20
0.7592145705819761
 30
0.0
 10
9.95785087349632
 20
0.8244380193216999
 30
0.0
  0
SPLINE
  5
B5
330
1F
100
AcDbEntity
  8
0
  6
Continuous
 62
     4
370
    25
100
AcDbSpline
210
0.0
220
0.0
230
1.0
 70
     8
 71
     3
 72
     8
 73
     4
 74
     0
 42
0.000000001
 43
0.00000001
 40
0.0
 40
0.0
 40
0.0
 40
0.0
 40
1.0
 40
1.0
 40
1.0
 40
1.0
 10
10.12152894646292
 20
0.5282811765820176
 30
0.0
 10
10.21040833415681
 20
0.4693256103732657
 30
0.0
 10
10.29985213524847
 20
0.4092202212260814
 30
0.0
 10
10.39048583559402
 20
0.3488604073670566
 30
0.0
  0
SPLINE
  5
B6
330
1F
100
AcDbEntity
  8
0
  6
Continuous
 62
     4
370
    25
100
AcDbSpline
210
0.0
220
0.0
230
1.0
 70
     8
 71
     3
 72
    26
 73
    22
 74
     0
 42
0.000000001
 43
0.00000001
 40
0.0
 40
0.0
 40
0.0
 40
0.0
 40
0.0000472117044873
 40
0.0000472117044873
 40
0.0000472117044873
 40
0.0000943216110254
 40
0.0000943216110254
 40
0.0000943216110254
 40
0.0001429262628822
 40
0.0001429262628822
 40
0.0001429262628822
 40
0.0001942819998102
 40
0.0001942819998102
 40
0.0001942819998102
 40
0.0002472951799949
 40
0.0002472951799949
 40
0.0002472951799949
 40
0.0003003844791835
 40
0.0003003844791835
 40
0.0003003844791835
 40
0.0003276764761112
 40
0.0003276764761112
 40
0.0003276764761112
 40
0.0003276764761112
 10
9.890558314683537
 20
0.4623752481253277
 30
0.0
 10
9.890558314683537
 20
0.4757878790633766
 30
0.0
 10
9.893115037256369
 20
0.4887952804307738
 30
0.0
 10
9.897966613975814
 20
0.5003398240790644
 30
0.0
 10
9.902812297498137
 20
0.5118703446014065
 30
0.0
 10
9.910061111219715
 20
0.5222613489548514
 30
0.0
 10
9.919083590181012
 20
0.5308548463050357
 30
0.0
 10
9.928393627792135
 20
0.5397222300788794
 30
0.0
 10
9.939826276941291
 20
0.5469173878559146
 30
0.0
 10
9.952516518696733
 20
0.5520882425083733
 30
0.0
 10
9.965913024772762
 20
0.5575468765600228
 30
0.0
 10
9.981067720468035
 20
0.5608989029719885
 30
0.0
 10
9.996833914488997
 20
0.5620216666464989
 30
0.0
 10
10.01309487941764
 20
0.5631796646205243
 30
0.0
 10
10.03045730750381
 20
0.561996675950492
 30
0.0
 10
10.04750791830607
 20
0.5585946269999684
 30
0.0
 10
10.06457834138715
 20
0.5551886249744978
 30
0.0
 10
10.08181275706025
 20
0.5494581651241637
 30
0.0
 10
10.09771706943186
 20
0.5418001351026173
 30
0.0
 10
10.1059814040746
 20
0.5378208041310274
 30
0.0
 10
10.11398429616557
 20
0.5332857017218546
 30
0.0
 10
10.12152894646292
 20
0.5282811765820176
 30
0.0
  0
LINE
  5
B7
330
1F
100
AcDbEntity
  8
0
  6
Continuous
 62
     4
370
    25
100
AcDbLine
 10
9.890558314683537
 20
0.4623752481253278
 30
0.0
 11
9.890558314683537
 21
-0.1468311487832729
 31
0.0
  0
SPLINE
  5
B8
330
1F
100
AcDbEntity
  8
0
  6
Continuous
 62
     4
370
    25
100
AcDbSpline
210
0.0
220
0.0
230
1.0
 70
     8
 71
     3
 72
    14
 73
    10
 74
     0
 42
0.000000001
 43
0.00000001
 40
0.0
 40
0.0
 40
0.0
 40
0.0
 40
0.0000509425397568
 40
0.0000509425397568
 40
0.0000509425397568
 40
0.0001020263140774
 40
0.0001020263140774
 40
0.0001020263140774
 40
0.0001497021170713
 40
0.0001497021170713
 40
0.0001497021170713
 40
0.0001497021170713
 10
9.95785087349632
 20
-0.2648143744072073
 30
0.0
 10
9.944173716891022
 20
-0.257011145846104
 30
0.0
 10
9.931772443487025
 20
-0.2466871684060156
 30
0.0
 10
9.921656106607934
 20
-0.2345351984550054
 30
0.0
 10
9.911523674002432
 20
-0.2223638939577071
 30
0.0
 10
9.903404439126065
 20
-0.2079922404182311
 30
0.0
 10
9.898111613667485
 20
-0.192589530063207
 30
0.0
 10
9.89316657258002
 20
-0.1781989108825932
 30
0.0
 10
9.890558314683464
 20
-0.1625006970199354
 30
0.0
 10
9.89055831468346
 20
-0.1468311487833033
 30
0.0
  0
SPLINE
  5
B9
330
1F
100
AcDbEntity
  8
0
  6
Continuous
 62
     4
370
    25
100
AcDbSpline
210
0.0
220
0.0
230
1.0
 70
     8
 71
     3
 72
     8
 73
     4
 74
     0
 42
0.000000001
 43
0.00000001
 40
0.0
 40
0.0
 40
0.0
 40
0.0
 40
1.0
 40
1.0
 40
1.0
 40
1.0
 10
10.39048583559405
 20
-0.4481003119832704
 30
0.0
 10
10.24005436337019
 20
-0.4077458815895877
 30
0.0
 10
10.09820987727393
 20
-0.3448934009689957
 30
0.0
 10
9.95785087349632
 20
-0.264814374407208
 30
0.0
  0
LINE
  5
BA
330
1F
100
AcDbEntity
  8
0
  6
Continuous
 62
     4
370
    25
100
AcDbLine
 10
-34.60951416440596
 20
2.499999999999997
 30
0.0
 11
-34.60951416440596
 21
-2.5
 31
0.0
  0
SPLINE
  5
BB
330
1F
100
AcDbEntity
  8
0
  6
Continuous
 62
     4
370
    25
100
AcDbSpline
210
0.0
220
0.0
230
1.0
 70
     8
 71
     3
 72
    14
 73
    10
 74
     0
 42
0.000000001
 43
0.00000001
 40
0.0
 40
0.0
 40
0.0
 40
0.0
 40
0.2500000000000001
 40
0.2500000000000001
 40
0.5000000000000001
 40
0.5000000000000001
 40
0.75
 40
0.75
 40
1.0
 40
1.0
 40
1.0
 40
1.0
 10
11.39048583559407
 20
0.7194552726137312
 30
0.0
 10
11.30767082391352
 20
0.7330246676370887
 30
0.0
 10
11.22674297456244
 20
0.7421085742621515
 30
0.0
 10
11.05898937032886
 20
0.7512069383281705
 30
0.0
 10
10.97394704128004
 20
0.75110006711642
 30
0.0
 10
10.80624770798462
 20
0.7415831243729789
 30
0.0
 10
10.72537270304234
 20
0.73229730401089
 30
0.0
 10
10.55965377722707
 20
0.7047520131342484
 30
0.0
 10
10.47486625320545
 20
0.6864088512643365
 30
0.0
 10
10.39048583559404
 20
0.6639250079426903
 30
0.0
  0
SPLINE
  5
BC
330
1F
100
AcDbEntity
  8
0
  6
Continuous
 62
     4
370
    25
100
AcDbSpline
210
0.0
220
0.0
230
1.0
 70
     8
 71
     3
 72
    14
 73
    10
 74
     0
 42
0.000000001
 43
0.00000001
 40
0.0
 40
0.0
 40
0.0
 40
0.0
 40
0.25
 40
0.25
 40
0.5
 40
0.5
 40
0.75
 40
0.75
 40
1.0
 40
1.0
 40
1.0
 40
1.0
 10
11.39048583559408
 20
0.1196960434825992
 30
0.0
 10
11.30767082391353
 20
0.1671172868574848
 30
0.0
 10
11.22674297456244
 20
0.213453792289965
 30
0.0
 10
11.05898937032886
 20
0.3040124316411932
 30
0.0
 10
10.97394704128004
 20
0.3478778801275083
 30
0.0
 10
10.80624770798462
 20
0.4303495822312188
 30
0.0
 10
10.72537270304234
 20
0.4687062963320648
 30
0.0
 10
10.55965377722707
 20
0.5398351191426751
 30
0.0
 10
10.47486625320545
 20
0.5725402826931234
 30
0.0
 10
10.39048583559404
 20
0.6014200781479244
 30
0.0
  0
SPLINE
  5
BD
330
1F
100
AcDbEntity
  8
0
  6
Continuous
 62
     4
370
    25
100
AcDbSpline
210
0.0
220
0.0
230
1.0
 70
     8
 71
     3
 72
    14
 73
    10
 74
     0
 42
0.000000001
 43
0.00000001
 40
0.0
 40
0.0
 40
0.0
 40
0.0
 40
0.2499999999999999
 40
0.2499999999999999
 40
0.4999999999999998
 40
0.4999999999999998
 40
0.7499999999999999
 40
0.7499999999999999
 40
1.0
 40
1.0
 40
1.0
 40
1.0
 10
11.39048583559407
 20
-0.2118587045846911
 30
0.0
 10
11.30767082391352
 20
-0.1657781207593966
 30
0.0
 10
11.22674297456244
 20
-0.118751995040674
 30
0.0
 10
11.05898937032886
 20
-0.0227003992731158
 30
0.0
 10
10.97394704128004
 20
0.0259876958412768
 30
0.0
 10
10.80624770798462
 20
0.121988281415221
 30
0.0
 10
10.72537270304234
 20
0.1689645800672051
 30
0.0
 10
10.55965377722707
 20
0.2610229314871169
 30
0.0
 10
10.47486625320545
 20
0.3060708401342007
 30
0.0
 10
10.39048583559404
 20
0.3488604073670356
 30
0.0
  0
SPLINE
  5
BE
330
1F
100
AcDbEntity
  8
0
  6
Continuous
 62
     4
370
    25
100
AcDbSpline
210
0.0
220
0.0
230
1.0
 70
     8
 71
     3
 72
    14
 73
    10
 74
     0
 42
0.000000001
 43
0.00000001
 40
0.0
 40
0.0
 40
0.0
 40
0.0
 40
0.25
 40
0.25
 40
0.5
 40
0.5
 40
0.75
 40
0.75
 40
1.0
 40
1.0
 40
1.0
 40
1.0
 10
11.39048583559408
 20
-0.7403869644818248
 30
0.0
 10
11.30767082391353
 20
-0.7327205204717373
 30
0.0
 10
11.22674297456244
 20
-0.720600201829403
 30
0.0
 10
11.05898937032886
 20
-0.6873162399704771
 30
0.0
 10
10.97394704128004
 20
-0.6661889008948025
 30
0.0
 10
10.80624770798462
 20
-0.6161378970902945
 30
0.0
 10
10.72537270304234
 20
-0.5874715129753879
 30
0.0
 10
10.55965377722707
 20
-0.5228636676219981
 30
0.0
 10
10.47486625320545
 20
-0.486861474105489
 30
0.0
 10
10.39048583559404
 20
-0.4481003119844373
 30
0.0
  0
LINE
  5
BF
330
1F
100
AcDbEntity
  8
0
  6
Continuous
 62
     4
370
    25
100
AcDbLine
 10
11.39048583559404
 20
0.1196960434826188
 30
0.0
 11
11.39048583559404
 21
-0.2118587045846785
 31
0.0
  0
SPLINE
  5
C0
330
1F
100
AcDbEntity
  8
0
  6
Continuous
 62
     4
370
    25
100
AcDbSpline
210
0.0
220
0.0
230
1.0
 70
     8
 71
     3
 72
    10
 73
     6
 74
     0
 42
0.000000001
 43
0.00000001
 40
0.0
 40
0.0
 40
0.0
 40
0.0
 40
0.4483483988789074
 40
0.8922052281859192
 40
1.0
 40
1.0
 40
1.0
 40
1.0
 10
10.3904858355944
 20
-0.6639250079427804
 30
0.0
 10
10.48447911642078
 20
-0.6851438118600136
 30
0.0
 10
10.67152405017619
 20
-0.7273688489921756
 30
0.0
 10
10.88023767440983
 20
-0.7556343485768409
 30
0.0
 10
10.9957826968978
 20
-0.7462567867219243
 30
0.0
 10
11.0183606234515
 20
-0.7444243763051525
 30
0.0
  0
LINE
  5
C1
330
1F
100
AcDbEntity
  8
0
  6
Continuous
 62
     4
370
    25
100
AcDbLine
 10
11.39048583559404
 20
-0.7403869644818216
 30
0.0
 11
11.39048583559404
 21
-0.749999999999998
 31
0.0
  0
LINE
  5
C2
330
1F
100
AcDbEntity
  8
0
  6
Continuous
 62
     4
370
    25
100
AcDbLine
 10
11.39048583559404
 20
0.7500000000000018
 30
0.0
 11
11.39048583559404
 21
0.7194552726137721
 31
0.0
  0
SPLINE
  5
C3
330
1F
100
AcDbEntity
  8
0
  6
Continuous
 62
     1
370
    25
100
AcDbSpline
210
0.0
220
0.0
230
1.0
 70
     8
 71
     3
 72
    15
 73
    11
 74
     0
 42
0.000000001
 43
0.00000001
 40
0.0
 40
0.0
 40
0.0
 40
0.0
 40
0.148037851937071
 40
0.2961439691303209
 40
0.4443633770446199
 40
0.5927399637163353
 40
0.7096950575491072
 40
0.8257946489994132
 40
0.9420821475241057
 40
1.0
 40
1.0
 40
1.0
 40
1.0
 10
15.12874055059329
 20
-0.6832760216476728
 30
0.0
 10
14.95458732833602
 20
-0.6309849222082632
 30
0.0
 10
14.60620057588552
 20
-0.526378610136417
 30
0.0
 10
14.08339549686982
 20
-0.256000122577869
 30
0.0
 10
13.56010828810968
 20
0.0476096475657102
 30
0.0
 10
13.07339003409788
 20
0.3245422589883181
 30
0.0
 10
12.62431762748779
 20
0.5373229371123777
 30
0.0
 10
12.21400027698983
 20
0.6765962797377778
 30
0.0
 10
11.87288997537707
 20
0.7480197577315653
 30
0.0
 10
11.66777733972309
 20
0.7424479431092282
 30
0.0
 10
11.59958377790357
 20
0.7405954883168466
 30
0.0
  0
SPLINE
  5
C4
330
1F
100
AcDbEntity
  8
0
  6
Continuous
 62
     1
370
    25
100
AcDbSpline
210
0.0
220
0.0
230
1.0
 70
     8
 71
     3
 72
    14
 73
    10
 74
     0
 42
0.000000001
 43
0.00000001
 40
0.0
 40
0.0
 40
0.0
 40
0.0
 40
0.1338017222551331
 40
0.2796071978192147
 40
0.4261435367851029
 40
0.5699256204854838
 40
0.7130201270028097
 40
0.8561408218413114
 40
0.9999999999999999
 40
0.9999999999999999
 40
0.9999999999999999
 40
0.9999999999999999
 10
12.32497087037568
 20
0.6299887283088281
 30
0.0
 10
12.46162941444017
 20
0.6674739498028529
 30
0.0
 10
12.74720654992027
 20
0.7458073042987794
 30
0.0
 10
13.18239876281013
 20
0.7604105560768952
 30
0.0
 10
13.62851237426021
 20
0.6929656986382936
 30
0.0
 10
14.07165818535989
 20
0.5444674241222606
 30
0.0
 10
14.51072786179495
 20
0.3354381866354431
 30
0.0
 10
14.94987730541606
 20
0.0867065287092805
 30
0.0
 10
15.2433645826086
 20
-0.0816916511716297
 30
0.0
 10
15.39048583559404
 20
-0.1661074100472493
 30
0.0
  0
LINE
  5
C5
330
1F
100
AcDbEntity
  8
0
  6
Continuous
 62
     1
370
    25
100
AcDbLine
 10
15.39048583559404
 20
-0.4999999999999987
 30
0.0
 11
15.39048583559404
 21
-0.1667338385318359
 31
0.0
1001
PE_URL
1000

  0
SPLINE
  5
C6
330
1F
100
AcDbEntity
  8
0
  6
Continuous
 62
     1
370
    25
100
AcDbSpline
210
0.0
220
0.0
230
1.0
 70
    24
 71
     3
 72
     8
 73
     4
 74
     0
 42
0.000000001
 43
0.00000001
 40
0.0
 40
0.0
 40
0.0
 40
0.0
 40
1.0
 40
1.0
 40
1.0
 40
1.0
 10
15.39048583559404
 20
-0.4999999999999987
 30
0.0
 10
15.29662498449566
 20
-0.5657220754818659
 30
0.0
 10
15.20735894106692
 20
-0.6282268319968245
 30
0.0
 10
15.12874055059404
 20
-0.68327602164785
 30
0.0
1001
PE_URL
1000

  0
SPLINE
  5
C7
330
1F
100
AcDbEntity
  8
0
  6
Continuous
 62
     1
370
    25
100
AcDbSpline
210
0.0
220
0.0
230
1.0
 70
     8
 71
     3
 72
    11
 73
     7
 74
     0
 42
0.000000001
 43
0.00000001
 40
0.0
 40
0.0
 40
0.0
 40
0.0
 40
0.2694757854463851
 40
0.5378953608498305
 40
0.8054662710259594
 40
0.9999999999999999
 40
0.9999999999999999
 40
0.9999999999999999
 40
0.9999999999999999
 10
11.39048583559512
 20
-0.2118587045852725
 30
0.0
 10
11.54055194045507
 20
-0.2923449796309224
 30
0.0
 10
11.84009596624299
 20
-0.453002063856222
 30
0.0
 10
12.28821790109378
 20
-0.6314205849237399
 30
0.0
 10
12.69429587503045
 20
-0.7378405371273341
 30
0.0
 10
12.95129753222406
 20
-0.7401967534085095
 30
0.0
 10
13.05948837579214
 20
-0.7411886576237309
 30
0.0
  0
SPLINE
  5
C8
330
1F
100
AcDbEntity
  8
0
  6
Continuous
 62
     1
370
    25
100
AcDbSpline
210
0.0
220
0.0
230
1.0
 70
     8
 71
     3
 72
    14
 73
    10
 74
     0
 42
0.000000001
 43
0.00000001
 40
0.0
 40
0.0
 40
0.0
 40
0.0
 40
0.0938997450707622
 40
0.2699023595427635
 40
0.4460916153772829
 40
0.5849695300852411
 40
0.7228315814989129
 40
0.8609167625069823
 40
1.0
 40
1.0
 40
1.0
 40
1.0
 10
14.36262627919234
 20
-0.6243062370525798
 30
0.0
 10
14.26959120895521
 20
-0.6548030665341434
 30
0.0
 10
14.00217424250547
 20
-0.7424621568697392
 30
0.0
 10
13.56010582100799
 20
-0.765916433175398
 30
0.0
 10
13.07339174016949
 20
-0.6948579127998145
 30
0.0
 10
12.62431388219427
 20
-0.5415717950185801
 30
0.0
 10
12.21401390409931
 20
-0.3474203855187205
 30
0.0
 10
11.803266589228
 20
-0.1177306410880942
 30
0.0
 10
11.52840933154601
 20
0.0403640540911832
 30
0.0
 10
11.39048583559507
 20
0.1196960434820288
 30
0.0
  0
SPLINE
  5
C9
330
1F
100
AcDbEntity
  8
0
  6
Continuous
 62
     1
370
    25
100
AcDbSpline
210
0.0
220
0.0
230
1.0
 70
     8
 71
     3
 72
    16
 73
    12
 74
     0
 42
0.000000001
 43
0.00000001
 40
0.0
 40
0.0
 40
0.0
 40
0.0
 40
0.1212596970426168
 40
0.2420441168368229
 40
0.3624466511559221
 40
0.4829663403709795
 40
0.6040901456502904
 40
0.7229373424048962
 40
0.8412162025583383
 40
0.959516709418236
 40
1.0
 40
1.0
 40
1.0
 40
1.0
 10
11.39048583559512
 20
0.7194552726135597
 30
0.0
 10
11.54055279300838
 20
0.6867635904975408
 30
0.0
 10
11.84009852056134
 20
0.6215083612773902
 30
0.0
 10
12.28820774391718
 20
0.4276151727948051
 30
0.0
 10
12.73507789962512
 20
0.1894003141581791
 30
0.0
 10
13.18240243883699
 20
-0.0730344893079358
 30
0.0
 10
13.62851254063776
 20
-0.3237697916222494
 30
0.0
 10
14.07165401883885
 20
-0.5374791867758679
 30
0.0
 10
14.51074429889625
 20
-0.6834298821803383
 30
0.0
 10
14.85294843223658
 20
-0.7533384426767292
 30
0.0
 10
15.04937807635734
 20
-0.7429931760061167
 30
0.0
 10
15.09945949832821
 20
-0.7403555615673632
 30
0.0
  0
LINE
  5
CA
330
1F
100
AcDbEntity
  8
0
  6
Continuous
 62
     1
370
    25
100
AcDbLine
 10
15.12874055059404
 20
-0.6832760216478501
 30
0.0
 11
15.11074450178617
 21
-0.6958769906811075
 31
0.0
1001
PE_URL
1000

  0
ELLIPSE
  5
CB
330
1F
100
AcDbEntity
  8
0
  6
Continuous
 62
     1
370
    25
100
AcDbEllipse
 10
15.14625814261594
 20
0.000000000000002
 30
0.0
 11
1.041992479244973
 21
-0.4127557545313226
 31
0.0
210
0.0
220
0.0
230
1.0
 40
0.6009688174887262
 41
4.912933762914536
 42
5.176132609328198
1001
PE_URL
1000

  0
LINE
  5
CC
330
1F
100
AcDbEntity
  8
0
  6
Continuous
 62
     1
370
    25
100
AcDbLine
 10
15.39048583559404
 20
-0.749999999999999
 30
0.0
 11
15.39048583559404
 21
-0.7446933086021935
 31
0.0
1001
PE_URL
1000

  0
SPLINE
  5
CD
330
1F
100
AcDbEntity
  8
0
  6
Continuous
 62
     1
370
    25
100
AcDbSpline
210
0.0
220
0.0
230
1.0
 70
     8
 71
     3
 72
    10
 73
     6
 74
     0
 42
0.000000001
 43
0.00000001
 40
0.0
 40
0.0
 40
0.0
 40
0.0
 40
0.3510540033392489
 40
0.7022698895426229
 40
1.0
 40
1.0
 40
1.0
 40
1.0
 10
15.12874055059329
 20
0.3092472768535418
 30
0.0
 10
14.95458684950335
 20
0.3953923693843985
 30
0.0
 10
14.60619913916673
 20
0.5677222788593832
 30
0.0
 10
14.11007036848853
 20
0.7249053232412309
 30
0.0
 10
13.7880424488199
 20
0.73675065343091
 30
0.0
 10
13.64029917189601
 20
0.7421851756930467
 30
0.0
1001
PE_URL
1000

  0
ELLIPSE
  5
CE
330
1F
100
AcDbEntity
  8
0
  6
Continuous
 62
     1
370
    25
100
AcDbEllipse
 10
16.10455983896509
 20
0.0000000000000017
 30
0.0
 11
1.071111005056583
 21
0.0
 31
0.0
210
0.0
220
0.0
230
1.0
 40
0.700207538209712
 41
2.716582861747931
 42
2.759364833374626
1001
PE_URL
1000

  0
ELLIPSE
  5
CF
330
1F
100
AcDbEntity
  8
0
  6
Continuous
 62
     1
370
    25
100
AcDbEllipse
 10
15.14625814261594
 20
0.0000000000000017
 30
0.0
 11
1.064326924485586
 21
-0.7291305528055535
 31
0.0
210
0.0
220
0.0
230
1.0
 40
0.1650759015746657
 41
1.453368357947248
 42
1.716567204360908
1001
PE_URL
1000

  0
LINE
  5
D0
330
1F
100
AcDbEntity
  8
0
  6
Continuous
 62
     1
370
    25
100
AcDbLine
 10
15.39048583559404
 20
-0.1661074100472494
 30
0.0
 11
15.39048583559404
 21
0.0890610808553139
 31
0.0
1001
PE_URL
1000

  0
SPLINE
  5
D1
330
1F
100
AcDbEntity
  8
0
  6
Continuous
 62
     1
370
    25
100
AcDbSpline
210
0.0
220
0.0
230
1.0
 70
     8
 71
     3
 72
    10
 73
     6
 74
     0
 42
0.000000001
 43
0.00000001
 40
0.0
 40
0.0
 40
0.0
 40
0.0
 40
0.1441296049483499
 40
0.5709635997933278
 40
1.0
 40
1.0
 40
1.0
 40
1.0
 10
14.36262627919234
 20
0.6243062370525841
 30
0.0
 10
14.41198612599317
 20
0.641757607887339
 30
0.0
 10
14.60752316243166
 20
0.710890507521045
 30
0.0
 10
14.94986728133908
 20
0.7604778835775127
 30
0.0
 10
15.24336123552232
 20
0.7410921054663304
 30
0.0
 10
15.39048583559404
 20
0.7313742737664445
 30
0.0
1001
PE_URL
1000

  0
SPLINE
  5
D2
330
1F
100
AcDbEntity
  8
0
  6
Continuous
 62
     1
370
    25
100
AcDbSpline
210
0.0
220
0.0
230
1.0
 70
     8
 71
     3
 72
     8
 73
     4
 74
     0
 42
0.000000001
 43
0.00000001
 40
0.0
 40
0.0
 40
0.0
 40
0.0
 40
1.0
 40
1.0
 40
1.0
 40
1.0
 10
15.39048583559404
 20
0.199794950617357
 30
0.0
 10
15.29662498449566
 20
0.2054337308953776
 30
0.0
 10
15.20735894106692
 20
0.2469303809541937
 30
0.0
 10
15.12874055059404
 20
0.3092472768531478
 30
0.0
1001
PE_URL
1000

  0
LINE
  5
D3
330
1F
100
AcDbEntity
  8
0
  6
Continuous
 62
     1
370
    25
100
AcDbLine
 10
15.39048583559404
 20
0.1997949506173576
 30
0.0
 11
15.39048583559404
 21
0.7313742737664477
 31
0.0
1001
PE_URL
1000

  0
SPLINE
  5
D4
330
1F
100
AcDbEntity
  8
0
  6
Continuous
 62
     1
370
    25
100
AcDbSpline
210
0.0
220
0.0
230
1.0
 70
     8
 71
     3
 72
    10
 73
     6
 74
     0
 42
0.000000001
 43
0.00000001
 40
0.0
 40
0.0
 40
0.0
 40
0.0
 40
0.1186523418793718
 40
0.5577393473931245
 40
1.0
 40
1.0
 40
1.0
 40
1.0
 10
12.32497087037567
 20
-0.6299887283088248
 30
0.0
 10
12.28804512988181
 20
-0.6430580693598413
 30
0.0
 10
12.11447132527884
 20
-0.7044920506297835
 30
0.0
 10
11.80327827864206
 20
-0.7540594319281113
 30
0.0
 10
11.52841323736003
 20
-0.7449553812306583
 30
0.0
 10
11.39048583559507
 20
-0.7403869644819177
 30
0.0
  0
LINE
  5
D5
330
1F
100
AcDbEntity
  8
0
  6
Continuous
 62
     1
370
    25
100
AcDbLine
 10
15.39048583559404
 20
0.0890610808553134
 30
0.0
 11
15.39048583559404
 21
0.1997949506173576
 31
0.0
1001
PE_URL
1000

  0
LINE
  5
D6
330
1F
100
AcDbEntity
  8
0
  6
Continuous
 62
     1
370
    25
100
AcDbLine
 10
15.39048583559404
 20
-0.4999999999999979
 30
0.0
 11
15.39048583559404
 21
-0.7446933086021935
 31
0.0
1001
PE_URL
1000

  0
LINE
  5
D7
330
1F
100
AcDbEntity
  8
0
  6
Continuous
 62
     1
370
    25
100
AcDbLine
 10
15.39048583559404
 20
0.7313742737664477
 30
0.0
 11
15.39048583559404
 21
0.7500000000000026
 31
0.0
1001
PE_URL
1000

  0
LINE
  5
D8
330
1F
100
AcDbEntity
  8
중심선
100
AcDbLine
 10
-37.60951416440595
 20
-0.0000000000000026
 30
0.0
 11
16.89048583559404
 21
0.0000000000000041
 31
0.0
  0
CIRCLE
  5
D9
330
1F
100
AcDbEntity
  8
해칭선
100
AcDbCircle
 10
-0.0066284814359128
 20
0.0
 30
0.0
 40
3.000000000000001
  0
INSERT
  5
DA
330
1F
100
AcDbEntity
  8
0
  6
Continuous
 62
     7
100
AcDbBlockReference
 66
     1
  2
블럭10
 10
-23.54978709653115
 20
-52.04717430164393
 30
0.0
  0
ATTRIB
  5
DB
330
DA
100
AcDbEntity
  8
FORMAT
 62
     2
100
AcDbText
 10
-36.50972629138892
 20
-49.97180738881174
 30
0.0
 40
4.233333333333333
  1
SEME36015E [ 4 FLUTE ]
 41
0.75
  7
SLDTEXTSTYLE0
 11
-36.50972629138892
 21
-52.08847405547841
 31
0.0
100
AcDbAttribute
  2
AUTOATTR0
 70
     0
 74
     1
  0
SEQEND
  5
DC
330
DA
100
AcDbEntity
  8
0
  6
Continuous
 62
     7
  0
HATCH
  5
DD
330
1F
100
AcDbEntity
  8
중심선
100
AcDbHatch
 10
0.0
 20
0.0
 30
0.0
210
0.0
220
0.0
230
1.0
  2
SOLID
 70
     1
 71
     0
 91
        1
 92
        0
 93
        4
 72
     1
 10
-17.83487779215031
 20
-35.8
 11
-21.28115303598759
 21
-35.8
 72
     1
 10
-21.28115303598759
 20
-35.8
 11
-23.40938289519162
 21
-38.33632558057259
 72
     1
 10
-23.40938289519162
 20
-38.33632558057259
 11
-19.96307456624119
 21
-38.3362861512701
 72
     1
 10
-19.96307456624119
 20
-38.3362861512701
 11
-17.83487779215031
 21
-35.8
 97
        0
 75
     0
 76
     1
 98
        1
 10
-0.109635110139694
 20
0.0000000000000013
  0
HATCH
  5
DE
330
1F
100
AcDbEntity
  8
중심선
100
AcDbHatch
 10
0.0
 20
0.0
 30
0.0
210
0.0
220
0.0
230
1.0
  2
SOLID
 70
     1
 71
     0
 91
        1
 92
        0
 93
        4
 72
     1
 10
-12.82211380111436
 20
-35.8
 11
-16.26838904495161
 21
-35.8
 72
     1
 10
-16.26838904495161
 20
-35.8
 11
-20.79952705330903
 21
-41.20000000000002
 72
     1
 10
-20.79952705330903
 20
-41.20000000000002
 11
-17.35325180947175
 21
-41.20000000000002
 72
     1
 10
-17.35325180947175
 20
-41.20000000000002
 11
-12.82211380111436
 21
-35.8
 97
        0
 75
     0
 76
     1
 98
        1
 10
-0.109635110139694
 20
0.0000000000000013
  0
HATCH
  5
DF
330
1F
100
AcDbEntity
  8
중심선
100
AcDbHatch
 10
0.0
 20
0.0
 30
0.0
210
0.0
220
0.0
230
1.0
  2
SOLID
 70
     1
 71
     0
 91
        1
 92
        0
 93
        4
 72
     1
 10
-7.809349810078464
 20
-35.8
 11
-11.25562505391558
 21
-35.8
 72
     1
 10
-11.25562505391558
 20
-35.8
 11
-18.30406195580483
 21
-44.20000000000002
 72
     1
 10
-18.30406195580483
 20
-44.20000000000002
 11
-14.85778671196755
 21
-44.20000000000002
 72
     1
 10
-14.85778671196755
 20
-44.20000000000002
 11
-7.809349810078464
 21
-35.8
 97
        0
 75
     0
 76
     1
 98
        1
 10
-0.109635110139694
 20
0.0000000000000013
  0
HATCH
  5
E0
330
1F
100
AcDbEntity
  8
중심선
100
AcDbHatch
 10
0.0
 20
0.0
 30
0.0
210
0.0
220
0.0
230
1.0
  2
SOLID
 70
     1
 71
     0
 91
        1
 92
        0
 93
        6
 72
     3
 10
-3.009459379066264
 20
-40.00000000005127
 11
3.960054785062283
 21
1.540882976769353E-10
 40
0.3939339440162628
 50
17.09539180608437
 51
320.0019657685086
 73
     0
 72
     1
 10
-1.326459723365669
 20
-38.58789400463833
 11
0.9788421503353686
 21
-36.65356729459038
 72
     3
 10
-3.009459379119111
 20
-40.00000000000015
 11
6.600054785286829
 21
-1.278976924368180E-13
 40
0.636358354079598
 50
39.99873849337411
 51
368.4976242363725
 73
     1
 72
     1
 10
3.415873112781498
 20
-39.03999999993002
 11
-4.329392072283189
 21
-39.03999999993002
 72
     1
 10
-4.329392072283189
 20
-39.03999999993002
 11
-4.329417116729123
 21
-40.95999999992991
 72
     1
 10
-4.329417116729123
 20
-40.95999999992991
 11
0.1119626527429149
 21
-40.95999999992988
 97
        0
 75
     0
 76
     1
 98
        1
 10
-0.109635110139694
 20
0.0000000000000013
  0
DIMENSION
  5
E1
330
1F
100
AcDbEntity
  8
치수문자_일반주서
100
AcDbDimension
  2
_D
 10
28.39048583559404
 20
0.7500000000000551
 30
0.0
 11
28.39048583559402
 21
11.72900000000006
 31
0.0
 70
   160
  1
%%c<>
 71
     2
 42
1.500000000000011
 52
-270.0
  3
SLDDIMSTYLE0
100
AcDbAlignedDimension
 13
15.39048583559405
 23
-0.7500000000000042
 33
0.0
 14
15.39048583559405
 24
0.7500000000000069
 34
0.0
 50
90.0000000000002
100
AcDbRotatedDimension
  0
DIMENSION
  5
EF
330
1F
100
AcDbEntity
  8
치수문자_일반주서
100
AcDbDimension
  2
_D_1
 10
15.39048583559405
 20
19.23841044024267
 30
0.0
 11
-9.609514164405962
 21
19.23841044024267
 31
0.0
 70
   160
  1
<>
 71
     2
 42
50.0
  3
SLDDIMSTYLE1
100
AcDbAlignedDimension
 13
-34.60951416440596
 23
2.499999999999997
 33
0.0
 14
15.39048583559404
 24
0.7500000000000022
 34
0.0
100
AcDbRotatedDimension
  0
DIMENSION
  5
FA
330
1F
100
AcDbEntity
  8
치수문자_일반주서
100
AcDbDimension
  2
_D_2
 10
11.39048583559404
 20
9.865620977966222
 30
0.0
 11
13.39048583559405
 21
9.865620977966222
 31
0.0
 70
   160
  1
<>
 71
     2
 42
4.0
  3
SLDDIMSTYLE2
100
AcDbAlignedDimension
 13
15.39048583559404
 23
0.7313742737664477
 33
0.0
 14
11.39048583559404
 24
0.7194552726137724
 34
0.0
 50
-0.0000000000000509
100
AcDbRotatedDimension
  0
DIMENSION
  5
107
330
1F
100
AcDbEntity
  8
치수문자_일반주서
100
AcDbDimension
  2
_D_3
 10
-48.10215372602585
 20
-3.000000000000053
 30
0.0
 11
-48.10215372602585
 21
-1.089695848804618
 31
0.0
 70
   160
  1
%%c<>
 71
     2
 42
6.000000000000005
 52
-270.0
  3
SLDDIMSTYLE2
100
AcDbAlignedDimension
 13
-34.10951416440597
 23
3.000000000000004
 33
0.0
 14
-34.10951416440597
 24
-3.000000000000001
 34
0.0
 50
90.0000000000002
100
AcDbRotatedDimension
  0
INSERT
  5
11A
330
1F
100
AcDbEntity
  8
해칭선
100
AcDbBlockReference
  2
SW_DOWELSYMBOL_0
 10
-0.0066284814359128
 20
0.0
 30
0.0
  0
ENDSEC
  0
SECTION
  2
OBJECTS
  0
DICTIONARY
  5
C
330
0
100
AcDbDictionary
281
     1
  3
ACAD_GROUP
350
D
  3
ACAD_LAYOUT
350
1A
  3
ACAD_MLINESTYLE
350
17
  3
ACAD_PLOTSETTINGS
350
19
  3
ACAD_PLOTSTYLENAME
350
E
  3
ACAD_SCALELIST
350
47
  3
APPDATA
350
13C
  3
DWGPROPS
350
14A
  0
DICTIONARY
  5
D
102
{ACAD_REACTORS
330
C
102
}
330
C
100
AcDbDictionary
281
     1
  0
DICTIONARY
  5
1A
102
{ACAD_REACTORS
330
C
102
}
330
C
100
AcDbDictionary
281
     1
  3
Layout1
350
1E
  3
Layout2
350
26
  3
Model
350
22
  0
DICTIONARY
  5
17
102
{ACAD_REACTORS
330
C
102
}
330
C
100
AcDbDictionary
281
     1
  3
Standard
350
18
  0
DICTIONARY
  5
19
102
{ACAD_REACTORS
330
C
102
}
330
C
100
AcDbDictionary
281
     1
  0
ACDBDICTIONARYWDFLT
  5
E
102
{ACAD_REACTORS
330
C
102
}
330
C
100
AcDbDictionary
281
     1
  3
Normal
350
F
100
AcDbDictionaryWithDefault
340
F
  0
DICTIONARY
  5
47
102
{ACAD_REACTORS
330
C
102
}
330
C
100
AcDbDictionary
281
     1
  3
A0
350
48
  3
A1
350
49
  3
A2
350
4A
  3
A3
350
4B
  3
A4
350
4C
  3
A5
350
4D
  3
A6
350
4E
  3
A7
350
4F
  3
A8
350
50
  3
A9
350
51
  3
B0
350
52
  3
B1
350
53
  3
B2
350
54
  3
B3
350
55
  3
B4
350
56
  3
B5
350
57
  3
B6
350
58
  3
B7
350
59
  3
B8
350
5A
  3
B9
350
5B
  3
C0
350
5C
  3
C1
350
5D
  3
C2
350
5E
  3
C3
350
5F
  3
C4
350
60
  3
C5
350
61
  3
C6
350
62
  3
C7
350
63
  3
C8
350
64
  3
C9
350
65
  3
D0
350
66
  3
D1
350
67
  3
D2
350
68
  0
DICTIONARY
  5
13C
102
{ACAD_REACTORS
330
C
102
}
330
C
100
AcDbDictionary
281
     1
  0
XRECORD
  5
14A
102
{ACAD_REACTORS
330
C
102
}
330
C
100
AcDbXrecord
280
     1
  1
DWGPROPS COOKIE
  2

  3

  4

  6

  7

  8
12011908
  9

300
=
301
=
302
=
303
=
304
=
305
=
306
=
307
=
308
=
309
=
 40
0.0
 41
2458250.06188478
 42
2458264.275864606
  1

 90
        0
  0
LAYOUT
  5
1E
102
{ACAD_REACTORS
330
1A
102
}
330
1A
100
AcDbPlotSettings
  1

  2
none_device
  4

  6

 40
0.0
 41
0.0
 42
0.0
 43
0.0
 44
0.0
 45
0.0
 46
0.0
 47
0.0
 48
0.0
 49
0.0
140
0.0
141
0.0
142
1.0
143
1.0
 70
   688
 72
     1
 73
     0
 74
     5
  7

 75
    16
147
1.0
148
0.0
149
0.0
100
AcDbLayout
  1
Layout1
 70
     1
 71
     1
 10
0.0
 20
0.0
 11
420.0
 21
297.0
 12
0.0
 22
0.0
 32
0.0
 14
1.000000000000000E+20
 24
1.000000000000000E+20
 34
1.000000000000000E+20
 15
-1.000000000000000E+20
 25
-1.000000000000000E+20
 35
-1.000000000000000E+20
146
0.0
 13
0.0
 23
0.0
 33
0.0
 16
1.0
 26
0.0
 36
0.0
 17
0.0
 27
1.0
 37
0.0
 76
     0
330
1B
  0
LAYOUT
  5
26
102
{ACAD_REACTORS
330
1A
102
}
330
1A
100
AcDbPlotSettings
  1

  2
none_device
  4

  6

 40
0.0
 41
0.0
 42
0.0
 43
0.0
 44
0.0
 45
0.0
 46
0.0
 47
0.0
 48
0.0
 49
0.0
140
0.0
141
0.0
142
1.0
143
1.0
 70
   688
 72
     1
 73
     0
 74
     5
  7

 75
    16
147
1.0
148
0.0
149
0.0
100
AcDbLayout
  1
Layout2
 70
     1
 71
     2
 10
0.0
 20
0.0
 11
0.0
 21
0.0
 12
0.0
 22
0.0
 32
0.0
 14
0.0
 24
0.0
 34
0.0
 15
0.0
 25
0.0
 35
0.0
146
0.0
 13
0.0
 23
0.0
 33
0.0
 16
1.0
 26
0.0
 36
0.0
 17
0.0
 27
1.0
 37
0.0
 76
     0
330
23
  0
LAYOUT
  5
22
102
{ACAD_REACTORS
330
1A
102
}
330
1A
100
AcDbPlotSettings
  1

  2
none_device
  4
ANSI_A_(11.00_x_8.50_Inches)
  6

 40
6.35
 41
19.05
 42
6.35000508
 43
19.05000254
 44
279.4
 45
215.9
 46
166.4413493981963
 47
127.5999824328494
 48
0.0
 49
0.0
140
0.0
141
0.0
142
0.1130047133720686
143
1.0
 70
  1696
 72
     0
 73
     0
 74
     0
  7

 75
     0
147
0.0235690232323232
148
0.0
149
0.0
100
AcDbLayout
  1
Model
 70
     1
 71
     0
 10
0.0
 20
0.0
 11
420.0
 21
297.0
 12
0.0
 22
0.0
 32
0.0
 14
-52.47715372602586
 24
-49.97180738881174
 34
0.0
 15
28.94081916892739
 25
23.61341044024267
 35
0.0
146
0.0
 13
0.0
 23
0.0
 33
0.0
 16
1.0
 26
0.0
 36
0.0
 17
0.0
 27
1.0
 37
0.0
 76
     0
330
1F
331
29
  0
MLINESTYLE
  5
18
102
{ACAD_REACTORS
330
17
102
}
330
17
100
AcDbMlineStyle
  2
Standard
 70
     0
  3

 62
   256
 51
90.0
 52
90.0
 71
     2
 49
0.5
 62
   256
  6
BYLAYER
 49
-0.5
 62
   256
  6
BYLAYER
  0
ACDBPLACEHOLDER
  5
F
102
{ACAD_REACTORS
330
E
102
}
330
E
  0
SCALE
  5
48
102
{ACAD_REACTORS
330
47
102
}
330
47
100
AcDbScale
 70
     0
300
1:1
140
1.0
141
1.0
290
     1
  0
SCALE
  5
49
102
{ACAD_REACTORS
330
47
102
}
330
47
100
AcDbScale
 70
     0
300
1:2
140
1.0
141
2.0
290
     0
  0
SCALE
  5
4A
102
{ACAD_REACTORS
330
47
102
}
330
47
100
AcDbScale
 70
     0
300
1:4
140
1.0
141
4.0
290
     0
  0
SCALE
  5
4B
102
{ACAD_REACTORS
330
47
102
}
330
47
100
AcDbScale
 70
     0
300
1:5
140
1.0
141
5.0
290
     0
  0
SCALE
  5
4C
102
{ACAD_REACTORS
330
47
102
}
330
47
100
AcDbScale
 70
     0
300
1:8
140
1.0
141
8.0
290
     0
  0
SCALE
  5
4D
102
{ACAD_REACTORS
330
47
102
}
330
47
100
AcDbScale
 70
     0
300
1:10
140
1.0
141
10.0
290
     0
  0
SCALE
  5
4E
102
{ACAD_REACTORS
330
47
102
}
330
47
100
AcDbScale
 70
     0
300
1:16
140
1.0
141
16.0
290
     0
  0
SCALE
  5
4F
102
{ACAD_REACTORS
330
47
102
}
330
47
100
AcDbScale
 70
     0
300
1:20
140
1.0
141
20.0
290
     0
  0
SCALE
  5
50
102
{ACAD_REACTORS
330
47
102
}
330
47
100
AcDbScale
 70
     0
300
1:30
140
1.0
141
30.0
290
     0
  0
SCALE
  5
51
102
{ACAD_REACTORS
330
47
102
}
330
47
100
AcDbScale
 70
     0
300
1:40
140
1.0
141
40.0
290
     0
  0
SCALE
  5
52
102
{ACAD_REACTORS
330
47
102
}
330
47
100
AcDbScale
 70
     0
300
1:50
140
1.0
141
50.0
290
     0
  0
SCALE
  5
53
102
{ACAD_REACTORS
330
47
102
}
330
47
100
AcDbScale
 70
     0
300
1:100
140
1.0
141
100.0
290
     0
  0
SCALE
  5
54
102
{ACAD_REACTORS
330
47
102
}
330
47
100
AcDbScale
 70
     0
300
2:1
140
2.0
141
1.0
290
     0
  0
SCALE
  5
55
102
{ACAD_REACTORS
330
47
102
}
330
47
100
AcDbScale
 70
     0
300
4:1
140
4.0
141
1.0
290
     0
  0
SCALE
  5
56
102
{ACAD_REACTORS
330
47
102
}
330
47
100
AcDbScale
 70
     0
300
8:1
140
8.0
141
1.0
290
     0
  0
SCALE
  5
57
102
{ACAD_REACTORS
330
47
102
}
330
47
100
AcDbScale
 70
     0
300
10:1
140
10.0
141
1.0
290
     0
  0
SCALE
  5
58
102
{ACAD_REACTORS
330
47
102
}
330
47
100
AcDbScale
 70
     0
300
100:1
140
100.0
141
1.0
290
     0
  0
SCALE
  5
59
102
{ACAD_REACTORS
330
47
102
}
330
47
100
AcDbScale
 70
     0
300
1/128" = 1'-0"
140
0.0078125
141
12.0
290
     0
  0
SCALE
  5
5A
102
{ACAD_REACTORS
330
47
102
}
330
47
100
AcDbScale
 70
     0
300
1/64" = 1'-0"
140
0.015625
141
12.0
290
     0
  0
SCALE
  5
5B
102
{ACAD_REACTORS
330
47
102
}
330
47
100
AcDbScale
 70
     0
300
1/32" = 1'-0"
140
0.03125
141
12.0
290
     0
  0
SCALE
  5
5C
102
{ACAD_REACTORS
330
47
102
}
330
47
100
AcDbScale
 70
     0
300
1/16" = 1'-0"
140
0.0625
141
12.0
290
     0
  0
SCALE
  5
5D
102
{ACAD_REACTORS
330
47
102
}
330
47
100
AcDbScale
 70
     0
300
3/32" = 1'-0"
140
0.09375
141
12.0
290
     0
  0
SCALE
  5
5E
102
{ACAD_REACTORS
330
47
102
}
330
47
100
AcDbScale
 70
     0
300
1/8" = 1'-0"
140
0.125
141
12.0
290
     0
  0
SCALE
  5
5F
102
{ACAD_REACTORS
330
47
102
}
330
47
100
AcDbScale
 70
     0
300
3/16" = 1'-0"
140
0.1875
141
12.0
290
     0
  0
SCALE
  5
60
102
{ACAD_REACTORS
330
47
102
}
330
47
100
AcDbScale
 70
     0
300
1/4" = 1'-0"
140
0.25
141
12.0
290
     0
  0
SCALE
  5
61
102
{ACAD_REACTORS
330
47
102
}
330
47
100
AcDbScale
 70
     0
300
3/8" = 1'-0"
140
0.375
141
12.0
290
     0
  0
SCALE
  5
62
102
{ACAD_REACTORS
330
47
102
}
330
47
100
AcDbScale
 70
     0
300
1/2" = 1'-0"
140
0.5
141
12.0
290
     0
  0
SCALE
  5
63
102
{ACAD_REACTORS
330
47
102
}
330
47
100
AcDbScale
 70
     0
300
3/4" = 1'-0"
140
0.75
141
12.0
290
     0
  0
SCALE
  5
64
102
{ACAD_REACTORS
330
47
102
}
330
47
100
AcDbScale
 70
     0
300
1" = 1'-0"
140
1.0
141
12.0
290
     0
  0
SCALE
  5
65
102
{ACAD_REACTORS
330
47
102
}
330
47
100
AcDbScale
 70
     0
300
1-1/2" = 1'-0"
140
1.5
141
12.0
290
     0
  0
SCALE
  5
66
102
{ACAD_REACTORS
330
47
102
}
330
47
100
AcDbScale
 70
     0
300
3" = 1'-0"
140
3.0
141
12.0
290
     0
  0
SCALE
  5
67
102
{ACAD_REACTORS
330
47
102
}
330
47
100
AcDbScale
 70
     0
300
6" = 1'-0"
140
6.0
141
12.0
290
     0
  0
SCALE
  5
68
102
{ACAD_REACTORS
330
47
102
}
330
47
100
AcDbScale
 70
     0
300
1'-0" = 1'-0"
140
12.0
141
12.0
290
     0
  0
ENDSEC
  0
EOF
