  0
SECTION
  2
HEADER
  9
$ACADVER
  1
AC1015
  9
$ACADMAINTVER
 70
     6
  9
$DWGCODEPAGE
  3
ANSI_949
  9
$INSBASE
 10
0.0
 20
0.0
 30
0.0
  9
$EXTMIN
 10
-73.79455944538854
 20
-49.97180738881174
 30
0.0
  9
$EXTMAX
 10
78.11652364557965
 20
35.90915911661227
 30
0.0
  9
$LIMMIN
 10
0.0
 20
0.0
  9
$LIMMAX
 10
420.0
 20
297.0
  9
$ORTHOMODE
 70
     1
  9
$REGENMODE
 70
     1
  9
$FILLMODE
 70
     1
  9
$QTEXTMODE
 70
     0
  9
$MIRRTEXT
 70
     1
  9
$LTSCALE
 40
1.0
  9
$ATTMODE
 70
     1
  9
$TEXTSIZE
 40
3.5
  9
$TRACEWID
 40
1.0
  9
$TEXTSTYLE
  7
Standard
  9
$CLAYER
  8
0
  9
$CELTYPE
  6
ByLayer
  9
$CECOLOR
 62
   256
  9
$CELTSCALE
 40
1.0
  9
$DISPSILH
 70
     0
  9
$DIMSCALE
 40
1.0
  9
$DIMASZ
 40
3.302
  9
$DIMEXO
 40
1.0
  9
$DIMDLI
 40
3.75
  9
$DIMRND
 40
0.0
  9
$DIMDLE
 40
0.0
  9
$DIMEXE
 40
1.0
  9
$DIMTP
 40
0.0
  9
$DIMTM
 40
0.0
  9
$DIMTXT
 40
3.5
  9
$DIMCEN
 40
2.5
  9
$DIMTSZ
 40
0.0
  9
$DIMTOL
 70
     0
  9
$DIMLIM
 70
     0
  9
$DIMTIH
 70
     1
  9
$DIMTOH
 70
     1
  9
$DIMSE1
 70
     0
  9
$DIMSE2
 70
     0
  9
$DIMTAD
 70
     1
  9
$DIMZIN
 70
     0
  9
$DIMBLK
  1

  9
$DIMASO
 70
     1
  9
$DIMSHO
 70
     1
  9
$DIMPOST
  1

  9
$DIMAPOST
  1

  9
$DIMALT
 70
     0
  9
$DIMALTD
 70
     3
  9
$DIMALTF
 40
0.0393700787401575
  9
$DIMLFAC
 40
1.0
  9
$DIMTOFL
 70
     1
  9
$DIMTVP
 40
0.0
  9
$DIMTIX
 70
     0
  9
$DIMSOXD
 70
     0
  9
$DIMSAH
 70
     0
  9
$DIMBLK1
  1

  9
$DIMBLK2
  1

  9
$DIMSTYLE
  2
ISO-25
  9
$DIMCLRD
 70
     0
  9
$DIMCLRE
 70
     0
  9
$DIMCLRT
 70
     0
  9
$DIMTFAC
 40
1.0
  9
$DIMGAP
 40
1.524
  9
$DIMJUST
 70
     0
  9
$DIMSD1
 70
     0
  9
$DIMSD2
 70
     0
  9
$DIMTOLJ
 70
     0
  9
$DIMTZIN
 70
     0
  9
$DIMALTZ
 70
     0
  9
$DIMALTTZ
 70
     0
  9
$DIMUPT
 70
     0
  9
$DIMDEC
 70
     2
  9
$DIMTDEC
 70
     2
  9
$DIMALTU
 70
     2
  9
$DIMALTTD
 70
     3
  9
$DIMTXSTY
  7
Standard
  9
$DIMAUNIT
 70
     0
  9
$DIMADEC
 70
     2
  9
$DIMALTRND
 40
0.0
  9
$DIMAZIN
 70
     0
  9
$DIMDSEP
 70
    44
  9
$DIMATFIT
 70
     3
  9
$DIMFRAC
 70
     0
  9
$DIMLDRBLK
  1

  9
$DIMLUNIT
 70
     2
  9
$DIMLWD
 70
    -2
  9
$DIMLWE
 70
    -2
  9
$DIMTMOVE
 70
     0
  9
$LUNITS
 70
     2
  9
$LUPREC
 70
     2
  9
$SKETCHINC
 40
1.0
  9
$FILLETRAD
 40
10.0
  9
$AUNITS
 70
     0
  9
$AUPREC
 70
     2
  9
$MENU
  1
.
  9
$ELEVATION
 40
0.0
  9
$PELEVATION
 40
0.0
  9
$THICKNESS
 40
0.0
  9
$LIMCHECK
 70
     0
  9
$CHAMFERA
 40
0.0
  9
$CHAMFERB
 40
0.0
  9
$CHAMFERC
 40
0.0
  9
$CHAMFERD
 40
0.0
  9
$SKPOLY
 70
     0
  9
$TDCREATE
 40
2458250.568849861
  9
$TDUCREATE
 40
2458250.193849861
  9
$TDUPDATE
 40
2458264.481855533
  9
$TDUUPDATE
 40
2458264.106855533
  9
$TDINDWG
 40
0.0202492593
  9
$TDUSRTIMER
 40
0.0202492477
  9
$USRTIMER
 70
     1
  9
$ANGBASE
 50
0.0
  9
$ANGDIR
 70
     0
  9
$PDMODE
 70
     0
  9
$PDSIZE
 40
-1.0
  9
$PLINEWID
 40
0.0
  9
$SPLFRAME
 70
     0
  9
$SPLINETYPE
 70
     6
  9
$SPLINESEGS
 70
     8
  9
$HANDSEED
  5
141
  9
$SURFTAB1
 70
     6
  9
$SURFTAB2
 70
     6
  9
$SURFTYPE
 70
     6
  9
$SURFU
 70
     6
  9
$SURFV
 70
     6
  9
$UCSBASE
  2

  9
$UCSNAME
  2

  9
$UCSORG
 10
0.0
 20
0.0
 30
0.0
  9
$UCSXDIR
 10
1.0
 20
0.0
 30
0.0
  9
$UCSYDIR
 10
0.0
 20
1.0
 30
0.0
  9
$UCSORTHOREF
  2

  9
$UCSORTHOVIEW
 70
     0
  9
$UCSORGTOP
 10
0.0
 20
0.0
 30
0.0
  9
$UCSORGBOTTOM
 10
0.0
 20
0.0
 30
0.0
  9
$UCSORGLEFT
 10
0.0
 20
0.0
 30
0.0
  9
$UCSORGRIGHT
 10
0.0
 20
0.0
 30
0.0
  9
$UCSORGFRONT
 10
0.0
 20
0.0
 30
0.0
  9
$UCSORGBACK
 10
0.0
 20
0.0
 30
0.0
  9
$PUCSBASE
  2

  9
$PUCSNAME
  2

  9
$PUCSORG
 10
0.0
 20
0.0
 30
0.0
  9
$PUCSXDIR
 10
1.0
 20
0.0
 30
0.0
  9
$PUCSYDIR
 10
0.0
 20
1.0
 30
0.0
  9
$PUCSORTHOREF
  2

  9
$PUCSORTHOVIEW
 70
     0
  9
$PUCSORGTOP
 10
0.0
 20
0.0
 30
0.0
  9
$PUCSORGBOTTOM
 10
0.0
 20
0.0
 30
0.0
  9
$PUCSORGLEFT
 10
0.0
 20
0.0
 30
0.0
  9
$PUCSORGRIGHT
 10
0.0
 20
0.0
 30
0.0
  9
$PUCSORGFRONT
 10
0.0
 20
0.0
 30
0.0
  9
$PUCSORGBACK
 10
0.0
 20
0.0
 30
0.0
  9
$USERI1
 70
     0
  9
$USERI2
 70
     0
  9
$USERI3
 70
     0
  9
$USERI4
 70
     0
  9
$USERI5
 70
     0
  9
$USERR1
 40
0.0
  9
$USERR2
 40
0.0
  9
$USERR3
 40
0.0
  9
$USERR4
 40
0.0
  9
$USERR5
 40
0.0
  9
$WORLDVIEW
 70
     1
  9
$SHADEDGE
 70
     3
  9
$SHADEDIF
 70
    70
  9
$TILEMODE
 70
     1
  9
$MAXACTVP
 70
    64
  9
$PINSBASE
 10
0.0
 20
0.0
 30
0.0
  9
$PLIMCHECK
 70
     0
  9
$PEXTMIN
 10
1.000000000000000E+20
 20
1.000000000000000E+20
 30
1.000000000000000E+20
  9
$PEXTMAX
 10
-1.000000000000000E+20
 20
-1.000000000000000E+20
 30
-1.000000000000000E+20
  9
$PLIMMIN
 10
0.0
 20
0.0
  9
$PLIMMAX
 10
0.0
 20
0.0
  9
$UNITMODE
 70
     0
  9
$VISRETAIN
 70
     1
  9
$PLINEGEN
 70
     0
  9
$PSLTSCALE
 70
     1
  9
$TREEDEPTH
 70
  3020
  9
$CMLSTYLE
  2
Standard
  9
$CMLJUST
 70
     0
  9
$CMLSCALE
 40
20.0
  9
$PROXYGRAPHICS
 70
     1
  9
$MEASUREMENT
 70
     1
  9
$CELWEIGHT
370
    -1
  9
$ENDCAPS
280
     0
  9
$JOINSTYLE
280
     0
  9
$LWDISPLAY
290
     1
  9
$INSUNITS
 70
     4
  9
$HYPERLINKBASE
  1

  9
$STYLESHEET
  1

  9
$XEDIT
290
     1
  9
$CEPSNTYPE
380
     0
  9
$PSTYLEMODE
290
     1
  9
$FINGERPRINTGUID
  2
{421CBD80-C554-45B6-873E-6EC1B4F25D89}
  9
$VERSIONGUID
  2
{FAEB1C32-E019-11D5-929B-00C0DF256EC4}
  9
$EXTNAMES
290
     1
  9
$PSVPSCALE
 40
0.0
  9
$OLESTARTUP
290
     0
  0
ENDSEC
  0
SECTION
  2
CLASSES
  0
CLASS
  1
ACDBDICTIONARYWDFLT
  2
AcDbDictionaryWithDefault
  3
ObjectDBX Classes
 90
        0
280
     0
281
     0
  0
CLASS
  1
VISUALSTYLE
  2
AcDbVisualStyle
  3
ObjectDBX Classes
 90
     4095
280
     0
281
     0
  0
CLASS
  1
MATERIAL
  2
AcDbMaterial
  3
ObjectDBX Classes
 90
     1153
280
     0
281
     0
  0
CLASS
  1
SCALE
  2
AcDbScale
  3
ObjectDBX Classes
 90
     1153
280
     0
281
     0
  0
CLASS
  1
SUN
  2
AcDbSun
  3
SCENEOE
 90
     1153
280
     0
281
     0
  0
CLASS
  1
ACDBPLACEHOLDER
  2
AcDbPlaceHolder
  3
ObjectDBX Classes
 90
        0
280
     0
281
     0
  0
CLASS
  1
LAYOUT
  2
AcDbLayout
  3
ObjectDBX Classes
 90
        0
280
     0
281
     0
  0
CLASS
  1
TABLESTYLE
  2
AcDbTableStyle
  3
ObjectDBX Classes
 90
     4095
280
     0
281
     0
  0
CLASS
  1
MLEADERSTYLE
  2
AcDbMLeaderStyle
  3
ACDB_MLEADERSTYLE_CLASS
 90
     4095
280
     0
281
     0
  0
ENDSEC
  0
SECTION
  2
TABLES
  0
TABLE
  2
VPORT
  5
8
330
0
100
AcDbSymbolTable
 70
     1
  0
VPORT
  5
29
330
8
100
AcDbSymbolTableRecord
100
AcDbViewportTableRecord
  2
*Active
 70
     0
 10
0.0
 20
0.0
 11
1.0
 21
1.0
 12
31.86802306742153
 22
-5.756891228771359
 13
0.0
 23
0.0
 14
10.0
 24
10.0
 15
10.0
 25
10.0
 16
0.0
 26
0.0
 36
1.0
 17
0.0
 27
0.0
 37
0.0
 40
140.4627016677347
 41
2.223011363636364
 42
50.0
 43
0.0
 44
0.0
 50
0.0
 51
0.0
 71
    16
 72
  2000
 73
     1
 74
     3
 75
     0
 76
     0
 77
     0
 78
     0
281
     0
 65
     1
110
0.0
120
0.0
130
0.0
111
1.0
121
0.0
131
0.0
112
0.0
122
1.0
132
0.0
 79
     0
146
0.0
  0
ENDTAB
  0
TABLE
  2
LTYPE
  5
5
330
0
100
AcDbSymbolTable
 70
     6
  0
LTYPE
  5
14
330
5
100
AcDbSymbolTableRecord
100
AcDbLinetypeTableRecord
  2
ByBlock
 70
     0
  3

 72
    65
 73
     0
 40
0.0
  0
LTYPE
  5
15
330
5
100
AcDbSymbolTableRecord
100
AcDbLinetypeTableRecord
  2
ByLayer
 70
     0
  3

 72
    65
 73
     0
 40
0.0
  0
LTYPE
  5
16
330
5
100
AcDbSymbolTableRecord
100
AcDbLinetypeTableRecord
  2
Continuous
 70
     0
  3
Solid line
 72
    65
 73
     0
 40
0.0
  0
LTYPE
  5
6A
330
5
100
AcDbSymbolTableRecord
100
AcDbLinetypeTableRecord
  2
HIDDEN
 70
     0
  3
Hidden __ __ __ __ __ __ __ __ __ __ __ __ __ __
 72
    65
 73
     2
 40
1.905
 49
1.27
 74
     0
 49
-0.635
 74
     0
  0
LTYPE
  5
6B
330
5
100
AcDbSymbolTableRecord
100
AcDbLinetypeTableRecord
  2
PHANTOM
 70
     0
  3
Phantom ______  __  __  ______  __  __  ______
 72
    65
 73
     6
 40
12.7
 49
6.35
 74
     0
 49
-1.27
 74
     0
 49
1.27
 74
     0
 49
-1.27
 74
     0
 49
1.27
 74
     0
 49
-1.27
 74
     0
  0
LTYPE
  5
6C
330
5
100
AcDbSymbolTableRecord
100
AcDbLinetypeTableRecord
  2
CENTER
 70
     0
  3
Center ____ _ ____ _ ____ _ ____ _ ____ _ ____
 72
    65
 73
     4
 40
10.16
 49
6.35
 74
     0
 49
-1.27
 74
     0
 49
1.27
 74
     0
 49
-1.27
 74
     0
  0
LTYPE
  5
6D
330
5
100
AcDbSymbolTableRecord
100
AcDbLinetypeTableRecord
  2
CENTERX2
 70
     0
  3
Center (2x) ________  __  ________  __  _____
 72
    65
 73
     4
 40
20.32
 49
12.7
 74
     0
 49
-2.54
 74
     0
 49
2.54
 74
     0
 49
-2.54
 74
     0
  0
LTYPE
  5
6E
330
5
100
AcDbSymbolTableRecord
100
AcDbLinetypeTableRecord
  2
DOT2
 70
     0
  3
Dot (.5x) ........................................
 72
    65
 73
     2
 40
0.635
 49
0.0
 74
     0
 49
-0.635
 74
     0
  0
ENDTAB
  0
TABLE
  2
LAYER
  5
2
330
0
100
AcDbSymbolTable
 70
    17
  0
LAYER
  5
10
330
2
100
AcDbSymbolTableRecord
100
AcDbLayerTableRecord
  2
0
 70
     0
 62
     7
  6
Continuous
370
    -3
390
F
  0
LAYER
  5
6F
330
2
100
AcDbSymbolTableRecord
100
AcDbLayerTableRecord
  2
FORMAT
 70
     0
 62
     2
  6
Continuous
370
    -3
390
F
  0
LAYER
  5
70
330
2
100
AcDbSymbolTableRecord
100
AcDbLayerTableRecord
  2
외형선
 70
     0
 62
   100
  6
Continuous
370
    30
390
F
  0
LAYER
  5
71
330
2
100
AcDbSymbolTableRecord
100
AcDbLayerTableRecord
  2
숨은선
 70
     0
 62
     2
  6
HIDDEN
370
    15
390
F
  0
LAYER
  5
72
330
2
100
AcDbSymbolTableRecord
100
AcDbLayerTableRecord
  2
중심선
 70
     0
 62
     1
  6
CENTERX2
370
    -3
390
F
  0
LAYER
  5
73
330
2
100
AcDbSymbolTableRecord
100
AcDbLayerTableRecord
  2
파단선
 70
     0
 62
     4
  6
Continuous
370
    -3
390
F
  0
LAYER
  5
74
330
2
100
AcDbSymbolTableRecord
100
AcDbLayerTableRecord
  2
해칭선
 70
     0
 62
     4
  6
Continuous
370
    -3
390
F
  0
LAYER
  5
75
330
2
100
AcDbSymbolTableRecord
100
AcDbLayerTableRecord
  2
가는실선
 70
     0
 62
     4
  6
Continuous
370
    -3
390
F
  0
LAYER
  5
76
330
2
100
AcDbSymbolTableRecord
100
AcDbLayerTableRecord
  2
치수_보조선
 70
     0
 62
     4
  6
Continuous
370
    -3
390
F
  0
LAYER
  5
77
330
2
100
AcDbSymbolTableRecord
100
AcDbLayerTableRecord
  2
치수문자_일반주서
 70
     0
 62
     7
  6
Continuous
370
    15
390
F
  0
LAYER
  5
78
330
2
100
AcDbSymbolTableRecord
100
AcDbLayerTableRecord
  2
개별주서
 70
     0
 62
   100
  6
Continuous
370
    30
390
F
  0
LAYER
  5
79
330
2
100
AcDbSymbolTableRecord
100
AcDbLayerTableRecord
  2
중간선
 70
     0
 62
     2
  6
Continuous
370
    15
390
F
  0
LAYER
  5
7A
330
2
100
AcDbSymbolTableRecord
100
AcDbLayerTableRecord
  2
윤곽선
 70
     0
 62
     3
  6
Continuous
370
    40
390
F
  0
LAYER
  5
7B
330
2
100
AcDbSymbolTableRecord
100
AcDbLayerTableRecord
  2
중심마크
 70
     0
 62
   100
  6
Continuous
370
    30
390
F
  0
LAYER
  5
7C
330
2
100
AcDbSymbolTableRecord
100
AcDbLayerTableRecord
  2
가상선
 70
     0
 62
     4
  6
PHANTOM
370
    -3
390
F
  0
LAYER
  5
7D
330
2
100
AcDbSymbolTableRecord
100
AcDbLayerTableRecord
  2
특수지정선
 70
     0
 62
     5
  6
CENTERX2
370
    60
390
F
  0
LAYER
  5
128
330
2
100
AcDbSymbolTableRecord
100
AcDbLayerTableRecord
  2
Defpoints
 70
     0
 62
     7
  6
Continuous
290
     0
370
    -3
390
F
  0
ENDTAB
  0
TABLE
  2
STYLE
  5
3
330
0
100
AcDbSymbolTable
 70
     2
  0
STYLE
  5
11
330
3
100
AcDbSymbolTableRecord
100
AcDbTextStyleTableRecord
  2
Standard
 70
     0
 40
0.0
 41
1.0
 50
0.0
 71
     0
 42
3.5
  3
txt
  4

  0
STYLE
  5
93
330
3
100
AcDbSymbolTableRecord
100
AcDbTextStyleTableRecord
  2
SLDTEXTSTYLE0
 70
     0
 40
0.0
 41
0.75
 50
0.0
 71
     0
 42
3.5
  3
TXT
  4

  0
ENDTAB
  0
TABLE
  2
VIEW
  5
6
330
0
100
AcDbSymbolTable
 70
     0
  0
ENDTAB
  0
TABLE
  2
UCS
  5
7
330
0
100
AcDbSymbolTable
 70
     0
  0
ENDTAB
  0
TABLE
  2
APPID
  5
9
330
0
100
AcDbSymbolTable
 70
     2
  0
APPID
  5
12
330
9
100
AcDbSymbolTableRecord
100
AcDbRegAppTableRecord
  2
ACAD
 70
     0
  0
APPID
  5
125
330
9
100
AcDbSymbolTableRecord
100
AcDbRegAppTableRecord
  2
PE_URL
 70
     0
  0
ENDTAB
  0
TABLE
  2
DIMSTYLE
  5
A
330
0
100
AcDbSymbolTable
 70
     3
100
AcDbDimStyleTable
  0
DIMSTYLE
105
27
330
A
100
AcDbSymbolTableRecord
100
AcDbDimStyleTableRecord
  2
ISO-25
 70
     0
 41
2.5
 42
0.625
 43
3.75
 44
1.25
 73
     0
 74
     0
 77
     1
 78
     8
140
2.5
141
2.5
143
0.03937007874016
147
0.625
171
     3
172
     1
178
     0
271
     2
272
     2
274
     3
278
    44
283
     0
284
     8
340
11
  0
DIMSTYLE
105
CF
102
{ACAD_REACTORS
330
CE
330
D9
102
}
330
A
100
AcDbSymbolTableRecord
100
AcDbDimStyleTableRecord
  2
SLDDIMSTYLE0
 70
     0
 41
3.302
 44
0.0
 45
0.000000001
 73
     0
 74
     0
 77
     1
 78
    12
 79
     3
140
3.5
147
0.875
173
     1
178
     0
271
     2
272
     2
276
     2
284
    12
340
93
  0
DIMSTYLE
105
E4
102
{ACAD_REACTORS
330
E3
330
F1
102
}
330
A
100
AcDbSymbolTableRecord
100
AcDbDimStyleTableRecord
  2
SLDDIMSTYLE1
 70
     0
 41
3.302
 44
0.0
 45
0.000000001
 73
     0
 74
     0
 77
     1
 78
    12
 79
     3
140
3.5
147
0.875
172
     1
173
     1
178
     0
271
     2
272
     2
276
     2
284
    12
289
     0
340
93
  0
ENDTAB
  0
TABLE
  2
BLOCK_RECORD
  5
1
330
0
100
AcDbSymbolTable
 70
     7
  0
BLOCK_RECORD
  5
1F
330
1
100
AcDbSymbolTableRecord
100
AcDbBlockTableRecord
  2
*Model_Space
340
22
  0
BLOCK_RECORD
  5
1B
330
1
100
AcDbSymbolTableRecord
100
AcDbBlockTableRecord
  2
*Paper_Space
340
1E
  0
BLOCK_RECORD
  5
23
330
1
100
AcDbSymbolTableRecord
100
AcDbBlockTableRecord
  2
*Paper_Space0
340
26
  0
BLOCK_RECORD
  5
7E
330
1
100
AcDbSymbolTableRecord
100
AcDbBlockTableRecord
  2
블럭10
340
0
102
{BLKREFS
331
C7
102
}
  0
BLOCK_RECORD
  5
D0
330
1
100
AcDbSymbolTableRecord
100
AcDbBlockTableRecord
  2
_D
340
0
  0
BLOCK_RECORD
  5
DA
330
1
100
AcDbSymbolTableRecord
100
AcDbBlockTableRecord
  2
_D_1
340
0
  0
BLOCK_RECORD
  5
E5
330
1
100
AcDbSymbolTableRecord
100
AcDbBlockTableRecord
  2
_D_2
340
0
  0
BLOCK_RECORD
  5
F2
330
1
100
AcDbSymbolTableRecord
100
AcDbBlockTableRecord
  2
_D_3
340
0
  0
BLOCK_RECORD
  5
FC
330
1
100
AcDbSymbolTableRecord
100
AcDbBlockTableRecord
  2
SW_DOWELSYMBOL_0
340
0
102
{BLKREFS
331
102
102
}
  0
ENDTAB
  0
ENDSEC
  0
SECTION
  2
BLOCKS
  0
BLOCK
  5
20
330
1F
100
AcDbEntity
  8
0
100
AcDbBlockBegin
  2
*Model_Space
 70
     0
 10
0.0
 20
0.0
 30
0.0
  3
*Model_Space
  1

  0
ENDBLK
  5
21
330
1F
100
AcDbEntity
  8
0
100
AcDbBlockEnd
  0
BLOCK
  5
1C
330
1B
100
AcDbEntity
 67
     1
  8
0
100
AcDbBlockBegin
  2
*Paper_Space
 70
     0
 10
0.0
 20
0.0
 30
0.0
  3
*Paper_Space
  1

  0
ENDBLK
  5
1D
330
1B
100
AcDbEntity
 67
     1
  8
0
100
AcDbBlockEnd
  0
BLOCK
  5
24
330
23
100
AcDbEntity
  8
0
100
AcDbBlockBegin
  2
*Paper_Space0
 70
     0
 10
0.0
 20
0.0
 30
0.0
  3
*Paper_Space0
  1

  0
ENDBLK
  5
25
330
23
100
AcDbEntity
  8
0
100
AcDbBlockEnd
  0
BLOCK
  5
7F
330
7E
100
AcDbEntity
  8
0
100
AcDbBlockBegin
  2
블럭10
 70
     2
 10
0.0
 20
0.0
 30
0.0
  3
블럭10
  1

  0
ELLIPSE
  5
81
330
7E
100
AcDbEntity
  8
중심선
100
AcDbEllipse
 10
20.54032771741204
 20
12.0471743016438
 30
0.0
 11
6.600054785286829
 21
-1.261213355974178E-13
 31
0.0
210
0.0
220
0.0
230
1.0
 40
0.636358354079598
 41
0.9219305317359503
 42
6.513795318482858
  0
ELLIPSE
  5
82
330
7E
100
AcDbEntity
  8
중심선
100
AcDbEllipse
 10
20.54032771746488
 20
12.04717430159265
 30
0.0
 11
3.960054785062283
 21
1.540847449632565E-10
 31
0.0
210
0.0
220
0.0
230
1.0
 40
0.3939339440162632
 41
1.131841032648279
 42
5.62031148352944
  0
LINE
  5
83
330
7E
100
AcDbEntity
  8
중심선
100
AcDbLine
 10
2.268634060543552
 20
16.24717430164393
 30
0.0
 11
5.714909304380834
 21
16.24717430164393
 31
0.0
  0
LINE
  5
84
330
7E
100
AcDbEntity
  8
중심선
100
AcDbLine
 10
5.245725140726316
 20
7.84717430164391
 30
0.0
 11
8.692000384563599
 21
7.84717430164391
 31
0.0
  0
LINE
  5
85
330
7E
100
AcDbEntity
  8
중심선
100
AcDbLine
 10
15.74043728645272
 20
16.24717430164393
 30
0.0
 11
8.692000384563599
 21
7.84717430164391
 31
0.0
  0
LINE
  5
86
330
7E
100
AcDbEntity
  8
중심선
100
AcDbLine
 10
0.1404042013395286
 20
13.71084872107135
 30
0.0
 11
3.58671253028996
 21
13.71088815037384
 31
0.0
  0
LINE
  5
87
330
7E
100
AcDbEntity
  8
중심선
100
AcDbLine
 10
2.750260043222114
 20
10.84717430164391
 30
0.0
 11
6.196535287059397
 21
10.84717430164391
 31
0.0
  0
LINE
  5
88
330
7E
100
AcDbEntity
  8
중심선
100
AcDbLine
 10
12.29416204261559
 20
16.24717430164393
 30
0.0
 11
5.245725140726316
 21
7.84717430164391
 31
0.0
  0
LINE
  5
89
330
7E
100
AcDbEntity
  8
중심선
100
AcDbLine
 10
10.72767329541681
 20
16.24717430164393
 30
0.0
 11
6.196535287059397
 21
10.84717430164391
 31
0.0
  0
LINE
  5
8A
330
7E
100
AcDbEntity
  8
중심선
100
AcDbLine
 10
7.28139805157953
 20
16.24717430164393
 30
0.0
 11
2.750260043222114
 21
10.84717430164391
 31
0.0
  0
LINE
  5
8B
330
7E
100
AcDbEntity
  8
중심선
100
AcDbLine
 10
5.714909304380834
 20
16.24717430164393
 30
0.0
 11
3.58671253028996
 21
13.71088815037384
 31
0.0
  0
LINE
  5
8C
330
7E
100
AcDbEntity
  8
중심선
100
AcDbLine
 10
2.268634060543552
 20
16.24717430164393
 30
0.0
 11
0.1404042013395286
 21
13.71084872107135
 31
0.0
  0
LINE
  5
8D
330
7E
100
AcDbEntity
  8
중심선
100
AcDbLine
 10
7.28139805157953
 20
16.24717430164393
 30
0.0
 11
10.72767329541681
 21
16.24717430164393
 31
0.0
  0
LINE
  5
8E
330
7E
100
AcDbEntity
  8
중심선
100
AcDbLine
 10
12.29416204261559
 20
16.24717430164393
 30
0.0
 11
15.74043728645272
 21
16.24717430164393
 31
0.0
  0
LINE
  5
8F
330
7E
100
AcDbEntity
  8
중심선
100
AcDbLine
 10
19.22036997980202
 20
11.08717430171403
 30
0.0
 11
23.66174974927406
 21
11.08717430171406
 31
0.0
  0
LINE
  5
90
330
7E
100
AcDbEntity
  8
중심선
100
AcDbLine
 10
19.22039502424796
 20
13.00717430171391
 30
0.0
 11
19.22036997980202
 21
11.08717430171403
 31
0.0
  0
LINE
  5
91
330
7E
100
AcDbEntity
  8
중심선
100
AcDbLine
 10
19.22039502424796
 20
13.00717430171391
 30
0.0
 11
26.96566020931264
 21
13.00717430171391
 31
0.0
  0
LINE
  5
92
330
7E
100
AcDbEntity
  8
중심선
100
AcDbLine
 10
22.22332737316547
 20
13.45928029700563
 30
0.0
 11
24.52862924686651
 21
15.39360700705356
 31
0.0
  0
ATTDEF
  5
94
330
7E
100
AcDbEntity
  8
FORMAT
 62
     2
100
AcDbText
 10
-12.95993919485777
 20
2.075366912832191
 30
0.0
 40
4.233333333333333
  1
SEME35250E [ 2 FLUTE ]
 41
0.75
  7
SLDTEXTSTYLE0
 11
-12.95993919485777
 21
-0.0412997538344756
 31
0.0
100
AcDbAttributeDefinition
  3

  2
AUTOATTR0
 70
     0
 74
     1
  0
ENDBLK
  5
80
330
7E
100
AcDbEntity
  8
0
100
AcDbBlockEnd
  0
BLOCK
  5
D1
330
D0
100
AcDbEntity
  8
0
100
AcDbBlockBegin
  2
_D
 70
     0
 10
0.0
 20
0.0
 30
0.0
  3
_D
  1

  0
LINE
  5
D3
330
D0
100
AcDbEntity
  8
치수문자_일반주서
 62
     0
370
    -2
100
AcDbLine
 10
62.00000000000001
 20
12.55193519037056
 30
0.0
 11
62.00000000000001
 21
24.74006907894834
 31
0.0
  0
LINE
  5
D4
330
D0
100
AcDbEntity
  8
치수문자_일반주서
 62
     0
370
    -2
100
AcDbLine
 10
12.0
 20
10.9640612754382
 30
0.0
 11
12.0
 21
24.74006907894834
 31
0.0
  0
LINE
  5
D5
330
D0
100
AcDbEntity
  8
치수문자_일반주서
 62
     0
370
    -2
100
AcDbLine
 10
58.69800000000001
 20
24.74006907894834
 30
0.0
 11
15.302
 21
24.74006907894834
 31
0.0
  0
SOLID
  5
D6
330
D0
100
AcDbEntity
  8
치수문자_일반주서
 62
     0
100
AcDbTrace
 10
58.69800000000001
 20
24.189735745615
 30
0.0
 11
58.69800000000001
 21
25.29040241228167
 31
0.0
 12
62.00000000000001
 22
24.74006907894834
 32
0.0
 13
62.00000000000001
 23
24.74006907894834
 33
0.0
  0
SOLID
  5
D7
330
D0
100
AcDbEntity
  8
치수문자_일반주서
 62
     0
100
AcDbTrace
 10
15.302
 20
25.29040241228167
 30
0.0
 11
15.302
 21
24.189735745615
 31
0.0
 12
12.0
 22
24.74006907894834
 32
0.0
 13
12.0
 23
24.74006907894834
 33
0.0
  0
MTEXT
  5
D8
330
D0
100
AcDbEntity
  8
치수문자_일반주서
 62
     0
100
AcDbMText
 10
37.0
 20
29.11506907894834
 30
0.0
 40
3.5
 41
0.0
 71
     2
 72
     1
  1
\A1;50
  7
SLDTEXTSTYLE0
 73
     1
 44
1.0
  0
POINT
  5
137
330
D0
100
AcDbEntity
  8
Defpoints
 62
     0
100
AcDbPoint
 10
62.00000000000001
 20
12.48943519037056
 30
0.0
  0
POINT
  5
138
330
D0
100
AcDbEntity
  8
Defpoints
 62
     0
100
AcDbPoint
 10
12.0
 20
10.9015612754382
 30
0.0
  0
POINT
  5
139
330
D0
100
AcDbEntity
  8
Defpoints
 62
     0
100
AcDbPoint
 10
12.0
 20
24.74006907894834
 30
0.0
  0
ENDBLK
  5
D2
330
D0
100
AcDbEntity
  8
0
100
AcDbBlockEnd
  0
BLOCK
  5
DB
330
DA
100
AcDbEntity
  8
0
100
AcDbBlockBegin
  2
_D_1
 70
     0
 10
0.0
 20
0.0
 30
0.0
  3
_D_1
  1

  0
LINE
  5
DD
330
DA
100
AcDbEntity
  8
치수문자_일반주서
 62
     0
370
    -2
100
AcDbLine
 10
61.99999999999979
 20
12.55193519037054
 30
0.0
 11
61.99999999999979
 21
31.53415911661227
 31
0.0
  0
LINE
  5
DE
330
DA
100
AcDbEntity
  8
치수문자_일반주서
 62
     0
370
    -2
100
AcDbLine
 10
-57.99999999999999
 20
11.56249999999999
 30
0.0
 11
-57.99999999999999
 21
31.53415911661227
 31
0.0
  0
LINE
  5
DF
330
DA
100
AcDbEntity
  8
치수문자_일반주서
 62
     0
370
    -2
100
AcDbLine
 10
58.69799999999979
 20
31.53415911661227
 30
0.0
 11
-54.69799999999999
 21
31.53415911661227
 31
0.0
  0
SOLID
  5
E0
330
DA
100
AcDbEntity
  8
치수문자_일반주서
 62
     0
100
AcDbTrace
 10
58.69799999999979
 20
30.98382578327893
 30
0.0
 11
58.69799999999979
 21
32.0844924499456
 31
0.0
 12
61.99999999999979
 22
31.53415911661227
 32
0.0
 13
61.99999999999979
 23
31.53415911661227
 33
0.0
  0
SOLID
  5
E1
330
DA
100
AcDbEntity
  8
치수문자_일반주서
 62
     0
100
AcDbTrace
 10
-54.69799999999999
 20
32.0844924499456
 30
0.0
 11
-54.69799999999999
 21
30.98382578327893
 31
0.0
 12
-57.99999999999999
 22
31.53415911661227
 32
0.0
 13
-57.99999999999999
 23
31.53415911661227
 33
0.0
  0
MTEXT
  5
E2
330
DA
100
AcDbEntity
  8
치수문자_일반주서
 62
     0
100
AcDbMText
 10
2.000000000000027
 20
35.90915911661227
 30
0.0
 40
3.5
 41
0.0
 71
     2
 72
     1
  1
\A1;120
  7
SLDTEXTSTYLE0
 73
     1
 44
1.0
  0
POINT
  5
129
330
DA
100
AcDbEntity
  8
Defpoints
 62
     0
100
AcDbPoint
 10
61.99999999999979
 20
12.48943519037054
 30
0.0
  0
POINT
  5
12A
330
DA
100
AcDbEntity
  8
Defpoints
 62
     0
100
AcDbPoint
 10
-57.99999999999999
 20
11.49999999999999
 30
0.0
  0
POINT
  5
12B
330
DA
100
AcDbEntity
  8
Defpoints
 62
     0
100
AcDbPoint
 10
-57.99999999999999
 20
31.53415911661227
 30
0.0
  0
ENDBLK
  5
DC
330
DA
100
AcDbEntity
  8
0
100
AcDbBlockEnd
  0
BLOCK
  5
E6
330
E5
100
AcDbEntity
  8
0
100
AcDbBlockBegin
  2
_D_2
 70
     0
 10
0.0
 20
0.0
 30
0.0
  3
_D_2
  1

  0
LINE
  5
E8
330
E5
100
AcDbEntity
  8
치수문자_일반주서
 62
     0
370
    -2
100
AcDbLine
 10
62.06250000000001
 20
12.50093156652956
 30
0.0
 11
77.56619031224625
 21
12.50093156652961
 31
0.0
  0
LINE
  5
E9
330
E5
100
AcDbEntity
  8
치수문자_일반주서
 62
     0
370
    -2
100
AcDbLine
 10
62.06250000000001
 20
-12.4987461386946
 30
0.0
 11
77.56619031224633
 21
-12.49874613869455
 31
0.0
  0
LINE
  5
EA
330
E5
100
AcDbEntity
  8
치수문자_일반주서
 62
     0
370
    -2
100
AcDbLine
 10
77.56619031224626
 20
9.198931566529613
 30
0.0
 11
77.56619031224632
 21
-9.19674613869455
 31
0.0
  0
SOLID
  5
EB
330
E5
100
AcDbEntity
  8
치수문자_일반주서
 62
     0
100
AcDbTrace
 10
78.11652364557959
 20
9.198931566529614
 30
0.0
 11
77.01585697891294
 21
9.19893156652961
 31
0.0
 12
77.56619031224625
 22
12.50093156652961
 32
0.0
 13
77.56619031224625
 23
12.50093156652961
 33
0.0
  0
SOLID
  5
EC
330
E5
100
AcDbEntity
  8
치수문자_일반주서
 62
     0
100
AcDbTrace
 10
77.01585697891299
 20
-9.196746138694552
 30
0.0
 11
78.11652364557965
 21
-9.196746138694548
 31
0.0
 12
77.56619031224633
 22
-12.49874613869455
 32
0.0
 13
77.56619031224633
 23
-12.49874613869455
 33
0.0
  0
MTEXT
  5
ED
330
E5
100
AcDbEntity
  8
치수문자_일반주서
 62
     0
100
AcDbMText
 10
73.19119031224629
 20
-0.0000000000000121
 30
0.0
 40
3.5
 41
0.0
 71
     2
 72
     1
  1
\A1;%%c25
  7
SLDTEXTSTYLE0
 11
-3.410649101023981E-15
 21
1.0
 31
0.0
 73
     1
 44
1.0
  0
POINT
  5
EE
330
E5
100
AcDbEntity
  8
Defpoints
 62
     0
100
AcDbPoint
 10
62.00000000000001
 20
12.50093156652956
 30
0.0
  0
POINT
  5
EF
330
E5
100
AcDbEntity
  8
Defpoints
 62
     0
100
AcDbPoint
 10
62.00000000000001
 20
-12.4987461386946
 30
0.0
  0
POINT
  5
F0
330
E5
100
AcDbEntity
  8
Defpoints
 62
     0
100
AcDbPoint
 10
77.56619031224633
 20
-12.49874613869455
 30
0.0
  0
ENDBLK
  5
E7
330
E5
100
AcDbEntity
  8
0
100
AcDbBlockEnd
  0
BLOCK
  5
F3
330
F2
100
AcDbEntity
  8
0
100
AcDbBlockBegin
  2
_D_3
 70
     0
 10
0.0
 20
0.0
 30
0.0
  3
_D_3
  1

  0
LINE
  5
F5
330
F2
100
AcDbEntity
  8
치수문자_일반주서
 62
     0
370
    -2
100
AcDbLine
 10
-57.06249999999999
 20
12.5
 30
0.0
 11
-69.41955944538857
 21
12.49999999999995
 31
0.0
  0
LINE
  5
F6
330
F2
100
AcDbEntity
  8
치수문자_일반주서
 62
     0
370
    -2
100
AcDbLine
 10
-57.06249999999999
 20
-12.5
 30
0.0
 11
-69.41955944538849
 21
-12.50000000000005
 31
0.0
  0
LINE
  5
F7
330
F2
100
AcDbEntity
  8
치수문자_일반주서
 62
     0
370
    -2
100
AcDbLine
 10
-69.41955944538856
 20
9.19799999999995
 30
0.0
 11
-69.4195594453885
 21
-9.19800000000005
 31
0.0
  0
SOLID
  5
F8
330
F2
100
AcDbEntity
  8
치수문자_일반주서
 62
     0
100
AcDbTrace
 10
-68.86922611205523
 20
9.197999999999952
 30
0.0
 11
-69.96989277872188
 21
9.197999999999949
 31
0.0
 12
-69.41955944538857
 22
12.49999999999995
 32
0.0
 13
-69.41955944538857
 23
12.49999999999995
 33
0.0
  0
SOLID
  5
F9
330
F2
100
AcDbEntity
  8
치수문자_일반주서
 62
     0
100
AcDbTrace
 10
-69.96989277872183
 20
-9.198000000000052
 30
0.0
 11
-68.86922611205517
 21
-9.198000000000048
 31
0.0
 12
-69.41955944538849
 22
-12.50000000000005
 32
0.0
 13
-69.41955944538849
 23
-12.50000000000005
 33
0.0
  0
MTEXT
  5
FA
330
F2
100
AcDbEntity
  8
치수문자_일반주서
 62
     0
100
AcDbMText
 10
-73.79455944538853
 20
-0.0000000000000143
 30
0.0
 40
3.5
 41
0.0
 71
     2
 72
     1
  1
\A1;%%c25
  7
SLDTEXTSTYLE0
 11
-3.410605131648481E-15
 21
1.0
 31
0.0
 73
     1
 44
1.0
  0
POINT
  5
FB
330
F2
100
AcDbEntity
  8
Defpoints
 62
     0
100
AcDbPoint
 10
-56.99999999999999
 20
12.5
 30
0.0
  0
POINT
  5
13A
330
F2
100
AcDbEntity
  8
Defpoints
 62
     0
100
AcDbPoint
 10
-56.99999999999999
 20
-12.5
 30
0.0
  0
POINT
  5
13B
330
F2
100
AcDbEntity
  8
Defpoints
 62
     0
100
AcDbPoint
 10
-69.41955944538853
 20
-12.50000000000005
 30
0.0
  0
ENDBLK
  5
F4
330
F2
100
AcDbEntity
  8
0
100
AcDbBlockEnd
  0
BLOCK
  5
FD
330
FC
100
AcDbEntity
  8
0
100
AcDbBlockBegin
  2
SW_DOWELSYMBOL_0
 70
     0
 10
0.0
 20
0.0
 30
0.0
  3
SW_DOWELSYMBOL_0
  1

  0
CIRCLE
  5
FF
330
FC
100
AcDbEntity
  8
외형선
 62
     0
100
AcDbCircle
 10
0.0
 20
0.0
 30
0.0
 40
3.000000000000004
  0
HATCH
  5
100
330
FC
100
AcDbEntity
  8
0
  6
Continuous
 62
     0
370
    30
100
AcDbHatch
 10
0.0
 20
0.0
 30
0.0
210
0.0
220
0.0
230
1.0
  2
SOLID
 70
     1
 71
     0
 91
        1
 92
        0
 93
        3
 72
     2
 10
0.0000000000000087
 20
-0.0000000000000035
 40
3.000000000000004
 50
0.0
 51
90.0
 73
     1
 72
     1
 10
0.0000000000000087
 20
3.000000000000001
 11
0.0000000000000087
 21
-0.0000000000000036
 72
     1
 10
0.0000000000000087
 20
-0.0000000000000035
 11
3.000000000000013
 21
-0.0000000000000035
 97
        0
 75
     0
 76
     1
 98
        1
 10
0.0
 20
0.0
  0
HATCH
  5
101
330
FC
100
AcDbEntity
  8
0
  6
Continuous
 62
     0
370
    30
100
AcDbHatch
 10
0.0
 20
0.0
 30
0.0
210
0.0
220
0.0
230
1.0
  2
SOLID
 70
     1
 71
     0
 91
        1
 92
        0
 93
        3
 72
     2
 10
0.0000000000000087
 20
-0.0000000000000035
 40
3.000000000000004
 50
180.0
 51
270.0000000000008
 73
     1
 72
     1
 10
0.0000000000000087
 20
-3.000000000000008
 11
0.0000000000000087
 21
-0.0000000000000036
 72
     1
 10
0.0000000000000087
 20
-0.0000000000000035
 11
-2.999999999999996
 21
-0.0000000000000035
 97
        0
 75
     0
 76
     1
 98
        1
 10
0.0
 20
0.0
  0
ENDBLK
  5
FE
330
FC
100
AcDbEntity
  8
0
100
AcDbBlockEnd
  0
ENDSEC
  0
SECTION
  2
ENTITIES
  0
LINE
  5
95
330
1F
100
AcDbEntity
  8
0
  6
Continuous
 62
     4
370
    15
100
AcDbLine
 10
8.949891579402768
 20
12.5
 30
0.0
 11
-56.99999999999999
 21
12.5
 31
0.0
  0
LINE
  5
96
330
1F
100
AcDbEntity
  8
0
  6
Continuous
 62
     4
370
    15
100
AcDbLine
 10
-56.99999999999999
 20
-12.5
 30
0.0
 11
8.949891579402768
 21
-12.5
 31
0.0
  0
LINE
  5
97
330
1F
100
AcDbEntity
  8
0
  6
Continuous
 62
     4
370
    15
100
AcDbLine
 10
-56.99999999999999
 20
12.49999999999999
 30
0.0
 11
-57.99999999999999
 21
11.49999999999999
 31
0.0
  0
LINE
  5
98
330
1F
100
AcDbEntity
  8
0
  6
Continuous
 62
     4
370
    15
100
AcDbLine
 10
-57.99999999999999
 20
-11.5
 30
0.0
 11
-56.99999999999999
 21
-12.5
 31
0.0
  0
SPLINE
  5
99
330
1F
100
AcDbEntity
  8
0
  6
Continuous
 62
     4
370
    15
100
AcDbSpline
210
0.0
220
0.0
230
1.0
 70
     8
 71
     3
 72
     9
 73
     5
 74
     0
 42
0.000000001
 43
0.00000001
 40
0.0
 40
0.0
 40
0.0
 40
0.0
 40
0.4477122608006514
 40
1.0
 40
1.0
 40
1.0
 40
1.0
 10
8.949850123133684
 20
-10.19356029558114
 30
0.0
 10
9.405515384256493
 20
-10.15678162982295
 30
0.0
 10
10.42327902626159
 20
-10.07463363215047
 30
0.0
 10
11.43901917154655
 20
-10.01071541226431
 30
0.0
 10
12.00000000000001
 20
-9.97541416310974
 30
0.0
1001
PE_URL
1000

  0
SPLINE
  5
9A
330
1F
100
AcDbEntity
  8
0
  6
Continuous
 62
     1
370
    15
100
AcDbSpline
210
0.0
220
0.0
230
1.0
 70
     8
 71
     3
 72
     9
 73
     5
 74
     0
 42
0.000000001
 43
0.00000001
 40
0.0
 40
0.0
 40
0.0
 40
0.0
 40
0.4622084407711786
 40
1.0
 40
1.0
 40
1.0
 40
1.0
 10
29.6157232988067
 20
3.203057758740464
 30
0.0
 10
29.08204310819475
 20
3.457081248438574
 30
0.0
 10
27.92741211590582
 20
4.00666768453715
 30
0.0
 10
26.77037986989536
 20
4.611993346061089
 30
0.0
 10
26.14813769423536
 20
4.937532377413267
 30
0.0
  0
SPLINE
  5
9B
330
1F
100
AcDbEntity
  8
0
  6
Continuous
 62
     1
370
    15
100
AcDbSpline
210
0.0
220
0.0
230
1.0
 70
     8
 71
     3
 72
    21
 73
    17
 74
     0
 42
0.000000001
 43
0.00000001
 40
0.0
 40
0.0
 40
0.0
 40
0.0
 40
0.1138539110843648
 40
0.2094439851506894
 40
0.2897058104301541
 40
0.3590214590648023
 40
0.4202203122327707
 40
0.4911407602154231
 40
0.5683720610457629
 40
0.6309073787718645
 40
0.6918711508635199
 40
0.7585017684549819
 40
0.8367424128161313
 40
0.9276771257766777
 40
0.9776198317710907
 40
1.0
 40
1.0
 40
1.0
 40
1.0
 10
25.48419205652411
 20
9.932988795485409
 30
0.0
 10
25.11221932611027
 20
9.913805844280647
 30
0.0
 10
24.42794374626191
 20
9.878517168564455
 30
0.0
 10
23.44195602692471
 20
9.839344863490053
 30
0.0
 10
22.59800827592128
 20
9.812561827700923
 30
0.0
 10
21.87579997536031
 20
9.793436047535401
 30
0.0
 10
21.20076873611974
 20
9.77967187594051
 30
0.0
 10
20.49457606649133
 20
9.769108740758343
 30
0.0
 10
19.78132208628902
 20
9.76300885709746
 30
0.0
 10
19.10262627454889
 20
9.76128758943597
 30
0.0
 10
18.4596443007335
 20
9.763096657580002
 30
0.0
 10
17.76334018133354
 20
9.768892938275231
 30
0.0
 10
16.9656505701553
 20
9.780462992872344
 30
0.0
 10
16.22447868549587
 20
9.796717406105772
 30
0.0
 10
15.67234673429573
 20
9.811908121593708
 30
0.0
 10
15.42774779927034
 20
9.819715821641042
 30
0.0
 10
15.35205714989741
 20
9.822131898745509
 30
0.0
  0
SPLINE
  5
9C
330
1F
100
AcDbEntity
  8
0
  6
Continuous
 62
     1
370
    15
100
AcDbSpline
210
0.0
220
0.0
230
1.0
 70
     8
 71
     3
 72
    32
 73
    28
 74
     0
 42
0.000000001
 43
0.00000001
 40
0.0
 40
0.0
 40
0.0
 40
0.0
 40
0.0553293388758071
 40
0.1007614435486633
 40
0.1362916897542554
 40
0.1649871899401869
 40
0.1907829390237799
 40
0.2210253018105783
 40
0.2571682295932124
 40
0.2994862143979066
 40
0.3424089762715487
 40
0.3832069928760263
 40
0.4228020266989381
 40
0.4581530657155432
 40
0.4956295294574463
 40
0.5437131800265307
 40
0.5887094539584039
 40
0.6295195587065104
 40
0.6700074700686448
 40
0.716590715201589
 40
0.7660888578996057
 40
0.7957754484912678
 40
0.8234761876753101
 40
0.8549519400126229
 40
0.891941251420518
 40
0.9400155359826804
 40
0.9999999999999999
 40
0.9999999999999999
 40
0.9999999999999999
 40
0.9999999999999999
 10
57.35583961580905
 20
8.54940780701762
 30
0.0
 10
56.95960310746112
 20
8.516778776857821
 30
0.0
 10
56.23800831925235
 20
8.457357351492997
 30
0.0
 10
55.25249618503636
 20
8.391531542586835
 30
0.0
 10
54.44656322792828
 20
8.345552140575839
 30
0.0
 10
53.77744299365254
 20
8.31311533469086
 30
0.0
 10
53.15344427834032
 20
8.287018167636697
 30
0.0
 10
52.48616670880926
 20
8.263966753420602
 30
0.0
 10
51.69616826061563
 20
8.243244141909669
 30
0.0
 10
50.8115806382525
 20
8.228929770853583
 30
0.0
 10
49.89401129129575
 20
8.224206487116849
 30
0.0
 10
48.99612875488791
 20
8.229227117796427
 30
0.0
 10
48.15299511252479
 20
8.242645176168107
 30
0.0
 10
47.33439821265193
 20
8.263620722304855
 30
0.0
 10
46.45385269212213
 20
8.294337145769816
 30
0.0
 10
45.50323912672327
 20
8.337773050113173
 30
0.0
 10
44.52797849485571
 20
8.393783487236986
 30
0.0
 10
43.60818320790261
 20
8.456668629285769
 30
0.0
 10
42.67727469948979
 20
8.529456501819809
 30
0.0
 10
41.68321553826198
 20
8.61758428420198
 30
0.0
 10
40.76471696280065
 20
8.709792810327206
 30
0.0
 10
39.99657127202831
 20
8.79406758745973
 30
0.0
 10
39.35064948427485
 20
8.868980102924796
 30
0.0
 10
38.63803309486067
 20
8.956618312214221
 30
0.0
 10
37.77195978517533
 20
9.069122610799825
 30
0.0
 10
36.71918288754166
 20
9.216586816277339
 30
0.0
 10
35.9474425793106
 20
9.335606210585427
 30
0.0
 10
35.51904201611371
 20
9.401675035822525
 30
0.0
  0
SPLINE
  5
9D
330
1F
100
AcDbEntity
  8
0
  6
Continuous
 62
     1
370
    15
100
AcDbSpline
210
0.0
220
0.0
230
1.0
 70
     8
 71
     3
 72
    20
 73
    16
 74
     0
 42
0.000000001
 43
0.00000001
 40
0.0
 40
0.0
 40
0.0
 40
0.0
 40
0.1051563443214804
 40
0.1861968103287754
 40
0.2846217955700149
 40
0.377255498608575
 40
0.4844544428623473
 40
0.5589426388983139
 40
0.6257004158563514
 40
0.6797534173357871
 40
0.7304899894959563
 40
0.8149139009702228
 40
0.9081613459010521
 40
0.9863522990835892
 40
1.0
 40
1.0
 40
1.0
 40
1.0
 10
35.51904201611372
 20
-9.401675035822521
 30
0.0
 10
35.80610913540984
 20
-9.355952651544614
 30
0.0
 10
36.31440925090074
 20
-9.27499355993578
 30
0.0
 10
37.2132061933027
 20
-9.142869733941588
 30
0.0
 10
38.08368540063818
 20
-9.02880061433782
 30
0.0
 10
39.02884892159705
 20
-8.906983681214372
 30
0.0
 10
39.88010855150273
 20
-8.806801596557323
 30
0.0
 10
40.65477810484028
 20
-8.721913117953846
 30
0.0
 10
41.26141228842977
 20
-8.659926669845465
 30
0.0
 10
41.78953564309977
 20
-8.609191068061826
 30
0.0
 10
42.3724372036734
 20
-8.556248450248605
 30
0.0
 10
43.08648839338486
 20
-8.49637581735076
 30
0.0
 10
43.8908828141896
 20
-8.436962929665796
 30
0.0
 10
44.47068111086529
 20
-8.398023911802406
 30
0.0
 10
44.75560044329997
 20
-8.3817235735899
 30
0.0
 10
44.7979409356833
 20
-8.379301258684011
 30
0.0
  0
SPLINE
  5
9E
330
1F
100
AcDbEntity
  8
0
  6
Continuous
 62
     1
370
    15
100
AcDbSpline
210
0.0
220
0.0
230
1.0
 70
     8
 71
     3
 72
    30
 73
    26
 74
     0
 42
0.000000001
 43
0.00000001
 40
0.0
 40
0.0
 40
0.0
 40
0.0
 40
0.0709770131650447
 40
0.1265304843276706
 40
0.1665044544076864
 40
0.1920439997225128
 40
0.2182363951382352
 40
0.2496657119345811
 40
0.2845696416284138
 40
0.3167553154638349
 40
0.3612097008096961
 40
0.4047648595844901
 40
0.4530979808412648
 40
0.5057393674456407
 40
0.5437570342809004
 40
0.5737209743555172
 40
0.5989737566733243
 40
0.6367011765699366
 40
0.6880382760144246
 40
0.7358444980151402
 40
0.7729710795246882
 40
0.8066028480329268
 40
0.8546563021479388
 40
0.9191732143797056
 40
0.9999999999999999
 40
0.9999999999999999
 40
0.9999999999999999
 40
0.9999999999999999
 10
11.99999999999999
 20
-9.975414163109741
 30
0.0
 10
12.32001231007228
 20
-9.95706882242438
 30
0.0
 10
12.89049718649426
 20
-9.924364644852455
 30
0.0
 10
13.64110602812364
 20
-9.888225055520428
 30
0.0
 10
14.18681502613459
 20
-9.864573313981722
 30
0.0
 10
14.60029074660657
 20
-9.848206289449504
 30
0.0
 10
14.97518962482646
 20
-9.834438193984846
 30
0.0
 10
15.39234255906905
 20
-9.820467572501345
 30
0.0
 10
15.83588879957109
 20
-9.80725028455448
 30
0.0
 10
16.33262171816246
 20
-9.794470550620806
 30
0.0
 10
16.83225722288871
 20
-9.782706598876093
 30
0.0
 10
17.41884614952974
 20
-9.770383992940511
 30
0.0
 10
18.0809135419461
 20
-9.76330158844904
 30
0.0
 10
18.71809506575063
 20
-9.761497853469832
 30
0.0
 10
19.27081037899698
 20
-9.76159194735632
 30
0.0
 10
19.69776786519983
 20
-9.76308570178487
 30
0.0
 10
20.11681215323133
 20
-9.7658356800415
 30
0.0
 10
20.63197500370198
 20
-9.771083995007478
 30
0.0
 10
21.24872593644318
 20
-9.780504998508754
 30
0.0
 10
21.86350896124833
 20
-9.793385438096557
 30
0.0
 10
22.39928969949145
 20
-9.807229617483033
 30
0.0
 10
22.9370314810459
 20
-9.82330640941771
 30
0.0
 10
23.59560080134757
 20
-9.846119192351349
 30
0.0
 10
24.46624361040872
 20
-9.881243631507518
 30
0.0
 10
25.12040674040553
 20
-9.914496571338752
 30
0.0
 10
25.4841920565241
 20
-9.932988795485404
 30
0.0
  0
SPLINE
  5
9F
330
1F
100
AcDbEntity
  8
0
  6
Continuous
 62
     4
370
    15
100
AcDbSpline
210
0.0
220
0.0
230
1.0
 70
     8
 71
     3
 72
     8
 73
     4
 74
     0
 42
0.000000001
 43
0.00000001
 40
0.0
 40
0.0
 40
0.0
 40
0.0
 40
1.0
 40
1.0
 40
1.0
 40
1.0
 10
12.00000000000045
 20
10.90156127543807
 30
0.0
 10
10.98632981186788
 20
11.18843927525139
 30
0.0
 10
9.96587256278997
 20
11.43982884564276
 30
0.0
 10
8.94977807218299
 20
11.65224446654925
 30
0.0
1001
PE_URL
1000

  0
LINE
  5
A0
330
1F
100
AcDbEntity
  8
0
  6
Continuous
 62
     4
370
    15
100
AcDbLine
 10
12.0
 20
10.9015612754382
 30
0.0
 11
12.0
 21
8.788419714414518
 31
0.0
1001
PE_URL
1000

  0
SPLINE
  5
A1
330
1F
100
AcDbEntity
  8
0
  6
Continuous
 62
     4
370
    15
100
AcDbSpline
210
0.0
220
0.0
230
1.0
 70
     8
 71
     3
 72
     8
 73
     4
 74
     0
 42
0.000000001
 43
0.00000001
 40
0.0
 40
0.0
 40
0.0
 40
0.0
 40
1.0
 40
1.0
 40
1.0
 40
1.0
 10
8.949891579402756
 20
9.949293967561513
 30
0.0
 10
9.96594865588606
 20
9.594081808824553
 30
0.0
 10
10.98636755732728
 20
9.20534842368481
 30
0.0
 10
12.0
 20
8.788419714414516
 30
0.0
  0
LINE
  5
A2
330
1F
100
AcDbEntity
  8
0
  6
Continuous
 62
     4
370
    15
100
AcDbLine
 10
8.949891579402768
 20
-12.5
 30
0.0
 11
8.94977807218299
 21
11.65224446654925
 31
0.0
1001
PE_URL
1000

  0
SPLINE
  5
A3
330
1F
100
AcDbEntity
  8
0
  6
Continuous
 62
     4
370
    15
100
AcDbSpline
210
0.0
220
0.0
230
1.0
 70
     8
 71
     3
 72
     8
 73
     4
 74
     0
 42
0.000000001
 43
0.00000001
 40
0.0
 40
0.0
 40
0.0
 40
0.0
 40
1.0
 40
1.0
 40
1.0
 40
1.0
 10
12.00000000000046
 20
-10.90156127543807
 30
0.0
 10
10.98632981186788
 20
-11.18843927525139
 30
0.0
 10
9.965872562789974
 20
-11.43982884564276
 30
0.0
 10
8.949778072182994
 20
-11.65224446654925
 30
0.0
  0
LINE
  5
A4
330
1F
100
AcDbEntity
  8
0
  6
Continuous
 62
     4
370
    15
100
AcDbLine
 10
8.949891579402767
 20
11.65243838260069
 30
0.0
 11
8.949891579402768
 21
12.5
 31
0.0
1001
PE_URL
1000

  0
LINE
  5
A5
330
1F
100
AcDbEntity
  8
0
  6
Continuous
 62
     4
370
    15
100
AcDbLine
 10
-56.99999999999999
 20
12.49999999999999
 30
0.0
 11
-56.99999999999999
 21
-12.5
 31
0.0
  0
LINE
  5
A6
330
1F
100
AcDbEntity
  8
0
  6
Continuous
 62
     4
370
    15
100
AcDbLine
 10
-57.99999999999999
 20
11.49999999999999
 30
0.0
 11
-57.99999999999999
 21
-11.50000000000001
 31
0.0
  0
SPLINE
  5
A7
330
1F
100
AcDbEntity
  8
0
  6
Continuous
 62
     1
370
    15
100
AcDbSpline
210
0.0
220
0.0
230
1.0
 70
    24
 71
     3
 72
    14
 73
    10
 74
     0
 42
0.000000001
 43
0.00000001
 40
0.0
 40
0.0
 40
0.0
 40
0.0
 40
0.25
 40
0.25
 40
0.5
 40
0.5
 40
0.75
 40
0.75
 40
1.0
 40
1.0
 40
1.0
 40
1.0
 10
11.99999999999999
 20
5.890925123969622
 30
0.0
 10
11.99999999999999
 20
4.932222696969768
 30
0.0
 10
11.99999999999999
 20
3.874816205487654
 30
0.0
 10
11.99999999999999
 20
1.639668048544534
 30
0.0
 10
11.99999999999999
 20
0.4627789767857188
 30
0.0
 10
11.99999999999999
 20
-1.898364059202628
 30
0.0
 10
11.99999999999999
 20
-3.081359907707395
 30
0.0
 10
11.99999999999999
 20
-5.339776857191619
 30
0.0
 10
11.99999999999999
 20
-6.414312682194233
 30
0.0
 10
11.99999999999999
 20
-7.394162170200714
 30
0.0
  0
SPLINE
  5
A8
330
1F
100
AcDbEntity
  8
0
  6
Continuous
 62
     4
370
    15
100
AcDbSpline
210
0.0
220
0.0
230
1.0
 70
     8
 71
     3
 72
     8
 73
     4
 74
     0
 42
0.000000001
 43
0.00000001
 40
0.0
 40
0.0
 40
0.0
 40
0.0
 40
1.0
 40
1.0
 40
1.0
 40
1.0
 10
11.99999999999999
 20
-7.394162170200714
 30
0.0
 10
10.98635377154581
 20
-7.078376792886048
 30
0.0
 10
9.965920864392968
 20
-6.737389564737789
 30
0.0
 10
8.949850123133684
 20
-6.375753556199744
 30
0.0
  0
SPLINE
  5
A9
330
1F
100
AcDbEntity
  8
0
  6
Continuous
 62
     4
370
    15
100
AcDbSpline
210
0.0
220
0.0
230
1.0
 70
     8
 71
     3
 72
     8
 73
     4
 74
     0
 42
0.000000001
 43
0.00000001
 40
0.0
 40
0.0
 40
0.0
 40
0.0
 40
1.0
 40
1.0
 40
1.0
 40
1.0
 10
12.00000000000002
 20
5.890925123969611
 30
0.0
 10
10.98635846159672
 20
6.194392200613798
 30
0.0
 10
9.96593031931745
 20
6.479012700119354
 30
0.0
 10
8.949864226940772
 20
6.740891338578524
 30
0.0
  0
SPLINE
  5
AA
330
1F
100
AcDbEntity
  8
0
  6
Continuous
 62
     4
370
    15
100
AcDbSpline
210
0.0
220
0.0
230
1.0
 70
    24
 71
     3
 72
    10
 73
     6
 74
     0
 42
0.000000001
 43
0.00000001
 40
0.0
 40
0.0
 40
0.0
 40
0.0
 40
0.5
 40
0.5
 40
1.0
 40
1.0
 40
1.0
 40
1.0
 10
12.00000000000001
 20
8.78841971441452
 30
0.0
 10
12.00000000000001
 20
8.485394903687341
 30
0.0
 10
12.00000000000001
 20
8.060070392545125
 30
0.0
 10
12.00000000000001
 20
7.052947709856528
 30
0.0
 10
12.0
 20
6.474448606743286
 30
0.0
 10
12.00000000000001
 20
5.890925123969621
 30
0.0
  0
SPLINE
  5
AB
330
1F
100
AcDbEntity
  8
0
  6
Continuous
 62
     1
370
    15
100
AcDbSpline
210
0.0
220
0.0
230
1.0
 70
    24
 71
     3
 72
    14
 73
    10
 74
     0
 42
0.000000001
 43
0.00000001
 40
0.0
 40
0.0
 40
0.0
 40
0.0
 40
0.1809272577468193
 40
0.3642035146276051
 40
0.4976705531835722
 40
0.6311375917395392
 40
0.7684821365344248
 40
0.9058266813293103
 40
1.0
 40
1.0
 40
1.0
 40
1.0
 10
12.00000000000001
 20
-7.394162170200717
 30
0.0
 10
12.0
 20
-7.681827129453366
 30
0.0
 10
12.0
 20
-8.260891834792735
 30
0.0
 10
12.0
 20
-8.876386002460796
 30
0.0
 10
12.0
 20
-9.323395076551106
 30
0.0
 10
12.0
 20
-9.634507796558829
 30
0.0
 10
12.0
 20
-9.84385458752376
 30
0.0
 10
12.0
 20
-9.974482194277504
 30
0.0
 10
12.0
 20
-9.948890192512934
 30
0.0
 10
12.0
 20
-9.938480266896315
 30
0.0
  0
SPLINE
  5
AC
330
1F
100
AcDbEntity
  8
0
  6
Continuous
 62
     1
370
    15
100
AcDbSpline
210
0.0
220
0.0
230
1.0
 70
    24
 71
     3
 72
    10
 73
     6
 74
     0
 42
0.000000001
 43
0.00000001
 40
0.0
 40
0.0
 40
0.0
 40
0.0
 40
0.145507861367102
 40
0.7785711960620179
 40
1.0
 40
1.0
 40
1.0
 40
1.0
 10
12.00000000000001
 20
-10.02393040509804
 30
0.0
 10
12.0
 20
-10.07006796574087
 30
0.0
 10
12.0
 20
-10.31693693512564
 30
0.0
 10
12.0
 20
-10.60478216740781
 30
0.0
 10
12.0
 20
-10.84048295607847
 30
0.0
 10
12.0
 20
-10.90156127542508
 30
0.0
  0
SPLINE
  5
AD
330
1F
100
AcDbEntity
  8
0
  6
Continuous
 62
     1
370
    15
100
AcDbSpline
210
0.0
220
0.0
230
1.0
 70
     8
 71
     3
 72
    56
 73
    52
 74
     0
 42
0.000000001
 43
0.00000001
 40
0.0
 40
0.0
 40
0.0
 40
0.0
 40
0.0625000000000001
 40
0.0625000000000001
 40
0.09375
 40
0.09375
 40
0.1249999999999999
 40
0.1249999999999999
 40
0.1562499999999998
 40
0.1562499999999998
 40
0.1874999999999998
 40
0.1874999999999998
 40
0.2499999999999997
 40
0.2499999999999997
 40
0.3124999999999996
 40
0.3124999999999996
 40
0.3437499999999997
 40
0.3437499999999997
 40
0.3749999999999998
 40
0.3749999999999998
 40
0.4062499999999999
 40
0.4062499999999999
 40
0.4375000000000001
 40
0.4375000000000001
 40
0.5000000000000001
 40
0.5000000000000001
 40
0.5625000000000002
 40
0.5625000000000002
 40
0.5937500000000003
 40
0.5937500000000003
 40
0.6250000000000003
 40
0.6250000000000003
 40
0.6562500000000004
 40
0.6562500000000004
 40
0.6875000000000006
 40
0.6875000000000006
 40
0.7500000000000003
 40
0.7500000000000003
 40
0.7812500000000003
 40
0.7812500000000003
 40
0.8125000000000002
 40
0.8125000000000002
 40
0.8437500000000002
 40
0.8437500000000002
 40
0.8750000000000001
 40
0.8750000000000001
 40
0.9062500000000001
 40
0.9062500000000001
 40
0.9375000000000001
 40
0.9375000000000001
 40
1.0
 40
1.0
 40
1.0
 40
1.0
 10
62.00000000000001
 20
-11.86176086539874
 30
0.0
 10
60.96189874227525
 20
-11.67226219598896
 30
0.0
 10
59.91447718736474
 20
-11.44089346753042
 30
0.0
 10
58.35377715465291
 20
-11.03629266001218
 30
0.0
 10
57.83486321860696
 20
-10.8918610631607
 30
0.0
 10
56.7922000813189
 20
-10.58388922125578
 30
0.0
 10
56.26997810932484
 20
-10.42047676778553
 30
0.0
 10
55.22783101682025
 20
-10.07608380824301
 30
0.0
 10
54.70935737814662
 20
-9.895289239065848
 30
0.0
 10
53.66807550271003
 20
-9.516355695579056
 30
0.0
 10
53.14595156340211
 20
-9.318275208013965
 30
0.0
 10
51.58124341243899
 20
-8.700468584789084
 30
0.0
 10
50.54358157380334
 20
-8.257670376540354
 30
0.0
 10
48.45670252488103
 20
-7.316232745881168
 30
0.0
 10
47.41893094892016
 20
-6.819315469952101
 30
0.0
 10
45.85435789929679
 20
-6.039804144955009
 30
0.0
 10
45.33220154025954
 20
-5.774382142778624
 30
0.0
 10
44.29070075949063
 20
-5.234455835077874
 30
0.0
 10
43.77228447811466
 20
-4.960126053799039
 30
0.0
 10
42.73031732186385
 20
-4.402435354153917
 30
0.0
 10
42.20810812054211
 20
-4.119302009220763
 30
0.0
 10
41.16531579829052
 20
-3.546664259147482
 30
0.0
 10
40.64619547250666
 20
-3.257435978929843
 30
0.0
 10
39.08589955200085
 20
-2.381495833017193
 30
0.0
 10
38.03843831017549
 20
-1.785848588979028
 30
0.0
 10
35.96154229397133
 20
-0.5897173839913595
 30
0.0
 10
34.91485729597036
 20
0.0140548221055987
 30
0.0
 10
33.35377058851895
 20
0.9147978671026215
 30
0.0
 10
32.83502870047969
 20
1.214202045923914
 30
0.0
 10
31.79250645530138
 20
1.811348677871187
 30
0.0
 10
31.27027759956751
 20
2.108790780453997
 30
0.0
 10
30.22796225863124
 20
2.699090641669283
 30
0.0
 10
29.7093969044782
 20
2.991666619906097
 30
0.0
 10
28.66834558982278
 20
3.57185933698198
 30
0.0
 10
28.1462599534887
 20
3.859393876112866
 30
0.0
 10
26.58143428863686
 20
4.710925033443013
 30
0.0
 10
25.5438536024476
 20
5.26319905922808
 30
0.0
 10
23.97871192011796
 20
6.062904451126875
 30
0.0
 10
23.45688348833071
 20
6.324448147280942
 30
0.0
 10
22.41706499972977
 20
6.835482472303911
 30
0.0
 10
21.89761467665739
 20
7.085223525728468
 30
0.0
 10
20.8546677660602
 20
7.572610705807929
 30
0.0
 10
20.33248487175765
 20
7.810039087088154
 30
0.0
 10
19.29077684929277
 20
8.270527472726556
 30
0.0
 10
18.77238356488958
 20
8.493441445585628
 30
0.0
 10
17.73060802597934
 20
8.924862220458603
 30
0.0
 10
17.20841748178198
 20
9.133181863548927
 30
0.0
 10
16.16550768655249
 20
9.533396070328834
 30
0.0
 10
15.64614663700966
 20
9.725132590894054
 30
0.0
 10
14.08627225108038
 20
10.27479603237503
 30
0.0
 10
13.03878320883005
 20
10.60757605946008
 30
0.0
 10
11.99999999999674
 20
10.90156127543913
 30
0.0
  0
SPLINE
  5
AE
330
1F
100
AcDbEntity
  8
0
  6
Continuous
 62
     1
370
    15
100
AcDbSpline
210
0.0
220
0.0
230
1.0
 70
     8
 71
     3
 72
    17
 73
    13
 74
     0
 42
0.000000001
 43
0.00000001
 40
0.0
 40
0.0
 40
0.0
 40
0.0
 40
0.1022243557948152
 40
0.2044395702931107
 40
0.306647217578583
 40
0.4088488771626681
 40
0.5110461328565465
 40
0.6132405716366012
 40
0.7154337825050516
 40
0.8176273553474945
 40
0.9198228797890983
 40
1.0
 40
1.0
 40
1.0
 40
1.0
 10
62.00000000000001
 20
-9.862153304602698
 30
0.0
 10
60.89457030272148
 20
-9.638039277573911
 30
0.0
 10
58.68380975995534
 20
-9.189831264657803
 30
0.0
 10
55.36785803677289
 20
-8.240526645182404
 30
0.0
 10
52.05218450232819
 20
-7.114935182668215
 30
0.0
 10
48.73673501317952
 20
-5.818409304282965
 30
0.0
 10
45.42144933295884
 20
-4.386871747628278
 30
0.0
 10
42.10626861632974
 20
-2.852520130852003
 30
0.0
 10
38.79113381312541
 20
-1.250897058921993
 30
0.0
 10
35.47598483238748
 20
0.3777758752176907
 30
0.0
 10
32.39889486696992
 20
1.889060472086409
 30
0.0
 10
30.42683688801126
 20
2.816032003015596
 30
0.0
 10
29.55985417827916
 20
3.223559721928741
 30
0.0
  0
LINE
  5
AF
330
1F
100
AcDbEntity
  8
0
  6
Continuous
 62
     1
370
    15
100
AcDbLine
 10
61.99999999999974
 20
-11.86176086539874
 30
0.0
 11
62.00000000000001
 21
-9.862153304602698
 31
0.0
  0
SPLINE
  5
B0
330
1F
100
AcDbEntity
  8
0
  6
Continuous
 62
     1
370
    15
100
AcDbSpline
210
0.0
220
0.0
230
1.0
 70
     8
 71
     3
 72
    56
 73
    52
 74
     0
 42
0.000000001
 43
0.00000001
 40
0.0
 40
0.0
 40
0.0
 40
0.0
 40
0.0625
 40
0.0625
 40
0.09375
 40
0.09375
 40
0.125
 40
0.125
 40
0.15625
 40
0.15625
 40
0.1875000000000001
 40
0.1875000000000001
 40
0.2187500000000001
 40
0.2187500000000001
 40
0.2500000000000001
 40
0.2500000000000001
 40
0.3125000000000001
 40
0.3125000000000001
 40
0.34375
 40
0.34375
 40
0.3749999999999999
 40
0.3749999999999999
 40
0.4062499999999998
 40
0.4062499999999998
 40
0.4374999999999998
 40
0.4374999999999998
 40
0.4999999999999996
 40
0.4999999999999996
 40
0.5624999999999993
 40
0.5624999999999993
 40
0.5937499999999993
 40
0.5937499999999993
 40
0.6249999999999993
 40
0.6249999999999993
 40
0.6562499999999993
 40
0.6562499999999993
 40
0.6874999999999993
 40
0.6874999999999993
 40
0.7499999999999992
 40
0.7499999999999992
 40
0.8124999999999991
 40
0.8124999999999991
 40
0.8437499999999993
 40
0.8437499999999993
 40
0.8749999999999994
 40
0.8749999999999994
 40
0.9062499999999996
 40
0.9062499999999996
 40
0.9374999999999998
 40
0.9374999999999998
 40
1.0
 40
1.0
 40
1.0
 40
1.0
 10
12.0
 20
8.788419714414516
 30
0.0
 10
13.03878320883326
 20
8.361145956948224
 30
0.0
 10
14.08627225108352
 20
7.902069495441597
 30
0.0
 10
15.64614663701267
 20
7.176406725981103
 30
0.0
 10
16.16550768655547
 20
6.928183633602619
 30
0.0
 10
17.2084174817849
 20
6.419468310578238
 30
0.0
 10
17.73060802598223
 20
6.159186063739551
 30
0.0
 10
18.7723835648924
 20
5.628816544168181
 30
0.0
 10
19.29077684929554
 20
5.358946892134592
 30
0.0
 10
20.33248487176036
 20
4.809530661611478
 30
0.0
 10
20.85466776606289
 20
4.530169992497095
 30
0.0
 10
21.89761467666001
 20
3.964315134143066
 30
0.0
 10
22.41706499973233
 20
3.678066608671843
 30
0.0
 10
23.45688348833322
 20
3.099527764927199
 30
0.0
 10
23.97871192012044
 20
2.806960731634287
 30
0.0
 10
25.54385360244998
 20
1.922764372369152
 30
0.0
 10
26.58143428863916
 20
1.325676150143859
 30
0.0
 10
28.14625995349091
 20
0.4246426594923713
 30
0.0
 10
28.66834558982496
 20
0.1235763516885063
 30
0.0
 10
29.70939690448031
 20
-0.4776486482874683
 30
0.0
 10
30.22796225863331
 20
-0.7777308908428298
 30
0.0
 10
31.27027759956952
 20
-1.377020905245845
 30
0.0
 10
31.79250645530335
 20
-1.675934016734646
 30
0.0
 10
32.83502870048158
 20
-2.269961844755001
 30
0.0
 10
33.35377058852081
 20
-2.564785738709445
 30
0.0
 10
34.91485729597213
 20
-3.442740256809893
 30
0.0
 10
35.96154229397303
 20
-4.019185974755819
 30
0.0
 10
38.03843831017706
 20
-5.137261236507235
 30
0.0
 10
39.08589955200237
 20
-5.681959113992358
 30
0.0
 10
40.64619547250804
 20
-6.46475188278463
 30
0.0
 10
41.1653157982919
 20
-6.720144711487515
 30
0.0
 10
42.20810812054341
 20
-7.219560289777726
 30
0.0
 10
42.73031732186512
 20
-7.46333511007698
 30
0.0
 10
43.77228447811586
 20
-7.937125432750373
 30
0.0
 10
44.29070075949177
 20
-8.166957167648064
 30
0.0
 10
45.33220154026061
 20
-8.612746284325693
 30
0.0
 10
45.85435789929785
 20
-8.828549689792249
 30
0.0
 10
47.41893094892112
 20
-9.452125448331136
 30
0.0
 10
48.45670252488193
 20
-9.835755847959996
 30
0.0
 10
50.54358157380406
 20
-10.53351839885361
 30
0.0
 10
51.58124341243968
 20
-10.8463751596057
 30
0.0
 10
53.1459515634027
 20
-11.25844419825062
 30
0.0
 10
53.66807550271059
 20
-11.3861736977058
 30
0.0
 10
54.7093573781471
 20
-11.62141679194824
 30
0.0
 10
55.2278310168207
 20
-11.72890788209169
 30
0.0
 10
56.26997810932522
 20
-11.92370901128971
 30
0.0
 10
56.79220008131923
 20
-12.01089867942307
 30
0.0
 10
57.83486321860724
 20
-12.16416513438806
 30
0.0
 10
58.35377715465314
 20
-12.23019275283319
 30
0.0
 10
59.91447718736485
 20
-12.3964840070409
 30
0.0
 10
60.96189874227532
 20
-12.4647424568311
 30
0.0
 10
62.00000000000001
 20
-12.48943519037054
 30
0.0
  0
SPLINE
  5
B1
330
1F
100
AcDbEntity
  8
0
  6
Continuous
 62
     1
370
    15
100
AcDbSpline
210
0.0
220
0.0
230
1.0
 70
     8
 71
     3
 72
    13
 73
     9
 74
     0
 42
0.000000001
 43
0.00000001
 40
0.0
 40
0.0
 40
0.0
 40
0.0
 40
0.1101005104640805
 40
0.2852523378618983
 40
0.460416133766912
 40
0.6402710846772973
 40
0.8201333805312631
 40
0.9999999999999999
 40
0.9999999999999999
 40
0.9999999999999999
 40
0.9999999999999999
 10
30.92964405889571
 20
-1.180701613642621
 30
0.0
 10
30.23493541647283
 20
-0.9025890756521748
 30
0.0
 10
28.43505943452956
 20
-0.1820451715767937
 30
0.0
 10
25.52992095335891
 20
0.9973671995147813
 30
0.0
 10
22.18462745726695
 20
2.328488553638607
 30
0.0
 10
18.80956782607592
 20
3.613844042583608
 30
0.0
 10
15.4048261030001
 20
4.831424785126368
 30
0.0
 10
13.13495112827843
 20
5.537755514537297
 30
0.0
 10
12.00000000000002
 20
5.890925123969616
 30
0.0
  0
SPLINE
  5
B2
330
1F
100
AcDbEntity
  8
0
  6
Continuous
 62
     4
370
    15
100
AcDbSpline
210
0.0
220
0.0
230
1.0
 70
    24
 71
     3
 72
    10
 73
     6
 74
     0
 42
0.000000001
 43
0.00000001
 40
0.0
 40
0.0
 40
0.0
 40
0.0
 40
0.5
 40
0.5
 40
1.0
 40
1.0
 40
1.0
 40
1.0
 10
12.00000000000001
 20
8.788419714414522
 30
0.0
 10
12.00000000000001
 20
8.485394903687343
 30
0.0
 10
12.00000000000001
 20
8.060070392545128
 30
0.0
 10
12.00000000000001
 20
7.05294770985653
 30
0.0
 10
12.0
 20
6.474448606743286
 30
0.0
 10
12.00000000000001
 20
5.890925123969621
 30
0.0
  0
LINE
  5
B3
330
1F
100
AcDbEntity
  8
0
  6
Continuous
 62
     1
370
    15
100
AcDbLine
 10
62.00000000000001
 20
-12.48943519037055
 30
0.0
 11
62.00000000000023
 21
-11.86176086539873
 31
0.0
  0
SPLINE
  5
B4
330
1F
100
AcDbEntity
  8
0
  6
Continuous
 62
     1
370
    15
100
AcDbSpline
210
0.0
220
0.0
230
1.0
 70
     8
 71
     3
 72
    10
 73
     6
 74
     0
 42
0.000000001
 43
0.00000001
 40
0.0
 40
0.0
 40
0.0
 40
0.0
 40
0.5
 40
0.5
 40
1.0
 40
1.0
 40
1.0
 40
1.0
 10
62.00000000000001
 20
-3.340536825370555
 30
0.0
 10
61.14888280280689
 20
-2.671419553953058
 30
0.0
 10
60.30665809947936
 20
-1.984398767618595
 30
0.0
 10
58.63974243677179
 20
-0.5750560014869127
 30
0.0
 10
57.81504875557343
 20
0.1472604983947976
 30
0.0
 10
57.00000000000191
 20
0.8889954058057863
 30
0.0
  0
LINE
  5
B5
330
1F
100
AcDbEntity
  8
0
  6
Continuous
 62
     1
370
    15
100
AcDbLine
 10
57.00000000000001
 20
2.937719435296593
 30
0.0
 11
62.00000000000001
 21
0.0000000000000067
 31
0.0
  0
LINE
  5
B6
330
1F
100
AcDbEntity
  8
0
  6
Continuous
 62
     1
370
    15
100
AcDbLine
 10
62.00000000000001
 20
0.0000000000000067
 30
0.0
 11
62.00000000000001
 21
-3.340536825370555
 31
0.0
  0
SPLINE
  5
B7
330
1F
100
AcDbEntity
  8
0
  6
Continuous
 62
     1
370
    15
100
AcDbSpline
210
0.0
220
0.0
230
1.0
 70
     8
 71
     3
 72
    18
 73
    14
 74
     0
 42
0.000000001
 43
0.00000001
 40
0.0
 40
0.0
 40
0.0
 40
0.0
 40
0.0873688416572593
 40
0.1748022039868555
 40
0.2621970123455217
 40
0.3673894578785584
 40
0.472578963408252
 40
0.5777671874774133
 40
0.6829557895542763
 40
0.7881464288340712
 40
0.8933407630410188
 40
0.9985404472325732
 40
1.0
 40
1.0
 40
1.0
 40
1.0
 10
57.00000000000001
 20
2.28910902158232
 30
0.0
 10
56.08224377398159
 20
2.698296855772716
 30
0.0
 10
54.24605357175799
 20
3.516974703668233
 30
0.0
 10
51.49132421770027
 20
4.67723921093857
 30
0.0
 10
48.54978480792805
 20
5.839220966665512
 30
0.0
 10
45.42145802679177
 20
6.957589438470578
 30
0.0
 10
42.10629987020103
 20
7.980030358154955
 30
0.0
 10
38.79116420571596
 20
8.816183179155516
 30
0.0
 10
35.47602102272469
 20
9.444013156449644
 30
0.0
 10
32.16080447479354
 20
9.858293556861419
 30
0.0
 10
28.8454526610678
 20
10.01392911303641
 30
0.0
 10
26.61983476501458
 20
10.03101909091188
 30
0.0
 10
25.49931693452848
 20
9.932741645267235
 30
0.0
 10
25.48398347680773
 20
9.931396791114365
 30
0.0
  0
SPLINE
  5
B8
330
1F
100
AcDbEntity
  8
0
  6
Continuous
 62
     1
370
    15
100
AcDbSpline
210
0.0
220
0.0
230
1.0
 70
    24
 71
     3
 72
     8
 73
     4
 74
     0
 42
0.000000001
 43
0.00000001
 40
0.0
 40
0.0
 40
0.0
 40
0.0
 40
1.0
 40
1.0
 40
1.0
 40
1.0
 10
57.00000000000002
 20
0.8889954057935544
 30
0.0
 10
57.00000000000002
 20
1.361273205123752
 30
0.0
 10
57.00000000000002
 20
1.82911733583934
 30
0.0
 10
57.00000000000002
 20
2.289109021582318
 30
0.0
  0
SPLINE
  5
B9
330
1F
100
AcDbEntity
  8
0
  6
Continuous
 62
     1
370
    15
100
AcDbSpline
210
0.0
220
0.0
230
1.0
 70
    24
 71
     3
 72
    12
 73
     8
 74
     0
 42
0.000000001
 43
0.00000001
 40
0.0
 40
0.0
 40
0.0
 40
0.0
 40
0.5
 40
0.5
 40
0.75
 40
0.75
 40
1.0
 40
1.0
 40
1.0
 40
1.0
 10
62.00000000000001
 20
-9.862153304602694
 30
0.0
 10
62.00000000000001
 20
-9.106142362547558
 30
0.0
 10
61.99999999999999
 20
-8.150893548830851
 30
0.0
 10
62.00000000000001
 20
-6.485247379245334
 30
0.0
 10
62.00000000000001
 20
-5.892209210045274
 30
0.0
 10
62.0
 20
-4.651258470056892
 30
0.0
 10
62.00000000000001
 20
-4.00343993175616
 30
0.0
 10
62.00000000000001
 20
-3.340536825370953
 30
0.0
  0
SPLINE
  5
BA
330
1F
100
AcDbEntity
  8
0
  6
Continuous
 62
     1
370
    15
100
AcDbSpline
210
0.0
220
0.0
230
1.0
 70
    24
 71
     3
 72
    10
 73
     6
 74
     0
 42
0.000000001
 43
0.00000001
 40
0.0
 40
0.0
 40
0.0
 40
0.0
 40
0.5
 40
0.5
 40
1.0
 40
1.0
 40
1.0
 40
1.0
 10
57.00000000000001
 20
2.289109021582319
 30
0.0
 10
57.00000000000001
 20
3.285481301107072
 30
0.0
 10
57.00000000000001
 20
4.23041225805574
 30
0.0
 10
57.00000000000001
 20
5.890227061962093
 30
0.0
 10
57.00000000000001
 20
6.603509984791772
 30
0.0
 10
57.00000000000001
 20
7.15457284595785
 30
0.0
  0
SPLINE
  5
BB
330
1F
100
AcDbEntity
  8
0
  6
Continuous
 62
     1
370
    15
100
AcDbSpline
210
0.0
220
0.0
230
1.0
 70
     8
 71
     3
 72
     9
 73
     5
 74
     0
 42
0.000000001
 43
0.00000001
 40
0.0
 40
0.0
 40
0.0
 40
0.0
 40
0.7129801821554048
 40
1.0
 40
1.0
 40
1.0
 40
1.0
 10
62.00000000000001
 20
8.750000000000009
 30
0.0
 10
60.89457152438595
 20
8.739918448679605
 30
0.0
 10
59.34413786117771
 20
8.725778432487393
 30
0.0
 10
57.79372652798985
 20
8.569665796535148
 30
0.0
 10
57.34872774955407
 20
8.524858376200893
 30
0.0
  0
SPLINE
  5
BC
330
1F
100
AcDbEntity
  8
0
  6
Continuous
 62
     1
370
    15
100
AcDbSpline
210
0.0
220
0.0
230
1.0
 70
     8
 71
     3
 72
     8
 73
     4
 74
     0
 42
0.000000001
 43
0.00000001
 40
0.0
 40
0.0
 40
0.0
 40
0.0
 40
1.0
 40
1.0
 40
1.0
 40
1.0
 10
62.00000000000001
 20
8.750000000000007
 30
0.0
 10
60.31907924013187
 20
8.294315489460105
 30
0.0
 10
58.651728911856
 20
7.766157559606853
 30
0.0
 10
57.00000000000001
 20
7.15457284595785
 30
0.0
  0
SPLINE
  5
BD
330
1F
100
AcDbEntity
  8
0
  6
Continuous
 62
     1
370
    15
100
AcDbSpline
210
0.0
220
0.0
230
1.0
 70
     8
 71
     3
 72
    15
 73
    11
 74
     0
 42
0.000000001
 43
0.00000001
 40
0.0
 40
0.0
 40
0.0
 40
0.0
 40
0.0018455461217404
 40
0.142804277221096
 40
0.283767959637855
 40
0.4247388112005259
 40
0.5657190445671814
 40
0.7104743946205152
 40
0.855235502548667
 40
1.0
 40
1.0
 40
1.0
 40
1.0
 10
35.51944608238991
 20
-9.400207937728366
 30
0.0
 10
35.50497768676663
 20
-9.402949779196462
 30
0.0
 10
34.3854452322853
 20
-9.615107408038078
 30
0.0
 10
32.16080338797823
 20
-9.837286742028933
 30
0.0
 10
28.84545534357524
 20
-10.03577876204212
 30
0.0
 10
25.52991441658338
 20
-9.972992320010098
 30
0.0
 10
22.18462286566483
 20
-9.68211827634367
 30
0.0
 10
18.80956234622164
 20
-9.149427608969352
 30
0.0
 10
15.40482373872163
 20
-8.399941394832808
 30
0.0
 10
13.1349501041667
 20
-7.729424528361285
 30
0.0
 10
11.99999999999999
 20
-7.394162170200715
 30
0.0
  0
SPLINE
  5
BE
330
1F
100
AcDbEntity
  8
0
  6
Continuous
 62
     4
370
    15
100
AcDbSpline
210
0.0
220
0.0
230
1.0
 70
    24
 71
     3
 72
    14
 73
    10
 74
     0
 42
0.000000001
 43
0.00000001
 40
0.0
 40
0.0
 40
0.0
 40
0.0
 40
0.25
 40
0.25
 40
0.5
 40
0.5
 40
0.75
 40
0.75
 40
1.0
 40
1.0
 40
1.0
 40
1.0
 10
11.99999999999999
 20
5.890925123969622
 30
0.0
 10
11.99999999999999
 20
4.932222696969768
 30
0.0
 10
11.99999999999999
 20
3.874816205487654
 30
0.0
 10
11.99999999999999
 20
1.639668048544534
 30
0.0
 10
11.99999999999999
 20
0.4627789767857188
 30
0.0
 10
11.99999999999999
 20
-1.898364059202628
 30
0.0
 10
11.99999999999999
 20
-3.081359907707395
 30
0.0
 10
11.99999999999999
 20
-5.339776857191619
 30
0.0
 10
11.99999999999999
 20
-6.414312682194233
 30
0.0
 10
11.99999999999999
 20
-7.394162170200714
 30
0.0
  0
SPLINE
  5
BF
330
1F
100
AcDbEntity
  8
0
  6
Continuous
 62
     4
370
    15
100
AcDbSpline
210
0.0
220
0.0
230
1.0
 70
    24
 71
     3
 72
    14
 73
    10
 74
     0
 42
0.000000001
 43
0.00000001
 40
0.0
 40
0.0
 40
0.0
 40
0.0
 40
0.1809960204726452
 40
0.3643419328335352
 40
0.4978596965123681
 40
0.631377460191201
 40
0.7687742037835203
 40
0.9061709473758397
 40
1.0
 40
1.0
 40
1.0
 40
1.0
 10
12.00000000000001
 20
-7.394162170200721
 30
0.0
 10
12.00000000000001
 20
-7.681827086326193
 30
0.0
 10
12.0
 20
-8.260891704851282
 30
0.0
 10
12.0
 20
-8.876386470282254
 30
0.0
 10
12.0
 20
-9.32339384509346
 30
0.0
 10
12.0
 20
-9.634512499486174
 30
0.0
 10
12.0
 20
-9.84383645301689
 30
0.0
 10
12.0
 20
-9.97440620754181
 30
0.0
 10
12.0
 20
-9.948889046592468
 30
0.0
 10
12.0
 20
-9.938534444827825
 30
0.0
  0
LINE
  5
C0
330
1F
100
AcDbEntity
  8
0
  6
Continuous
 62
     1
370
    15
100
AcDbLine
 10
62.00000000000001
 20
0.0000000000000067
 30
0.0
 11
62.00000000000001
 21
8.750000000000005
 31
0.0
  0
SPLINE
  5
C1
330
1F
100
AcDbEntity
  8
0
  6
Continuous
 62
     1
370
    15
100
AcDbSpline
210
0.0
220
0.0
230
1.0
 70
    24
 71
     3
 72
    10
 73
     6
 74
     0
 42
0.000000001
 43
0.00000001
 40
0.0
 40
0.0
 40
0.0
 40
0.0
 40
0.5
 40
0.5
 40
1.0
 40
1.0
 40
1.0
 40
1.0
 10
62.00000000000001
 20
8.750000000000007
 30
0.0
 10
62.00000000000001
 20
9.28040321009143
 30
0.0
 10
62.00000000000001
 20
9.896780860838968
 30
0.0
 10
62.00000000000001
 20
11.1899395120107
 30
0.0
 10
62.00000000000001
 20
11.86341794751841
 30
0.0
 10
62.00000000000001
 20
12.48943519037055
 30
0.0
  0
SPLINE
  5
C2
330
1F
100
AcDbEntity
  8
0
  6
Continuous
 62
     1
370
    15
100
AcDbSpline
210
0.0
220
0.0
230
1.0
 70
     8
 71
     3
 72
    16
 73
    12
 74
     0
 42
0.000000001
 43
0.00000001
 40
0.0
 40
0.0
 40
0.0
 40
0.0
 40
0.0220690752762204
 40
0.1270775177797739
 40
0.2324508063240882
 40
0.3270339638918714
 40
0.516702256404616
 40
0.6118227659586039
 40
0.7085886343059284
 40
0.9026582491619635
 40
1.0
 40
1.0
 40
1.0
 40
1.0
 10
44.80001093814039
 20
8.380033612441801
 30
0.0
 10
44.92649940320653
 20
8.43571372588401
 30
0.0
 10
45.65484166345971
 20
8.756329361898288
 30
0.0
 10
46.98834687897446
 20
9.284114311817696
 30
0.0
 10
48.73570944021647
 20
9.934296315194805
 30
0.0
 10
50.97021317646603
 20
10.67495456005233
 30
0.0
 10
53.1457732485604
 20
11.27998058994429
 30
0.0
 10
55.33231728853988
 20
11.75792300929799
 30
0.0
 10
57.54559565385824
 20
12.14748398322851
 30
0.0
 10
59.77142570775211
 20
12.4065696960497
 30
0.0
 10
61.44197663181384
 20
12.46868610320384
 30
0.0
 10
61.99999999999979
 20
12.48943519037054
 30
0.0
  0
SPLINE
  5
C3
330
1F
100
AcDbEntity
  8
0
  6
Continuous
 62
     1
370
    15
100
AcDbSpline
210
0.0
220
0.0
230
1.0
 70
     8
 71
     3
 72
     9
 73
     5
 74
     0
 42
0.000000001
 43
0.00000001
 40
0.0
 40
0.0
 40
0.0
 40
0.0
 40
0.0621204477307571
 40
1.0
 40
1.0
 40
1.0
 40
1.0
 10
15.352249689552
 20
-9.822057918660622
 30
0.0
 10
15.28283818654285
 20
-9.848871116180739
 30
0.0
 10
14.16546853540986
 20
-10.2805035093716
 30
0.0
 10
13.04802626048759
 20
-10.60098667115545
 30
0.0
 10
11.99999999999675
 20
-10.90156127543912
 30
0.0
  0
SPLINE
  5
C4
330
1F
100
AcDbEntity
  8
0
  6
Continuous
 62
     4
370
    15
100
AcDbSpline
210
0.0
220
0.0
230
1.0
 70
    24
 71
     3
 72
    11
 73
     7
 74
     0
 42
0.000000001
 43
0.00000001
 40
0.0
 40
0.0
 40
0.0
 40
0.0
 40
0.1476870617507715
 40
0.4632400014368406
 40
0.7791596550380406
 40
1.0
 40
1.0
 40
1.0
 40
1.0
 10
12.0
 20
-10.02393040509804
 30
0.0
 10
12.0
 20
-10.07003452845741
 30
0.0
 10
12.0
 20
-10.21464620884471
 30
0.0
 10
12.0
 20
-10.44638417759727
 30
0.0
 10
12.0
 20
-10.69259868160835
 30
0.0
 10
12.0
 20
-10.84064872212829
 30
0.0
 10
12.0
 20
-10.90156127542506
 30
0.0
  0
LINE
  5
C5
330
1F
100
AcDbEntity
  8
중심선
100
AcDbLine
 10
-60.99999999999997
 20
-0.0000000000000035
 30
0.0
 11
69.00000000000001
 21
0.0000000000000071
 31
0.0
  0
CIRCLE
  5
C6
330
1F
100
AcDbEntity
  8
외형선
100
AcDbCircle
 10
0.0
 20
0.0
 30
0.0
 40
3.000000000000004
  0
INSERT
  5
C7
330
1F
100
AcDbEntity
  8
0
  6
Continuous
 62
     7
100
AcDbBlockReference
 66
     1
  2
블럭10
 10
-21.9382734395116
 20
-52.04717430164393
 30
0.0
  0
ATTRIB
  5
C8
330
C7
100
AcDbEntity
  8
FORMAT
 62
     2
100
AcDbText
 10
-34.89821263436937
 20
-49.97180738881174
 30
0.0
 40
4.233333333333333
  1
SEME35250E [ 2 FLUTE ]
 41
0.75
  7
SLDTEXTSTYLE0
 11
-34.89821263436937
 21
-52.08847405547841
 31
0.0
100
AcDbAttribute
  2
AUTOATTR0
 70
     0
 74
     1
  0
SEQEND
  5
C9
330
C7
100
AcDbEntity
  8
0
  6
Continuous
 62
     7
  0
HATCH
  5
CA
330
1F
100
AcDbEntity
  8
중심선
100
AcDbHatch
 10
0.0
 20
0.0
 30
0.0
210
0.0
220
0.0
230
1.0
  2
SOLID
 70
     1
 71
     0
 91
        1
 92
        0
 93
        4
 72
     1
 10
-16.22336413513074
 20
-35.8
 11
-19.66963937896803
 21
-35.8
 72
     1
 10
-19.66963937896803
 20
-35.8
 11
-21.79786923817205
 21
-38.33632558057259
 72
     1
 10
-21.79786923817205
 20
-38.33632558057259
 11
-18.35156090922162
 21
-38.3362861512701
 72
     1
 10
-18.35156090922162
 20
-38.3362861512701
 11
-16.22336413513074
 21
-35.8
 97
        0
 75
     0
 76
     1
 98
        1
 10
2.000000000000015
 20
0.0
  0
HATCH
  5
CB
330
1F
100
AcDbEntity
  8
중심선
100
AcDbHatch
 10
0.0
 20
0.0
 30
0.0
210
0.0
220
0.0
230
1.0
  2
SOLID
 70
     1
 71
     0
 91
        1
 92
        0
 93
        4
 72
     1
 10
-11.21060014409479
 20
-35.8
 11
-14.65687538793208
 21
-35.8
 72
     1
 10
-14.65687538793208
 20
-35.8
 11
-19.18801339628946
 21
-41.20000000000002
 72
     1
 10
-19.18801339628946
 20
-41.20000000000002
 11
-15.74173815245218
 21
-41.20000000000002
 72
     1
 10
-15.74173815245218
 20
-41.20000000000002
 11
-11.21060014409479
 21
-35.8
 97
        0
 75
     0
 76
     1
 98
        1
 10
2.000000000000015
 20
0.0
  0
HATCH
  5
CC
330
1F
100
AcDbEntity
  8
중심선
100
AcDbHatch
 10
0.0
 20
0.0
 30
0.0
210
0.0
220
0.0
230
1.0
  2
SOLID
 70
     1
 71
     0
 91
        1
 92
        0
 93
        4
 72
     1
 10
-6.197836153058898
 20
-35.80000000000003
 11
-9.644111396896015
 21
-35.8
 72
     1
 10
-9.644111396896015
 20
-35.8
 11
-16.69254829878526
 21
-44.20000000000002
 72
     1
 10
-16.69254829878526
 20
-44.20000000000002
 11
-13.24627305494798
 21
-44.20000000000002
 72
     1
 10
-13.24627305494798
 20
-44.20000000000002
 11
-6.197836153058898
 21
-35.80000000000003
 97
        0
 75
     0
 76
     1
 98
        1
 10
2.000000000000015
 20
0.0
  0
HATCH
  5
CD
330
1F
100
AcDbEntity
  8
중심선
100
AcDbHatch
 10
0.0
 20
0.0
 30
0.0
210
0.0
220
0.0
230
1.0
  2
SOLID
 70
     1
 71
     0
 91
        1
 92
        0
 93
        6
 72
     3
 10
-1.397945722046699
 20
-40.00000000005127
 11
3.960054785062284
 21
1.540882976769353E-10
 40
0.3939339440162627
 50
17.09539180608437
 51
320.0019657685079
 73
     0
 72
     1
 10
0.2850539336538966
 20
-38.5878940046383
 11
2.590355807354935
 21
-36.65356729459038
 72
     3
 10
-1.397945722099545
 20
-40.00000000000015
 11
6.600054785286829
 21
-1.278976924368180E-13
 40
0.636358354079598
 50
39.9987384933741
 51
368.4976242363725
 73
     1
 72
     1
 10
5.027386769801064
 20
-39.03999999993002
 11
-2.717878415263623
 21
-39.03999999992999
 72
     1
 10
-2.717878415263623
 20
-39.03999999992999
 11
-2.717903459709557
 21
-40.95999999992991
 72
     1
 10
-2.717903459709557
 20
-40.95999999992991
 11
1.72347630976248
 21
-40.95999999992988
 97
        0
 75
     0
 76
     1
 98
        1
 10
2.000000000000015
 20
0.0
  0
DIMENSION
  5
CE
330
1F
100
AcDbEntity
  8
치수문자_일반주서
100
AcDbDimension
  2
_D
 10
12.0
 20
24.74006907894834
 30
0.0
 11
37.0
 21
24.74006907894834
 31
0.0
 70
   160
  1
<>
 71
     2
 42
50.00000000000001
  3
SLDDIMSTYLE0
100
AcDbAlignedDimension
 13
62.00000000000001
 23
12.48943519037056
 33
0.0
 14
12.0
 24
10.9015612754382
 34
0.0
100
AcDbRotatedDimension
  0
DIMENSION
  5
D9
330
1F
100
AcDbEntity
  8
치수문자_일반주서
100
AcDbDimension
  2
_D_1
 10
-57.99999999999999
 20
31.53415911661227
 30
0.0
 11
2.000000000000027
 21
31.53415911661227
 31
0.0
 70
   160
  1
<>
 71
     2
 42
119.9999999999998
  3
SLDDIMSTYLE0
100
AcDbAlignedDimension
 13
61.99999999999979
 23
12.48943519037054
 33
0.0
 14
-57.99999999999999
 24
11.49999999999999
 34
0.0
 50
0.0000000000000034
100
AcDbRotatedDimension
  0
DIMENSION
  5
E3
330
1F
100
AcDbEntity
  8
치수문자_일반주서
100
AcDbDimension
  2
_D_2
 10
77.56619031224633
 20
-12.49874613869455
 30
0.0
 11
77.56619031224629
 21
0.0000000000000029
 31
0.0
 70
   160
  1
%%c<>
 71
     2
 42
24.99967770522416
 52
-270.0
  3
SLDDIMSTYLE1
100
AcDbAlignedDimension
 13
62.00000000000001
 23
12.50093156652956
 33
0.0
 14
62.00000000000001
 24
-12.4987461386946
 34
0.0
 50
90.0000000000002
100
AcDbRotatedDimension
  0
DIMENSION
  5
F1
330
1F
100
AcDbEntity
  8
치수문자_일반주서
100
AcDbDimension
  2
_D_3
 10
-69.41955944538849
 20
-12.50000000000005
 30
0.0
 11
-69.41955944538853
 21
0.0000000000000008
 31
0.0
 70
   160
  1
%%c<>
 71
     2
 42
25.0
 52
-270.0
  3
SLDDIMSTYLE1
100
AcDbAlignedDimension
 13
-56.99999999999999
 23
12.5
 33
0.0
 14
-56.99999999999999
 24
-12.5
 34
0.0
 50
90.0000000000002
100
AcDbRotatedDimension
  0
INSERT
  5
102
330
1F
100
AcDbEntity
  8
외형선
100
AcDbBlockReference
  2
SW_DOWELSYMBOL_0
 10
0.0
 20
0.0
 30
0.0
  0
ENDSEC
  0
SECTION
  2
OBJECTS
  0
DICTIONARY
  5
C
330
0
100
AcDbDictionary
281
     1
  3
ACAD_GROUP
350
D
  3
ACAD_LAYOUT
350
1A
  3
ACAD_MLINESTYLE
350
17
  3
ACAD_PLOTSETTINGS
350
19
  3
ACAD_PLOTSTYLENAME
350
E
  3
ACAD_SCALELIST
350
47
  3
APPDATA
350
124
  3
DWGPROPS
350
140
  0
DICTIONARY
  5
D
102
{ACAD_REACTORS
330
C
102
}
330
C
100
AcDbDictionary
281
     1
  0
DICTIONARY
  5
1A
102
{ACAD_REACTORS
330
C
102
}
330
C
100
AcDbDictionary
281
     1
  3
Layout1
350
1E
  3
Layout2
350
26
  3
Model
350
22
  0
DICTIONARY
  5
17
102
{ACAD_REACTORS
330
C
102
}
330
C
100
AcDbDictionary
281
     1
  3
Standard
350
18
  0
DICTIONARY
  5
19
102
{ACAD_REACTORS
330
C
102
}
330
C
100
AcDbDictionary
281
     1
  0
ACDBDICTIONARYWDFLT
  5
E
102
{ACAD_REACTORS
330
C
102
}
330
C
100
AcDbDictionary
281
     1
  3
Normal
350
F
100
AcDbDictionaryWithDefault
340
F
  0
DICTIONARY
  5
47
102
{ACAD_REACTORS
330
C
102
}
330
C
100
AcDbDictionary
281
     1
  3
A0
350
48
  3
A1
350
49
  3
A2
350
4A
  3
A3
350
4B
  3
A4
350
4C
  3
A5
350
4D
  3
A6
350
4E
  3
A7
350
4F
  3
A8
350
50
  3
A9
350
51
  3
B0
350
52
  3
B1
350
53
  3
B2
350
54
  3
B3
350
55
  3
B4
350
56
  3
B5
350
57
  3
B6
350
58
  3
B7
350
59
  3
B8
350
5A
  3
B9
350
5B
  3
C0
350
5C
  3
C1
350
5D
  3
C2
350
5E
  3
C3
350
5F
  3
C4
350
60
  3
C5
350
61
  3
C6
350
62
  3
C7
350
63
  3
C8
350
64
  3
C9
350
65
  3
D0
350
66
  3
D1
350
67
  3
D2
350
68
  0
DICTIONARY
  5
124
102
{ACAD_REACTORS
330
C
102
}
330
C
100
AcDbDictionary
281
     1
  0
XRECORD
  5
140
102
{ACAD_REACTORS
330
C
102
}
330
C
100
AcDbXrecord
280
     1
  1
DWGPROPS COOKIE
  2

  3

  4

  6

  7

  8
12011908
  9

300
=
301
=
302
=
303
=
304
=
305
=
306
=
307
=
308
=
309
=
 40
0.0
 41
2458250.193849861
 42
2458264.106855533
  1

 90
        0
  0
LAYOUT
  5
1E
102
{ACAD_REACTORS
330
1A
102
}
330
1A
100
AcDbPlotSettings
  1

  2
none_device
  4

  6

 40
0.0
 41
0.0
 42
0.0
 43
0.0
 44
0.0
 45
0.0
 46
0.0
 47
0.0
 48
0.0
 49
0.0
140
0.0
141
0.0
142
1.0
143
1.0
 70
   688
 72
     1
 73
     0
 74
     5
  7

 75
    16
147
1.0
148
0.0
149
0.0
100
AcDbLayout
  1
Layout1
 70
     1
 71
     1
 10
0.0
 20
0.0
 11
420.0
 21
297.0
 12
0.0
 22
0.0
 32
0.0
 14
1.000000000000000E+20
 24
1.000000000000000E+20
 34
1.000000000000000E+20
 15
-1.000000000000000E+20
 25
-1.000000000000000E+20
 35
-1.000000000000000E+20
146
0.0
 13
0.0
 23
0.0
 33
0.0
 16
1.0
 26
0.0
 36
0.0
 17
0.0
 27
1.0
 37
0.0
 76
     0
330
1B
  0
LAYOUT
  5
26
102
{ACAD_REACTORS
330
1A
102
}
330
1A
100
AcDbPlotSettings
  1

  2
none_device
  4

  6

 40
0.0
 41
0.0
 42
0.0
 43
0.0
 44
0.0
 45
0.0
 46
0.0
 47
0.0
 48
0.0
 49
0.0
140
0.0
141
0.0
142
1.0
143
1.0
 70
   688
 72
     1
 73
     0
 74
     5
  7

 75
    16
147
1.0
148
0.0
149
0.0
100
AcDbLayout
  1
Layout2
 70
     1
 71
     2
 10
0.0
 20
0.0
 11
0.0
 21
0.0
 12
0.0
 22
0.0
 32
0.0
 14
0.0
 24
0.0
 34
0.0
 15
0.0
 25
0.0
 35
0.0
146
0.0
 13
0.0
 23
0.0
 33
0.0
 16
1.0
 26
0.0
 36
0.0
 17
0.0
 27
1.0
 37
0.0
 76
     0
330
23
  0
LAYOUT
  5
22
102
{ACAD_REACTORS
330
1A
102
}
330
1A
100
AcDbPlotSettings
  1

  2
none_device
  4
ANSI_A_(11.00_x_8.50_Inches)
  6

 40
6.35
 41
19.05
 42
6.35000508
 43
19.05000254
 44
279.4
 45
215.9
 46
132.8228794910454
 47
102.1997382067325
 48
0.0
 49
0.0
140
0.0
141
0.0
142
0.0713859819021044
143
1.0
 70
  1696
 72
     0
 73
     0
 74
     0
  7

 75
     0
147
0.0235690232323232
148
0.0
149
0.0
100
AcDbLayout
  1
Model
 70
     1
 71
     0
 10
0.0
 20
0.0
 11
420.0
 21
297.0
 12
0.0
 22
0.0
 32
0.0
 14
-73.79455944538854
 24
-49.97180738881174
 34
0.0
 15
78.11652364557965
 25
35.90915911661227
 35
0.0
146
0.0
 13
0.0
 23
0.0
 33
0.0
 16
1.0
 26
0.0
 36
0.0
 17
0.0
 27
1.0
 37
0.0
 76
     0
330
1F
331
29
  0
MLINESTYLE
  5
18
102
{ACAD_REACTORS
330
17
102
}
330
17
100
AcDbMlineStyle
  2
Standard
 70
     0
  3

 62
   256
 51
90.0
 52
90.0
 71
     2
 49
0.5
 62
   256
  6
BYLAYER
 49
-0.5
 62
   256
  6
BYLAYER
  0
ACDBPLACEHOLDER
  5
F
102
{ACAD_REACTORS
330
E
102
}
330
E
  0
SCALE
  5
48
102
{ACAD_REACTORS
330
47
102
}
330
47
100
AcDbScale
 70
     0
300
1:1
140
1.0
141
1.0
290
     1
  0
SCALE
  5
49
102
{ACAD_REACTORS
330
47
102
}
330
47
100
AcDbScale
 70
     0
300
1:2
140
1.0
141
2.0
290
     0
  0
SCALE
  5
4A
102
{ACAD_REACTORS
330
47
102
}
330
47
100
AcDbScale
 70
     0
300
1:4
140
1.0
141
4.0
290
     0
  0
SCALE
  5
4B
102
{ACAD_REACTORS
330
47
102
}
330
47
100
AcDbScale
 70
     0
300
1:5
140
1.0
141
5.0
290
     0
  0
SCALE
  5
4C
102
{ACAD_REACTORS
330
47
102
}
330
47
100
AcDbScale
 70
     0
300
1:8
140
1.0
141
8.0
290
     0
  0
SCALE
  5
4D
102
{ACAD_REACTORS
330
47
102
}
330
47
100
AcDbScale
 70
     0
300
1:10
140
1.0
141
10.0
290
     0
  0
SCALE
  5
4E
102
{ACAD_REACTORS
330
47
102
}
330
47
100
AcDbScale
 70
     0
300
1:16
140
1.0
141
16.0
290
     0
  0
SCALE
  5
4F
102
{ACAD_REACTORS
330
47
102
}
330
47
100
AcDbScale
 70
     0
300
1:20
140
1.0
141
20.0
290
     0
  0
SCALE
  5
50
102
{ACAD_REACTORS
330
47
102
}
330
47
100
AcDbScale
 70
     0
300
1:30
140
1.0
141
30.0
290
     0
  0
SCALE
  5
51
102
{ACAD_REACTORS
330
47
102
}
330
47
100
AcDbScale
 70
     0
300
1:40
140
1.0
141
40.0
290
     0
  0
SCALE
  5
52
102
{ACAD_REACTORS
330
47
102
}
330
47
100
AcDbScale
 70
     0
300
1:50
140
1.0
141
50.0
290
     0
  0
SCALE
  5
53
102
{ACAD_REACTORS
330
47
102
}
330
47
100
AcDbScale
 70
     0
300
1:100
140
1.0
141
100.0
290
     0
  0
SCALE
  5
54
102
{ACAD_REACTORS
330
47
102
}
330
47
100
AcDbScale
 70
     0
300
2:1
140
2.0
141
1.0
290
     0
  0
SCALE
  5
55
102
{ACAD_REACTORS
330
47
102
}
330
47
100
AcDbScale
 70
     0
300
4:1
140
4.0
141
1.0
290
     0
  0
SCALE
  5
56
102
{ACAD_REACTORS
330
47
102
}
330
47
100
AcDbScale
 70
     0
300
8:1
140
8.0
141
1.0
290
     0
  0
SCALE
  5
57
102
{ACAD_REACTORS
330
47
102
}
330
47
100
AcDbScale
 70
     0
300
10:1
140
10.0
141
1.0
290
     0
  0
SCALE
  5
58
102
{ACAD_REACTORS
330
47
102
}
330
47
100
AcDbScale
 70
     0
300
100:1
140
100.0
141
1.0
290
     0
  0
SCALE
  5
59
102
{ACAD_REACTORS
330
47
102
}
330
47
100
AcDbScale
 70
     0
300
1/128" = 1'-0"
140
0.0078125
141
12.0
290
     0
  0
SCALE
  5
5A
102
{ACAD_REACTORS
330
47
102
}
330
47
100
AcDbScale
 70
     0
300
1/64" = 1'-0"
140
0.015625
141
12.0
290
     0
  0
SCALE
  5
5B
102
{ACAD_REACTORS
330
47
102
}
330
47
100
AcDbScale
 70
     0
300
1/32" = 1'-0"
140
0.03125
141
12.0
290
     0
  0
SCALE
  5
5C
102
{ACAD_REACTORS
330
47
102
}
330
47
100
AcDbScale
 70
     0
300
1/16" = 1'-0"
140
0.0625
141
12.0
290
     0
  0
SCALE
  5
5D
102
{ACAD_REACTORS
330
47
102
}
330
47
100
AcDbScale
 70
     0
300
3/32" = 1'-0"
140
0.09375
141
12.0
290
     0
  0
SCALE
  5
5E
102
{ACAD_REACTORS
330
47
102
}
330
47
100
AcDbScale
 70
     0
300
1/8" = 1'-0"
140
0.125
141
12.0
290
     0
  0
SCALE
  5
5F
102
{ACAD_REACTORS
330
47
102
}
330
47
100
AcDbScale
 70
     0
300
3/16" = 1'-0"
140
0.1875
141
12.0
290
     0
  0
SCALE
  5
60
102
{ACAD_REACTORS
330
47
102
}
330
47
100
AcDbScale
 70
     0
300
1/4" = 1'-0"
140
0.25
141
12.0
290
     0
  0
SCALE
  5
61
102
{ACAD_REACTORS
330
47
102
}
330
47
100
AcDbScale
 70
     0
300
3/8" = 1'-0"
140
0.375
141
12.0
290
     0
  0
SCALE
  5
62
102
{ACAD_REACTORS
330
47
102
}
330
47
100
AcDbScale
 70
     0
300
1/2" = 1'-0"
140
0.5
141
12.0
290
     0
  0
SCALE
  5
63
102
{ACAD_REACTORS
330
47
102
}
330
47
100
AcDbScale
 70
     0
300
3/4" = 1'-0"
140
0.75
141
12.0
290
     0
  0
SCALE
  5
64
102
{ACAD_REACTORS
330
47
102
}
330
47
100
AcDbScale
 70
     0
300
1" = 1'-0"
140
1.0
141
12.0
290
     0
  0
SCALE
  5
65
102
{ACAD_REACTORS
330
47
102
}
330
47
100
AcDbScale
 70
     0
300
1-1/2" = 1'-0"
140
1.5
141
12.0
290
     0
  0
SCALE
  5
66
102
{ACAD_REACTORS
330
47
102
}
330
47
100
AcDbScale
 70
     0
300
3" = 1'-0"
140
3.0
141
12.0
290
     0
  0
SCALE
  5
67
102
{ACAD_REACTORS
330
47
102
}
330
47
100
AcDbScale
 70
     0
300
6" = 1'-0"
140
6.0
141
12.0
290
     0
  0
SCALE
  5
68
102
{ACAD_REACTORS
330
47
102
}
330
47
100
AcDbScale
 70
     0
300
1'-0" = 1'-0"
140
12.0
141
12.0
290
     0
  0
ENDSEC
  0
EOF
