  0
SECTION
  2
HEADER
  9
$ACADVER
  1
AC1015
  9
$ACADMAINTVER
 70
     6
  9
$DWGCODEPAGE
  3
ANSI_949
  9
$INSBASE
 10
0.0
 20
0.0
 30
0.0
  9
$EXTMIN
 10
-80.74448428505706
 20
-49.97180738881174
 30
0.0
  9
$EXTMAX
 10
71.16659880591114
 20
35.55915911661226
 30
0.0
  9
$LIMMIN
 10
0.0
 20
0.0
  9
$LIMMAX
 10
420.0
 20
297.0
  9
$ORTHOMODE
 70
     1
  9
$REGENMODE
 70
     1
  9
$FILLMODE
 70
     1
  9
$QTEXTMODE
 70
     0
  9
$MIRRTEXT
 70
     1
  9
$LTSCALE
 40
1.0
  9
$ATTMODE
 70
     1
  9
$TEXTSIZE
 40
3.5
  9
$TRACEWID
 40
1.0
  9
$TEXTSTYLE
  7
Standard
  9
$CLAYER
  8
0
  9
$CELTYPE
  6
ByLayer
  9
$CECOLOR
 62
   256
  9
$CELTSCALE
 40
1.0
  9
$DISPSILH
 70
     0
  9
$DIMSCALE
 40
1.0
  9
$DIMASZ
 40
3.302
  9
$DIMEXO
 40
1.0
  9
$DIMDLI
 40
3.75
  9
$DIMRND
 40
0.0
  9
$DIMDLE
 40
0.0
  9
$DIMEXE
 40
1.0
  9
$DIMTP
 40
0.0
  9
$DIMTM
 40
0.0
  9
$DIMTXT
 40
3.5
  9
$DIMCEN
 40
2.5
  9
$DIMTSZ
 40
0.0
  9
$DIMTOL
 70
     0
  9
$DIMLIM
 70
     0
  9
$DIMTIH
 70
     1
  9
$DIMTOH
 70
     1
  9
$DIMSE1
 70
     0
  9
$DIMSE2
 70
     0
  9
$DIMTAD
 70
     1
  9
$DIMZIN
 70
     0
  9
$DIMBLK
  1

  9
$DIMASO
 70
     1
  9
$DIMSHO
 70
     1
  9
$DIMPOST
  1

  9
$DIMAPOST
  1

  9
$DIMALT
 70
     0
  9
$DIMALTD
 70
     3
  9
$DIMALTF
 40
0.0393700787401575
  9
$DIMLFAC
 40
1.0
  9
$DIMTOFL
 70
     1
  9
$DIMTVP
 40
0.0
  9
$DIMTIX
 70
     0
  9
$DIMSOXD
 70
     0
  9
$DIMSAH
 70
     0
  9
$DIMBLK1
  1

  9
$DIMBLK2
  1

  9
$DIMSTYLE
  2
ISO-25
  9
$DIMCLRD
 70
     0
  9
$DIMCLRE
 70
     0
  9
$DIMCLRT
 70
     0
  9
$DIMTFAC
 40
1.0
  9
$DIMGAP
 40
1.524
  9
$DIMJUST
 70
     0
  9
$DIMSD1
 70
     0
  9
$DIMSD2
 70
     0
  9
$DIMTOLJ
 70
     0
  9
$DIMTZIN
 70
     0
  9
$DIMALTZ
 70
     0
  9
$DIMALTTZ
 70
     0
  9
$DIMUPT
 70
     0
  9
$DIMDEC
 70
     2
  9
$DIMTDEC
 70
     2
  9
$DIMALTU
 70
     2
  9
$DIMALTTD
 70
     3
  9
$DIMTXSTY
  7
Standard
  9
$DIMAUNIT
 70
     0
  9
$DIMADEC
 70
     2
  9
$DIMALTRND
 40
0.0
  9
$DIMAZIN
 70
     0
  9
$DIMDSEP
 70
    44
  9
$DIMATFIT
 70
     3
  9
$DIMFRAC
 70
     0
  9
$DIMLDRBLK
  1

  9
$DIMLUNIT
 70
     2
  9
$DIMLWD
 70
    -2
  9
$DIMLWE
 70
    -2
  9
$DIMTMOVE
 70
     0
  9
$LUNITS
 70
     2
  9
$LUPREC
 70
     2
  9
$SKETCHINC
 40
1.0
  9
$FILLETRAD
 40
10.0
  9
$AUNITS
 70
     0
  9
$AUPREC
 70
     2
  9
$MENU
  1
.
  9
$ELEVATION
 40
0.0
  9
$PELEVATION
 40
0.0
  9
$THICKNESS
 40
0.0
  9
$LIMCHECK
 70
     0
  9
$CHAMFERA
 40
0.0
  9
$CHAMFERB
 40
0.0
  9
$CHAMFERC
 40
0.0
  9
$CHAMFERD
 40
0.0
  9
$SKPOLY
 70
     0
  9
$TDCREATE
 40
2458250.568629039
  9
$TDUCREATE
 40
2458250.193629039
  9
$TDUPDATE
 40
2458264.461509676
  9
$TDUUPDATE
 40
2458264.086509676
  9
$TDINDWG
 40
0.0035851389
  9
$TDUSRTIMER
 40
0.0035851273
  9
$USRTIMER
 70
     1
  9
$ANGBASE
 50
0.0
  9
$ANGDIR
 70
     0
  9
$PDMODE
 70
     0
  9
$PDSIZE
 40
-1.0
  9
$PLINEWID
 40
0.0
  9
$SPLFRAME
 70
     0
  9
$SPLINETYPE
 70
     6
  9
$SPLINESEGS
 70
     8
  9
$HANDSEED
  5
13D
  9
$SURFTAB1
 70
     6
  9
$SURFTAB2
 70
     6
  9
$SURFTYPE
 70
     6
  9
$SURFU
 70
     6
  9
$SURFV
 70
     6
  9
$UCSBASE
  2

  9
$UCSNAME
  2

  9
$UCSORG
 10
0.0
 20
0.0
 30
0.0
  9
$UCSXDIR
 10
1.0
 20
0.0
 30
0.0
  9
$UCSYDIR
 10
0.0
 20
1.0
 30
0.0
  9
$UCSORTHOREF
  2

  9
$UCSORTHOVIEW
 70
     0
  9
$UCSORGTOP
 10
0.0
 20
0.0
 30
0.0
  9
$UCSORGBOTTOM
 10
0.0
 20
0.0
 30
0.0
  9
$UCSORGLEFT
 10
0.0
 20
0.0
 30
0.0
  9
$UCSORGRIGHT
 10
0.0
 20
0.0
 30
0.0
  9
$UCSORGFRONT
 10
0.0
 20
0.0
 30
0.0
  9
$UCSORGBACK
 10
0.0
 20
0.0
 30
0.0
  9
$PUCSBASE
  2

  9
$PUCSNAME
  2

  9
$PUCSORG
 10
0.0
 20
0.0
 30
0.0
  9
$PUCSXDIR
 10
1.0
 20
0.0
 30
0.0
  9
$PUCSYDIR
 10
0.0
 20
1.0
 30
0.0
  9
$PUCSORTHOREF
  2

  9
$PUCSORTHOVIEW
 70
     0
  9
$PUCSORGTOP
 10
0.0
 20
0.0
 30
0.0
  9
$PUCSORGBOTTOM
 10
0.0
 20
0.0
 30
0.0
  9
$PUCSORGLEFT
 10
0.0
 20
0.0
 30
0.0
  9
$PUCSORGRIGHT
 10
0.0
 20
0.0
 30
0.0
  9
$PUCSORGFRONT
 10
0.0
 20
0.0
 30
0.0
  9
$PUCSORGBACK
 10
0.0
 20
0.0
 30
0.0
  9
$USERI1
 70
     0
  9
$USERI2
 70
     0
  9
$USERI3
 70
     0
  9
$USERI4
 70
     0
  9
$USERI5
 70
     0
  9
$USERR1
 40
0.0
  9
$USERR2
 40
0.0
  9
$USERR3
 40
0.0
  9
$USERR4
 40
0.0
  9
$USERR5
 40
0.0
  9
$WORLDVIEW
 70
     1
  9
$SHADEDGE
 70
     3
  9
$SHADEDIF
 70
    70
  9
$TILEMODE
 70
     1
  9
$MAXACTVP
 70
    64
  9
$PINSBASE
 10
0.0
 20
0.0
 30
0.0
  9
$PLIMCHECK
 70
     0
  9
$PEXTMIN
 10
1.000000000000000E+20
 20
1.000000000000000E+20
 30
1.000000000000000E+20
  9
$PEXTMAX
 10
-1.000000000000000E+20
 20
-1.000000000000000E+20
 30
-1.000000000000000E+20
  9
$PLIMMIN
 10
0.0
 20
0.0
  9
$PLIMMAX
 10
0.0
 20
0.0
  9
$UNITMODE
 70
     0
  9
$VISRETAIN
 70
     1
  9
$PLINEGEN
 70
     0
  9
$PSLTSCALE
 70
     1
  9
$TREEDEPTH
 70
  3020
  9
$CMLSTYLE
  2
Standard
  9
$CMLJUST
 70
     0
  9
$CMLSCALE
 40
20.0
  9
$PROXYGRAPHICS
 70
     1
  9
$MEASUREMENT
 70
     1
  9
$CELWEIGHT
370
    -1
  9
$ENDCAPS
280
     0
  9
$JOINSTYLE
280
     0
  9
$LWDISPLAY
290
     1
  9
$INSUNITS
 70
     4
  9
$HYPERLINKBASE
  1

  9
$STYLESHEET
  1

  9
$XEDIT
290
     1
  9
$CEPSNTYPE
380
     0
  9
$PSTYLEMODE
290
     1
  9
$FINGERPRINTGUID
  2
{8CE2588C-C317-454B-BB3A-4B5B1B4F1095}
  9
$VERSIONGUID
  2
{FAEB1C32-E019-11D5-929B-00C0DF256EC4}
  9
$EXTNAMES
290
     1
  9
$PSVPSCALE
 40
0.0
  9
$OLESTARTUP
290
     0
  0
ENDSEC
  0
SECTION
  2
CLASSES
  0
CLASS
  1
ACDBDICTIONARYWDFLT
  2
AcDbDictionaryWithDefault
  3
ObjectDBX Classes
 90
        0
280
     0
281
     0
  0
CLASS
  1
VISUALSTYLE
  2
AcDbVisualStyle
  3
ObjectDBX Classes
 90
     4095
280
     0
281
     0
  0
CLASS
  1
MATERIAL
  2
AcDbMaterial
  3
ObjectDBX Classes
 90
     1153
280
     0
281
     0
  0
CLASS
  1
SCALE
  2
AcDbScale
  3
ObjectDBX Classes
 90
     1153
280
     0
281
     0
  0
CLASS
  1
SUN
  2
AcDbSun
  3
SCENEOE
 90
     1153
280
     0
281
     0
  0
CLASS
  1
ACDBPLACEHOLDER
  2
AcDbPlaceHolder
  3
ObjectDBX Classes
 90
        0
280
     0
281
     0
  0
CLASS
  1
LAYOUT
  2
AcDbLayout
  3
ObjectDBX Classes
 90
        0
280
     0
281
     0
  0
CLASS
  1
TABLESTYLE
  2
AcDbTableStyle
  3
ObjectDBX Classes
 90
     4095
280
     0
281
     0
  0
CLASS
  1
MLEADERSTYLE
  2
AcDbMLeaderStyle
  3
ACDB_MLEADERSTYLE_CLASS
 90
     4095
280
     0
281
     0
  0
ENDSEC
  0
SECTION
  2
TABLES
  0
TABLE
  2
VPORT
  5
8
330
0
100
AcDbSymbolTable
 70
     1
  0
VPORT
  5
29
330
8
100
AcDbSymbolTableRecord
100
AcDbViewportTableRecord
  2
*Active
 70
     0
 10
0.0
 20
0.0
 11
1.0
 21
1.0
 12
-47.56019100611257
 22
-19.74613246774769
 13
0.0
 23
0.0
 14
10.0
 24
10.0
 15
10.0
 25
10.0
 16
0.0
 26
0.0
 36
1.0
 17
0.0
 27
0.0
 37
0.0
 40
174.8811114596683
 41
2.223011363636364
 42
50.0
 43
0.0
 44
0.0
 50
0.0
 51
0.0
 71
    16
 72
  2000
 73
     1
 74
     3
 75
     0
 76
     0
 77
     0
 78
     0
281
     0
 65
     1
110
0.0
120
0.0
130
0.0
111
1.0
121
0.0
131
0.0
112
0.0
122
1.0
132
0.0
 79
     0
146
0.0
  0
ENDTAB
  0
TABLE
  2
LTYPE
  5
5
330
0
100
AcDbSymbolTable
 70
     6
  0
LTYPE
  5
14
330
5
100
AcDbSymbolTableRecord
100
AcDbLinetypeTableRecord
  2
ByBlock
 70
     0
  3

 72
    65
 73
     0
 40
0.0
  0
LTYPE
  5
15
330
5
100
AcDbSymbolTableRecord
100
AcDbLinetypeTableRecord
  2
ByLayer
 70
     0
  3

 72
    65
 73
     0
 40
0.0
  0
LTYPE
  5
16
330
5
100
AcDbSymbolTableRecord
100
AcDbLinetypeTableRecord
  2
Continuous
 70
     0
  3
Solid line
 72
    65
 73
     0
 40
0.0
  0
LTYPE
  5
6A
330
5
100
AcDbSymbolTableRecord
100
AcDbLinetypeTableRecord
  2
HIDDEN
 70
     0
  3
Hidden __ __ __ __ __ __ __ __ __ __ __ __ __ __
 72
    65
 73
     2
 40
1.905
 49
1.27
 74
     0
 49
-0.635
 74
     0
  0
LTYPE
  5
6B
330
5
100
AcDbSymbolTableRecord
100
AcDbLinetypeTableRecord
  2
PHANTOM
 70
     0
  3
Phantom ______  __  __  ______  __  __  ______
 72
    65
 73
     6
 40
12.7
 49
6.35
 74
     0
 49
-1.27
 74
     0
 49
1.27
 74
     0
 49
-1.27
 74
     0
 49
1.27
 74
     0
 49
-1.27
 74
     0
  0
LTYPE
  5
6C
330
5
100
AcDbSymbolTableRecord
100
AcDbLinetypeTableRecord
  2
CENTER
 70
     0
  3
Center ____ _ ____ _ ____ _ ____ _ ____ _ ____
 72
    65
 73
     4
 40
10.16
 49
6.35
 74
     0
 49
-1.27
 74
     0
 49
1.27
 74
     0
 49
-1.27
 74
     0
  0
LTYPE
  5
6D
330
5
100
AcDbSymbolTableRecord
100
AcDbLinetypeTableRecord
  2
CENTERX2
 70
     0
  3
Center (2x) ________  __  ________  __  _____
 72
    65
 73
     4
 40
20.32
 49
12.7
 74
     0
 49
-2.54
 74
     0
 49
2.54
 74
     0
 49
-2.54
 74
     0
  0
LTYPE
  5
6E
330
5
100
AcDbSymbolTableRecord
100
AcDbLinetypeTableRecord
  2
DOT2
 70
     0
  3
Dot (.5x) ........................................
 72
    65
 73
     2
 40
0.635
 49
0.0
 74
     0
 49
-0.635
 74
     0
  0
ENDTAB
  0
TABLE
  2
LAYER
  5
2
330
0
100
AcDbSymbolTable
 70
    17
  0
LAYER
  5
10
330
2
100
AcDbSymbolTableRecord
100
AcDbLayerTableRecord
  2
0
 70
     0
 62
     7
  6
Continuous
370
    -3
390
F
  0
LAYER
  5
6F
330
2
100
AcDbSymbolTableRecord
100
AcDbLayerTableRecord
  2
FORMAT
 70
     0
 62
     2
  6
Continuous
370
    -3
390
F
  0
LAYER
  5
70
330
2
100
AcDbSymbolTableRecord
100
AcDbLayerTableRecord
  2
외형선
 70
     0
 62
   100
  6
Continuous
370
    30
390
F
  0
LAYER
  5
71
330
2
100
AcDbSymbolTableRecord
100
AcDbLayerTableRecord
  2
숨은선
 70
     0
 62
     2
  6
HIDDEN
370
    15
390
F
  0
LAYER
  5
72
330
2
100
AcDbSymbolTableRecord
100
AcDbLayerTableRecord
  2
중심선
 70
     0
 62
     1
  6
CENTERX2
370
    -3
390
F
  0
LAYER
  5
73
330
2
100
AcDbSymbolTableRecord
100
AcDbLayerTableRecord
  2
파단선
 70
     0
 62
     4
  6
Continuous
370
    -3
390
F
  0
LAYER
  5
74
330
2
100
AcDbSymbolTableRecord
100
AcDbLayerTableRecord
  2
해칭선
 70
     0
 62
     4
  6
Continuous
370
    -3
390
F
  0
LAYER
  5
75
330
2
100
AcDbSymbolTableRecord
100
AcDbLayerTableRecord
  2
가는실선
 70
     0
 62
     4
  6
Continuous
370
    -3
390
F
  0
LAYER
  5
76
330
2
100
AcDbSymbolTableRecord
100
AcDbLayerTableRecord
  2
치수_보조선
 70
     0
 62
     4
  6
Continuous
370
    -3
390
F
  0
LAYER
  5
77
330
2
100
AcDbSymbolTableRecord
100
AcDbLayerTableRecord
  2
치수문자_일반주서
 70
     0
 62
     7
  6
Continuous
370
    15
390
F
  0
LAYER
  5
78
330
2
100
AcDbSymbolTableRecord
100
AcDbLayerTableRecord
  2
개별주서
 70
     0
 62
   100
  6
Continuous
370
    30
390
F
  0
LAYER
  5
79
330
2
100
AcDbSymbolTableRecord
100
AcDbLayerTableRecord
  2
중간선
 70
     0
 62
     2
  6
Continuous
370
    15
390
F
  0
LAYER
  5
7A
330
2
100
AcDbSymbolTableRecord
100
AcDbLayerTableRecord
  2
윤곽선
 70
     0
 62
     3
  6
Continuous
370
    40
390
F
  0
LAYER
  5
7B
330
2
100
AcDbSymbolTableRecord
100
AcDbLayerTableRecord
  2
중심마크
 70
     0
 62
   100
  6
Continuous
370
    30
390
F
  0
LAYER
  5
7C
330
2
100
AcDbSymbolTableRecord
100
AcDbLayerTableRecord
  2
가상선
 70
     0
 62
     4
  6
PHANTOM
370
    -3
390
F
  0
LAYER
  5
7D
330
2
100
AcDbSymbolTableRecord
100
AcDbLayerTableRecord
  2
특수지정선
 70
     0
 62
     5
  6
CENTERX2
370
    60
390
F
  0
LAYER
  5
130
330
2
100
AcDbSymbolTableRecord
100
AcDbLayerTableRecord
  2
Defpoints
 70
     0
 62
     7
  6
Continuous
290
     0
370
    -3
390
F
  0
ENDTAB
  0
TABLE
  2
STYLE
  5
3
330
0
100
AcDbSymbolTable
 70
     2
  0
STYLE
  5
11
330
3
100
AcDbSymbolTableRecord
100
AcDbTextStyleTableRecord
  2
Standard
 70
     0
 40
0.0
 41
1.0
 50
0.0
 71
     0
 42
3.5
  3
txt
  4

  0
STYLE
  5
93
330
3
100
AcDbSymbolTableRecord
100
AcDbTextStyleTableRecord
  2
SLDTEXTSTYLE0
 70
     0
 40
0.0
 41
0.75
 50
0.0
 71
     0
 42
3.5
  3
TXT
  4

  0
ENDTAB
  0
TABLE
  2
VIEW
  5
6
330
0
100
AcDbSymbolTable
 70
     0
  0
ENDTAB
  0
TABLE
  2
UCS
  5
7
330
0
100
AcDbSymbolTable
 70
     0
  0
ENDTAB
  0
TABLE
  2
APPID
  5
9
330
0
100
AcDbSymbolTable
 70
     2
  0
APPID
  5
12
330
9
100
AcDbSymbolTableRecord
100
AcDbRegAppTableRecord
  2
ACAD
 70
     0
  0
APPID
  5
12E
330
9
100
AcDbSymbolTableRecord
100
AcDbRegAppTableRecord
  2
PE_URL
 70
     0
  0
ENDTAB
  0
TABLE
  2
DIMSTYLE
  5
A
330
0
100
AcDbSymbolTable
 70
     3
100
AcDbDimStyleTable
  0
DIMSTYLE
105
27
330
A
100
AcDbSymbolTableRecord
100
AcDbDimStyleTableRecord
  2
ISO-25
 70
     0
 41
2.5
 42
0.625
 43
3.75
 44
1.25
 73
     0
 74
     0
 77
     1
 78
     8
140
2.5
141
2.5
143
0.03937007874016
147
0.625
171
     3
172
     1
178
     0
271
     2
272
     2
274
     3
278
    44
283
     0
284
     8
340
11
  0
DIMSTYLE
105
D8
102
{ACAD_REACTORS
330
D7
330
E2
102
}
330
A
100
AcDbSymbolTableRecord
100
AcDbDimStyleTableRecord
  2
SLDDIMSTYLE0
 70
     0
 41
3.302
 44
0.0
 45
0.000000001
 73
     0
 74
     0
 77
     1
 78
    12
 79
     3
140
3.5
147
0.875
173
     1
178
     0
271
     2
272
     2
276
     2
284
    12
340
93
  0
DIMSTYLE
105
ED
102
{ACAD_REACTORS
330
EC
330
FA
102
}
330
A
100
AcDbSymbolTableRecord
100
AcDbDimStyleTableRecord
  2
SLDDIMSTYLE1
 70
     0
 41
3.302
 44
0.0
 45
0.000000001
 73
     0
 74
     0
 77
     1
 78
    12
 79
     3
140
3.5
147
0.875
172
     1
173
     1
178
     0
271
     2
272
     2
276
     2
284
    12
289
     0
340
93
  0
ENDTAB
  0
TABLE
  2
BLOCK_RECORD
  5
1
330
0
100
AcDbSymbolTable
 70
     7
  0
BLOCK_RECORD
  5
1F
330
1
100
AcDbSymbolTableRecord
100
AcDbBlockTableRecord
  2
*Model_Space
340
22
  0
BLOCK_RECORD
  5
1B
330
1
100
AcDbSymbolTableRecord
100
AcDbBlockTableRecord
  2
*Paper_Space
340
1E
  0
BLOCK_RECORD
  5
23
330
1
100
AcDbSymbolTableRecord
100
AcDbBlockTableRecord
  2
*Paper_Space0
340
26
  0
BLOCK_RECORD
  5
7E
330
1
100
AcDbSymbolTableRecord
100
AcDbBlockTableRecord
  2
블럭10
340
0
102
{BLKREFS
331
D0
102
}
  0
BLOCK_RECORD
  5
D9
330
1
100
AcDbSymbolTableRecord
100
AcDbBlockTableRecord
  2
_D
340
0
  0
BLOCK_RECORD
  5
E3
330
1
100
AcDbSymbolTableRecord
100
AcDbBlockTableRecord
  2
_D_1
340
0
  0
BLOCK_RECORD
  5
EE
330
1
100
AcDbSymbolTableRecord
100
AcDbBlockTableRecord
  2
_D_2
340
0
  0
BLOCK_RECORD
  5
FB
330
1
100
AcDbSymbolTableRecord
100
AcDbBlockTableRecord
  2
_D_3
340
0
  0
BLOCK_RECORD
  5
105
330
1
100
AcDbSymbolTableRecord
100
AcDbBlockTableRecord
  2
SW_DOWELSYMBOL_0
340
0
102
{BLKREFS
331
10B
102
}
  0
ENDTAB
  0
ENDSEC
  0
SECTION
  2
BLOCKS
  0
BLOCK
  5
20
330
1F
100
AcDbEntity
  8
0
100
AcDbBlockBegin
  2
*Model_Space
 70
     0
 10
0.0
 20
0.0
 30
0.0
  3
*Model_Space
  1

  0
ENDBLK
  5
21
330
1F
100
AcDbEntity
  8
0
100
AcDbBlockEnd
  0
BLOCK
  5
1C
330
1B
100
AcDbEntity
 67
     1
  8
0
100
AcDbBlockBegin
  2
*Paper_Space
 70
     0
 10
0.0
 20
0.0
 30
0.0
  3
*Paper_Space
  1

  0
ENDBLK
  5
1D
330
1B
100
AcDbEntity
 67
     1
  8
0
100
AcDbBlockEnd
  0
BLOCK
  5
24
330
23
100
AcDbEntity
  8
0
100
AcDbBlockBegin
  2
*Paper_Space0
 70
     0
 10
0.0
 20
0.0
 30
0.0
  3
*Paper_Space0
  1

  0
ENDBLK
  5
25
330
23
100
AcDbEntity
  8
0
100
AcDbBlockEnd
  0
BLOCK
  5
7F
330
7E
100
AcDbEntity
  8
0
100
AcDbBlockBegin
  2
블럭10
 70
     2
 10
0.0
 20
0.0
 30
0.0
  3
블럭10
  1

  0
ELLIPSE
  5
81
330
7E
100
AcDbEntity
  8
중심선
100
AcDbEllipse
 10
20.54032771741204
 20
12.0471743016438
 30
0.0
 11
6.600054785286829
 21
-1.261213355974178E-13
 31
0.0
210
0.0
220
0.0
230
1.0
 40
0.636358354079598
 41
0.9219305317359503
 42
6.513795318482858
  0
ELLIPSE
  5
82
330
7E
100
AcDbEntity
  8
중심선
100
AcDbEllipse
 10
20.54032771746488
 20
12.04717430159265
 30
0.0
 11
3.960054785062283
 21
1.540847449632565E-10
 31
0.0
210
0.0
220
0.0
230
1.0
 40
0.3939339440162632
 41
1.131841032648279
 42
5.62031148352944
  0
LINE
  5
83
330
7E
100
AcDbEntity
  8
중심선
100
AcDbLine
 10
2.268634060543552
 20
16.24717430164393
 30
0.0
 11
5.714909304380834
 21
16.24717430164393
 31
0.0
  0
LINE
  5
84
330
7E
100
AcDbEntity
  8
중심선
100
AcDbLine
 10
5.245725140726316
 20
7.84717430164391
 30
0.0
 11
8.692000384563599
 21
7.84717430164391
 31
0.0
  0
LINE
  5
85
330
7E
100
AcDbEntity
  8
중심선
100
AcDbLine
 10
15.74043728645272
 20
16.24717430164393
 30
0.0
 11
8.692000384563599
 21
7.84717430164391
 31
0.0
  0
LINE
  5
86
330
7E
100
AcDbEntity
  8
중심선
100
AcDbLine
 10
0.1404042013395286
 20
13.71084872107135
 30
0.0
 11
3.58671253028996
 21
13.71088815037384
 31
0.0
  0
LINE
  5
87
330
7E
100
AcDbEntity
  8
중심선
100
AcDbLine
 10
2.750260043222114
 20
10.84717430164391
 30
0.0
 11
6.196535287059397
 21
10.84717430164391
 31
0.0
  0
LINE
  5
88
330
7E
100
AcDbEntity
  8
중심선
100
AcDbLine
 10
12.29416204261559
 20
16.24717430164393
 30
0.0
 11
5.245725140726316
 21
7.84717430164391
 31
0.0
  0
LINE
  5
89
330
7E
100
AcDbEntity
  8
중심선
100
AcDbLine
 10
10.72767329541681
 20
16.24717430164393
 30
0.0
 11
6.196535287059397
 21
10.84717430164391
 31
0.0
  0
LINE
  5
8A
330
7E
100
AcDbEntity
  8
중심선
100
AcDbLine
 10
7.28139805157953
 20
16.24717430164393
 30
0.0
 11
2.750260043222114
 21
10.84717430164391
 31
0.0
  0
LINE
  5
8B
330
7E
100
AcDbEntity
  8
중심선
100
AcDbLine
 10
5.714909304380834
 20
16.24717430164393
 30
0.0
 11
3.58671253028996
 21
13.71088815037384
 31
0.0
  0
LINE
  5
8C
330
7E
100
AcDbEntity
  8
중심선
100
AcDbLine
 10
2.268634060543552
 20
16.24717430164393
 30
0.0
 11
0.1404042013395286
 21
13.71084872107135
 31
0.0
  0
LINE
  5
8D
330
7E
100
AcDbEntity
  8
중심선
100
AcDbLine
 10
7.28139805157953
 20
16.24717430164393
 30
0.0
 11
10.72767329541681
 21
16.24717430164393
 31
0.0
  0
LINE
  5
8E
330
7E
100
AcDbEntity
  8
중심선
100
AcDbLine
 10
12.29416204261559
 20
16.24717430164393
 30
0.0
 11
15.74043728645272
 21
16.24717430164393
 31
0.0
  0
LINE
  5
8F
330
7E
100
AcDbEntity
  8
중심선
100
AcDbLine
 10
19.22036997980202
 20
11.08717430171403
 30
0.0
 11
23.66174974927406
 21
11.08717430171406
 31
0.0
  0
LINE
  5
90
330
7E
100
AcDbEntity
  8
중심선
100
AcDbLine
 10
19.22039502424796
 20
13.00717430171391
 30
0.0
 11
19.22036997980202
 21
11.08717430171403
 31
0.0
  0
LINE
  5
91
330
7E
100
AcDbEntity
  8
중심선
100
AcDbLine
 10
19.22039502424796
 20
13.00717430171391
 30
0.0
 11
26.96566020931264
 21
13.00717430171391
 31
0.0
  0
LINE
  5
92
330
7E
100
AcDbEntity
  8
중심선
100
AcDbLine
 10
22.22332737316547
 20
13.45928029700563
 30
0.0
 11
24.52862924686651
 21
15.39360700705356
 31
0.0
  0
ATTDEF
  5
94
330
7E
100
AcDbEntity
  8
FORMAT
 62
     2
100
AcDbText
 10
-12.95993919485777
 20
2.075366912832191
 30
0.0
 40
4.233333333333333
  1
SEME35240E [ 2 FLUTE ]
 41
0.75
  7
SLDTEXTSTYLE0
 11
-12.95993919485777
 21
-0.0412997538344756
 31
0.0
100
AcDbAttributeDefinition
  3

  2
AUTOATTR0
 70
     0
 74
     1
  0
ENDBLK
  5
80
330
7E
100
AcDbEntity
  8
0
100
AcDbBlockEnd
  0
BLOCK
  5
DA
330
D9
100
AcDbEntity
  8
0
100
AcDbBlockBegin
  2
_D
 70
     0
 10
0.0
 20
0.0
 30
0.0
  3
_D
  1

  0
LINE
  5
DC
330
D9
100
AcDbEntity
  8
치수문자_일반주서
 62
     0
370
    -2
100
AcDbLine
 10
55.0500751603315
 20
12.05235778275574
 30
0.0
 11
55.0500751603315
 21
24.24049167133352
 31
0.0
  0
LINE
  5
DD
330
D9
100
AcDbEntity
  8
치수문자_일반주서
 62
     0
370
    -2
100
AcDbLine
 10
5.050075160331485
 20
11.04353716817012
 30
0.0
 11
5.050075160331492
 21
24.24049167133352
 31
0.0
  0
LINE
  5
DE
330
D9
100
AcDbEntity
  8
치수문자_일반주서
 62
     0
370
    -2
100
AcDbLine
 10
51.7480751603315
 20
24.24049167133352
 30
0.0
 11
8.352075160331491
 21
24.24049167133352
 31
0.0
  0
SOLID
  5
DF
330
D9
100
AcDbEntity
  8
치수문자_일반주서
 62
     0
100
AcDbTrace
 10
51.7480751603315
 20
23.69015833800019
 30
0.0
 11
51.7480751603315
 21
24.79082500466686
 31
0.0
 12
55.0500751603315
 22
24.24049167133352
 32
0.0
 13
55.0500751603315
 23
24.24049167133352
 33
0.0
  0
SOLID
  5
E0
330
D9
100
AcDbEntity
  8
치수문자_일반주서
 62
     0
100
AcDbTrace
 10
8.352075160331491
 20
24.79082500466686
 30
0.0
 11
8.352075160331491
 21
23.69015833800019
 31
0.0
 12
5.050075160331492
 22
24.24049167133352
 32
0.0
 13
5.050075160331492
 23
24.24049167133352
 33
0.0
  0
MTEXT
  5
E1
330
D9
100
AcDbEntity
  8
치수문자_일반주서
 62
     0
100
AcDbMText
 10
30.05007516033148
 20
28.61549167133352
 30
0.0
 40
3.5
 41
0.0
 71
     2
 72
     1
  1
\A1;50
  7
SLDTEXTSTYLE0
 73
     1
 44
1.0
  0
POINT
  5
134
330
D9
100
AcDbEntity
  8
Defpoints
 62
     0
100
AcDbPoint
 10
55.0500751603315
 20
11.98985778275574
 30
0.0
  0
POINT
  5
135
330
D9
100
AcDbEntity
  8
Defpoints
 62
     0
100
AcDbPoint
 10
5.050075160331485
 20
10.98103716817012
 30
0.0
  0
POINT
  5
136
330
D9
100
AcDbEntity
  8
Defpoints
 62
     0
100
AcDbPoint
 10
5.050075160331485
 20
24.24049167133352
 30
0.0
  0
ENDBLK
  5
DB
330
D9
100
AcDbEntity
  8
0
100
AcDbBlockEnd
  0
BLOCK
  5
E4
330
E3
100
AcDbEntity
  8
0
100
AcDbBlockBegin
  2
_D_1
 70
     0
 10
0.0
 20
0.0
 30
0.0
  3
_D_1
  1

  0
LINE
  5
E6
330
E3
100
AcDbEntity
  8
치수문자_일반주서
 62
     0
370
    -2
100
AcDbLine
 10
55.05007516033116
 20
12.05235778275572
 30
0.0
 11
55.05007516033116
 21
31.18415911661226
 31
0.0
  0
LINE
  5
E7
330
E3
100
AcDbEntity
  8
치수문자_일반주서
 62
     0
370
    -2
100
AcDbLine
 10
-64.9499248396685
 20
11.56249999999999
 30
0.0
 11
-64.9499248396685
 21
31.18415911661226
 31
0.0
  0
LINE
  5
E8
330
E3
100
AcDbEntity
  8
치수문자_일반주서
 62
     0
370
    -2
100
AcDbLine
 10
51.74807516033116
 20
31.18415911661226
 30
0.0
 11
-61.6479248396685
 21
31.18415911661226
 31
0.0
  0
SOLID
  5
E9
330
E3
100
AcDbEntity
  8
치수문자_일반주서
 62
     0
100
AcDbTrace
 10
51.74807516033116
 20
30.63382578327893
 30
0.0
 11
51.74807516033116
 21
31.7344924499456
 31
0.0
 12
55.05007516033116
 22
31.18415911661226
 32
0.0
 13
55.05007516033116
 23
31.18415911661226
 33
0.0
  0
SOLID
  5
EA
330
E3
100
AcDbEntity
  8
치수문자_일반주서
 62
     0
100
AcDbTrace
 10
-61.6479248396685
 20
31.7344924499456
 30
0.0
 11
-61.6479248396685
 21
30.63382578327893
 31
0.0
 12
-64.9499248396685
 22
31.18415911661226
 32
0.0
 13
-64.9499248396685
 23
31.18415911661226
 33
0.0
  0
MTEXT
  5
EB
330
E3
100
AcDbEntity
  8
치수문자_일반주서
 62
     0
100
AcDbMText
 10
-4.949924839668491
 20
35.55915911661226
 30
0.0
 40
3.5
 41
0.0
 71
     2
 72
     1
  1
\A1;120
  7
SLDTEXTSTYLE0
 73
     1
 44
1.0
  0
POINT
  5
131
330
E3
100
AcDbEntity
  8
Defpoints
 62
     0
100
AcDbPoint
 10
55.05007516033116
 20
11.98985778275572
 30
0.0
  0
POINT
  5
132
330
E3
100
AcDbEntity
  8
Defpoints
 62
     0
100
AcDbPoint
 10
-64.9499248396685
 20
11.49999999999999
 30
0.0
  0
POINT
  5
133
330
E3
100
AcDbEntity
  8
Defpoints
 62
     0
100
AcDbPoint
 10
-64.9499248396685
 20
31.18415911661226
 30
0.0
  0
ENDBLK
  5
E5
330
E3
100
AcDbEntity
  8
0
100
AcDbBlockEnd
  0
BLOCK
  5
EF
330
EE
100
AcDbEntity
  8
0
100
AcDbBlockBegin
  2
_D_2
 70
     0
 10
0.0
 20
0.0
 30
0.0
  3
_D_2
  1

  0
LINE
  5
F1
330
EE
100
AcDbEntity
  8
치수문자_일반주서
 62
     0
370
    -2
100
AcDbLine
 10
55.11257516033149
 20
12.00566957892776
 30
0.0
 11
70.61626547257774
 21
12.00566957892782
 31
0.0
  0
LINE
  5
F2
330
EE
100
AcDbEntity
  8
치수문자_일반주서
 62
     0
370
    -2
100
AcDbLine
 10
55.11257516033149
 20
-11.98985778275573
 30
0.0
 11
70.61626547257782
 21
-11.98985778275567
 31
0.0
  0
LINE
  5
F3
330
EE
100
AcDbEntity
  8
치수문자_일반주서
 62
     0
370
    -2
100
AcDbLine
 10
70.61626547257775
 20
8.703669578927821
 30
0.0
 11
70.61626547257781
 21
-8.687857782755671
 31
0.0
  0
SOLID
  5
F4
330
EE
100
AcDbEntity
  8
치수문자_일반주서
 62
     0
100
AcDbTrace
 10
71.16659880591108
 20
8.703669578927823
 30
0.0
 11
70.06593213924442
 21
8.70366957892782
 31
0.0
 12
70.61626547257774
 22
12.00566957892782
 32
0.0
 13
70.61626547257774
 23
12.00566957892782
 33
0.0
  0
SOLID
  5
F5
330
EE
100
AcDbEntity
  8
치수문자_일반주서
 62
     0
100
AcDbTrace
 10
70.06593213924448
 20
-8.687857782755673
 30
0.0
 11
71.16659880591114
 21
-8.68785778275567
 31
0.0
 12
70.61626547257782
 22
-11.98985778275567
 32
0.0
 13
70.61626547257782
 23
-11.98985778275567
 33
0.0
  0
MTEXT
  5
F6
330
EE
100
AcDbEntity
  8
치수문자_일반주서
 62
     0
100
AcDbMText
 10
66.24126547257778
 20
-0.0000000000000107
 30
0.0
 40
3.5
 41
0.0
 71
     2
 72
     1
  1
\A1;%%c24
  7
SLDTEXTSTYLE0
 11
-3.553375885681304E-15
 21
1.0
 31
0.0
 73
     1
 44
1.0
  0
POINT
  5
F7
330
EE
100
AcDbEntity
  8
Defpoints
 62
     0
100
AcDbPoint
 10
55.05007516033149
 20
12.00566957892776
 30
0.0
  0
POINT
  5
F8
330
EE
100
AcDbEntity
  8
Defpoints
 62
     0
100
AcDbPoint
 10
55.05007516033149
 20
-11.98985778275573
 30
0.0
  0
POINT
  5
F9
330
EE
100
AcDbEntity
  8
Defpoints
 62
     0
100
AcDbPoint
 10
70.61626547257782
 20
-11.98985778275567
 30
0.0
  0
ENDBLK
  5
F0
330
EE
100
AcDbEntity
  8
0
100
AcDbBlockEnd
  0
BLOCK
  5
FC
330
FB
100
AcDbEntity
  8
0
100
AcDbBlockBegin
  2
_D_3
 70
     0
 10
0.0
 20
0.0
 30
0.0
  3
_D_3
  1

  0
LINE
  5
FE
330
FB
100
AcDbEntity
  8
치수문자_일반주서
 62
     0
370
    -2
100
AcDbLine
 10
-64.01242483966851
 20
12.5
 30
0.0
 11
-76.36948428505708
 21
12.49999999999995
 31
0.0
  0
LINE
  5
FF
330
FB
100
AcDbEntity
  8
치수문자_일반주서
 62
     0
370
    -2
100
AcDbLine
 10
-64.01242483966851
 20
-12.5
 30
0.0
 11
-76.369484285057
 21
-12.50000000000005
 31
0.0
  0
LINE
  5
100
330
FB
100
AcDbEntity
  8
치수문자_일반주서
 62
     0
370
    -2
100
AcDbLine
 10
-76.36948428505707
 20
9.197999999999952
 30
0.0
 11
-76.36948428505701
 21
-9.198000000000048
 31
0.0
  0
SOLID
  5
101
330
FB
100
AcDbEntity
  8
치수문자_일반주서
 62
     0
100
AcDbTrace
 10
-75.81915095172374
 20
9.197999999999954
 30
0.0
 11
-76.9198176183904
 21
9.19799999999995
 31
0.0
 12
-76.36948428505708
 22
12.49999999999995
 32
0.0
 13
-76.36948428505708
 23
12.49999999999995
 33
0.0
  0
SOLID
  5
102
330
FB
100
AcDbEntity
  8
치수문자_일반주서
 62
     0
100
AcDbTrace
 10
-76.91981761839034
 20
-9.19800000000005
 30
0.0
 11
-75.81915095172369
 21
-9.198000000000047
 31
0.0
 12
-76.369484285057
 22
-12.50000000000005
 32
0.0
 13
-76.369484285057
 23
-12.50000000000005
 33
0.0
  0
MTEXT
  5
103
330
FB
100
AcDbEntity
  8
치수문자_일반주서
 62
     0
100
AcDbMText
 10
-80.74448428505704
 20
-0.0000000000000125
 30
0.0
 40
3.5
 41
0.0
 71
     2
 72
     1
  1
\A1;%%c25
  7
SLDTEXTSTYLE0
 11
-3.410605131648481E-15
 21
1.0
 31
0.0
 73
     1
 44
1.0
  0
POINT
  5
104
330
FB
100
AcDbEntity
  8
Defpoints
 62
     0
100
AcDbPoint
 10
-63.9499248396685
 20
12.5
 30
0.0
  0
POINT
  5
137
330
FB
100
AcDbEntity
  8
Defpoints
 62
     0
100
AcDbPoint
 10
-63.9499248396685
 20
-12.5
 30
0.0
  0
POINT
  5
138
330
FB
100
AcDbEntity
  8
Defpoints
 62
     0
100
AcDbPoint
 10
-76.36948428505704
 20
-12.50000000000005
 30
0.0
  0
ENDBLK
  5
FD
330
FB
100
AcDbEntity
  8
0
100
AcDbBlockEnd
  0
BLOCK
  5
106
330
105
100
AcDbEntity
  8
0
100
AcDbBlockBegin
  2
SW_DOWELSYMBOL_0
 70
     0
 10
0.0
 20
0.0
 30
0.0
  3
SW_DOWELSYMBOL_0
  1

  0
CIRCLE
  5
108
330
105
100
AcDbEntity
  8
외형선
 62
     0
100
AcDbCircle
 10
0.0
 20
0.0
 30
0.0
 40
3.000000000000004
  0
HATCH
  5
109
330
105
100
AcDbEntity
  8
0
  6
Continuous
 62
     0
370
    30
100
AcDbHatch
 10
0.0
 20
0.0
 30
0.0
210
0.0
220
0.0
230
1.0
  2
SOLID
 70
     1
 71
     0
 91
        1
 92
        0
 93
        3
 72
     2
 10
0.0000000000000087
 20
-0.0000000000000035
 40
3.000000000000004
 50
0.0
 51
90.0
 73
     1
 72
     1
 10
0.0000000000000087
 20
3.000000000000001
 11
0.0000000000000087
 21
-0.0000000000000036
 72
     1
 10
0.0000000000000087
 20
-0.0000000000000035
 11
3.000000000000013
 21
-0.0000000000000035
 97
        0
 75
     0
 76
     1
 98
        1
 10
0.0
 20
0.0
  0
HATCH
  5
10A
330
105
100
AcDbEntity
  8
0
  6
Continuous
 62
     0
370
    30
100
AcDbHatch
 10
0.0
 20
0.0
 30
0.0
210
0.0
220
0.0
230
1.0
  2
SOLID
 70
     1
 71
     0
 91
        1
 92
        0
 93
        3
 72
     2
 10
0.0000000000000087
 20
-0.0000000000000035
 40
3.000000000000004
 50
180.0
 51
270.0000000000008
 73
     1
 72
     1
 10
0.0000000000000087
 20
-3.000000000000008
 11
0.0000000000000087
 21
-0.0000000000000036
 72
     1
 10
0.0000000000000087
 20
-0.0000000000000035
 11
-2.999999999999996
 21
-0.0000000000000035
 97
        0
 75
     0
 76
     1
 98
        1
 10
0.0
 20
0.0
  0
ENDBLK
  5
107
330
105
100
AcDbEntity
  8
0
100
AcDbBlockEnd
  0
ENDSEC
  0
SECTION
  2
ENTITIES
  0
LINE
  5
95
330
1F
100
AcDbEntity
  8
0
  6
Continuous
 62
     4
370
    15
100
AcDbLine
 10
2.000000000000005
 20
12.5
 30
0.0
 11
-63.9499248396685
 21
12.5
 31
0.0
  0
LINE
  5
96
330
1F
100
AcDbEntity
  8
0
  6
Continuous
 62
     4
370
    15
100
AcDbLine
 10
-63.9499248396685
 20
-12.5
 30
0.0
 11
2.000000000000009
 21
-12.5
 31
0.0
  0
LINE
  5
97
330
1F
100
AcDbEntity
  8
0
  6
Continuous
 62
     4
370
    15
100
AcDbLine
 10
-63.9499248396685
 20
12.49999999999999
 30
0.0
 11
-64.9499248396685
 21
11.49999999999999
 31
0.0
  0
LINE
  5
98
330
1F
100
AcDbEntity
  8
0
  6
Continuous
 62
     4
370
    15
100
AcDbLine
 10
-64.9499248396685
 20
-11.5
 30
0.0
 11
-63.9499248396685
 21
-12.5
 31
0.0
  0
SPLINE
  5
99
330
1F
100
AcDbEntity
  8
0
  6
Continuous
 62
     4
370
    15
100
AcDbSpline
210
0.0
220
0.0
230
1.0
 70
     8
 71
     3
 72
     9
 73
     5
 74
     0
 42
0.000000001
 43
0.00000001
 40
0.0
 40
0.0
 40
0.0
 40
0.0
 40
0.5010766700639435
 40
0.9999999999999999
 40
0.9999999999999999
 40
0.9999999999999999
 40
0.9999999999999999
 10
1.99997124790846
 20
-9.962825415763058
 30
0.0
 10
2.5089713267674
 20
-9.919153977188891
 30
0.0
 10
3.524784094090974
 20
-9.831998774835142
 30
0.0
 10
4.542375211513628
 20
-9.751714001740762
 30
0.0
 10
5.050075160331488
 20
-9.711658055405353
 30
0.0
1001
PE_URL
1000

  0
LINE
  5
9A
330
1F
100
AcDbEntity
  8
0
  6
Continuous
 62
     1
370
    15
100
AcDbLine
 10
17.3457093760827
 20
3.367308857546189
 30
0.0
 11
17.19547978876529
 21
3.449991359631599
 31
0.0
  0
SPLINE
  5
9B
330
1F
100
AcDbEntity
  8
0
  6
Continuous
 62
     1
370
    15
100
AcDbSpline
210
0.0
220
0.0
230
1.0
 70
     8
 71
     3
 72
     9
 73
     5
 74
     0
 42
0.000000001
 43
0.00000001
 40
0.0
 40
0.0
 40
0.0
 40
0.0
 40
0.5234027303332077
 40
1.0
 40
1.0
 40
1.0
 40
1.0
 10
23.9604385737472
 20
3.074982134073084
 30
0.0
 10
23.37995108793314
 20
3.35214390259754
 30
0.0
 10
22.2708863999356
 20
3.88168215767697
 30
0.0
 10
21.16116499376388
 20
4.462968819986753
 30
0.0
 10
20.63227480149164
 20
4.740008456137318
 30
0.0
  0
SPLINE
  5
9C
330
1F
100
AcDbEntity
  8
0
  6
Continuous
 62
     1
370
    15
100
AcDbSpline
210
0.0
220
0.0
230
1.0
 70
     8
 71
     3
 72
    21
 73
    17
 74
     0
 42
0.000000001
 43
0.00000001
 40
0.0
 40
0.0
 40
0.0
 40
0.0
 40
0.1022969612421711
 40
0.1911373569586831
 40
0.2698187585593274
 40
0.3388861702793062
 40
0.4002696352754233
 40
0.4622006732728208
 40
0.5700505381840659
 40
0.6746077938116463
 40
0.7666150229983758
 40
0.8144016764208974
 40
0.8678710464630928
 40
0.9265786163363403
 40
0.9796632401074933
 40
1.0
 40
1.0
 40
1.0
 40
1.0
 10
19.99344103993078
 20
9.53566749717032
 30
0.0
 10
19.67043867333581
 20
9.518898382720595
 30
0.0
 10
19.06692300783907
 20
9.487566032516462
 30
0.0
 10
18.1687354192779
 20
9.451343458872474
 30
0.0
 10
17.38398064729056
 20
9.424655918899019
 30
0.0
 10
16.68209814148351
 20
9.403876960850575
 30
0.0
 10
16.07007126004724
 20
9.391761568397943
 30
0.0
 10
15.34693608662497
 20
9.380000405315645
 30
0.0
 10
14.4396219740051
 20
9.371045631647481
 30
0.0
 10
13.44466455935762
 20
9.370884271365707
 30
0.0
 10
12.64791657795355
 20
9.377392602020391
 30
0.0
 10
12.01602462504331
 20
9.386411276871366
 30
0.0
 10
11.49183537789516
 20
9.39619653368469
 30
0.0
 10
10.94928211385043
 20
9.40910424579929
 30
0.0
 10
10.51545235411687
 20
9.421143079558515
 30
0.0
 10
10.27457613399272
 20
9.42908389116559
 30
0.0
 10
10.20785658162199
 20
9.431283391787156
 30
0.0
  0
SPLINE
  5
9D
330
1F
100
AcDbEntity
  8
0
  6
Continuous
 62
     1
370
    15
100
AcDbSpline
210
0.0
220
0.0
230
1.0
 70
     8
 71
     3
 72
    32
 73
    28
 74
     0
 42
0.000000001
 43
0.00000001
 40
0.0
 40
0.0
 40
0.0
 40
0.0
 40
0.0619684695746309
 40
0.110036595165173
 40
0.1440765434591586
 40
0.1702332985814217
 40
0.1955405140676984
 40
0.2469559845244705
 40
0.2948616554097659
 40
0.3415430763521072
 40
0.3913722993126612
 40
0.4460888849752994
 40
0.5032887221307636
 40
0.54761684127224
 40
0.5818931873348618
 40
0.6225170870030459
 40
0.6577438499498591
 40
0.6809415026291519
 40
0.7062698846643456
 40
0.7448966813370851
 40
0.7859126313852662
 40
0.8151505589249565
 40
0.8412072022911614
 40
0.8727048357774272
 40
0.9101244135486944
 40
0.9521431187306831
 40
1.0
 40
1.0
 40
1.0
 40
1.0
 10
50.59196151800612
 20
8.207436809160184
 30
0.0
 10
50.16116623200649
 20
8.172212687084096
 30
0.0
 10
49.39620871716071
 20
8.109665677491309
 30
0.0
 10
48.39254297745534
 20
8.045103542919522
 30
0.0
 10
47.63204288191324
 20
8.003266598776863
 30
0.0
 10
47.02623350404287
 20
7.974829670709439
 30
0.0
 10
46.30191997594996
 20
7.945542302679478
 30
0.0
 10
45.43083993702073
 20
7.918886704843796
 30
0.0
 10
44.40802038203907
 20
7.900518812738106
 30
0.0
 10
43.39766451356258
 20
7.89471804371147
 30
0.0
 10
42.33905970252926
 20
7.901819925328244
 30
0.0
 10
41.20655439910272
 20
7.924587629348387
 30
0.0
 10
40.11332277509807
 20
7.962415806079957
 30
0.0
 10
39.16267502191096
 20
8.00747729860784
 30
0.0
 10
38.32810848052378
 20
8.055257786488472
 30
0.0
 10
37.55719393910601
 20
8.106609946320278
 30
0.0
 10
36.86399350917063
 20
8.159463014888019
 30
0.0
 10
36.27768038872624
 20
8.208331321931801
 30
0.0
 10
35.66788461431464
 20
8.26266074800037
 30
0.0
 10
34.93311072974635
 20
8.333687473616072
 30
0.0
 10
34.17088816789262
 20
8.414584772803215
 30
0.0
 10
33.50530056426238
 20
8.490680962292739
 30
0.0
 10
32.90212742411509
 20
8.563447675587392
 30
0.0
 10
32.21987952617805
 20
8.650695583787352
 30
0.0
 10
31.42382732084616
 20
8.755671742264987
 30
0.0
 10
30.52392664398
 20
8.884940266468465
 30
0.0
 10
29.93931035817855
 20
8.97673407213199
 30
0.0
 10
29.62801434017851
 20
9.025612365251986
 30
0.0
  0
SPLINE
  5
9E
330
1F
100
AcDbEntity
  8
0
  6
Continuous
 62
     1
370
    15
100
AcDbSpline
210
0.0
220
0.0
230
1.0
 70
     8
 71
     3
 72
    22
 73
    18
 74
     0
 42
0.000000001
 43
0.00000001
 40
0.0
 40
0.0
 40
0.0
 40
0.0
 40
0.1069985219725264
 40
0.2014513659665048
 40
0.2861248547376634
 40
0.3584844591077705
 40
0.4184075073675242
 40
0.4797147724218963
 40
0.5558197475851184
 40
0.6411616575736437
 40
0.7020292914901821
 40
0.7447019787109435
 40
0.7857295088085718
 40
0.8447355593228704
 40
0.9206380615664732
 40
0.9934486757381726
 40
1.0
 40
1.0
 40
1.0
 40
1.0
 10
29.62801434017851
 20
-9.025612365251979
 30
0.0
 10
29.92587090001918
 20
-8.978846855457107
 30
0.0
 10
30.48666005612913
 20
-8.890799136155751
 30
0.0
 10
31.3486525479648
 20
-8.766058434797767
 30
0.0
 10
32.1223027945166
 20
-8.663487748839312
 30
0.0
 10
32.78885039197539
 20
-8.577659412745536
 30
0.0
 10
33.37174364814102
 20
-8.506500751575203
 30
0.0
 10
33.95194450961699
 20
-8.43926901727708
 30
0.0
 10
34.61874992758606
 20
-8.366450211261968
 30
0.0
 10
35.28511131664928
 20
-8.299183370375916
 30
0.0
 10
35.8511984876522
 20
-8.246223704592092
 30
0.0
 10
36.28439094900354
 20
-8.207970928202624
 30
0.0
 10
36.7122169386143
 20
-8.172032395809214
 30
0.0
 10
37.23950324655844
 20
-8.130335783751557
 30
0.0
 10
37.86218033955364
 20
-8.086120270773517
 30
0.0
 10
38.32760369369165
 20
-8.055544862946618
 30
0.0
 10
38.56550150083159
 20
-8.04220689460719
 30
0.0
 10
38.58513995355231
 20
-8.041105845952002
 30
0.0
  0
SPLINE
  5
9F
330
1F
100
AcDbEntity
  8
0
  6
Continuous
 62
     1
370
    15
100
AcDbSpline
210
0.0
220
0.0
230
1.0
 70
     8
 71
     3
 72
    22
 73
    18
 74
     0
 42
0.000000001
 43
0.00000001
 40
0.0
 40
0.0
 40
0.0
 40
0.0
 40
0.0791879544879237
 40
0.1380820246700106
 40
0.2039726484976218
 40
0.2779252509457224
 40
0.3214381488292408
 40
0.3723393837312958
 40
0.4393068572492214
 40
0.4978441921937228
 40
0.5760842498120462
 40
0.6658182142048928
 40
0.7489424111142489
 40
0.7983304236632048
 40
0.8557183140274801
 40
0.9220001410764543
 40
1.0
 40
1.0
 40
1.0
 40
1.0
 10
5.050075160331481
 20
-9.711658055405355
 30
0.0
 10
5.441403586823007
 20
-9.683092875935314
 30
0.0
 10
6.123772790451321
 20
-9.633283055214575
 30
0.0
 10
7.141546624476389
 20
-9.569951987255994
 30
0.0
 10
8.135090700863657
 20
-9.51520505290757
 30
0.0
 10
9.050989103784316
 20
-9.473201701910016
 30
0.0
 10
9.892274633311063
 20
-9.441010978468517
 30
0.0
 10
10.70051699926965
 20
-9.415053551962462
 30
0.0
 10
11.58446248857299
 20
-9.393410002154628
 30
0.0
 10
12.60260315553245
 20
-9.377087782010218
 30
0.0
 10
13.72584564000181
 20
-9.369042585343896
 30
0.0
 10
14.99792494756498
 20
-9.374713307366905
 30
0.0
 10
16.05939894649527
 20
-9.390281366064562
 30
0.0
 10
17.00739315215993
 20
-9.412324738143356
 30
0.0
 10
17.88907224015961
 20
-9.441556821511428
 30
0.0
 10
18.91921268929239
 20
-9.480113551067081
 30
0.0
 10
19.61648819915111
 20
-9.51617330137136
 30
0.0
 10
19.99344103993079
 20
-9.535667497170316
 30
0.0
  0
SPLINE
  5
A0
330
1F
100
AcDbEntity
  8
0
  6
Continuous
 62
     4
370
    15
100
AcDbSpline
210
0.0
220
0.0
230
1.0
 70
     8
 71
     3
 72
     8
 73
     4
 74
     0
 42
0.000000001
 43
0.00000001
 40
0.0
 40
0.0
 40
0.0
 40
0.0
 40
1.0
 40
1.0
 40
1.0
 40
1.0
 10
2.184049756551651
 20
11.95867551586817
 30
0.0
 10
2.122667183864231
 20
11.96940879910143
 30
0.0
 10
2.061289815878959
 20
11.97998569531654
 30
0.0
 10
1.99992125578077
 20
11.9904056190854
 30
0.0
1001
PE_URL
1000

  0
LINE
  5
A1
330
1F
100
AcDbEntity
  8
0
  6
Continuous
 62
     4
370
    15
100
AcDbLine
 10
2.184049756547051
 20
11.95867551586894
 30
0.0
 11
2.184049756547051
 21
10.51433161881371
 31
0.0
1001
PE_URL
1000

  0
SPLINE
  5
A2
330
1F
100
AcDbEntity
  8
0
  6
Continuous
 62
     4
370
    15
100
AcDbSpline
210
0.0
220
0.0
230
1.0
 70
     8
 71
     3
 72
     8
 73
     4
 74
     0
 42
0.000000001
 43
0.00000001
 40
0.0
 40
0.0
 40
0.0
 40
0.0
 40
1.0
 40
1.0
 40
1.0
 40
1.0
 10
2.000000000000002
 20
10.57371388989845
 30
0.0
 10
2.061342319555709
 20
10.55405823083344
 30
0.0
 10
2.122693437926238
 20
10.53426376379797
 30
0.0
 10
2.184049756547433
 20
10.51433161881355
 30
0.0
1001
PE_URL
1000

  0
SPLINE
  5
A3
330
1F
100
AcDbEntity
  8
0
  6
Continuous
 62
     4
370
    15
100
AcDbSpline
210
0.0
220
0.0
230
1.0
 70
     8
 71
     3
 72
     8
 73
     4
 74
     0
 42
0.000000001
 43
0.00000001
 40
0.0
 40
0.0
 40
0.0
 40
0.0
 40
1.0
 40
1.0
 40
1.0
 40
1.0
 10
2.184049756551651
 20
-11.95867551586817
 30
0.0
 10
2.122667183864235
 20
-11.96940879910143
 30
0.0
 10
2.061289815878959
 20
-11.97998569531654
 30
0.0
 10
1.99992125578077
 20
-11.9904056190854
 30
0.0
1001
PE_URL
1000

  0
LINE
  5
A4
330
1F
100
AcDbEntity
  8
0
  6
Continuous
 62
     4
370
    15
100
AcDbLine
 10
2.000000000000002
 20
11.99048910635181
 30
0.0
 11
2.000000000000005
 21
12.5
 31
0.0
1001
PE_URL
1000

  0
LINE
  5
A5
330
1F
100
AcDbEntity
  8
0
  6
Continuous
 62
     4
370
    15
100
AcDbLine
 10
-63.9499248396685
 20
12.49999999999999
 30
0.0
 11
-63.9499248396685
 21
-12.50000000000001
 31
0.0
  0
LINE
  5
A6
330
1F
100
AcDbEntity
  8
0
  6
Continuous
 62
     4
370
    15
100
AcDbLine
 10
2.000000000000009
 20
-12.5
 30
0.0
 11
2.000000000000002
 21
11.99039224881898
 31
0.0
1001
PE_URL
1000

  0
LINE
  5
A7
330
1F
100
AcDbEntity
  8
0
  6
Continuous
 62
     4
370
    15
100
AcDbLine
 10
-64.9499248396685
 20
11.49999999999999
 30
0.0
 11
-64.9499248396685
 21
-11.50000000000001
 31
0.0
  0
SPLINE
  5
A8
330
1F
100
AcDbEntity
  8
0
  6
Continuous
 62
     1
370
    15
100
AcDbSpline
210
0.0
220
0.0
230
1.0
 70
    24
 71
     3
 72
    14
 73
    10
 74
     0
 42
0.000000001
 43
0.00000001
 40
0.0
 40
0.0
 40
0.0
 40
0.0
 40
0.2499999999999999
 40
0.2499999999999999
 40
0.4999999999999999
 40
0.4999999999999999
 40
0.7499999999999999
 40
0.7499999999999999
 40
1.0
 40
1.0
 40
1.0
 40
1.0
 10
5.050075160331474
 20
6.225690557788427
 30
0.0
 10
5.050075160331474
 20
5.360680337687198
 30
0.0
 10
5.050075160331474
 20
4.392157677698345
 30
0.0
 10
5.050075160331474
 20
2.314701499155094
 30
0.0
 10
5.050075160331474
 20
1.206504875857553
 30
0.0
 10
5.050075160331474
 20
-1.045410210369668
 30
0.0
 10
5.050075160331474
 20
-2.187928758792843
 30
0.0
 10
5.050075160331474
 20
-4.396162561700553
 30
0.0
 10
5.050075160331474
 20
-5.460957236698373
 30
0.0
 10
5.050075160331474
 20
-6.444820310717636
 30
0.0
  0
SPLINE
  5
A9
330
1F
100
AcDbEntity
  8
0
  6
Continuous
 62
     4
370
    15
100
AcDbSpline
210
0.0
220
0.0
230
1.0
 70
     8
 71
     3
 72
    10
 73
     6
 74
     0
 42
0.000000001
 43
0.00000001
 40
0.0
 40
0.0
 40
0.0
 40
0.0
 40
0.5
 40
0.5
 40
1.0
 40
1.0
 40
1.0
 40
1.0
 10
5.050075160331488
 20
-6.444820310717639
 30
0.0
 10
4.541599043731557
 20
-6.270765233560812
 30
0.0
 10
4.035801023292242
 20
-6.091241146033259
 30
0.0
 10
3.019034954243466
 20
-5.720983506963158
 30
0.0
 10
2.509200154368362
 20
-5.530370570754584
 30
0.0
 10
1.99997124790846
 20
-5.335034610379166
 30
0.0
  0
SPLINE
  5
AA
330
1F
100
AcDbEntity
  8
0
  6
Continuous
 62
     4
370
    15
100
AcDbSpline
210
0.0
220
0.0
230
1.0
 70
     8
 71
     3
 72
    10
 73
     6
 74
     0
 42
0.000000001
 43
0.00000001
 40
0.0
 40
0.0
 40
0.0
 40
0.0
 40
0.5
 40
0.5
 40
1.0
 40
1.0
 40
1.0
 40
1.0
 10
5.050075160331488
 20
6.225690557788418
 30
0.0
 10
4.541600671793052
 20
6.363641507323587
 30
0.0
 10
4.035804269531512
 20
6.495772267935239
 30
0.0
 10
3.019041474584861
 20
6.748596801825765
 30
0.0
 10
2.509208314493524
 20
6.869177618109982
 30
0.0
 10
1.999981030739388
 20
6.983430073222151
 30
0.0
  0
SPLINE
  5
AB
330
1F
100
AcDbEntity
  8
0
  6
Continuous
 62
     4
370
    15
100
AcDbSpline
210
0.0
220
0.0
230
1.0
 70
     8
 71
     3
 72
     8
 73
     4
 74
     0
 42
0.000000001
 43
0.00000001
 40
0.0
 40
0.0
 40
0.0
 40
0.0
 40
1.0
 40
1.0
 40
1.0
 40
1.0
 10
2.184049756547051
 20
10.51433161881371
 30
0.0
 10
2.806841482242008
 20
10.20850170333526
 30
0.0
 10
3.42883185490801
 20
9.896040052788857
 30
0.0
 10
4.050075160331495
 20
9.576808288254062
 30
0.0
1001
PE_URL
1000

  0
SPLINE
  5
AC
330
1F
100
AcDbEntity
  8
0
  6
Continuous
 62
     4
370
    15
100
AcDbSpline
210
0.0
220
0.0
230
1.0
 70
     8
 71
     3
 72
     8
 73
     4
 74
     0
 42
0.000000001
 43
0.00000001
 40
0.0
 40
0.0
 40
0.0
 40
0.0
 40
1.0
 40
1.0
 40
1.0
 40
1.0
 10
4.050075160331495
 20
9.57680828825406
 30
0.0
 10
4.383229324350369
 20
9.460709647710225
 30
0.0
 10
4.716048247736234
 20
9.34094958002584
 30
0.0
 10
5.050075160331488
 20
9.217472985604694
 30
0.0
  0
SPLINE
  5
AD
330
1F
100
AcDbEntity
  8
0
  6
Continuous
 62
     4
370
    15
100
AcDbSpline
210
0.0
220
0.0
230
1.0
 70
    24
 71
     3
 72
    10
 73
     6
 74
     0
 42
0.000000001
 43
0.00000001
 40
0.0
 40
0.0
 40
0.0
 40
0.0
 40
0.5
 40
0.5
 40
1.0
 40
1.0
 40
1.0
 40
1.0
 10
5.050075160331488
 20
9.217472985604694
 30
0.0
 10
5.050075160331488
 20
8.875290788852812
 30
0.0
 10
5.050075160331488
 20
8.420592733710482
 30
0.0
 10
5.050075160331488
 20
7.381521248807026
 30
0.0
 10
5.050075160331488
 20
6.800435140204326
 30
0.0
 10
5.050075160331488
 20
6.225690557788424
 30
0.0
  0
SPLINE
  5
AE
330
1F
100
AcDbEntity
  8
0
  6
Continuous
 62
     1
370
    15
100
AcDbSpline
210
0.0
220
0.0
230
1.0
 70
    24
 71
     3
 72
    15
 73
    11
 74
     0
 42
0.000000001
 43
0.00000001
 40
0.0
 40
0.0
 40
0.0
 40
0.0
 40
0.1556559525847636
 40
0.31333442745873
 40
0.4281141881754424
 40
0.5428939488921548
 40
0.6610083099948194
 40
0.7791226710974841
 40
0.9863999176056095
 40
1.0
 40
1.0
 40
1.0
 40
1.0
 10
5.050075160331488
 20
-6.444820310717643
 30
0.0
 10
5.050075160331488
 20
-6.759436640003738
 30
0.0
 10
5.050075160331485
 20
-7.392757279330676
 30
0.0
 10
5.050075160331485
 20
-8.099306550840279
 30
0.0
 10
5.050075160331485
 20
-8.638309096647555
 30
0.0
 10
5.050075160331485
 20
-9.035599770391512
 30
0.0
 10
5.050075160331485
 20
-9.350990881435944
 30
0.0
 10
5.050075160331485
 20
-9.61460247237447
 30
0.0
 10
5.050075160331485
 20
-9.759692778107375
 30
0.0
 10
5.050075160331485
 20
-9.705653082987029
 30
0.0
 10
5.050075160331485
 20
-9.702325696197914
 30
0.0
  0
LINE
  5
AF
330
1F
100
AcDbEntity
  8
0
  6
Continuous
 62
     4
370
    15
100
AcDbLine
 10
4.050075160331492
 20
11.20133828610037
 30
0.0
 11
4.050075160331492
 21
9.57680828825406
 31
0.0
1001
PE_URL
1000

  0
SPLINE
  5
B0
330
1F
100
AcDbEntity
  8
0
  6
Continuous
 62
     4
370
    15
100
AcDbSpline
210
0.0
220
0.0
230
1.0
 70
     8
 71
     3
 72
     8
 73
     4
 74
     0
 42
0.000000001
 43
0.00000001
 40
0.0
 40
0.0
 40
0.0
 40
0.0
 40
1.0
 40
1.0
 40
1.0
 40
1.0
 10
5.050075160331485
 20
10.98103716817012
 30
0.0
 10
4.71604824773623
 20
11.05880179693687
 30
0.0
 10
4.383229324350369
 20
11.13222244514228
 30
0.0
 10
4.050075160331492
 20
11.20133828610037
 30
0.0
1001
PE_URL
1000

  0
LINE
  5
B1
330
1F
100
AcDbEntity
  8
0
  6
Continuous
 62
     4
370
    15
100
AcDbLine
 10
5.050075160331485
 20
10.98103716817012
 30
0.0
 11
5.050075160331485
 21
9.217472985604694
 31
0.0
1001
PE_URL
1000

  0
SPLINE
  5
B2
330
1F
100
AcDbEntity
  8
0
  6
Continuous
 62
     4
370
    15
100
AcDbSpline
210
0.0
220
0.0
230
1.0
 70
     8
 71
     3
 72
     8
 73
     4
 74
     0
 42
0.000000001
 43
0.00000001
 40
0.0
 40
0.0
 40
0.0
 40
0.0
 40
1.0
 40
1.0
 40
1.0
 40
1.0
 10
4.050075160331492
 20
11.20133828610033
 30
0.0
 10
3.426535597490583
 20
11.46088482581484
 30
0.0
 10
2.804529799002621
 20
11.71352194223519
 30
0.0
 10
2.184049756547058
 20
11.95867551586896
 30
0.0
1001
PE_URL
1000

  0
SPLINE
  5
B3
330
1F
100
AcDbEntity
  8
0
  6
Continuous
 62
     4
370
    15
100
AcDbSpline
210
0.0
220
0.0
230
1.0
 70
     8
 71
     3
 72
     8
 73
     4
 74
     0
 42
0.000000001
 43
0.00000001
 40
0.0
 40
0.0
 40
0.0
 40
0.0
 40
1.0
 40
1.0
 40
1.0
 40
1.0
 10
5.050075160331488
 20
-10.98103716817012
 30
0.0
 10
4.716048247736234
 20
-11.05880179693687
 30
0.0
 10
4.383229324350369
 20
-11.13222244514228
 30
0.0
 10
4.050075160331495
 20
-11.20133828610037
 30
0.0
  0
SPLINE
  5
B4
330
1F
100
AcDbEntity
  8
0
  6
Continuous
 62
     4
370
    15
100
AcDbSpline
210
0.0
220
0.0
230
1.0
 70
     8
 71
     3
 72
     8
 73
     4
 74
     0
 42
0.000000001
 43
0.00000001
 40
0.0
 40
0.0
 40
0.0
 40
0.0
 40
1.0
 40
1.0
 40
1.0
 40
1.0
 10
4.050075160331495
 20
-11.20133828610033
 30
0.0
 10
3.426535597490583
 20
-11.46088482581483
 30
0.0
 10
2.804529799002621
 20
-11.71352194223519
 30
0.0
 10
2.184049756547061
 20
-11.95867551586895
 30
0.0
1001
PE_URL
1000

  0
SPLINE
  5
B5
330
1F
100
AcDbEntity
  8
0
  6
Continuous
 62
     1
370
    15
100
AcDbSpline
210
0.0
220
0.0
230
1.0
 70
    24
 71
     3
 72
    10
 73
     6
 74
     0
 42
0.000000001
 43
0.00000001
 40
0.0
 40
0.0
 40
0.0
 40
0.0
 40
0.3236357501211869
 40
0.8250723400405667
 40
1.0
 40
1.0
 40
1.0
 40
1.0
 10
5.050075160331488
 20
-9.787582874702817
 30
0.0
 10
5.050075160331488
 20
-9.924036120510252
 30
0.0
 10
5.050075160331485
 20
-10.27190806847124
 30
0.0
 10
5.050075160331485
 20
-10.6628735735731
 30
0.0
 10
5.050075160331485
 20
-10.91565934365023
 30
0.0
 10
5.050075160331485
 20
-10.98103716815612
 30
0.0
  0
SPLINE
  5
B6
330
1F
100
AcDbEntity
  8
0
  6
Continuous
 62
     1
370
    15
100
AcDbSpline
210
0.0
220
0.0
230
1.0
 70
     8
 71
     3
 72
    58
 73
    54
 74
     0
 42
0.000000001
 43
0.00000001
 40
0.0
 40
0.0
 40
0.0
 40
0.0
 40
0.03125
 40
0.03125
 40
0.0625000000000001
 40
0.0625000000000001
 40
0.1250000000000002
 40
0.1250000000000002
 40
0.1562500000000002
 40
0.1562500000000002
 40
0.1875000000000002
 40
0.1875000000000002
 40
0.2187500000000002
 40
0.2187500000000002
 40
0.2500000000000002
 40
0.2500000000000002
 40
0.2812500000000001
 40
0.2812500000000001
 40
0.3125000000000001
 40
0.3125000000000001
 40
0.3750000000000003
 40
0.3750000000000003
 40
0.4062500000000003
 40
0.4062500000000003
 40
0.4375000000000003
 40
0.4375000000000003
 40
0.4687500000000003
 40
0.4687500000000003
 40
0.5000000000000003
 40
0.5000000000000003
 40
0.5625000000000004
 40
0.5625000000000004
 40
0.6250000000000004
 40
0.6250000000000004
 40
0.6562500000000004
 40
0.6562500000000004
 40
0.6875000000000004
 40
0.6875000000000004
 40
0.7187500000000006
 40
0.7187500000000006
 40
0.7500000000000007
 40
0.7500000000000007
 40
0.8125000000000007
 40
0.8125000000000007
 40
0.8437500000000006
 40
0.8437500000000006
 40
0.8750000000000004
 40
0.8750000000000004
 40
0.9062500000000003
 40
0.9062500000000003
 40
0.9375000000000002
 40
0.9375000000000002
 40
1.0
 40
1.0
 40
1.0
 40
1.0
 10
5.050075160331481
 20
9.217472985604697
 30
0.0
 10
5.570933424535136
 20
9.02493219857564
 30
0.0
 10
6.093244314113027
 20
8.823518469191153
 30
0.0
 10
7.136347168155782
 20
8.4046290896766
 30
0.0
 10
7.655781354576742
 20
8.187351984261662
 30
0.0
 10
9.214872746876143
 20
7.512954294124446
 30
0.0
 10
10.26290954417816
 20
7.031996316311633
 30
0.0
 10
11.82143068042973
 20
6.275695224354861
 30
0.0
 10
12.34124969398619
 20
6.01740708025149
 30
0.0
 10
13.38447537618164
 20
5.489377162598527
 30
0.0
 10
13.90675210315196
 20
5.219818697376361
 30
0.0
 10
14.94821011449557
 20
4.671915267300531
 30
0.0
 10
15.46633695556608
 20
4.393770393402002
 30
0.0
 10
16.50825031018654
 20
3.828726362040386
 30
0.0
 10
17.03058275880306
 20
3.542077680717687
 30
0.0
 10
18.07357441596069
 20
2.962948277889101
 30
0.0
 10
18.59273350424974
 20
2.670753179227962
 30
0.0
 10
19.63242292689955
 20
2.081638570594332
 30
0.0
 10
20.154351272623
 20
1.78444970144505
 30
0.0
 10
21.71976709292484
 20
0.8887416115812512
 30
0.0
 10
22.7568441094876
 20
0.2872505471598004
 30
0.0
 10
24.32181341412542
 20
-0.6150087471150584
 30
0.0
 10
24.84405652280481
 20
-0.915577277757139
 30
0.0
 10
25.88529381954643
 20
-1.513802113847147
 30
0.0
 10
26.40347235972718
 20
-1.811306003932049
 30
0.0
 10
27.44557185664899
 20
-2.40343769467934
 30
0.0
 10
27.96792047519423
 20
-2.697760921271556
 30
0.0
 10
29.01079021460736
 20
-3.280425034815149
 30
0.0
 10
29.52970609942977
 20
-3.568472915448178
 30
0.0
 10
31.08966706329367
 20
-4.422336758956399
 30
0.0
 10
32.13766858532802
 20
-4.978447057929994
 30
0.0
 10
34.21440015042953
 20
-6.045710915196298
 30
0.0
 10
35.26085150400609
 20
-6.559896930089733
 30
0.0
 10
36.82236038605933
 20
-7.289925294350465
 30
0.0
 10
37.34062255352513
 20
-7.526296564754526
 30
0.0
 10
38.3828975024617
 20
-7.985292893661851
 30
0.0
 10
38.90525690126888
 20
-8.207651992660153
 30
0.0
 10
39.94799400625798
 20
-8.636201404430446
 30
0.0
 10
40.46669859058908
 20
-8.84218315551077
 30
0.0
 10
41.50694650218029
 20
-9.237513702808828
 30
0.0
 10
42.02900129172008
 20
-9.426904680659938
 30
0.0
 10
43.59433270704096
 20
-9.967765720354263
 30
0.0
 10
44.63130308286137
 20
-10.29137475389976
 30
0.0
 10
46.19648565281913
 20
-10.71789269375375
 30
0.0
 10
46.71864536816001
 20
-10.85011789540402
 30
0.0
 10
47.75940926130074
 20
-11.09360594824272
 30
0.0
 10
48.27778698136808
 20
-11.20488236077693
 30
0.0
 10
49.32022668602298
 20
-11.40652838904192
 30
0.0
 10
49.84259147505392
 20
-11.49675626967753
 30
0.0
 10
50.88518523348594
 20
-11.65525413086696
 30
0.0
 10
51.40371042752179
 20
-11.72346880430496
 30
0.0
 10
52.96447725802442
 20
-11.89508802251497
 30
0.0
 10
54.01239993645151
 20
-11.96516873865311
 30
0.0
 10
55.0500751603315
 20
-11.98985778275572
 30
0.0
  0
SPLINE
  5
B7
330
1F
100
AcDbEntity
  8
0
  6
Continuous
 62
     1
370
    15
100
AcDbSpline
210
0.0
220
0.0
230
1.0
 70
     8
 71
     3
 72
    14
 73
    10
 74
     0
 42
0.000000001
 43
0.00000001
 40
0.0
 40
0.0
 40
0.0
 40
0.0
 40
0.0020063918161919
 40
0.1661392148408933
 40
0.3302918496193982
 40
0.4944651545717108
 40
0.662987668908147
 40
0.831498707018529
 40
0.9999999999999999
 40
0.9999999999999999
 40
0.9999999999999999
 40
0.9999999999999999
 10
25.25170576962095
 20
-1.147620167941625
 30
0.0
 10
25.238195275088
 20
-1.142291782122754
 30
0.0
 10
24.11945917593618
 20
-0.7010749524026313
 30
0.0
 10
21.89533648152035
 20
0.2088937435774395
 30
0.0
 10
18.57918811479664
 20
1.541934013166288
 30
0.0
 10
15.23341079078171
 20
2.852882946010248
 30
0.0
 10
11.858326511354
 20
4.096633524503571
 30
0.0
 10
8.454116469543777
 20
5.253826405587284
 30
0.0
 10
6.184733722731403
 20
5.901742085482799
 30
0.0
 10
5.050075160331488
 20
6.225690557788424
 30
0.0
  0
SPLINE
  5
B8
330
1F
100
AcDbEntity
  8
0
  6
Continuous
 62
     4
370
    15
100
AcDbSpline
210
0.0
220
0.0
230
1.0
 70
    24
 71
     3
 72
    10
 73
     6
 74
     0
 42
0.000000001
 43
0.00000001
 40
0.0
 40
0.0
 40
0.0
 40
0.0
 40
0.4999999999999997
 40
0.4999999999999997
 40
1.0
 40
1.0
 40
1.0
 40
1.0
 10
5.050075160331488
 20
9.217472985604694
 30
0.0
 10
5.050075160331488
 20
8.875290788852812
 30
0.0
 10
5.050075160331488
 20
8.420592733710478
 30
0.0
 10
5.050075160331488
 20
7.381521248807026
 30
0.0
 10
5.050075160331488
 20
6.800435140204326
 30
0.0
 10
5.050075160331488
 20
6.225690557788424
 30
0.0
  0
SPLINE
  5
B9
330
1F
100
AcDbEntity
  8
0
  6
Continuous
 62
     1
370
    15
100
AcDbSpline
210
0.0
220
0.0
230
1.0
 70
     8
 71
     3
 72
    58
 73
    54
 74
     0
 42
0.000000001
 43
0.00000001
 40
0.0
 40
0.0
 40
0.0
 40
0.0
 40
0.0625000000000005
 40
0.0625000000000005
 40
0.0937500000000007
 40
0.0937500000000007
 40
0.1250000000000008
 40
0.1250000000000008
 40
0.1562500000000009
 40
0.1562500000000009
 40
0.1875000000000011
 40
0.1875000000000011
 40
0.2500000000000011
 40
0.2500000000000011
 40
0.2812500000000011
 40
0.2812500000000011
 40
0.3125000000000011
 40
0.3125000000000011
 40
0.3437500000000011
 40
0.3437500000000011
 40
0.375000000000001
 40
0.375000000000001
 40
0.4375000000000011
 40
0.4375000000000011
 40
0.5000000000000011
 40
0.5000000000000011
 40
0.531250000000001
 40
0.531250000000001
 40
0.562500000000001
 40
0.562500000000001
 40
0.5937500000000009
 40
0.5937500000000009
 40
0.6250000000000009
 40
0.6250000000000009
 40
0.6875000000000008
 40
0.6875000000000008
 40
0.7187500000000007
 40
0.7187500000000007
 40
0.7500000000000006
 40
0.7500000000000006
 40
0.7812500000000006
 40
0.7812500000000006
 40
0.8125000000000004
 40
0.8125000000000004
 40
0.8437500000000004
 40
0.8437500000000004
 40
0.8750000000000003
 40
0.8750000000000003
 40
0.9375000000000002
 40
0.9375000000000002
 40
0.9687500000000002
 40
0.9687500000000002
 40
1.0
 40
1.0
 40
1.0
 40
1.0
 10
55.0500751603315
 20
-11.38729043078279
 30
0.0
 10
54.01239993645142
 20
-11.19782007510227
 30
0.0
 10
52.96447725802427
 20
-10.96469642356929
 30
0.0
 10
51.40371042752155
 20
-10.55525517979095
 30
0.0
 10
50.88518523348565
 20
-10.40887759506865
 30
0.0
 10
49.84259147505353
 20
-10.09627146153309
 30
0.0
 10
49.32022668602256
 20
-9.930185945044236
 30
0.0
 10
48.2777869813676
 20
-9.579859944578606
 30
0.0
 10
47.7594092613002
 20
-9.395837651588614
 30
0.0
 10
46.71864536815941
 20
-9.0100003746216
 30
0.0
 10
46.19648565281852
 20
-8.808187100626165
 30
0.0
 10
44.63130308286063
 20
-8.17856224586086
 30
0.0
 10
43.59433270704017
 20
-7.727280979985371
 30
0.0
 10
42.02900129171915
 20
-7.007873836951352
 30
0.0
 10
41.50694650217935
 20
-6.761185246139787
 30
0.0
 10
40.46669859058807
 20
-6.256165541608526
 30
0.0
 10
39.94799400625691
 20
-5.997767804088656
 30
0.0
 10
38.90525690126773
 20
-5.46927731467482
 30
0.0
 10
38.38289750246054
 20
-5.199453537286942
 30
0.0
 10
37.34062255352389
 20
-4.650939406161065
 30
0.0
 10
36.82236038605804
 20
-4.372554089792479
 30
0.0
 10
35.2608515040047
 20
-3.52465119176079
 30
0.0
 10
34.21440015042808
 20
-2.942934345407193
 30
0.0
 10
32.1376685853264
 20
-1.764754963339512
 30
0.0
 10
31.08966706329198
 20
-1.164957184248015
 30
0.0
 10
29.52970609942798
 20
-0.2643501155808194
 30
0.0
 10
29.01079021460553
 20
0.0361774457979643
 30
0.0
 10
27.9679204751923
 20
0.63756770476932
 30
0.0
 10
27.44557185664704
 20
0.9381199965177998
 30
0.0
 10
26.40347235972517
 20
1.53639366885211
 30
0.0
 10
25.8852938195444
 20
1.833817494769414
 30
0.0
 10
24.84405652280267
 20
2.425585213196377
 30
0.0
 10
24.32181341412326
 20
2.719768267056199
 30
0.0
 10
22.75684410948532
 20
3.593462755823563
 30
0.0
 10
21.71976709292248
 20
4.163418103024372
 30
0.0
 10
20.15435127262054
 20
4.99341960750622
 30
0.0
 10
19.63242292689706
 20
5.2656534827333
 30
0.0
 10
18.59273350424719
 20
5.798986379044043
 30
0.0
 10
18.07357441595808
 20
6.060336357407865
 30
0.0
 10
17.03058275880037
 20
6.571903279241578
 30
0.0
 10
16.50825031018383
 20
6.821860674882115
 30
0.0
 10
15.4663369555633
 20
7.308018749558275
 30
0.0
 10
14.94821011449274
 20
7.544014757662517
 30
0.0
 10
13.90675210314905
 20
8.002155865565896
 30
0.0
 10
13.3844753761787
 20
8.22412248370624
 30
0.0
 10
12.34124969398319
 20
8.651941687112364
 30
0.0
 10
11.82143068042671
 20
8.857651362607548
 30
0.0
 10
10.26290954417501
 20
9.449123244342626
 30
0.0
 10
9.214872746872903
 20
9.810321604111337
 30
0.0
 10
7.655781354573426
 20
10.29329275135066
 30
0.0
 10
7.136347168152414
 20
10.4447321000033
 30
0.0
 10
6.09324431410958
 20
10.72804547736458
 30
0.0
 10
5.570933424531649
 20
10.85977643130044
 30
0.0
 10
5.05007516032795
 20
10.98103716817095
 30
0.0
  0
SPLINE
  5
BA
330
1F
100
AcDbEntity
  8
0
  6
Continuous
 62
     1
370
    15
100
AcDbSpline
210
0.0
220
0.0
230
1.0
 70
     8
 71
     3
 72
    17
 73
    13
 74
     0
 42
0.000000001
 43
0.00000001
 40
0.0
 40
0.0
 40
0.0
 40
0.0
 40
0.1065135392911065
 40
0.2130128997401292
 40
0.3195010096224409
 40
0.4259808094052509
 40
0.5324552485732346
 40
0.638927282433446
 40
0.745399868906831
 40
0.8518759653137242
 40
0.9583585251607291
 40
1.0
 40
1.0
 40
1.0
 40
1.0
 10
55.0500751603315
 20
-9.467667172418583
 30
0.0
 10
53.94457586346698
 20
-9.24261610730683
 30
0.0
 10
51.73372443131063
 20
-8.792543935373454
 30
0.0
 10
48.41772432084559
 20
-7.829686763190988
 30
0.0
 10
45.10212075522689
 20
-6.685296908184109
 30
0.0
 10
41.78681579030266
 20
-5.366587260804197
 30
0.0
 10
38.47170213536225
 20
-3.912779195262018
 30
0.0
 10
35.15667436135556
 20
-2.359670970246621
 30
0.0
 10
31.8416276427162
 20
-0.7453634062508483
 30
0.0
 10
28.52645229686211
 20
0.8827953849125724
 30
0.0
 10
25.8841036660973
 20
2.177814111779368
 30
0.0
 10
24.3467811636178
 20
2.88768677979923
 30
0.0
 10
23.91460027924997
 20
3.087250239618853
 30
0.0
  0
LINE
  5
BB
330
1F
100
AcDbEntity
  8
0
  6
Continuous
 62
     1
370
    15
100
AcDbLine
 10
55.05007516033122
 20
-11.38729043078279
 30
0.0
 11
55.0500751603315
 21
-9.467667172418583
 31
0.0
  0
LINE
  5
BC
330
1F
100
AcDbEntity
  8
0
  6
Continuous
 62
     1
370
    15
100
AcDbLine
 10
55.0500751603315
 20
-11.98985778275573
 30
0.0
 11
55.05007516033228
 21
-11.38729043078278
 31
0.0
  0
SPLINE
  5
BD
330
1F
100
AcDbEntity
  8
0
  6
Continuous
 62
     1
370
    15
100
AcDbSpline
210
0.0
220
0.0
230
1.0
 70
     8
 71
     3
 72
    10
 73
     6
 74
     0
 42
0.000000001
 43
0.00000001
 40
0.0
 40
0.0
 40
0.0
 40
0.0
 40
0.5
 40
0.5
 40
1.0
 40
1.0
 40
1.0
 40
1.0
 10
55.0500751603315
 20
-3.206915352355729
 30
0.0
 10
54.19753828619677
 20
-2.536681376139799
 30
0.0
 10
53.35459753723356
 20
-1.847994763744081
 30
0.0
 10
51.687630971602
 20
-0.4342495286082648
 30
0.0
 10
50.86360093129385
 20
0.2908009723859458
 30
0.0
 10
50.05007516033139
 20
1.036050403376155
 30
0.0
  0
LINE
  5
BE
330
1F
100
AcDbEntity
  8
0
  6
Continuous
 62
     1
370
    15
100
AcDbLine
 10
50.05007516033149
 20
2.937719435296595
 30
0.0
 11
55.0500751603315
 21
0.0000000000000085
 31
0.0
  0
LINE
  5
BF
330
1F
100
AcDbEntity
  8
0
  6
Continuous
 62
     1
370
    15
100
AcDbLine
 10
55.0500751603315
 20
0.0000000000000085
 30
0.0
 11
55.0500751603315
 21
-3.206915352355728
 31
0.0
  0
SPLINE
  5
C0
330
1F
100
AcDbEntity
  8
0
  6
Continuous
 62
     1
370
    15
100
AcDbSpline
210
0.0
220
0.0
230
1.0
 70
     8
 71
     3
 72
    17
 73
    13
 74
     0
 42
0.000000001
 43
0.00000001
 40
0.0
 40
0.0
 40
0.0
 40
0.0
 40
0.0916047776348124
 40
0.1832859671652073
 40
0.2749012366814888
 40
0.3851848488790137
 40
0.4954659349553536
 40
0.6057476016237481
 40
0.7160329549639549
 40
0.826325097034342
 40
0.9366271224932651
 40
1.0
 40
1.0
 40
1.0
 40
1.0
 10
50.05007516033152
 20
2.287427509533482
 30
0.0
 10
49.13229375035154
 20
2.695371989514629
 30
0.0
 10
47.29596536532965
 20
3.511601235342056
 30
0.0
 10
44.54113610736362
 20
4.662339697235527
 30
0.0
 10
41.59979545476457
 20
5.80819662977838
 30
0.0
 10
38.47169612051862
 20
6.899732105788269
 30
0.0
 10
35.15669909166655
 20
7.881875010658263
 30
0.0
 10
31.8416465170846
 20
8.66301425590158
 30
0.0
 10
28.52647869978182
 20
9.22720515525676
 30
0.0
 10
25.21107454163332
 20
9.545965953842048
 30
0.0
 10
22.36570752927715
 20
9.647175085682411
 30
0.0
 10
20.62543753174844
 20
9.543571517243482
 30
0.0
 10
19.99042397769544
 20
9.505767228081224
 30
0.0
  0
SPLINE
  5
C1
330
1F
100
AcDbEntity
  8
0
  6
Continuous
 62
     1
370
    15
100
AcDbSpline
210
0.0
220
0.0
230
1.0
 70
    24
 71
     3
 72
     8
 73
     4
 74
     0
 42
0.000000001
 43
0.00000001
 40
0.0
 40
0.0
 40
0.0
 40
0.0
 40
1.0
 40
1.0
 40
1.0
 40
1.0
 10
50.05007516033149
 20
1.036050403376446
 30
0.0
 10
50.05007516033149
 20
1.458150591461185
 30
0.0
 10
50.05007516033149
 20
1.876154945321629
 30
0.0
 10
50.05007516033149
 20
2.287427509533495
 30
0.0
  0
SPLINE
  5
C2
330
1F
100
AcDbEntity
  8
0
  6
Continuous
 62
     1
370
    15
100
AcDbSpline
210
0.0
220
0.0
230
1.0
 70
    24
 71
     3
 72
    10
 73
     6
 74
     0
 42
0.000000001
 43
0.00000001
 40
0.0
 40
0.0
 40
0.0
 40
0.0
 40
0.5
 40
0.5
 40
1.0
 40
1.0
 40
1.0
 40
1.0
 10
55.0500751603315
 20
-9.46766717241858
 30
0.0
 10
55.0500751603315
 20
-8.741896668045648
 30
0.0
 10
55.0500751603315
 20
-7.824857806877614
 30
0.0
 10
55.0500751603315
 20
-5.692830709808151
 30
0.0
 10
55.0500751603315
 20
-4.479689316615707
 30
0.0
 10
55.0500751603315
 20
-3.206915352356111
 30
0.0
  0
SPLINE
  5
C3
330
1F
100
AcDbEntity
  8
0
  6
Continuous
 62
     1
370
    15
100
AcDbSpline
210
0.0
220
0.0
230
1.0
 70
    24
 71
     3
 72
    10
 73
     6
 74
     0
 42
0.000000001
 43
0.00000001
 40
0.0
 40
0.0
 40
0.0
 40
0.0
 40
0.4999999999999999
 40
0.4999999999999999
 40
1.0
 40
1.0
 40
1.0
 40
1.0
 10
50.05007516033149
 20
2.28742750953349
 30
0.0
 10
50.05007516033149
 20
3.204074142295029
 30
0.0
 10
50.0500751603315
 20
4.073507953491229
 30
0.0
 10
50.05007516033146
 20
5.608568158762397
 30
0.0
 10
50.05007516033149
 20
6.272903538884393
 30
0.0
 10
50.05007516033149
 20
6.793876067909604
 30
0.0
  0
SPLINE
  5
C4
330
1F
100
AcDbEntity
  8
0
  6
Continuous
 62
     1
370
    15
100
AcDbSpline
210
0.0
220
0.0
230
1.0
 70
     8
 71
     3
 72
     9
 73
     5
 74
     0
 42
0.000000001
 43
0.00000001
 40
0.0
 40
0.0
 40
0.0
 40
0.0
 40
0.742660348123083
 40
1.0
 40
1.0
 40
1.0
 40
1.0
 10
55.0500751603315
 20
8.400000000000006
 30
0.0
 10
53.94457605443642
 20
8.390517326656628
 30
0.0
 10
52.45600983612549
 20
8.377748806878584
 30
0.0
 10
50.967475529017
 20
8.223156907013415
 30
0.0
 10
50.58441662861883
 20
8.183374281319123
 30
0.0
  0
SPLINE
  5
C5
330
1F
100
AcDbEntity
  8
0
  6
Continuous
 62
     1
370
    15
100
AcDbSpline
210
0.0
220
0.0
230
1.0
 70
     8
 71
     3
 72
     8
 73
     4
 74
     0
 42
0.000000001
 43
0.00000001
 40
0.0
 40
0.0
 40
0.0
 40
0.0
 40
1.0
 40
1.0
 40
1.0
 40
1.0
 10
55.0500751603315
 20
8.400000000000004
 30
0.0
 10
53.36843098147994
 20
7.944080624444282
 30
0.0
 10
51.70095929240475
 20
7.41297660098237
 30
0.0
 10
50.05007516033149
 20
6.793876067909833
 30
0.0
  0
SPLINE
  5
C6
330
1F
100
AcDbEntity
  8
0
  6
Continuous
 62
     1
370
    15
100
AcDbSpline
210
0.0
220
0.0
230
1.0
 70
     8
 71
     3
 72
    15
 73
    11
 74
     0
 42
0.000000001
 43
0.00000001
 40
0.0
 40
0.0
 40
0.0
 40
0.0
 40
0.0451756955748328
 40
0.1800202701908885
 40
0.3148769283633781
 40
0.4497494405037015
 40
0.5846384940954734
 40
0.7231010515671833
 40
0.8615544250685198
 40
1.0
 40
1.0
 40
1.0
 40
1.0
 10
29.63724999081509
 20
-8.998850985847078
 30
0.0
 10
29.26701406861614
 20
-9.064170473845229
 30
0.0
 10
27.79166388528087
 20
-9.324461582339147
 30
0.0
 10
25.21107560649092
 20
-9.543029781846437
 30
0.0
 10
21.89533786202482
 20
-9.640623247131687
 30
0.0
 10
18.57918713412825
 20
-9.477327012678195
 30
0.0
 10
15.2334012672052
 20
-9.074951571616996
 30
0.0
 10
11.85831878743666
 20
-8.426735611292894
 30
0.0
 10
8.454111250441917
 20
-7.560091533292904
 30
0.0
 10
6.184732552140872
 20
-6.816570404743898
 30
0.0
 10
5.050075160331488
 20
-6.444820310717643
 30
0.0
  0
SPLINE
  5
C7
330
1F
100
AcDbEntity
  8
0
  6
Continuous
 62
     4
370
    15
100
AcDbSpline
210
0.0
220
0.0
230
1.0
 70
    24
 71
     3
 72
    14
 73
    10
 74
     0
 42
0.000000001
 43
0.00000001
 40
0.0
 40
0.0
 40
0.0
 40
0.0
 40
0.2499999999999999
 40
0.2499999999999999
 40
0.4999999999999999
 40
0.4999999999999999
 40
0.7499999999999999
 40
0.7499999999999999
 40
1.0
 40
1.0
 40
1.0
 40
1.0
 10
5.050075160331474
 20
6.225690557788427
 30
0.0
 10
5.050075160331474
 20
5.360680337687198
 30
0.0
 10
5.050075160331474
 20
4.392157677698345
 30
0.0
 10
5.050075160331474
 20
2.314701499155094
 30
0.0
 10
5.050075160331474
 20
1.206504875857553
 30
0.0
 10
5.050075160331474
 20
-1.045410210369668
 30
0.0
 10
5.050075160331474
 20
-2.187928758792843
 30
0.0
 10
5.050075160331474
 20
-4.396162561700553
 30
0.0
 10
5.050075160331474
 20
-5.460957236698373
 30
0.0
 10
5.050075160331474
 20
-6.444820310717636
 30
0.0
  0
SPLINE
  5
C8
330
1F
100
AcDbEntity
  8
0
  6
Continuous
 62
     4
370
    15
100
AcDbSpline
210
0.0
220
0.0
230
1.0
 70
    24
 71
     3
 72
    15
 73
    11
 74
     0
 42
0.000000001
 43
0.00000001
 40
0.0
 40
0.0
 40
0.0
 40
0.0
 40
0.15562743143992
 40
0.3132770145783256
 40
0.4280357439748335
 40
0.5427944733713413
 40
0.6608871921484464
 40
0.7789799109255513
 40
0.9862191776181146
 40
1.0
 40
1.0
 40
1.0
 40
1.0
 10
5.050075160331488
 20
-6.444820310717643
 30
0.0
 10
5.050075160331488
 20
-6.759436631077023
 30
0.0
 10
5.050075160331485
 20
-7.392757252434542
 30
0.0
 10
5.050075160331485
 20
-8.09930664766083
 30
0.0
 10
5.050075160331485
 20
-8.638308841898656
 30
0.0
 10
5.050075160331485
 20
-9.035600743288438
 30
0.0
 10
5.050075160331485
 20
-9.35098712993787
 30
0.0
 10
5.050075160331485
 20
-9.61462092440815
 30
0.0
 10
5.050075160331485
 20
-9.759695990081125
 30
0.0
 10
5.050075160331485
 20
-9.705573372844686
 30
0.0
 10
5.050075160331485
 20
-9.70219877382927
 30
0.0
  0
LINE
  5
C9
330
1F
100
AcDbEntity
  8
0
  6
Continuous
 62
     1
370
    15
100
AcDbLine
 10
55.0500751603315
 20
0.0000000000000085
 30
0.0
 11
55.0500751603315
 21
8.400000000000006
 31
0.0
  0
SPLINE
  5
CA
330
1F
100
AcDbEntity
  8
0
  6
Continuous
 62
     1
370
    15
100
AcDbSpline
210
0.0
220
0.0
230
1.0
 70
    24
 71
     3
 72
    10
 73
     6
 74
     0
 42
0.000000001
 43
0.00000001
 40
0.0
 40
0.0
 40
0.0
 40
0.0
 40
0.5
 40
0.5
 40
1.0
 40
1.0
 40
1.0
 40
1.0
 10
55.0500751603315
 20
8.400000000000004
 30
0.0
 10
55.0500751603315
 20
8.909187081687767
 30
0.0
 10
55.05007516033148
 20
9.500909626405411
 30
0.0
 10
55.05007516033147
 20
10.74234193153027
 30
0.0
 10
55.0500751603315
 20
11.38888122961768
 30
0.0
 10
55.0500751603315
 20
11.98985778275574
 30
0.0
  0
SPLINE
  5
CB
330
1F
100
AcDbEntity
  8
0
  6
Continuous
 62
     1
370
    15
100
AcDbSpline
210
0.0
220
0.0
230
1.0
 70
     8
 71
     3
 72
    17
 73
    13
 74
     0
 42
0.000000001
 43
0.00000001
 40
0.0
 40
0.0
 40
0.0
 40
0.0
 40
0.0055218313754752
 40
0.1106510197005654
 40
0.2195943696329522
 40
0.328948593698636
 40
0.4385094919914512
 40
0.548485937821448
 40
0.6607993985546345
 40
0.7733372390088978
 40
0.8865536579419004
 40
1.0
 40
1.0
 40
1.0
 40
1.0
 10
38.53328342384206
 20
8.04453957042521
 30
0.0
 10
38.56369023774659
 20
8.058468952750507
 30
0.0
 10
39.17300709941754
 20
8.337597425405225
 30
0.0
 10
40.38209767175388
 20
8.808555894382103
 30
0.0
 10
42.16235551179749
 20
9.48556956721625
 30
0.0
 10
43.9678782860033
 20
10.08659980741827
 30
0.0
 10
45.77811649220104
 20
10.61756610561447
 30
0.0
 10
47.60563898926384
 20
11.07007316317214
 30
0.0
 10
49.4486175496458
 20
11.44140708470344
 30
0.0
 10
51.31022894871429
 20
11.72247237323179
 30
0.0
 10
53.17749943652321
 20
11.91731874788796
 30
0.0
 10
54.42546128146629
 20
11.96566175833769
 30
0.0
 10
55.05007516033116
 20
11.98985778275572
 30
0.0
  0
SPLINE
  5
CC
330
1F
100
AcDbEntity
  8
0
  6
Continuous
 62
     1
370
    15
100
AcDbSpline
210
0.0
220
0.0
230
1.0
 70
     8
 71
     3
 72
     9
 73
     5
 74
     0
 42
0.000000001
 43
0.00000001
 40
0.0
 40
0.0
 40
0.0
 40
0.0
 40
0.3904095549550646
 40
1.0
 40
1.0
 40
1.0
 40
1.0
 10
10.20646974951646
 20
-9.431762174209515
 30
0.0
 10
9.535405237656057
 20
-9.67305870005098
 30
0.0
 10
7.81653206115903
 20
-10.29111869058897
 30
0.0
 10
6.097798634685548
 20
-10.71974851981407
 30
0.0
 10
5.050075160327971
 20
-10.98103716817094
 30
0.0
  0
SPLINE
  5
CD
330
1F
100
AcDbEntity
  8
0
  6
Continuous
 62
     4
370
    15
100
AcDbSpline
210
0.0
220
0.0
230
1.0
 70
    24
 71
     3
 72
    12
 73
     8
 74
     0
 42
0.000000001
 43
0.00000001
 40
0.0
 40
0.0
 40
0.0
 40
0.0
 40
0.0750799865813466
 40
0.3253263512875845
 40
0.5752820068338014
 40
0.825528371540037
 40
1.0
 40
1.0
 40
1.0
 40
1.0
 10
5.050075160331485
 20
-9.787582874702817
 30
0.0
 10
5.050075160331485
 20
-9.819551595906926
 30
0.0
 10
5.050075160331485
 20
-9.958074095686467
 30
0.0
 10
5.050075160331485
 20
-10.19410626453787
 30
0.0
 10
5.050075160331485
 20
-10.49496315543241
 30
0.0
 10
5.050075160331485
 20
-10.75673880893076
 30
0.0
 10
5.050075160331485
 20
-10.91572612373458
 30
0.0
 10
5.050075160331485
 20
-10.9810371681561
 30
0.0
  0
LINE
  5
CE
330
1F
100
AcDbEntity
  8
중심선
100
AcDbLine
 10
-67.94992483966848
 20
-0.0000000000000017
 30
0.0
 11
62.05007516033149
 21
-0.0000000000000017
 31
0.0
  0
CIRCLE
  5
CF
330
1F
100
AcDbEntity
  8
외형선
100
AcDbCircle
 10
0.0
 20
0.0
 30
0.0
 40
3.000000000000004
  0
INSERT
  5
D0
330
1F
100
AcDbEntity
  8
0
  6
Continuous
 62
     7
100
AcDbBlockReference
 66
     1
  2
블럭10
 10
-28.88819827918012
 20
-52.04717430164393
 30
0.0
  0
ATTRIB
  5
D1
330
D0
100
AcDbEntity
  8
FORMAT
 62
     2
100
AcDbText
 10
-41.84813747403788
 20
-49.97180738881174
 30
0.0
 40
4.233333333333333
  1
SEME35240E [ 2 FLUTE ]
 41
0.75
  7
SLDTEXTSTYLE0
 11
-41.84813747403788
 21
-52.08847405547841
 31
0.0
100
AcDbAttribute
  2
AUTOATTR0
 70
     0
 74
     1
  0
SEQEND
  5
D2
330
D0
100
AcDbEntity
  8
0
  6
Continuous
 62
     7
  0
HATCH
  5
D3
330
1F
100
AcDbEntity
  8
중심선
100
AcDbHatch
 10
0.0
 20
0.0
 30
0.0
210
0.0
220
0.0
230
1.0
  2
SOLID
 70
     1
 71
     0
 91
        1
 92
        0
 93
        4
 72
     1
 10
-23.17328897479926
 20
-35.8
 11
-26.61956421863655
 21
-35.8
 72
     1
 10
-26.61956421863655
 20
-35.8
 11
-28.74779407784057
 21
-38.33632558057259
 72
     1
 10
-28.74779407784057
 20
-38.33632558057259
 11
-25.30148574889013
 21
-38.3362861512701
 72
     1
 10
-25.30148574889014
 20
-38.3362861512701
 11
-23.17328897479926
 21
-35.8
 97
        0
 75
     0
 76
     1
 98
        1
 10
-4.949924839668503
 20
0.0000000000000018
  0
HATCH
  5
D4
330
1F
100
AcDbEntity
  8
중심선
100
AcDbHatch
 10
0.0
 20
0.0
 30
0.0
210
0.0
220
0.0
230
1.0
  2
SOLID
 70
     1
 71
     0
 91
        1
 92
        0
 93
        4
 72
     1
 10
-18.16052498376331
 20
-35.8
 11
-21.60680022760059
 21
-35.8
 72
     1
 10
-21.60680022760059
 20
-35.8
 11
-26.13793823595798
 21
-41.20000000000002
 72
     1
 10
-26.13793823595798
 20
-41.20000000000002
 11
-22.6916629921207
 21
-41.20000000000002
 72
     1
 10
-22.6916629921207
 20
-41.20000000000002
 11
-18.16052498376331
 21
-35.8
 97
        0
 75
     0
 76
     1
 98
        1
 10
-4.949924839668503
 20
0.0000000000000018
  0
HATCH
  5
D5
330
1F
100
AcDbEntity
  8
중심선
100
AcDbHatch
 10
0.0
 20
0.0
 30
0.0
210
0.0
220
0.0
230
1.0
  2
SOLID
 70
     1
 71
     0
 91
        1
 92
        0
 93
        4
 72
     1
 10
-13.14776099272741
 20
-35.80000000000003
 11
-16.59403623656453
 21
-35.8
 72
     1
 10
-16.59403623656453
 20
-35.8
 11
-23.64247313845378
 21
-44.20000000000002
 72
     1
 10
-23.64247313845378
 20
-44.20000000000002
 11
-20.1961978946165
 21
-44.20000000000002
 72
     1
 10
-20.1961978946165
 20
-44.20000000000002
 11
-13.14776099272741
 21
-35.80000000000003
 97
        0
 75
     0
 76
     1
 98
        1
 10
-4.949924839668503
 20
0.0000000000000018
  0
HATCH
  5
D6
330
1F
100
AcDbEntity
  8
중심선
100
AcDbHatch
 10
0.0
 20
0.0
 30
0.0
210
0.0
220
0.0
230
1.0
  2
SOLID
 70
     1
 71
     0
 91
        1
 92
        0
 93
        6
 72
     3
 10
-8.347870561715217
 20
-40.00000000005127
 11
3.960054785062284
 21
1.540882976769353E-10
 40
0.3939339440162627
 50
17.09539180608437
 51
320.0019657685081
 73
     0
 72
     1
 10
-6.664870906014621
 20
-38.5878940046383
 11
-4.359569032313583
 21
-36.65356729459038
 72
     3
 10
-8.347870561768064
 20
-40.00000000000015
 11
6.600054785286829
 21
-1.278976924368180E-13
 40
0.636358354079598
 50
39.9987384933741
 51
368.4976242363725
 73
     1
 72
     1
 10
-1.922538069867453
 20
-39.03999999993002
 11
-9.66780325493214
 21
-39.03999999992999
 72
     1
 10
-9.66780325493214
 20
-39.03999999992999
 11
-9.667828299378074
 21
-40.95999999992991
 72
     1
 10
-9.667828299378074
 20
-40.95999999992991
 11
-5.226448529906038
 21
-40.95999999992988
 97
        0
 75
     0
 76
     1
 98
        1
 10
-4.949924839668503
 20
0.0000000000000018
  0
DIMENSION
  5
D7
330
1F
100
AcDbEntity
  8
치수문자_일반주서
100
AcDbDimension
  2
_D
 10
5.050075160331492
 20
24.24049167133352
 30
0.0
 11
30.05007516033148
 21
24.24049167133352
 31
0.0
 70
   160
  1
<>
 71
     2
 42
50.00000000000001
  3
SLDDIMSTYLE0
100
AcDbAlignedDimension
 13
55.0500751603315
 23
11.98985778275574
 33
0.0
 14
5.050075160331485
 24
10.98103716817012
 34
0.0
 50
0.0000000000000081
100
AcDbRotatedDimension
  0
DIMENSION
  5
E2
330
1F
100
AcDbEntity
  8
치수문자_일반주서
100
AcDbDimension
  2
_D_1
 10
-64.9499248396685
 20
31.18415911661226
 30
0.0
 11
-4.949924839668491
 21
31.18415911661226
 31
0.0
 70
   160
  1
<>
 71
     2
 42
119.9999999999997
  3
SLDDIMSTYLE0
100
AcDbAlignedDimension
 13
55.05007516033116
 23
11.98985778275572
 33
0.0
 14
-64.9499248396685
 24
11.49999999999999
 34
0.0
 50
0.0000000000000017
100
AcDbRotatedDimension
  0
DIMENSION
  5
EC
330
1F
100
AcDbEntity
  8
치수문자_일반주서
100
AcDbDimension
  2
_D_2
 10
70.61626547257782
 20
-11.98985778275567
 30
0.0
 11
70.61626547257778
 21
0.0000000000000047
 31
0.0
 70
   160
  1
%%c<>
 71
     2
 42
23.99552736168349
 52
-270.0
  3
SLDDIMSTYLE1
100
AcDbAlignedDimension
 13
55.05007516033149
 23
12.00566957892776
 33
0.0
 14
55.05007516033149
 24
-11.98985778275573
 34
0.0
 50
90.0000000000002
100
AcDbRotatedDimension
  0
DIMENSION
  5
FA
330
1F
100
AcDbEntity
  8
치수문자_일반주서
100
AcDbDimension
  2
_D_3
 10
-76.369484285057
 20
-12.50000000000005
 30
0.0
 11
-76.36948428505704
 21
0.0000000000000025
 31
0.0
 70
   160
  1
%%c<>
 71
     2
 42
25.0
 52
-270.0
  3
SLDDIMSTYLE1
100
AcDbAlignedDimension
 13
-63.9499248396685
 23
12.5
 33
0.0
 14
-63.9499248396685
 24
-12.5
 34
0.0
 50
90.0000000000002
100
AcDbRotatedDimension
  0
INSERT
  5
10B
330
1F
100
AcDbEntity
  8
외형선
100
AcDbBlockReference
  2
SW_DOWELSYMBOL_0
 10
0.0
 20
0.0
 30
0.0
  0
ENDSEC
  0
SECTION
  2
OBJECTS
  0
DICTIONARY
  5
C
330
0
100
AcDbDictionary
281
     1
  3
ACAD_GROUP
350
D
  3
ACAD_LAYOUT
350
1A
  3
ACAD_MLINESTYLE
350
17
  3
ACAD_PLOTSETTINGS
350
19
  3
ACAD_PLOTSTYLENAME
350
E
  3
ACAD_SCALELIST
350
47
  3
APPDATA
350
12D
  3
DWGPROPS
350
13C
  0
DICTIONARY
  5
D
102
{ACAD_REACTORS
330
C
102
}
330
C
100
AcDbDictionary
281
     1
  0
DICTIONARY
  5
1A
102
{ACAD_REACTORS
330
C
102
}
330
C
100
AcDbDictionary
281
     1
  3
Layout1
350
1E
  3
Layout2
350
26
  3
Model
350
22
  0
DICTIONARY
  5
17
102
{ACAD_REACTORS
330
C
102
}
330
C
100
AcDbDictionary
281
     1
  3
Standard
350
18
  0
DICTIONARY
  5
19
102
{ACAD_REACTORS
330
C
102
}
330
C
100
AcDbDictionary
281
     1
  0
ACDBDICTIONARYWDFLT
  5
E
102
{ACAD_REACTORS
330
C
102
}
330
C
100
AcDbDictionary
281
     1
  3
Normal
350
F
100
AcDbDictionaryWithDefault
340
F
  0
DICTIONARY
  5
47
102
{ACAD_REACTORS
330
C
102
}
330
C
100
AcDbDictionary
281
     1
  3
A0
350
48
  3
A1
350
49
  3
A2
350
4A
  3
A3
350
4B
  3
A4
350
4C
  3
A5
350
4D
  3
A6
350
4E
  3
A7
350
4F
  3
A8
350
50
  3
A9
350
51
  3
B0
350
52
  3
B1
350
53
  3
B2
350
54
  3
B3
350
55
  3
B4
350
56
  3
B5
350
57
  3
B6
350
58
  3
B7
350
59
  3
B8
350
5A
  3
B9
350
5B
  3
C0
350
5C
  3
C1
350
5D
  3
C2
350
5E
  3
C3
350
5F
  3
C4
350
60
  3
C5
350
61
  3
C6
350
62
  3
C7
350
63
  3
C8
350
64
  3
C9
350
65
  3
D0
350
66
  3
D1
350
67
  3
D2
350
68
  0
DICTIONARY
  5
12D
102
{ACAD_REACTORS
330
C
102
}
330
C
100
AcDbDictionary
281
     1
  0
XRECORD
  5
13C
102
{ACAD_REACTORS
330
C
102
}
330
C
100
AcDbXrecord
280
     1
  1
DWGPROPS COOKIE
  2

  3

  4

  6

  7

  8
12011908
  9

300
=
301
=
302
=
303
=
304
=
305
=
306
=
307
=
308
=
309
=
 40
0.0
 41
2458250.193629039
 42
2458264.086509676
  1

 90
        0
  0
LAYOUT
  5
1E
102
{ACAD_REACTORS
330
1A
102
}
330
1A
100
AcDbPlotSettings
  1

  2
none_device
  4

  6

 40
0.0
 41
0.0
 42
0.0
 43
0.0
 44
0.0
 45
0.0
 46
0.0
 47
0.0
 48
0.0
 49
0.0
140
0.0
141
0.0
142
1.0
143
1.0
 70
   688
 72
     1
 73
     0
 74
     5
  7

 75
    16
147
1.0
148
0.0
149
0.0
100
AcDbLayout
  1
Layout1
 70
     1
 71
     1
 10
0.0
 20
0.0
 11
420.0
 21
297.0
 12
0.0
 22
0.0
 32
0.0
 14
1.000000000000000E+20
 24
1.000000000000000E+20
 34
1.000000000000000E+20
 15
-1.000000000000000E+20
 25
-1.000000000000000E+20
 35
-1.000000000000000E+20
146
0.0
 13
0.0
 23
0.0
 33
0.0
 16
1.0
 26
0.0
 36
0.0
 17
0.0
 27
1.0
 37
0.0
 76
     0
330
1B
  0
LAYOUT
  5
26
102
{ACAD_REACTORS
330
1A
102
}
330
1A
100
AcDbPlotSettings
  1

  2
none_device
  4

  6

 40
0.0
 41
0.0
 42
0.0
 43
0.0
 44
0.0
 45
0.0
 46
0.0
 47
0.0
 48
0.0
 49
0.0
140
0.0
141
0.0
142
1.0
143
1.0
 70
   688
 72
     1
 73
     0
 74
     5
  7

 75
    16
147
1.0
148
0.0
149
0.0
100
AcDbLayout
  1
Layout2
 70
     1
 71
     2
 10
0.0
 20
0.0
 11
0.0
 21
0.0
 12
0.0
 22
0.0
 32
0.0
 14
0.0
 24
0.0
 34
0.0
 15
0.0
 25
0.0
 35
0.0
146
0.0
 13
0.0
 23
0.0
 33
0.0
 16
1.0
 26
0.0
 36
0.0
 17
0.0
 27
1.0
 37
0.0
 76
     0
330
23
  0
LAYOUT
  5
22
102
{ACAD_REACTORS
330
1A
102
}
330
1A
100
AcDbPlotSettings
  1

  2
none_device
  4
ANSI_A_(11.00_x_8.50_Inches)
  6

 40
6.35
 41
19.05
 42
6.35000508
 43
19.05000254
 44
279.4
 45
215.9
 46
132.8228794910454
 47
102.5170488962873
 48
0.0
 49
0.0
140
0.0
141
0.0
142
0.0713859819021044
143
1.0
 70
  1696
 72
     0
 73
     0
 74
     0
  7

 75
     0
147
0.0235690232323232
148
0.0
149
0.0
100
AcDbLayout
  1
Model
 70
     1
 71
     0
 10
0.0
 20
0.0
 11
420.0
 21
297.0
 12
0.0
 22
0.0
 32
0.0
 14
-80.74448428505706
 24
-49.97180738881174
 34
0.0
 15
71.16659880591114
 25
35.55915911661226
 35
0.0
146
0.0
 13
0.0
 23
0.0
 33
0.0
 16
1.0
 26
0.0
 36
0.0
 17
0.0
 27
1.0
 37
0.0
 76
     0
330
1F
331
29
  0
MLINESTYLE
  5
18
102
{ACAD_REACTORS
330
17
102
}
330
17
100
AcDbMlineStyle
  2
Standard
 70
     0
  3

 62
   256
 51
90.0
 52
90.0
 71
     2
 49
0.5
 62
   256
  6
BYLAYER
 49
-0.5
 62
   256
  6
BYLAYER
  0
ACDBPLACEHOLDER
  5
F
102
{ACAD_REACTORS
330
E
102
}
330
E
  0
SCALE
  5
48
102
{ACAD_REACTORS
330
47
102
}
330
47
100
AcDbScale
 70
     0
300
1:1
140
1.0
141
1.0
290
     1
  0
SCALE
  5
49
102
{ACAD_REACTORS
330
47
102
}
330
47
100
AcDbScale
 70
     0
300
1:2
140
1.0
141
2.0
290
     0
  0
SCALE
  5
4A
102
{ACAD_REACTORS
330
47
102
}
330
47
100
AcDbScale
 70
     0
300
1:4
140
1.0
141
4.0
290
     0
  0
SCALE
  5
4B
102
{ACAD_REACTORS
330
47
102
}
330
47
100
AcDbScale
 70
     0
300
1:5
140
1.0
141
5.0
290
     0
  0
SCALE
  5
4C
102
{ACAD_REACTORS
330
47
102
}
330
47
100
AcDbScale
 70
     0
300
1:8
140
1.0
141
8.0
290
     0
  0
SCALE
  5
4D
102
{ACAD_REACTORS
330
47
102
}
330
47
100
AcDbScale
 70
     0
300
1:10
140
1.0
141
10.0
290
     0
  0
SCALE
  5
4E
102
{ACAD_REACTORS
330
47
102
}
330
47
100
AcDbScale
 70
     0
300
1:16
140
1.0
141
16.0
290
     0
  0
SCALE
  5
4F
102
{ACAD_REACTORS
330
47
102
}
330
47
100
AcDbScale
 70
     0
300
1:20
140
1.0
141
20.0
290
     0
  0
SCALE
  5
50
102
{ACAD_REACTORS
330
47
102
}
330
47
100
AcDbScale
 70
     0
300
1:30
140
1.0
141
30.0
290
     0
  0
SCALE
  5
51
102
{ACAD_REACTORS
330
47
102
}
330
47
100
AcDbScale
 70
     0
300
1:40
140
1.0
141
40.0
290
     0
  0
SCALE
  5
52
102
{ACAD_REACTORS
330
47
102
}
330
47
100
AcDbScale
 70
     0
300
1:50
140
1.0
141
50.0
290
     0
  0
SCALE
  5
53
102
{ACAD_REACTORS
330
47
102
}
330
47
100
AcDbScale
 70
     0
300
1:100
140
1.0
141
100.0
290
     0
  0
SCALE
  5
54
102
{ACAD_REACTORS
330
47
102
}
330
47
100
AcDbScale
 70
     0
300
2:1
140
2.0
141
1.0
290
     0
  0
SCALE
  5
55
102
{ACAD_REACTORS
330
47
102
}
330
47
100
AcDbScale
 70
     0
300
4:1
140
4.0
141
1.0
290
     0
  0
SCALE
  5
56
102
{ACAD_REACTORS
330
47
102
}
330
47
100
AcDbScale
 70
     0
300
8:1
140
8.0
141
1.0
290
     0
  0
SCALE
  5
57
102
{ACAD_REACTORS
330
47
102
}
330
47
100
AcDbScale
 70
     0
300
10:1
140
10.0
141
1.0
290
     0
  0
SCALE
  5
58
102
{ACAD_REACTORS
330
47
102
}
330
47
100
AcDbScale
 70
     0
300
100:1
140
100.0
141
1.0
290
     0
  0
SCALE
  5
59
102
{ACAD_REACTORS
330
47
102
}
330
47
100
AcDbScale
 70
     0
300
1/128" = 1'-0"
140
0.0078125
141
12.0
290
     0
  0
SCALE
  5
5A
102
{ACAD_REACTORS
330
47
102
}
330
47
100
AcDbScale
 70
     0
300
1/64" = 1'-0"
140
0.015625
141
12.0
290
     0
  0
SCALE
  5
5B
102
{ACAD_REACTORS
330
47
102
}
330
47
100
AcDbScale
 70
     0
300
1/32" = 1'-0"
140
0.03125
141
12.0
290
     0
  0
SCALE
  5
5C
102
{ACAD_REACTORS
330
47
102
}
330
47
100
AcDbScale
 70
     0
300
1/16" = 1'-0"
140
0.0625
141
12.0
290
     0
  0
SCALE
  5
5D
102
{ACAD_REACTORS
330
47
102
}
330
47
100
AcDbScale
 70
     0
300
3/32" = 1'-0"
140
0.09375
141
12.0
290
     0
  0
SCALE
  5
5E
102
{ACAD_REACTORS
330
47
102
}
330
47
100
AcDbScale
 70
     0
300
1/8" = 1'-0"
140
0.125
141
12.0
290
     0
  0
SCALE
  5
5F
102
{ACAD_REACTORS
330
47
102
}
330
47
100
AcDbScale
 70
     0
300
3/16" = 1'-0"
140
0.1875
141
12.0
290
     0
  0
SCALE
  5
60
102
{ACAD_REACTORS
330
47
102
}
330
47
100
AcDbScale
 70
     0
300
1/4" = 1'-0"
140
0.25
141
12.0
290
     0
  0
SCALE
  5
61
102
{ACAD_REACTORS
330
47
102
}
330
47
100
AcDbScale
 70
     0
300
3/8" = 1'-0"
140
0.375
141
12.0
290
     0
  0
SCALE
  5
62
102
{ACAD_REACTORS
330
47
102
}
330
47
100
AcDbScale
 70
     0
300
1/2" = 1'-0"
140
0.5
141
12.0
290
     0
  0
SCALE
  5
63
102
{ACAD_REACTORS
330
47
102
}
330
47
100
AcDbScale
 70
     0
300
3/4" = 1'-0"
140
0.75
141
12.0
290
     0
  0
SCALE
  5
64
102
{ACAD_REACTORS
330
47
102
}
330
47
100
AcDbScale
 70
     0
300
1" = 1'-0"
140
1.0
141
12.0
290
     0
  0
SCALE
  5
65
102
{ACAD_REACTORS
330
47
102
}
330
47
100
AcDbScale
 70
     0
300
1-1/2" = 1'-0"
140
1.5
141
12.0
290
     0
  0
SCALE
  5
66
102
{ACAD_REACTORS
330
47
102
}
330
47
100
AcDbScale
 70
     0
300
3" = 1'-0"
140
3.0
141
12.0
290
     0
  0
SCALE
  5
67
102
{ACAD_REACTORS
330
47
102
}
330
47
100
AcDbScale
 70
     0
300
6" = 1'-0"
140
6.0
141
12.0
290
     0
  0
SCALE
  5
68
102
{ACAD_REACTORS
330
47
102
}
330
47
100
AcDbScale
 70
     0
300
1'-0" = 1'-0"
140
12.0
141
12.0
290
     0
  0
ENDSEC
  0
EOF
