  0
SECTION
  2
HEADER
  9
$ACADVER
  1
AC1015
  9
$ACADMAINTVER
 70
     6
  9
$DWGCODEPAGE
  3
ANSI_949
  9
$INSBASE
 10
0.0
 20
0.0
 30
0.0
  9
$EXTMIN
 10
-80.29398697658179
 20
-49.97180738881173
 30
0.0
  9
$EXTMAX
 10
71.6170961143864
 20
35.20915911661228
 30
0.0
  9
$LIMMIN
 10
0.0
 20
0.0
  9
$LIMMAX
 10
420.0
 20
297.0
  9
$ORTHOMODE
 70
     1
  9
$REGENMODE
 70
     1
  9
$FILLMODE
 70
     1
  9
$QTEXTMODE
 70
     0
  9
$MIRRTEXT
 70
     1
  9
$LTSCALE
 40
1.0
  9
$ATTMODE
 70
     1
  9
$TEXTSIZE
 40
3.5
  9
$TRACEWID
 40
1.0
  9
$TEXTSTYLE
  7
Standard
  9
$CLAYER
  8
0
  9
$CELTYPE
  6
ByLayer
  9
$CECOLOR
 62
   256
  9
$CELTSCALE
 40
1.0
  9
$DISPSILH
 70
     0
  9
$DIMSCALE
 40
1.0
  9
$DIMASZ
 40
3.302
  9
$DIMEXO
 40
1.0
  9
$DIMDLI
 40
3.75
  9
$DIMRND
 40
0.0
  9
$DIMDLE
 40
0.0
  9
$DIMEXE
 40
1.0
  9
$DIMTP
 40
0.0
  9
$DIMTM
 40
0.0
  9
$DIMTXT
 40
3.5
  9
$DIMCEN
 40
2.5
  9
$DIMTSZ
 40
0.0
  9
$DIMTOL
 70
     0
  9
$DIMLIM
 70
     0
  9
$DIMTIH
 70
     1
  9
$DIMTOH
 70
     1
  9
$DIMSE1
 70
     0
  9
$DIMSE2
 70
     0
  9
$DIMTAD
 70
     1
  9
$DIMZIN
 70
     0
  9
$DIMBLK
  1

  9
$DIMASO
 70
     1
  9
$DIMSHO
 70
     1
  9
$DIMPOST
  1

  9
$DIMAPOST
  1

  9
$DIMALT
 70
     0
  9
$DIMALTD
 70
     3
  9
$DIMALTF
 40
0.0393700787401575
  9
$DIMLFAC
 40
1.0
  9
$DIMTOFL
 70
     1
  9
$DIMTVP
 40
0.0
  9
$DIMTIX
 70
     0
  9
$DIMSOXD
 70
     0
  9
$DIMSAH
 70
     0
  9
$DIMBLK1
  1

  9
$DIMBLK2
  1

  9
$DIMSTYLE
  2
ISO-25
  9
$DIMCLRD
 70
     0
  9
$DIMCLRE
 70
     0
  9
$DIMCLRT
 70
     0
  9
$DIMTFAC
 40
1.0
  9
$DIMGAP
 40
1.524
  9
$DIMJUST
 70
     0
  9
$DIMSD1
 70
     0
  9
$DIMSD2
 70
     0
  9
$DIMTOLJ
 70
     0
  9
$DIMTZIN
 70
     0
  9
$DIMALTZ
 70
     0
  9
$DIMALTTZ
 70
     0
  9
$DIMUPT
 70
     0
  9
$DIMDEC
 70
     2
  9
$DIMTDEC
 70
     2
  9
$DIMALTU
 70
     2
  9
$DIMALTTD
 70
     3
  9
$DIMTXSTY
  7
Standard
  9
$DIMAUNIT
 70
     0
  9
$DIMADEC
 70
     2
  9
$DIMALTRND
 40
0.0
  9
$DIMAZIN
 70
     0
  9
$DIMDSEP
 70
    44
  9
$DIMATFIT
 70
     3
  9
$DIMFRAC
 70
     0
  9
$DIMLDRBLK
  1

  9
$DIMLUNIT
 70
     2
  9
$DIMLWD
 70
    -2
  9
$DIMLWE
 70
    -2
  9
$DIMTMOVE
 70
     0
  9
$LUNITS
 70
     2
  9
$LUPREC
 70
     2
  9
$SKETCHINC
 40
1.0
  9
$FILLETRAD
 40
10.0
  9
$AUNITS
 70
     0
  9
$AUPREC
 70
     2
  9
$MENU
  1
.
  9
$ELEVATION
 40
0.0
  9
$PELEVATION
 40
0.0
  9
$THICKNESS
 40
0.0
  9
$LIMCHECK
 70
     0
  9
$CHAMFERA
 40
0.0
  9
$CHAMFERB
 40
0.0
  9
$CHAMFERC
 40
0.0
  9
$CHAMFERD
 40
0.0
  9
$SKPOLY
 70
     0
  9
$TDCREATE
 40
2458250.568428623
  9
$TDUCREATE
 40
2458250.193428623
  9
$TDUPDATE
 40
2459699.691304491
  9
$TDUUPDATE
 40
2459699.316304491
  9
$TDINDWG
 40
0.0026747222
  9
$TDUSRTIMER
 40
0.0002943056
  9
$USRTIMER
 70
     1
  9
$ANGBASE
 50
0.0
  9
$ANGDIR
 70
     0
  9
$PDMODE
 70
     0
  9
$PDSIZE
 40
-1.0
  9
$PLINEWID
 40
0.0
  9
$SPLFRAME
 70
     0
  9
$SPLINETYPE
 70
     6
  9
$SPLINESEGS
 70
     8
  9
$HANDSEED
  5
16D
  9
$SURFTAB1
 70
     6
  9
$SURFTAB2
 70
     6
  9
$SURFTYPE
 70
     6
  9
$SURFU
 70
     6
  9
$SURFV
 70
     6
  9
$UCSBASE
  2

  9
$UCSNAME
  2

  9
$UCSORG
 10
0.0
 20
0.0
 30
0.0
  9
$UCSXDIR
 10
1.0
 20
0.0
 30
0.0
  9
$UCSYDIR
 10
0.0
 20
1.0
 30
0.0
  9
$UCSORTHOREF
  2

  9
$UCSORTHOVIEW
 70
     0
  9
$UCSORGTOP
 10
0.0
 20
0.0
 30
0.0
  9
$UCSORGBOTTOM
 10
0.0
 20
0.0
 30
0.0
  9
$UCSORGLEFT
 10
0.0
 20
0.0
 30
0.0
  9
$UCSORGRIGHT
 10
0.0
 20
0.0
 30
0.0
  9
$UCSORGFRONT
 10
0.0
 20
0.0
 30
0.0
  9
$UCSORGBACK
 10
0.0
 20
0.0
 30
0.0
  9
$PUCSBASE
  2

  9
$PUCSNAME
  2

  9
$PUCSORG
 10
0.0
 20
0.0
 30
0.0
  9
$PUCSXDIR
 10
1.0
 20
0.0
 30
0.0
  9
$PUCSYDIR
 10
0.0
 20
1.0
 30
0.0
  9
$PUCSORTHOREF
  2

  9
$PUCSORTHOVIEW
 70
     0
  9
$PUCSORGTOP
 10
0.0
 20
0.0
 30
0.0
  9
$PUCSORGBOTTOM
 10
0.0
 20
0.0
 30
0.0
  9
$PUCSORGLEFT
 10
0.0
 20
0.0
 30
0.0
  9
$PUCSORGRIGHT
 10
0.0
 20
0.0
 30
0.0
  9
$PUCSORGFRONT
 10
0.0
 20
0.0
 30
0.0
  9
$PUCSORGBACK
 10
0.0
 20
0.0
 30
0.0
  9
$USERI1
 70
     0
  9
$USERI2
 70
     0
  9
$USERI3
 70
     0
  9
$USERI4
 70
     0
  9
$USERI5
 70
     0
  9
$USERR1
 40
0.0
  9
$USERR2
 40
0.0
  9
$USERR3
 40
0.0
  9
$USERR4
 40
0.0
  9
$USERR5
 40
0.0
  9
$WORLDVIEW
 70
     1
  9
$SHADEDGE
 70
     3
  9
$SHADEDIF
 70
    70
  9
$TILEMODE
 70
     1
  9
$MAXACTVP
 70
    64
  9
$PINSBASE
 10
0.0
 20
0.0
 30
0.0
  9
$PLIMCHECK
 70
     0
  9
$PEXTMIN
 10
1.000000000000000E+20
 20
1.000000000000000E+20
 30
1.000000000000000E+20
  9
$PEXTMAX
 10
-1.000000000000000E+20
 20
-1.000000000000000E+20
 30
-1.000000000000000E+20
  9
$PLIMMIN
 10
0.0
 20
0.0
  9
$PLIMMAX
 10
0.0
 20
0.0
  9
$UNITMODE
 70
     0
  9
$VISRETAIN
 70
     1
  9
$PLINEGEN
 70
     0
  9
$PSLTSCALE
 70
     1
  9
$TREEDEPTH
 70
  3020
  9
$CMLSTYLE
  2
Standard
  9
$CMLJUST
 70
     0
  9
$CMLSCALE
 40
20.0
  9
$PROXYGRAPHICS
 70
     1
  9
$MEASUREMENT
 70
     1
  9
$CELWEIGHT
370
    -1
  9
$ENDCAPS
280
     0
  9
$JOINSTYLE
280
     0
  9
$LWDISPLAY
290
     1
  9
$INSUNITS
 70
     4
  9
$HYPERLINKBASE
  1

  9
$STYLESHEET
  1

  9
$XEDIT
290
     1
  9
$CEPSNTYPE
380
     0
  9
$PSTYLEMODE
290
     1
  9
$FINGERPRINTGUID
  2
{3E5F745A-D565-4240-8955-83B424075FF3}
  9
$VERSIONGUID
  2
{FAEB1C32-E019-11D5-929B-00C0DF256EC4}
  9
$EXTNAMES
290
     1
  9
$PSVPSCALE
 40
0.0
  9
$OLESTARTUP
290
     0
  0
ENDSEC
  0
SECTION
  2
CLASSES
  0
CLASS
  1
ACDBDICTIONARYWDFLT
  2
AcDbDictionaryWithDefault
  3
ObjectDBX Classes
 90
        0
280
     0
281
     0
  0
CLASS
  1
VISUALSTYLE
  2
AcDbVisualStyle
  3
ObjectDBX Classes
 90
     4095
280
     0
281
     0
  0
CLASS
  1
MATERIAL
  2
AcDbMaterial
  3
ObjectDBX Classes
 90
     1153
280
     0
281
     0
  0
CLASS
  1
SCALE
  2
AcDbScale
  3
ObjectDBX Classes
 90
     1153
280
     0
281
     0
  0
CLASS
  1
SUN
  2
AcDbSun
  3
SCENEOE
 90
     1153
280
     0
281
     0
  0
CLASS
  1
ACDBPLACEHOLDER
  2
AcDbPlaceHolder
  3
ObjectDBX Classes
 90
        0
280
     0
281
     0
  0
CLASS
  1
LAYOUT
  2
AcDbLayout
  3
ObjectDBX Classes
 90
        0
280
     0
281
     0
  0
CLASS
  1
TABLESTYLE
  2
AcDbTableStyle
  3
ObjectDBX Classes
 90
     4095
280
     0
281
     0
  0
CLASS
  1
MLEADERSTYLE
  2
AcDbMLeaderStyle
  3
ACDB_MLEADERSTYLE_CLASS
 90
     4095
280
     0
281
     0
  0
CLASS
  1
DICTIONARYVAR
  2
AcDbDictionaryVar
  3
ObjectDBX Classes
 90
        0
280
     0
281
     0
  0
ENDSEC
  0
SECTION
  2
TABLES
  0
TABLE
  2
VPORT
  5
8
330
0
100
AcDbSymbolTable
 70
     1
  0
VPORT
  5
29
330
8
100
AcDbSymbolTableRecord
100
AcDbViewportTableRecord
  2
*Active
 70
     0
 10
0.0
 20
0.0
 11
1.0
 21
1.0
 12
15.28355534963869
 22
2.578295805038028
 13
0.0
 23
0.0
 14
10.0
 24
10.0
 15
10.0
 25
10.0
 16
0.0
 26
0.0
 36
1.0
 17
0.0
 27
0.0
 37
0.0
 40
139.3470766677349
 41
2.315548780487805
 42
50.0
 43
0.0
 44
0.0
 50
0.0
 51
0.0
 71
    16
 72
  2000
 73
     1
 74
     3
 75
     0
 76
     0
 77
     0
 78
     0
281
     0
 65
     1
110
0.0
120
0.0
130
0.0
111
1.0
121
0.0
131
0.0
112
0.0
122
1.0
132
0.0
 79
     0
146
0.0
  0
ENDTAB
  0
TABLE
  2
LTYPE
  5
5
330
0
100
AcDbSymbolTable
 70
     6
  0
LTYPE
  5
14
330
5
100
AcDbSymbolTableRecord
100
AcDbLinetypeTableRecord
  2
ByBlock
 70
     0
  3

 72
    65
 73
     0
 40
0.0
  0
LTYPE
  5
15
330
5
100
AcDbSymbolTableRecord
100
AcDbLinetypeTableRecord
  2
ByLayer
 70
     0
  3

 72
    65
 73
     0
 40
0.0
  0
LTYPE
  5
16
330
5
100
AcDbSymbolTableRecord
100
AcDbLinetypeTableRecord
  2
Continuous
 70
     0
  3
Solid line
 72
    65
 73
     0
 40
0.0
  0
LTYPE
  5
6A
330
5
100
AcDbSymbolTableRecord
100
AcDbLinetypeTableRecord
  2
HIDDEN
 70
     0
  3
Hidden __ __ __ __ __ __ __ __ __ __ __ __ __ __
 72
    65
 73
     2
 40
1.905
 49
1.27
 74
     0
 49
-0.635
 74
     0
  0
LTYPE
  5
6B
330
5
100
AcDbSymbolTableRecord
100
AcDbLinetypeTableRecord
  2
PHANTOM
 70
     0
  3
Phantom ______  __  __  ______  __  __  ______
 72
    65
 73
     6
 40
12.7
 49
6.35
 74
     0
 49
-1.27
 74
     0
 49
1.27
 74
     0
 49
-1.27
 74
     0
 49
1.27
 74
     0
 49
-1.27
 74
     0
  0
LTYPE
  5
6C
330
5
100
AcDbSymbolTableRecord
100
AcDbLinetypeTableRecord
  2
CENTER
 70
     0
  3
Center ____ _ ____ _ ____ _ ____ _ ____ _ ____
 72
    65
 73
     4
 40
10.16
 49
6.35
 74
     0
 49
-1.27
 74
     0
 49
1.27
 74
     0
 49
-1.27
 74
     0
  0
LTYPE
  5
6D
330
5
100
AcDbSymbolTableRecord
100
AcDbLinetypeTableRecord
  2
CENTERX2
 70
     0
  3
Center (2x) ________  __  ________  __  _____
 72
    65
 73
     4
 40
20.32
 49
12.7
 74
     0
 49
-2.54
 74
     0
 49
2.54
 74
     0
 49
-2.54
 74
     0
  0
LTYPE
  5
6E
330
5
100
AcDbSymbolTableRecord
100
AcDbLinetypeTableRecord
  2
DOT2
 70
     0
  3
Dot (.5x) ........................................
 72
    65
 73
     2
 40
0.635
 49
0.0
 74
     0
 49
-0.635
 74
     0
  0
ENDTAB
  0
TABLE
  2
LAYER
  5
2
330
0
100
AcDbSymbolTable
 70
    17
  0
LAYER
  5
10
330
2
100
AcDbSymbolTableRecord
100
AcDbLayerTableRecord
  2
0
 70
     0
 62
     7
  6
Continuous
370
    -3
390
F
  0
LAYER
  5
6F
330
2
100
AcDbSymbolTableRecord
100
AcDbLayerTableRecord
  2
FORMAT
 70
     0
 62
     2
  6
Continuous
370
    -3
390
F
  0
LAYER
  5
70
330
2
100
AcDbSymbolTableRecord
100
AcDbLayerTableRecord
  2
외형선
 70
     0
 62
   100
  6
Continuous
370
    30
390
F
  0
LAYER
  5
71
330
2
100
AcDbSymbolTableRecord
100
AcDbLayerTableRecord
  2
숨은선
 70
     0
 62
     2
  6
HIDDEN
370
    15
390
F
  0
LAYER
  5
72
330
2
100
AcDbSymbolTableRecord
100
AcDbLayerTableRecord
  2
중심선
 70
     0
 62
     1
  6
CENTERX2
370
    -3
390
F
  0
LAYER
  5
73
330
2
100
AcDbSymbolTableRecord
100
AcDbLayerTableRecord
  2
파단선
 70
     0
 62
     4
  6
Continuous
370
    -3
390
F
  0
LAYER
  5
74
330
2
100
AcDbSymbolTableRecord
100
AcDbLayerTableRecord
  2
해칭선
 70
     0
 62
     4
  6
Continuous
370
    -3
390
F
  0
LAYER
  5
75
330
2
100
AcDbSymbolTableRecord
100
AcDbLayerTableRecord
  2
가는실선
 70
     0
 62
     4
  6
Continuous
370
    -3
390
F
  0
LAYER
  5
76
330
2
100
AcDbSymbolTableRecord
100
AcDbLayerTableRecord
  2
치수_보조선
 70
     0
 62
     4
  6
Continuous
370
    -3
390
F
  0
LAYER
  5
77
330
2
100
AcDbSymbolTableRecord
100
AcDbLayerTableRecord
  2
치수문자_일반주서
 70
     0
 62
     7
  6
Continuous
370
    15
390
F
  0
LAYER
  5
78
330
2
100
AcDbSymbolTableRecord
100
AcDbLayerTableRecord
  2
개별주서
 70
     0
 62
   100
  6
Continuous
370
    30
390
F
  0
LAYER
  5
79
330
2
100
AcDbSymbolTableRecord
100
AcDbLayerTableRecord
  2
중간선
 70
     0
 62
     2
  6
Continuous
370
    15
390
F
  0
LAYER
  5
7A
330
2
100
AcDbSymbolTableRecord
100
AcDbLayerTableRecord
  2
윤곽선
 70
     0
 62
     3
  6
Continuous
370
    40
390
F
  0
LAYER
  5
7B
330
2
100
AcDbSymbolTableRecord
100
AcDbLayerTableRecord
  2
중심마크
 70
     0
 62
   100
  6
Continuous
370
    30
390
F
  0
LAYER
  5
7C
330
2
100
AcDbSymbolTableRecord
100
AcDbLayerTableRecord
  2
가상선
 70
     0
 62
     4
  6
PHANTOM
370
    -3
390
F
  0
LAYER
  5
7D
330
2
100
AcDbSymbolTableRecord
100
AcDbLayerTableRecord
  2
특수지정선
 70
     0
 62
     5
  6
CENTERX2
370
    60
390
F
  0
LAYER
  5
131
330
2
100
AcDbSymbolTableRecord
100
AcDbLayerTableRecord
  2
Defpoints
 70
     0
 62
     7
  6
Continuous
290
     0
370
    -3
390
F
  0
ENDTAB
  0
TABLE
  2
STYLE
  5
3
330
0
100
AcDbSymbolTable
 70
     2
  0
STYLE
  5
11
330
3
100
AcDbSymbolTableRecord
100
AcDbTextStyleTableRecord
  2
Standard
 70
     0
 40
0.0
 41
1.0
 50
0.0
 71
     0
 42
3.5
  3
txt
  4

  0
STYLE
  5
93
330
3
100
AcDbSymbolTableRecord
100
AcDbTextStyleTableRecord
  2
SLDTEXTSTYLE0
 70
     0
 40
0.0
 41
0.75
 50
0.0
 71
     0
 42
3.5
  3
TXT
  4

  0
ENDTAB
  0
TABLE
  2
VIEW
  5
6
330
0
100
AcDbSymbolTable
 70
     0
  0
ENDTAB
  0
TABLE
  2
UCS
  5
7
330
0
100
AcDbSymbolTable
 70
     0
  0
ENDTAB
  0
TABLE
  2
APPID
  5
9
330
0
100
AcDbSymbolTable
 70
     2
  0
APPID
  5
12
330
9
100
AcDbSymbolTableRecord
100
AcDbRegAppTableRecord
  2
ACAD
 70
     0
  0
APPID
  5
12F
330
9
100
AcDbSymbolTableRecord
100
AcDbRegAppTableRecord
  2
PE_URL
 70
     0
  0
ENDTAB
  0
TABLE
  2
DIMSTYLE
  5
A
330
0
100
AcDbSymbolTable
 70
     3
100
AcDbDimStyleTable
  0
DIMSTYLE
105
27
330
A
100
AcDbSymbolTableRecord
100
AcDbDimStyleTableRecord
  2
ISO-25
 70
     0
 41
2.5
 42
0.625
 43
3.75
 44
1.25
 73
     0
 74
     0
 77
     1
 78
     8
140
2.5
141
2.5
143
0.03937007874016
147
0.625
171
     3
172
     1
178
     0
271
     2
272
     2
274
     3
278
    44
283
     0
284
     8
340
11
  0
DIMSTYLE
105
D9
102
{ACAD_REACTORS
330
D8
330
E3
102
}
330
A
100
AcDbSymbolTableRecord
100
AcDbDimStyleTableRecord
  2
SLDDIMSTYLE0
 70
     0
 41
3.302
 44
0.0
 45
0.000000001
 73
     0
 74
     0
 77
     1
 78
    12
 79
     3
140
3.5
147
0.875
173
     1
178
     0
271
     2
272
     2
276
     2
284
    12
340
93
  0
DIMSTYLE
105
EE
102
{ACAD_REACTORS
330
ED
330
FB
102
}
330
A
100
AcDbSymbolTableRecord
100
AcDbDimStyleTableRecord
  2
SLDDIMSTYLE1
 70
     0
 41
3.302
 44
0.0
 45
0.000000001
 73
     0
 74
     0
 77
     1
 78
    12
 79
     3
140
3.5
147
0.875
172
     1
173
     1
178
     0
271
     2
272
     2
276
     2
284
    12
289
     0
340
93
  0
ENDTAB
  0
TABLE
  2
BLOCK_RECORD
  5
1
330
0
100
AcDbSymbolTable
 70
     7
  0
BLOCK_RECORD
  5
1F
102
{ACAD_XDICTIONARY
360
16A
102
}
330
1
100
AcDbSymbolTableRecord
100
AcDbBlockTableRecord
  2
*Model_Space
340
22
  0
BLOCK_RECORD
  5
1B
330
1
100
AcDbSymbolTableRecord
100
AcDbBlockTableRecord
  2
*Paper_Space
340
1E
  0
BLOCK_RECORD
  5
23
330
1
100
AcDbSymbolTableRecord
100
AcDbBlockTableRecord
  2
*Paper_Space0
340
26
  0
BLOCK_RECORD
  5
7E
330
1
100
AcDbSymbolTableRecord
100
AcDbBlockTableRecord
  2
블럭10
340
0
102
{BLKREFS
331
D1
102
}
  0
BLOCK_RECORD
  5
DA
330
1
100
AcDbSymbolTableRecord
100
AcDbBlockTableRecord
  2
_D
340
0
  0
BLOCK_RECORD
  5
E4
330
1
100
AcDbSymbolTableRecord
100
AcDbBlockTableRecord
  2
_D_1
340
0
  0
BLOCK_RECORD
  5
EF
330
1
100
AcDbSymbolTableRecord
100
AcDbBlockTableRecord
  2
_D_2
340
0
  0
BLOCK_RECORD
  5
FC
330
1
100
AcDbSymbolTableRecord
100
AcDbBlockTableRecord
  2
_D_3
340
0
  0
BLOCK_RECORD
  5
106
330
1
100
AcDbSymbolTableRecord
100
AcDbBlockTableRecord
  2
SW_DOWELSYMBOL_0
340
0
102
{BLKREFS
331
10C
102
}
  0
ENDTAB
  0
ENDSEC
  0
SECTION
  2
BLOCKS
  0
BLOCK
  5
20
330
1F
100
AcDbEntity
  8
0
100
AcDbBlockBegin
  2
*Model_Space
 70
     0
 10
0.0
 20
0.0
 30
0.0
  3
*Model_Space
  1

  0
ENDBLK
  5
21
330
1F
100
AcDbEntity
  8
0
100
AcDbBlockEnd
  0
BLOCK
  5
1C
330
1B
100
AcDbEntity
 67
     1
  8
0
100
AcDbBlockBegin
  2
*Paper_Space
 70
     0
 10
0.0
 20
0.0
 30
0.0
  3
*Paper_Space
  1

  0
ENDBLK
  5
1D
330
1B
100
AcDbEntity
 67
     1
  8
0
100
AcDbBlockEnd
  0
BLOCK
  5
24
330
23
100
AcDbEntity
  8
0
100
AcDbBlockBegin
  2
*Paper_Space0
 70
     0
 10
0.0
 20
0.0
 30
0.0
  3
*Paper_Space0
  1

  0
ENDBLK
  5
25
330
23
100
AcDbEntity
  8
0
100
AcDbBlockEnd
  0
BLOCK
  5
7F
330
7E
100
AcDbEntity
  8
0
100
AcDbBlockBegin
  2
블럭10
 70
     2
 10
0.0
 20
0.0
 30
0.0
  3
블럭10
  1

  0
ELLIPSE
  5
81
330
7E
100
AcDbEntity
  8
중심선
100
AcDbEllipse
 10
20.54032771741204
 20
12.0471743016438
 30
0.0
 11
6.600054785286829
 21
-1.261213355974178E-13
 31
0.0
210
0.0
220
0.0
230
1.0
 40
0.636358354079598
 41
0.9219305317359503
 42
6.513795318482858
  0
ELLIPSE
  5
82
330
7E
100
AcDbEntity
  8
중심선
100
AcDbEllipse
 10
20.54032771746488
 20
12.04717430159265
 30
0.0
 11
3.960054785062283
 21
1.540847449632565E-10
 31
0.0
210
0.0
220
0.0
230
1.0
 40
0.3939339440162632
 41
1.131841032648279
 42
5.62031148352944
  0
LINE
  5
83
330
7E
100
AcDbEntity
  8
중심선
100
AcDbLine
 10
2.268634060543552
 20
16.24717430164393
 30
0.0
 11
5.714909304380834
 21
16.24717430164393
 31
0.0
  0
LINE
  5
84
330
7E
100
AcDbEntity
  8
중심선
100
AcDbLine
 10
5.245725140726316
 20
7.84717430164391
 30
0.0
 11
8.692000384563599
 21
7.84717430164391
 31
0.0
  0
LINE
  5
85
330
7E
100
AcDbEntity
  8
중심선
100
AcDbLine
 10
15.74043728645272
 20
16.24717430164393
 30
0.0
 11
8.692000384563599
 21
7.84717430164391
 31
0.0
  0
LINE
  5
86
330
7E
100
AcDbEntity
  8
중심선
100
AcDbLine
 10
0.1404042013395286
 20
13.71084872107135
 30
0.0
 11
3.58671253028996
 21
13.71088815037384
 31
0.0
  0
LINE
  5
87
330
7E
100
AcDbEntity
  8
중심선
100
AcDbLine
 10
2.750260043222114
 20
10.84717430164391
 30
0.0
 11
6.196535287059397
 21
10.84717430164391
 31
0.0
  0
LINE
  5
88
330
7E
100
AcDbEntity
  8
중심선
100
AcDbLine
 10
12.29416204261559
 20
16.24717430164393
 30
0.0
 11
5.245725140726316
 21
7.84717430164391
 31
0.0
  0
LINE
  5
89
330
7E
100
AcDbEntity
  8
중심선
100
AcDbLine
 10
10.72767329541681
 20
16.24717430164393
 30
0.0
 11
6.196535287059397
 21
10.84717430164391
 31
0.0
  0
LINE
  5
8A
330
7E
100
AcDbEntity
  8
중심선
100
AcDbLine
 10
7.28139805157953
 20
16.24717430164393
 30
0.0
 11
2.750260043222114
 21
10.84717430164391
 31
0.0
  0
LINE
  5
8B
330
7E
100
AcDbEntity
  8
중심선
100
AcDbLine
 10
5.714909304380834
 20
16.24717430164393
 30
0.0
 11
3.58671253028996
 21
13.71088815037384
 31
0.0
  0
LINE
  5
8C
330
7E
100
AcDbEntity
  8
중심선
100
AcDbLine
 10
2.268634060543552
 20
16.24717430164393
 30
0.0
 11
0.1404042013395286
 21
13.71084872107135
 31
0.0
  0
LINE
  5
8D
330
7E
100
AcDbEntity
  8
중심선
100
AcDbLine
 10
7.28139805157953
 20
16.24717430164393
 30
0.0
 11
10.72767329541681
 21
16.24717430164393
 31
0.0
  0
LINE
  5
8E
330
7E
100
AcDbEntity
  8
중심선
100
AcDbLine
 10
12.29416204261559
 20
16.24717430164393
 30
0.0
 11
15.74043728645272
 21
16.24717430164393
 31
0.0
  0
LINE
  5
8F
330
7E
100
AcDbEntity
  8
중심선
100
AcDbLine
 10
19.22036997980202
 20
11.08717430171403
 30
0.0
 11
23.66174974927406
 21
11.08717430171406
 31
0.0
  0
LINE
  5
90
330
7E
100
AcDbEntity
  8
중심선
100
AcDbLine
 10
19.22039502424796
 20
13.00717430171391
 30
0.0
 11
19.22036997980202
 21
11.08717430171403
 31
0.0
  0
LINE
  5
91
330
7E
100
AcDbEntity
  8
중심선
100
AcDbLine
 10
19.22039502424796
 20
13.00717430171391
 30
0.0
 11
26.96566020931264
 21
13.00717430171391
 31
0.0
  0
LINE
  5
92
330
7E
100
AcDbEntity
  8
중심선
100
AcDbLine
 10
22.22332737316547
 20
13.45928029700563
 30
0.0
 11
24.52862924686651
 21
15.39360700705356
 31
0.0
  0
ATTDEF
  5
94
330
7E
100
AcDbEntity
  8
FORMAT
 62
     2
100
AcDbText
 10
-12.95993919485777
 20
2.075366912832191
 30
0.0
 40
4.233333333333333
  1
SEME35230E [ 2 FLUTE ]
 41
0.75
  7
SLDTEXTSTYLE0
 11
-12.95993919485777
 21
-0.0412997538344756
 31
0.0
100
AcDbAttributeDefinition
  3

  2
AUTOATTR0
 70
     0
 74
     1
  0
ENDBLK
  5
80
330
7E
100
AcDbEntity
  8
0
100
AcDbBlockEnd
  0
BLOCK
  5
DB
330
DA
100
AcDbEntity
  8
0
100
AcDbBlockBegin
  2
_D
 70
     0
 10
0.0
 20
0.0
 30
0.0
  3
_D
  1

  0
LINE
  5
DD
330
DA
100
AcDbEntity
  8
치수문자_일반주서
 62
     0
370
    -2
100
AcDbLine
 10
55.50057246880679
 20
11.55278037514092
 30
0.0
 11
55.50057246880679
 21
23.74091426371869
 31
0.0
  0
LINE
  5
DE
330
DA
100
AcDbEntity
  8
치수문자_일반주서
 62
     0
370
    -2
100
AcDbLine
 10
5.500572468806778
 20
11.01288112022682
 30
0.0
 11
5.50057246880678
 21
23.74091426371869
 31
0.0
  0
LINE
  5
DF
330
DA
100
AcDbEntity
  8
치수문자_일반주서
 62
     0
370
    -2
100
AcDbLine
 10
52.19857246880679
 20
23.74091426371869
 30
0.0
 11
8.80257246880678
 21
23.74091426371869
 31
0.0
  0
SOLID
  5
E0
330
DA
100
AcDbEntity
  8
치수문자_일반주서
 62
     0
100
AcDbTrace
 10
52.19857246880679
 20
23.19058093038536
 30
0.0
 11
52.19857246880679
 21
24.29124759705203
 31
0.0
 12
55.50057246880679
 22
23.74091426371869
 32
0.0
 13
55.50057246880679
 23
23.74091426371869
 33
0.0
  0
SOLID
  5
E1
330
DA
100
AcDbEntity
  8
치수문자_일반주서
 62
     0
100
AcDbTrace
 10
8.80257246880678
 20
24.29124759705203
 30
0.0
 11
8.80257246880678
 21
23.19058093038536
 31
0.0
 12
5.50057246880678
 22
23.74091426371869
 32
0.0
 13
5.50057246880678
 23
23.74091426371869
 33
0.0
  0
MTEXT
  5
E2
330
DA
100
AcDbEntity
  8
치수문자_일반주서
 62
     0
100
AcDbMText
 10
30.50057246880678
 20
28.11591426371869
 30
0.0
 40
3.5
 41
0.0
 71
     2
 72
     1
  1
\A1;50
  7
SLDTEXTSTYLE0
 73
     1
 44
1.0
  0
POINT
  5
136
330
DA
100
AcDbEntity
  8
Defpoints
 62
     0
100
AcDbPoint
 10
55.50057246880679
 20
11.49028037514092
 30
0.0
  0
POINT
  5
137
330
DA
100
AcDbEntity
  8
Defpoints
 62
     0
100
AcDbPoint
 10
5.500572468806778
 20
10.95038112022682
 30
0.0
  0
POINT
  5
138
330
DA
100
AcDbEntity
  8
Defpoints
 62
     0
100
AcDbPoint
 10
5.500572468806778
 20
23.74091426371869
 30
0.0
  0
ENDBLK
  5
DC
330
DA
100
AcDbEntity
  8
0
100
AcDbBlockEnd
  0
BLOCK
  5
E5
330
E4
100
AcDbEntity
  8
0
100
AcDbBlockBegin
  2
_D_1
 70
     0
 10
0.0
 20
0.0
 30
0.0
  3
_D_1
  1

  0
LINE
  5
E7
330
E4
100
AcDbEntity
  8
치수문자_일반주서
 62
     0
370
    -2
100
AcDbLine
 10
55.50057246880679
 20
11.55278037514092
 30
0.0
 11
55.50057246880679
 21
30.83415911661228
 31
0.0
  0
LINE
  5
E8
330
E4
100
AcDbEntity
  8
치수문자_일반주서
 62
     0
370
    -2
100
AcDbLine
 10
-64.4994275311932
 20
11.56250000000001
 30
0.0
 11
-64.4994275311932
 21
30.83415911661228
 31
0.0
  0
LINE
  5
E9
330
E4
100
AcDbEntity
  8
치수문자_일반주서
 62
     0
370
    -2
100
AcDbLine
 10
52.19857246880679
 20
30.83415911661228
 30
0.0
 11
-61.19742753119321
 21
30.83415911661228
 31
0.0
  0
SOLID
  5
EA
330
E4
100
AcDbEntity
  8
치수문자_일반주서
 62
     0
100
AcDbTrace
 10
52.19857246880679
 20
30.28382578327894
 30
0.0
 11
52.19857246880679
 21
31.38449244994561
 31
0.0
 12
55.50057246880679
 22
30.83415911661228
 32
0.0
 13
55.50057246880679
 23
30.83415911661228
 33
0.0
  0
SOLID
  5
EB
330
E4
100
AcDbEntity
  8
치수문자_일반주서
 62
     0
100
AcDbTrace
 10
-61.19742753119321
 20
31.38449244994561
 30
0.0
 11
-61.19742753119321
 21
30.28382578327894
 31
0.0
 12
-64.4994275311932
 22
30.83415911661228
 32
0.0
 13
-64.4994275311932
 23
30.83415911661228
 33
0.0
  0
MTEXT
  5
EC
330
E4
100
AcDbEntity
  8
치수문자_일반주서
 62
     0
100
AcDbMText
 10
-4.4994275311932
 20
35.20915911661228
 30
0.0
 40
3.5
 41
0.0
 71
     2
 72
     1
  1
\A1;120
  7
SLDTEXTSTYLE0
 73
     1
 44
1.0
  0
POINT
  5
132
330
E4
100
AcDbEntity
  8
Defpoints
 62
     0
100
AcDbPoint
 10
55.50057246880679
 20
11.49028037514092
 30
0.0
  0
POINT
  5
133
330
E4
100
AcDbEntity
  8
Defpoints
 62
     0
100
AcDbPoint
 10
-64.4994275311932
 20
11.50000000000001
 30
0.0
  0
POINT
  5
134
330
E4
100
AcDbEntity
  8
Defpoints
 62
     0
100
AcDbPoint
 10
-64.4994275311932
 20
30.83415911661228
 30
0.0
  0
ENDBLK
  5
E6
330
E4
100
AcDbEntity
  8
0
100
AcDbBlockEnd
  0
BLOCK
  5
F0
330
EF
100
AcDbEntity
  8
0
100
AcDbBlockBegin
  2
_D_2
 70
     0
 10
0.0
 20
0.0
 30
0.0
  3
_D_2
  1

  0
LINE
  5
F2
330
EF
100
AcDbEntity
  8
치수문자_일반주서
 62
     0
370
    -2
100
AcDbLine
 10
55.56250612016872
 20
11.5080315370609
 30
0.0
 11
71.06676278105301
 21
11.50803153706095
 31
0.0
  0
LINE
  5
F3
330
EF
100
AcDbEntity
  8
치수문자_일반주서
 62
     0
370
    -2
100
AcDbLine
 10
55.5630724688068
 20
-11.49028037514089
 30
0.0
 11
71.0667627810531
 21
-11.49028037514084
 31
0.0
  0
LINE
  5
F4
330
EF
100
AcDbEntity
  8
치수문자_일반주서
 62
     0
370
    -2
100
AcDbLine
 10
71.06676278105303
 20
8.206031537060953
 30
0.0
 11
71.06676278105309
 21
-8.188280375140838
 31
0.0
  0
SOLID
  5
F5
330
EF
100
AcDbEntity
  8
치수문자_일반주서
 62
     0
100
AcDbTrace
 10
71.61709611438636
 20
8.206031537060955
 30
0.0
 11
70.5164294477197
 21
8.206031537060952
 31
0.0
 12
71.06676278105301
 22
11.50803153706095
 32
0.0
 13
71.06676278105301
 23
11.50803153706095
 33
0.0
  0
SOLID
  5
F6
330
EF
100
AcDbEntity
  8
치수문자_일반주서
 62
     0
100
AcDbTrace
 10
70.51642944771976
 20
-8.18828037514084
 30
0.0
 11
71.61709611438641
 21
-8.188280375140836
 31
0.0
 12
71.0667627810531
 22
-11.49028037514084
 32
0.0
 13
71.0667627810531
 23
-11.49028037514084
 33
0.0
  0
MTEXT
  5
F7
330
EF
100
AcDbEntity
  8
치수문자_일반주서
 62
     0
100
AcDbMText
 10
66.69176278105306
 20
-0.0000000000000026
 30
0.0
 40
3.5
 41
0.0
 71
     2
 72
     1
  1
\A1;%%c23
  7
SLDTEXTSTYLE0
 11
-3.707451599783482E-15
 21
1.0
 31
0.0
 73
     1
 44
1.0
  0
POINT
  5
F8
330
EF
100
AcDbEntity
  8
Defpoints
 62
     0
100
AcDbPoint
 10
55.50000612016872
 20
11.5080315370609
 30
0.0
  0
POINT
  5
F9
330
EF
100
AcDbEntity
  8
Defpoints
 62
     0
100
AcDbPoint
 10
55.5005724688068
 20
-11.49028037514089
 30
0.0
  0
POINT
  5
FA
330
EF
100
AcDbEntity
  8
Defpoints
 62
     0
100
AcDbPoint
 10
71.0667627810531
 20
-11.49028037514084
 30
0.0
  0
ENDBLK
  5
F1
330
EF
100
AcDbEntity
  8
0
100
AcDbBlockEnd
  0
BLOCK
  5
FD
330
FC
100
AcDbEntity
  8
0
100
AcDbBlockBegin
  2
_D_3
 70
     0
 10
0.0
 20
0.0
 30
0.0
  3
_D_3
  1

  0
LINE
  5
FF
330
FC
100
AcDbEntity
  8
치수문자_일반주서
 62
     0
370
    -2
100
AcDbLine
 10
-63.56192753119321
 20
12.50000000000001
 30
0.0
 11
-75.9189869765818
 21
12.49999999999996
 31
0.0
  0
LINE
  5
100
330
FC
100
AcDbEntity
  8
치수문자_일반주서
 62
     0
370
    -2
100
AcDbLine
 10
-63.56192753119321
 20
-12.49999999999999
 30
0.0
 11
-75.91898697658172
 21
-12.50000000000004
 31
0.0
  0
LINE
  5
101
330
FC
100
AcDbEntity
  8
치수문자_일반주서
 62
     0
370
    -2
100
AcDbLine
 10
-75.91898697658179
 20
9.19799999999996
 30
0.0
 11
-75.91898697658173
 21
-9.198000000000041
 31
0.0
  0
SOLID
  5
102
330
FC
100
AcDbEntity
  8
치수문자_일반주서
 62
     0
100
AcDbTrace
 10
-75.36865364324846
 20
9.197999999999961
 30
0.0
 11
-76.46932030991512
 21
9.197999999999958
 31
0.0
 12
-75.9189869765818
 22
12.49999999999996
 32
0.0
 13
-75.9189869765818
 23
12.49999999999996
 33
0.0
  0
SOLID
  5
103
330
FC
100
AcDbEntity
  8
치수문자_일반주서
 62
     0
100
AcDbTrace
 10
-76.46932030991506
 20
-9.198000000000043
 30
0.0
 11
-75.36865364324841
 21
-9.19800000000004
 31
0.0
 12
-75.91898697658172
 22
-12.50000000000004
 32
0.0
 13
-75.91898697658172
 23
-12.50000000000004
 33
0.0
  0
MTEXT
  5
104
330
FC
100
AcDbEntity
  8
치수문자_일반주서
 62
     0
100
AcDbMText
 10
-80.29398697658176
 20
-0.0000000000000036
 30
0.0
 40
3.5
 41
0.0
 71
     2
 72
     1
  1
\A1;%%c25
  7
SLDTEXTSTYLE0
 11
-3.410605131648481E-15
 21
1.0
 31
0.0
 73
     1
 44
1.0
  0
POINT
  5
105
330
FC
100
AcDbEntity
  8
Defpoints
 62
     0
100
AcDbPoint
 10
-63.49942753119321
 20
12.50000000000001
 30
0.0
  0
POINT
  5
139
330
FC
100
AcDbEntity
  8
Defpoints
 62
     0
100
AcDbPoint
 10
-63.49942753119321
 20
-12.49999999999999
 30
0.0
  0
POINT
  5
13A
330
FC
100
AcDbEntity
  8
Defpoints
 62
     0
100
AcDbPoint
 10
-75.91898697658172
 20
-12.50000000000004
 30
0.0
  0
ENDBLK
  5
FE
330
FC
100
AcDbEntity
  8
0
100
AcDbBlockEnd
  0
BLOCK
  5
107
330
106
100
AcDbEntity
  8
0
100
AcDbBlockBegin
  2
SW_DOWELSYMBOL_0
 70
     0
 10
0.0
 20
0.0
 30
0.0
  3
SW_DOWELSYMBOL_0
  1

  0
CIRCLE
  5
109
330
106
100
AcDbEntity
  8
외형선
 62
     0
100
AcDbCircle
 10
0.0
 20
0.0
 30
0.0
 40
3.000000000000004
  0
HATCH
  5
10A
330
106
100
AcDbEntity
  8
0
  6
Continuous
 62
     0
370
    30
100
AcDbHatch
 10
0.0
 20
0.0
 30
0.0
210
0.0
220
0.0
230
1.0
  2
SOLID
 70
     1
 71
     0
 91
        1
 92
        0
 93
        3
 72
     2
 10
0.0000000000000087
 20
-0.0000000000000035
 40
3.000000000000004
 50
0.0
 51
90.0
 73
     1
 72
     1
 10
0.0000000000000087
 20
3.000000000000001
 11
0.0000000000000087
 21
-0.0000000000000036
 72
     1
 10
0.0000000000000087
 20
-0.0000000000000035
 11
3.000000000000013
 21
-0.0000000000000035
 97
        0
 75
     0
 76
     1
 98
        1
 10
0.0
 20
0.0
  0
HATCH
  5
10B
330
106
100
AcDbEntity
  8
0
  6
Continuous
 62
     0
370
    30
100
AcDbHatch
 10
0.0
 20
0.0
 30
0.0
210
0.0
220
0.0
230
1.0
  2
SOLID
 70
     1
 71
     0
 91
        1
 92
        0
 93
        3
 72
     2
 10
0.0000000000000087
 20
-0.0000000000000035
 40
3.000000000000004
 50
180.0
 51
270.0000000000007
 73
     1
 72
     1
 10
0.0000000000000087
 20
-3.000000000000008
 11
0.0000000000000087
 21
-0.0000000000000036
 72
     1
 10
0.0000000000000087
 20
-0.0000000000000035
 11
-2.999999999999996
 21
-0.0000000000000035
 97
        0
 75
     0
 76
     1
 98
        1
 10
0.0
 20
0.0
  0
ENDBLK
  5
108
330
106
100
AcDbEntity
  8
0
100
AcDbBlockEnd
  0
ENDSEC
  0
SECTION
  2
ENTITIES
  0
LINE
  5
95
330
1F
100
AcDbEntity
  8
0
  6
Continuous
 62
     4
370
    15
100
AcDbLine
 10
1.999999999999998
 20
12.50000000000002
 30
0.0
 11
-63.49942753119321
 21
12.50000000000001
 31
0.0
  0
LINE
  5
96
330
1F
100
AcDbEntity
  8
0
  6
Continuous
 62
     4
370
    15
100
AcDbLine
 10
-63.49942753119321
 20
-12.49999999999999
 30
0.0
 11
2.000000000000053
 21
-12.49999999999998
 31
0.0
  0
LINE
  5
99
330
1F
100
AcDbEntity
  8
0
  6
Continuous
 62
     4
370
    15
100
AcDbLine
 10
-63.49942753119321
 20
12.50000000000001
 30
0.0
 11
-64.4994275311932
 21
11.50000000000001
 31
0.0
  0
LINE
  5
9A
330
1F
100
AcDbEntity
  8
0
  6
Continuous
 62
     4
370
    15
100
AcDbLine
 10
-64.4994275311932
 20
-11.49999999999999
 30
0.0
 11
-63.49942753119321
 21
-12.49999999999998
 31
0.0
  0
SPLINE
  5
9B
330
1F
100
AcDbEntity
  8
0
  6
Continuous
 62
     4
370
    15
100
AcDbSpline
210
0.0
220
0.0
230
1.0
 70
     8
 71
     3
 72
     9
 73
     5
 74
     0
 42
0.000000001
 43
0.00000001
 40
0.0
 40
0.0
 40
0.0
 40
0.0
 40
0.4988787570241616
 40
1.0
 40
1.0
 40
1.0
 40
1.0
 10
4.643476474792569
 20
-9.566066493638543
 30
0.0
 10
4.786481793086656
 20
-9.551822074783317
 30
0.0
 10
5.073135246016021
 20
-9.523269207669472
 30
0.0
 10
5.35788054876279
 20
-9.493603246187243
 30
0.0
 10
5.500572468806778
 20
-9.478737002695198
 30
0.0
1001
PE_URL
1000

  0
LINE
  5
9C
330
1F
100
AcDbEntity
  8
0
  6
Continuous
 62
     1
370
    15
100
AcDbLine
 10
19.36002793083891
 20
3.23097773940901
 30
0.0
 11
19.22323307321356
 21
3.306252120267828
 31
0.0
  0
LINE
  5
9D
330
1F
100
AcDbEntity
  8
0
  6
Continuous
 62
     1
370
    15
100
AcDbLine
 10
22.5729876534828
 20
4.51329831131311
 30
0.0
 11
22.5168080346183
 21
4.542528811050221
 31
0.0
  0
SPLINE
  5
9E
330
1F
100
AcDbEntity
  8
0
  6
Continuous
 62
     1
370
    15
100
AcDbSpline
210
0.0
220
0.0
230
1.0
 70
     8
 71
     3
 72
    10
 73
     6
 74
     0
 42
0.000000001
 43
0.00000001
 40
0.0
 40
0.0
 40
0.0
 40
0.0
 40
0.468066203947838
 40
0.6729338413533132
 40
1.0
 40
1.0
 40
1.0
 40
1.0
 10
25.70623365681242
 20
2.946906366732233
 30
0.0
 10
25.21458408464678
 20
3.181277902217901
 30
0.0
 10
24.50774468371021
 20
3.518231385182503
 30
0.0
 10
23.47121729982822
 20
4.042647469290054
 30
0.0
 10
22.91499060517768
 20
4.33409694800422
 30
0.0
 10
22.5729876534828
 20
4.51329831131311
 30
0.0
  0
SPLINE
  5
9F
330
1F
100
AcDbEntity
  8
0
  6
Continuous
 62
     1
370
    15
100
AcDbSpline
210
0.0
220
0.0
230
1.0
 70
     8
 71
     3
 72
    19
 73
    15
 74
     0
 42
0.000000001
 43
0.00000001
 40
0.0
 40
0.0
 40
0.0
 40
0.0
 40
0.1237017577892063
 40
0.2322182635309501
 40
0.3270890871655813
 40
0.4068494986697168
 40
0.4824050448804083
 40
0.5633910506738188
 40
0.6550578351248526
 40
0.742603142018514
 40
0.8274206103658428
 40
0.905069172821536
 40
0.9913841934299472
 40
1.0
 40
1.0
 40
1.0
 40
1.0
 10
21.90461859140484
 20
9.138347332999068
 30
0.0
 10
21.53364593584584
 20
9.119106235275499
 30
0.0
 10
20.83724010111087
 20
9.08298601854091
 30
0.0
 10
19.79857532433452
 20
9.043838461529287
 30
0.0
 10
18.89847871753075
 20
9.01742778603256
 30
0.0
 10
18.112379779418
 20
8.999745780721295
 30
0.0
 10
17.37833856819611
 20
8.988255114989304
 30
0.0
 10
16.60096016912052
 20
8.981280716212478
 30
0.0
 10
15.78765463070891
 20
8.980124946612836
 30
0.0
 10
14.96193154362696
 20
8.985367965385574
 30
0.0
 10
14.17991630599409
 20
8.996049873717633
 30
0.0
 10
13.402157907834
 20
9.012620502637095
 30
0.0
 10
12.86251856734912
 20
9.02672624487937
 30
0.0
 10
12.5656071832826
 20
9.037010259089417
 30
0.0
 10
12.53865986669855
 20
9.037943623727976
 30
0.0
  0
SPLINE
  5
A0
330
1F
100
AcDbEntity
  8
0
  6
Continuous
 62
     1
370
    15
100
AcDbSpline
210
0.0
220
0.0
230
1.0
 70
     8
 71
     3
 72
    33
 73
    29
 74
     0
 42
0.000000001
 43
0.00000001
 40
0.0
 40
0.0
 40
0.0
 40
0.0
 40
0.0444467229262969
 40
0.0847949631504601
 40
0.1208074062369175
 40
0.1505398436538403
 40
0.1723892001874485
 40
0.19034861292297
 40
0.2158574796265091
 40
0.2498072454104054
 40
0.2842254429206408
 40
0.3152266098952148
 40
0.3431083515365134
 40
0.3775803293414842
 40
0.4177529452771904
 40
0.454741862109305
 40
0.4878776203587684
 40
0.538446447407566
 40
0.5882765215121503
 40
0.6392243256804152
 40
0.6931464099167546
 40
0.759163280297864
 40
0.7956729171188942
 40
0.8259040076706989
 40
0.8599614492546481
 40
0.8993592009910609
 40
0.9454814278008474
 40
1.0
 40
1.0
 40
1.0
 40
1.0
 10
51.2282194814263
 20
7.865460784706007
 30
0.0
 10
50.96636193074598
 20
7.84275279910013
 30
0.0
 10
50.46679301095349
 20
7.799430756980976
 30
0.0
 10
49.66206651305956
 20
7.738966405681731
 30
0.0
 10
48.91919891900927
 20
7.697864432944503
 30
0.0
 10
48.31395566759636
 20
7.666289638436313
 30
0.0
 10
47.82850205583681
 20
7.643333085200703
 30
0.0
 10
47.40377518744004
 20
7.625980534345552
 30
0.0
 10
46.88275449654386
 20
7.607159538144075
 30
0.0
 10
46.24956971790362
 20
7.589228947464201
 30
0.0
 10
45.57885733549833
 20
7.576084115872805
 30
0.0
 10
44.95208314190749
 20
7.569127931340711
 30
0.0
 10
44.3283206561177
 20
7.566951960455738
 30
0.0
 10
43.63914490682198
 20
7.570044340809294
 30
0.0
 10
42.88748493751256
 20
7.580661531357093
 30
0.0
 10
42.14514070935149
 20
7.598519707463562
 30
0.0
 10
41.33302121679012
 20
7.625467566706192
 30
0.0
 10
40.43447810411138
 20
7.664864122523445
 30
0.0
 10
39.41551826085981
 20
7.722381198768383
 30
0.0
 10
38.37384460870553
 20
7.794421182891448
 30
0.0
 10
37.22565466329454
 20
7.888951223075053
 30
0.0
 10
36.16853597924556
 20
7.990971153739038
 30
0.0
 10
35.28567716818243
 20
8.087004694946026
 30
0.0
 10
34.62684767146092
 20
8.163132488095394
 30
0.0
 10
33.91141619433808
 20
8.252524974671713
 30
0.0
 10
33.08664636708093
 20
8.360333990681657
 30
0.0
 10
32.13103851436837
 20
8.494642457538692
 30
0.0
 10
31.48682476418803
 20
8.595108531437024
 30
0.0
 10
31.13784488528452
 20
8.64953245252399
 30
0.0
  0
SPLINE
  5
A1
330
1F
100
AcDbEntity
  8
0
  6
Continuous
 62
     1
370
    15
100
AcDbSpline
210
0.0
220
0.0
230
1.0
 70
     8
 71
     3
 72
    18
 73
    14
 74
     0
 42
0.000000001
 43
0.00000001
 40
0.0
 40
0.0
 40
0.0
 40
0.0
 40
0.1231424337336348
 40
0.2281473073832976
 40
0.3182906277638143
 40
0.3967335416977155
 40
0.4653380057041593
 40
0.5420634731038134
 40
0.639014403921251
 40
0.733546709621816
 40
0.8569937496999513
 40
0.9749688053905607
 40
1.0
 40
1.0
 40
1.0
 40
1.0
 10
31.13784488528451
 20
-8.649532452523967
 30
0.0
 10
31.47205444950728
 20
-8.5973993536509
 30
0.0
 10
32.09124809273266
 20
-8.500811802367275
 30
0.0
 10
33.0090067927173
 20
-8.370857156943918
 30
0.0
 10
33.80987402718938
 20
-8.265703857839345
 30
0.0
 10
34.50435963631661
 20
-8.178044180586449
 30
0.0
 10
35.13335264844583
 20
-8.104257281101544
 30
0.0
 10
35.80855330945207
 20
-8.029596655313295
 30
0.0
 10
36.5762366591839
 20
-7.951197010489932
 30
0.0
 10
37.47509038681699
 20
-7.867992593547672
 30
0.0
 10
38.43339806704959
 20
-7.79071910736781
 30
0.0
 10
39.19433880242502
 20
-7.736204587081296
 30
0.0
 10
39.6026908172104
 20
-7.71368060245819
 30
0.0
 10
39.67416698506882
 20
-7.709738101754211
 30
0.0
  0
SPLINE
  5
A2
330
1F
100
AcDbEntity
  8
0
  6
Continuous
 62
     1
370
    15
100
AcDbSpline
210
0.0
220
0.0
230
1.0
 70
     8
 71
     3
 72
    29
 73
    25
 74
     0
 42
0.000000001
 43
0.00000001
 40
0.0
 40
0.0
 40
0.0
 40
0.0
 40
0.0706368762073721
 40
0.1250769953924998
 40
0.163622644249185
 40
0.1879881512055828
 40
0.209887080740696
 40
0.238090264752474
 40
0.2686398397265438
 40
0.3093197822882797
 40
0.3471971794845269
 40
0.3755253116024821
 40
0.4023608121850533
 40
0.4400053477751817
 40
0.485803173444718
 40
0.5262310161662727
 40
0.5877831168684766
 40
0.6542701215913954
 40
0.715690657026346
 40
0.7700214424291977
 40
0.8153965379076855
 40
0.8691303017112971
 40
0.93035068099038
 40
1.0
 40
1.0
 40
1.0
 40
1.0
 10
5.500572468806773
 20
-9.4787370026952
 30
0.0
 10
5.891465134801182
 20
-9.444791397569858
 30
0.0
 10
6.583620320713015
 20
-9.384683780644767
 30
0.0
 10
7.488611965026976
 20
-9.31356890383301
 30
0.0
 10
8.1381701221868
 20
-9.266054323265024
 30
0.0
 10
8.602160995271518
 20
-9.234135844960653
 30
0.0
 10
9.008633174622652
 20
-9.20749897359112
 30
0.0
 10
9.449264803696122
 20
-9.18017364362543
 30
0.0
 10
9.992526881420972
 20
-9.148739806811381
 30
0.0
 10
10.58826567607375
 20
-9.117255479627609
 30
0.0
 10
11.1718946662685
 20
-9.089845878542793
 30
0.0
 10
11.68007430712013
 20
-9.068473113387512
 30
0.0
 10
12.18713751596095
 20
-9.049220784158106
 30
0.0
 10
12.78948124025238
 20
-9.029227159463842
 30
0.0
 10
13.46598192731116
 20
-9.010958274299457
 30
0.0
 10
14.27283253184322
 20
-8.994360509238199
 30
0.0
 10
15.19336808520377
 20
-8.982592711913542
 30
0.0
 10
16.22736025885333
 20
-8.979338018210905
 30
0.0
 10
17.22474400781844
 20
-8.985923447830404
 30
0.0
 10
18.09864604852898
 20
-8.999261146821357
 30
0.0
 10
18.94156639073755
 20
-9.018596931837394
 30
0.0
 10
19.83194000733645
 20
-9.044949592186317
 30
0.0
 10
20.85461070407377
 20
-9.083867232251938
 30
0.0
 10
21.53990338736743
 20
-9.119423931280163
 30
0.0
 10
21.90461859140484
 20
-9.138347332999045
 30
0.0
  0
LINE
  5
A3
330
1F
100
AcDbEntity
  8
0
  6
Continuous
 62
     4
370
    15
100
AcDbLine
 10
2.000000000000004
 20
12.50000000000001
 30
0.0
 11
2.000000000000007
 21
-12.50000000000001
 31
0.0
1001
PE_URL
1000

  0
LINE
  5
A4
330
1F
100
AcDbEntity
  8
0
  6
Continuous
 62
     4
370
    15
100
AcDbLine
 10
-63.49942753119321
 20
12.50000000000001
 30
0.0
 11
-63.49942753119321
 21
-12.49999999999999
 31
0.0
  0
SPLINE
  5
A5
330
1F
100
AcDbEntity
  8
0
  6
Continuous
 62
     4
370
    15
100
AcDbSpline
210
0.0
220
0.0
230
1.0
 70
     8
 71
     3
 72
     8
 73
     4
 74
     0
 42
0.000000001
 43
0.00000001
 40
0.0
 40
0.0
 40
0.0
 40
0.0
 40
1.0
 40
1.0
 40
1.0
 40
1.0
 10
4.500572468806782
 20
11.11269202008813
 30
0.0
 10
3.81477881230887
 20
11.37173622282674
 30
0.0
 10
3.132182510476639
 20
11.62080686031799
 30
0.0
 10
2.450806833057389
 20
11.85839159200468
 30
0.0
1001
PE_URL
1000

  0
LINE
  5
A6
330
1F
100
AcDbEntity
  8
0
  6
Continuous
 62
     4
370
    15
100
AcDbLine
 10
4.500572468806782
 20
11.11269202008813
 30
0.0
 11
4.500572468806782
 21
9.86314103893317
 31
0.0
1001
PE_URL
1000

  0
SPLINE
  5
A7
330
1F
100
AcDbEntity
  8
0
  6
Continuous
 62
     4
370
    15
100
AcDbSpline
210
0.0
220
0.0
230
1.0
 70
     8
 71
     3
 72
     8
 73
     4
 74
     0
 42
0.000000001
 43
0.00000001
 40
0.0
 40
0.0
 40
0.0
 40
0.0
 40
1.0
 40
1.0
 40
1.0
 40
1.0
 10
2.450686943177976
 20
10.82892705097002
 30
0.0
 10
3.135043608718113
 20
10.51682515740345
 30
0.0
 10
3.817638911151505
 20
10.19442185882903
 30
0.0
 10
4.500572468806782
 20
9.863141038933179
 30
0.0
1001
PE_URL
1000

  0
LINE
  5
A8
330
1F
100
AcDbEntity
  8
0
  6
Continuous
 62
     4
370
    15
100
AcDbLine
 10
2.45068694317798
 20
-12.04926517116848
 30
0.0
 11
2.450686943177973
 21
10.8290090250139
 31
0.0
1001
PE_URL
1000

  0
SPLINE
  5
A9
330
1F
100
AcDbEntity
  8
0
  6
Continuous
 62
     4
370
    15
100
AcDbSpline
210
0.0
220
0.0
230
1.0
 70
     8
 71
     3
 72
     8
 73
     4
 74
     0
 42
0.000000001
 43
0.00000001
 40
0.0
 40
0.0
 40
0.0
 40
0.0
 40
1.0
 40
1.0
 40
1.0
 40
1.0
 10
4.500572468806782
 20
-11.1126920200881
 30
0.0
 10
3.814778812308874
 20
-11.37173622282671
 30
0.0
 10
3.132182510476639
 20
-11.62080686031796
 30
0.0
 10
2.450806833057392
 20
-11.85839159200465
 30
0.0
1001
PE_URL
1000

  0
LINE
  5
AA
330
1F
100
AcDbEntity
  8
0
  6
Continuous
 62
     4
370
    15
100
AcDbLine
 10
2.450686943177976
 20
11.85846359623054
 30
0.0
 11
2.450686943177976
 21
12.04926517116849
 31
0.0
1001
PE_URL
1000

  0
LINE
  5
AB
330
1F
100
AcDbEntity
  8
0
  6
Continuous
 62
     4
370
    15
100
AcDbLine
 10
-64.4994275311932
 20
11.50000000000001
 30
0.0
 11
-64.4994275311932
 21
-11.50000000000001
 31
0.0
  0
SPLINE
  5
AC
330
1F
100
AcDbEntity
  8
0
  6
Continuous
 62
     1
370
    15
100
AcDbSpline
210
0.0
220
0.0
230
1.0
 70
    24
 71
     3
 72
    14
 73
    10
 74
     0
 42
0.000000001
 43
0.00000001
 40
0.0
 40
0.0
 40
0.0
 40
0.0
 40
0.2500000000000002
 40
0.2500000000000002
 40
0.5000000000000001
 40
0.5000000000000001
 40
0.75
 40
0.75
 40
1.0
 40
1.0
 40
1.0
 40
1.0
 10
5.500572468806778
 20
6.498215344056113
 30
0.0
 10
5.500572468806778
 20
5.735641273865459
 30
0.0
 10
5.500572468806778
 20
4.865781761777875
 30
0.0
 10
5.500572468806778
 20
2.966971351062571
 30
0.0
 10
5.500572468806778
 20
1.938634175756712
 30
0.0
 10
5.500572468806778
 20
-0.1813818262054761
 30
0.0
 10
5.500572468806782
 20
-1.271931019701864
 30
0.0
 10
5.500572468806778
 20
-3.407789320828173
 30
0.0
 10
5.500572468806778
 20
-4.45215175858364
 30
0.0
 10
5.500572468806778
 20
-5.430158846674056
 30
0.0
  0
SPLINE
  5
AD
330
1F
100
AcDbEntity
  8
0
  6
Continuous
 62
     4
370
    15
100
AcDbSpline
210
0.0
220
0.0
230
1.0
 70
     8
 71
     3
 72
    10
 73
     6
 74
     0
 42
0.000000001
 43
0.00000001
 40
0.0
 40
0.0
 40
0.0
 40
0.0
 40
0.5
 40
0.5
 40
1.0
 40
1.0
 40
1.0
 40
1.0
 10
5.500572468806773
 20
-5.430158846674056
 30
0.0
 10
4.991375200167273
 20
-5.240508603955396
 30
0.0
 10
4.481579278421762
 20
-5.045464899783135
 30
0.0
 10
3.465268488808791
 20
-4.646325048831988
 30
0.0
 10
2.959418357943096
 20
-4.442331098555759
 30
0.0
 10
2.450730724435991
 20
-4.233817939290936
 30
0.0
  0
SPLINE
  5
AE
330
1F
100
AcDbEntity
  8
0
  6
Continuous
 62
     4
370
    15
100
AcDbSpline
210
0.0
220
0.0
230
1.0
 70
     8
 71
     3
 72
    10
 73
     6
 74
     0
 42
0.000000001
 43
0.00000001
 40
0.0
 40
0.0
 40
0.0
 40
0.0
 40
0.5
 40
0.5
 40
1.0
 40
1.0
 40
1.0
 40
1.0
 10
5.500572468806773
 20
6.498215344056115
 30
0.0
 10
4.991372715083232
 20
6.619551452851273
 30
0.0
 10
4.481574302428108
 20
6.734568950476305
 30
0.0
 10
3.465258584806975
 20
6.950982693099354
 30
0.0
 10
2.959405968860038
 20
7.052353383473476
 30
0.0
 10
2.450715828854732
 20
7.146925727361459
 30
0.0
  0
LINE
  5
AF
330
1F
100
AcDbEntity
  8
0
  6
Continuous
 62
     4
370
    15
100
AcDbLine
 10
4.647147098609894
 20
-9.543117677355227
 30
0.0
 11
2.450806833057392
 21
-9.729070347215162
 31
0.0
1001
PE_URL
1000

  0
SPLINE
  5
B0
330
1F
100
AcDbEntity
  8
0
  6
Continuous
 62
     1
370
    15
100
AcDbSpline
210
0.0
220
0.0
230
1.0
 70
    24
 71
     3
 72
    15
 73
    11
 74
     0
 42
0.000000001
 43
0.00000001
 40
0.0
 40
0.0
 40
0.0
 40
0.0
 40
0.1424874355100031
 40
0.2849748710200062
 40
0.3893671127952077
 40
0.4937593545704093
 40
0.6011844168319086
 40
0.7086094790934081
 40
0.8971282240085453
 40
1.0
 40
1.0
 40
1.0
 40
1.0
 10
5.500572468806778
 20
-5.430158846674059
 30
0.0
 10
5.500572468806778
 20
-5.770492166360106
 30
0.0
 10
5.500572468806778
 20
-6.451158805732201
 30
0.0
 10
5.500572468806778
 20
-7.241939493121976
 30
0.0
 10
5.500572468806778
 20
-7.865042510421897
 30
0.0
 10
5.500572468806778
 20
-8.347765704937665
 30
0.0
 10
5.500572468806778
 20
-8.754415887030358
 30
0.0
 10
5.500572468806782
 20
-9.151970844891602
 30
0.0
 10
5.500572468806778
 20
-9.4302039558332
 30
0.0
 10
5.500572468806778
 20
-9.438712911183435
 30
0.0
 10
5.500572468806778
 20
-9.441716891360926
 30
0.0
  0
SPLINE
  5
B1
330
1F
100
AcDbEntity
  8
0
  6
Continuous
 62
     4
370
    15
100
AcDbSpline
210
0.0
220
0.0
230
1.0
 70
     8
 71
     3
 72
     8
 73
     4
 74
     0
 42
0.000000001
 43
0.00000001
 40
0.0
 40
0.0
 40
0.0
 40
0.0
 40
1.0
 40
1.0
 40
1.0
 40
1.0
 10
5.500572468806778
 20
9.554329958912504
 30
0.0
 10
5.167286383706713
 20
9.661310251525661
 30
0.0
 10
4.833743511278557
 20
9.764311519297554
 30
0.0
 10
4.500572468806782
 20
9.86314103893317
 30
0.0
  0
SPLINE
  5
B2
330
1F
100
AcDbEntity
  8
0
  6
Continuous
 62
     4
370
    15
100
AcDbSpline
210
0.0
220
0.0
230
1.0
 70
    24
 71
     3
 72
    10
 73
     6
 74
     0
 42
0.000000001
 43
0.00000001
 40
0.0
 40
0.0
 40
0.0
 40
0.0
 40
0.5
 40
0.5
 40
1.0
 40
1.0
 40
1.0
 40
1.0
 10
5.500572468806778
 20
9.554329958912508
 30
0.0
 10
5.500572468806778
 20
9.17639707673204
 30
0.0
 10
5.500572468806778
 20
8.696867895914377
 30
0.0
 10
5.500572468806778
 20
7.636252008035437
 30
0.0
 10
5.500572468806778
 20
7.058407881020758
 30
0.0
 10
5.500572468806778
 20
6.498215344056115
 30
0.0
  0
SPLINE
  5
B3
330
1F
100
AcDbEntity
  8
0
  6
Continuous
 62
     4
370
    15
100
AcDbSpline
210
0.0
220
0.0
230
1.0
 70
     8
 71
     3
 72
     8
 73
     4
 74
     0
 42
0.000000001
 43
0.00000001
 40
0.0
 40
0.0
 40
0.0
 40
0.0
 40
1.0
 40
1.0
 40
1.0
 40
1.0
 10
5.500572468806778
 20
10.95038112024254
 30
0.0
 10
5.167286383706713
 20
11.00909505061106
 30
0.0
 10
4.833743511278557
 20
11.06323216303008
 30
0.0
 10
4.500572468806782
 20
11.11269202008812
 30
0.0
1001
PE_URL
1000

  0
LINE
  5
B4
330
1F
100
AcDbEntity
  8
0
  6
Continuous
 62
     4
370
    15
100
AcDbLine
 10
5.500572468806778
 20
10.95038112024254
 30
0.0
 11
5.500572468806775
 21
9.554329958912511
 31
0.0
1001
PE_URL
1000

  0
SPLINE
  5
B5
330
1F
100
AcDbEntity
  8
0
  6
Continuous
 62
     4
370
    15
100
AcDbSpline
210
0.0
220
0.0
230
1.0
 70
     8
 71
     3
 72
     8
 73
     4
 74
     0
 42
0.000000001
 43
0.00000001
 40
0.0
 40
0.0
 40
0.0
 40
0.0
 40
1.0
 40
1.0
 40
1.0
 40
1.0
 10
5.500572468806778
 20
-10.95038112024253
 30
0.0
 10
5.167286383706713
 20
-11.00909505061103
 30
0.0
 10
4.833743511278557
 20
-11.06323216303007
 30
0.0
 10
4.500572468806782
 20
-11.11269202008809
 30
0.0
  0
SPLINE
  5
B6
330
1F
100
AcDbEntity
  8
0
  6
Continuous
 62
     1
370
    15
100
AcDbSpline
210
0.0
220
0.0
230
1.0
 70
    24
 71
     3
 72
     8
 73
     4
 74
     0
 42
0.000000001
 43
0.00000001
 40
0.0
 40
0.0
 40
0.0
 40
0.0
 40
1.0
 40
1.0
 40
1.0
 40
1.0
 10
5.500572468806785
 20
-9.470862604403504
 30
0.0
 10
5.500572468806785
 20
-9.99045409037942
 30
0.0
 10
5.500572468806785
 20
-10.48691379398183
 30
0.0
 10
5.500572468806785
 20
-10.95038112023282
 30
0.0
  0
SPLINE
  5
B7
330
1F
100
AcDbEntity
  8
0
  6
Continuous
 62
     1
370
    15
100
AcDbSpline
210
0.0
220
0.0
230
1.0
 70
     8
 71
     3
 72
    58
 73
    54
 74
     0
 42
0.000000001
 43
0.00000001
 40
0.0
 40
0.0
 40
0.0
 40
0.0
 40
0.0625000000000001
 40
0.0625000000000001
 40
0.0937500000000002
 40
0.0937500000000002
 40
0.1250000000000002
 40
0.1250000000000002
 40
0.1562500000000002
 40
0.1562500000000002
 40
0.1875000000000003
 40
0.1875000000000003
 40
0.2187500000000003
 40
0.2187500000000003
 40
0.2500000000000003
 40
0.2500000000000003
 40
0.3125000000000004
 40
0.3125000000000004
 40
0.3750000000000004
 40
0.3750000000000004
 40
0.4062500000000005
 40
0.4062500000000005
 40
0.4375000000000005
 40
0.4375000000000005
 40
0.4687500000000005
 40
0.4687500000000005
 40
0.5000000000000004
 40
0.5000000000000004
 40
0.5312500000000006
 40
0.5312500000000006
 40
0.5625000000000006
 40
0.5625000000000006
 40
0.6250000000000006
 40
0.6250000000000006
 40
0.6875000000000006
 40
0.6875000000000006
 40
0.7187500000000006
 40
0.7187500000000006
 40
0.7500000000000004
 40
0.7500000000000004
 40
0.7812500000000004
 40
0.7812500000000004
 40
0.8125000000000004
 40
0.8125000000000004
 40
0.8437500000000003
 40
0.8437500000000003
 40
0.8750000000000003
 40
0.8750000000000003
 40
0.9375000000000002
 40
0.9375000000000002
 40
0.9687500000000001
 40
0.9687500000000001
 40
1.0
 40
1.0
 40
1.0
 40
1.0
 10
55.50057246880679
 20
-11.49028037514088
 30
0.0
 10
54.46285441501177
 20
-11.46559031200109
 30
0.0
 10
53.41444298869176
 20
-11.39350766276641
 30
0.0
 10
51.85462881975938
 20
-11.21613338514364
 30
0.0
 10
51.33547536955762
 20
-11.14549729063229
 30
0.0
 10
50.29235635257997
 20
-10.98127704975152
 30
0.0
 10
49.76998421873232
 20
-10.88774977290145
 30
0.0
 10
48.72843195459075
 20
-10.67875720211994
 30
0.0
 10
48.21027619199048
 20
-10.56339791258097
 30
0.0
 10
47.16813182665359
 20
-10.31083251665232
 30
0.0
 10
46.64570502645173
 20
-10.17371646674683
 30
0.0
 10
45.60296112008774
 20
-9.879070404367667
 30
0.0
 10
45.08442357774647
 20
-9.721739401369167
 30
0.0
 10
44.04373929372691
 20
-9.38713425860025
 30
0.0
 10
43.52150265011393
 20
-9.209820867720158
 30
0.0
 10
41.95632887064174
 20
-8.650224980747609
 30
0.0
 10
40.91904576700069
 20
-8.240860507388867
 30
0.0
 10
38.83171175483805
 20
-7.356296543367094
 30
0.0
 10
37.79436769227875
 20
-6.882894372188206
 30
0.0
 10
36.22927215268012
 20
-6.132042223784621
 30
0.0
 10
35.70700348794151
 20
-5.875104536265909
 30
0.0
 10
34.66613994021385
 20
-5.350321136089867
 30
0.0
 10
34.14770910014417
 20
-5.082520680232204
 30
0.0
 10
33.10506943238293
 20
-4.536054309902175
 30
0.0
 10
32.58263678563435
 20
-4.257684114588963
 30
0.0
 10
31.54036497464357
 20
-3.693240691978989
 30
0.0
 10
31.02216838085938
 20
-3.407478119896085
 30
0.0
 10
29.98077227181578
 20
-2.828643909583515
 30
0.0
 10
29.45842047514592
 20
-2.535718567699597
 30
0.0
 10
28.41522602875729
 20
-1.945543592089428
 30
0.0
 10
27.89588427728984
 20
-1.648583456204022
 30
0.0
 10
26.3363818518092
 20
-0.7532763868243395
 30
0.0
 10
25.28794677362593
 20
-0.1491793635091657
 30
0.0
 10
23.21200325272449
 20
1.051298557182307
 30
0.0
 10
22.16412477770113
 20
1.651575322935143
 30
0.0
 10
20.60400713354439
 20
2.535947674113682
 30
0.0
 10
20.08502622367797
 20
2.828245383398186
 30
0.0
 10
19.04198820590575
 20
3.407387151565706
 30
0.0
 10
18.51959853424191
 20
3.693913193123289
 30
0.0
 10
17.47789565692028
 20
4.258242077134456
 30
0.0
 10
16.95976494686245
 20
4.535845207810914
 30
0.0
 10
15.91775357962639
 20
5.082208100328623
 30
0.0
 10
15.395335426311
 20
5.350695118020523
 30
0.0
 10
14.3524928444599
 20
5.875795202088485
 30
0.0
 10
13.83383282798382
 20
6.132127815293941
 30
0.0
 10
12.79333333416872
 20
6.632237304666921
 30
0.0
 10
12.27113150861911
 20
6.876053644557598
 30
0.0
 10
10.70588785278669
 20
7.585355684860304
 30
0.0
 10
9.668652671024242
 20
8.028083195589023
 30
0.0
 10
8.10316053123729
 20
8.641485121831423
 30
0.0
 10
7.581245068703481
 20
8.837285490328345
 30
0.0
 10
6.542047916436879
 20
9.209824633186305
 30
0.0
 10
6.022242114675334
 20
9.386881109838413
 30
0.0
 10
5.500572468806768
 20
9.554329958912518
 30
0.0
  0
SPLINE
  5
B8
330
1F
100
AcDbEntity
  8
0
  6
Continuous
 62
     1
370
    15
100
AcDbSpline
210
0.0
220
0.0
230
1.0
 70
     8
 71
     3
 72
    14
 73
    10
 74
     0
 42
0.000000001
 43
0.00000001
 40
0.0
 40
0.0
 40
0.0
 40
0.0
 40
0.0587988059628568
 40
0.2135981194870523
 40
0.368396891053701
 40
0.5231957874516271
 40
0.6821302839389998
 40
0.8410650012394242
 40
1.0
 40
1.0
 40
1.0
 40
1.0
 10
26.91811927726834
 20
-1.086358588950753
 30
0.0
 10
26.49834617662211
 20
-0.9193161318128599
 30
0.0
 10
24.97343859659537
 20
-0.3125018583786457
 30
0.0
 10
22.34340461147023
 20
0.7590693097633728
 30
0.0
 10
19.02800815329694
 20
2.080815054025898
 30
0.0
 10
15.68311039233954
 20
3.359368260162994
 30
0.0
 10
12.30860606981847
 20
4.549512657316505
 30
0.0
 10
8.904594175432301
 20
5.631289092750156
 30
0.0
 10
6.635247040818832
 20
6.209239756370527
 30
0.0
 10
5.500572468806778
 20
6.498215344056112
 30
0.0
  0
SPLINE
  5
B9
330
1F
100
AcDbEntity
  8
0
  6
Continuous
 62
     4
370
    15
100
AcDbSpline
210
0.0
220
0.0
230
1.0
 70
    24
 71
     3
 72
    10
 73
     6
 74
     0
 42
0.000000001
 43
0.00000001
 40
0.0
 40
0.0
 40
0.0
 40
0.0
 40
0.5000000000000002
 40
0.5000000000000002
 40
1.0
 40
1.0
 40
1.0
 40
1.0
 10
5.500572468806778
 20
9.55432995891251
 30
0.0
 10
5.500572468806778
 20
9.176397076732046
 30
0.0
 10
5.500572468806778
 20
8.696867895914377
 30
0.0
 10
5.500572468806778
 20
7.636252008035437
 30
0.0
 10
5.500572468806778
 20
7.058407881020761
 30
0.0
 10
5.500572468806778
 20
6.498215344056115
 30
0.0
  0
SPLINE
  5
BA
330
1F
100
AcDbEntity
  8
0
  6
Continuous
 62
     1
370
    15
100
AcDbSpline
210
0.0
220
0.0
230
1.0
 70
     8
 71
     3
 72
    58
 73
    54
 74
     0
 42
0.000000001
 43
0.00000001
 40
0.0
 40
0.0
 40
0.0
 40
0.0
 40
0.0625
 40
0.0625
 40
0.0937499999999999
 40
0.0937499999999999
 40
0.1249999999999999
 40
0.1249999999999999
 40
0.1562499999999999
 40
0.1562499999999999
 40
0.1874999999999999
 40
0.1874999999999999
 40
0.2187499999999999
 40
0.2187499999999999
 40
0.2499999999999999
 40
0.2499999999999999
 40
0.3124999999999995
 40
0.3124999999999995
 40
0.3749999999999991
 40
0.3749999999999991
 40
0.4062499999999991
 40
0.4062499999999991
 40
0.4374999999999991
 40
0.4374999999999991
 40
0.4687499999999991
 40
0.4687499999999991
 40
0.4999999999999991
 40
0.4999999999999991
 40
0.531249999999999
 40
0.531249999999999
 40
0.562499999999999
 40
0.562499999999999
 40
0.624999999999999
 40
0.624999999999999
 40
0.6874999999999989
 40
0.6874999999999989
 40
0.718749999999999
 40
0.718749999999999
 40
0.7499999999999991
 40
0.7499999999999991
 40
0.7812499999999992
 40
0.7812499999999992
 40
0.8124999999999993
 40
0.8124999999999993
 40
0.8437499999999994
 40
0.8437499999999994
 40
0.8749999999999996
 40
0.8749999999999996
 40
0.9374999999999998
 40
0.9374999999999998
 40
0.9687499999999999
 40
0.9687499999999999
 40
1.0
 40
1.0
 40
1.0
 40
1.0
 10
55.50057246880679
 20
-10.91281999616682
 30
0.0
 10
54.46285441501171
 20
-10.72334182012109
 30
0.0
 10
53.41444298869163
 20
-10.48828699513419
 30
0.0
 10
51.85462881975912
 20
-10.07367268784705
 30
0.0
 10
51.33547536955734
 20
-9.92508459949096
 30
0.0
 10
50.2923563525796
 20
-9.607384949460753
 30
0.0
 10
49.76998421873193
 20
-9.438411929819864
 30
0.0
 10
48.72843195459027
 20
-9.08180731688992
 30
0.0
 10
48.21027619198995
 20
-8.89432483091809
 30
0.0
 10
47.16813182665302
 20
-8.500812794153335
 30
0.0
 10
46.64570502645111
 20
-8.294949855129264
 30
0.0
 10
45.60296112008704
 20
-7.866899194454142
 30
0.0
 10
45.08442357774573
 20
-7.644980582439843
 30
0.0
 10
44.04373929372611
 20
-7.185434917762184
 30
0.0
 10
43.52150265011307
 20
-6.947771546572841
 30
0.0
 10
41.95632887064076
 20
-6.214339477884839
 30
0.0
 10
40.91904576699963
 20
-5.698835323588538
 30
0.0
 10
38.83171175483688
 20
-4.623256493378071
 30
0.0
 10
37.79436769227749
 20
-4.065367909563674
 30
0.0
 10
36.22927215267874
 20
-3.205369814045007
 30
0.0
 10
35.70700348794009
 20
-2.915009120700112
 30
0.0
 10
34.66613994021237
 20
-2.32959122369336
 30
0.0
 10
34.14770910014266
 20
-2.034572890193216
 30
0.0
 10
33.10506943238132
 20
-1.439877081710444
 30
0.0
 10
32.58263678563271
 20
-1.14053259405677
 30
0.0
 10
31.54036497464187
 20
-0.5406126712613516
 30
0.0
 10
31.02216838085763
 20
-0.2403557904203937
 30
0.0
 10
29.98077227181397
 20
0.360996437352078
 30
0.0
 10
29.45842047514407
 20
0.6619284663417714
 30
0.0
 10
28.41522602875536
 20
1.261527043484121
 30
0.0
 10
27.89588427728788
 20
1.559906780508014
 30
0.0
 10
26.3363818518071
 20
2.449623804215639
 30
0.0
 10
25.28794677362378
 20
3.036764887341007
 30
0.0
 10
23.21200325272221
 20
4.177536851219672
 30
0.0
 10
22.16412477769875
 20
4.734874064855235
 30
0.0
 10
20.60400713354191
 20
5.536319316129976
 30
0.0
 10
20.08502622367544
 20
5.797894113739431
 30
0.0
 10
19.04198820590314
 20
6.30945909727864
 30
0.0
 10
18.51959853423926
 20
6.559159700120824
 30
0.0
 10
17.47789565691756
 20
7.044110844435309
 30
0.0
 10
16.95976494685971
 20
7.279201618804186
 30
0.0
 10
15.91775357962356
 20
7.734847975080141
 30
0.0
 10
15.39533542630814
 20
7.955163852627085
 30
0.0
 10
14.35249284445695
 20
8.378735959640446
 30
0.0
 10
13.83383282798086
 20
8.581776728158678
 30
0.0
 10
12.79333333416567
 20
8.970289105707348
 30
0.0
 10
12.27113150861602
 20
9.155780086952346
 30
0.0
 10
10.7058878527835
 20
9.683311929084953
 30
0.0
 10
9.668652671020972
 20
9.9959934616296
 30
0.0
 10
8.103160531233897
 20
10.40263270769294
 30
0.0
 10
7.581245068700063
 20
10.52762645436385
 30
0.0
 10
6.542047916433404
 20
10.7554485432379
 30
0.0
 10
6.022242114671807
 20
10.85848026799582
 30
0.0
 10
5.500572468803208
 20
10.95038112024318
 30
0.0
  0
SPLINE
  5
BB
330
1F
100
AcDbEntity
  8
0
  6
Continuous
 62
     1
370
    15
100
AcDbSpline
210
0.0
220
0.0
230
1.0
 70
     8
 71
     3
 72
    16
 73
    12
 74
     0
 42
0.000000001
 43
0.00000001
 40
0.0
 40
0.0
 40
0.0
 40
0.0
 40
0.1112130493722738
 40
0.2224216069839312
 40
0.3336261266527372
 40
0.4448270634638057
 40
0.5560248736278707
 40
0.6672200143388158
 40
0.778412943630539
 40
0.8896041202332613
 40
1.0
 40
1.0
 40
1.0
 40
1.0
 10
55.50057246880679
 20
-9.073181040234468
 30
0.0
 10
54.39516554479324
 20
-8.847112952756968
 30
0.0
 10
52.18439634281546
 20
-8.394985908418722
 30
0.0
 10
48.86833073573587
 20
-7.417464968452284
 30
0.0
 10
45.55240182571172
 20
-6.252903728260194
 30
0.0
 10
42.23659602255908
 20
-4.910629475174551
 30
0.0
 10
38.92089718029193
 20
-3.434018361521881
 30
0.0
 10
35.6052897630526
 20
-1.861712132970062
 30
0.0
 10
32.28975814128741
 20
-0.2396393401367849
 30
0.0
 10
28.98217806216814
 20
1.391136608274714
 30
0.0
 10
26.77977563778691
 20
2.436783513009475
 30
0.0
 10
25.68252674056536
 20
2.957730502715821
 30
0.0
  0
LINE
  5
BC
330
1F
100
AcDbEntity
  8
0
  6
Continuous
 62
     1
370
    15
100
AcDbLine
 10
55.50057246880651
 20
-10.91281999616684
 30
0.0
 11
55.50057246880679
 21
-9.073181040234468
 31
0.0
  0
LINE
  5
BD
330
1F
100
AcDbEntity
  8
0
  6
Continuous
 62
     1
370
    15
100
AcDbLine
 10
55.50057246880679
 20
-11.49028037514089
 30
0.0
 11
55.50057246880673
 21
-10.91281999616682
 31
0.0
  0
SPLINE
  5
BE
330
1F
100
AcDbEntity
  8
0
  6
Continuous
 62
     1
370
    15
100
AcDbSpline
210
0.0
220
0.0
230
1.0
 70
     8
 71
     3
 72
    10
 73
     6
 74
     0
 42
0.000000001
 43
0.00000001
 40
0.0
 40
0.0
 40
0.0
 40
0.0
 40
0.5
 40
0.5
 40
1.0
 40
1.0
 40
1.0
 40
1.0
 10
55.50057246880679
 20
-3.073293879340899
 30
0.0
 10
54.64641615502833
 20
-2.401786757640475
 30
0.0
 10
53.80265705694159
 20
-1.711249478148067
 30
0.0
 10
52.13562879816833
 20
-0.2926719228385283
 30
0.0
 10
51.3123486549791
 20
0.4353482515623895
 30
0.0
 10
50.50057246880678
 20
1.184424266657166
 30
0.0
  0
LINE
  5
BF
330
1F
100
AcDbEntity
  8
0
  6
Continuous
 62
     1
370
    15
100
AcDbLine
 10
50.50057246880678
 20
2.937719435296603
 30
0.0
 11
55.50057246880679
 21
0.0000000000000173
 31
0.0
  0
LINE
  5
C0
330
1F
100
AcDbEntity
  8
0
  6
Continuous
 62
     1
370
    15
100
AcDbLine
 10
55.50057246880679
 20
0.0000000000000173
 30
0.0
 11
55.50057246880679
 21
-3.073293879340897
 31
0.0
  0
SPLINE
  5
C1
330
1F
100
AcDbEntity
  8
0
  6
Continuous
 62
     1
370
    15
100
AcDbSpline
210
0.0
220
0.0
230
1.0
 70
     8
 71
     3
 72
    17
 73
    13
 74
     0
 42
0.000000001
 43
0.00000001
 40
0.0
 40
0.0
 40
0.0
 40
0.0
 40
0.0962843506203973
 40
0.1926257839539226
 40
0.2889843397170684
 40
0.4049263091299371
 40
0.5208654563724708
 40
0.6368022656509216
 40
0.7527372219102932
 40
0.8686708106814097
 40
0.9846035179275855
 40
1.0
 40
1.0
 40
1.0
 40
1.0
 10
50.50057246880678
 20
2.285344061263179
 30
0.0
 10
49.58283782371869
 20
2.691857000779709
 30
0.0
 10
47.74682444945056
 20
3.505123883271377
 30
0.0
 10
44.99204916793933
 20
4.645995952468632
 30
0.0
 10
42.04986389377344
 20
5.772951327135768
 30
0.0
 10
38.92087413964881
 20
6.83482383055962
 30
0.0
 10
35.60526164009939
 20
7.771625484546253
 30
0.0
 10
32.28972516046159
 20
8.491791067794757
 30
0.0
 10
28.97424860437786
 20
8.983799310120446
 30
0.0
 10
25.6588164452427
 20
9.202835691444571
 30
0.0
 10
23.3017742854582
 20
9.243003624381252
 30
0.0
 10
22.04987418490104
 20
9.136263910093069
 30
0.0
 10
21.9031066798651
 20
9.123750194703673
 30
0.0
  0
SPLINE
  5
C2
330
1F
100
AcDbEntity
  8
0
  6
Continuous
 62
     1
370
    15
100
AcDbSpline
210
0.0
220
0.0
230
1.0
 70
    24
 71
     3
 72
     8
 73
     4
 74
     0
 42
0.000000001
 43
0.00000001
 40
0.0
 40
0.0
 40
0.0
 40
0.0
 40
1.0
 40
1.0
 40
1.0
 40
1.0
 10
50.50057246880678
 20
1.184424266628423
 30
0.0
 10
50.50057246880678
 20
1.55571432954423
 30
0.0
 10
50.50057246880678
 20
1.923335808581616
 30
0.0
 10
50.50057246880678
 20
2.285344061263178
 30
0.0
  0
SPLINE
  5
C3
330
1F
100
AcDbEntity
  8
0
  6
Continuous
 62
     1
370
    15
100
AcDbSpline
210
0.0
220
0.0
230
1.0
 70
    24
 71
     3
 72
    10
 73
     6
 74
     0
 42
0.000000001
 43
0.00000001
 40
0.0
 40
0.0
 40
0.0
 40
0.0
 40
0.5
 40
0.5
 40
1.0
 40
1.0
 40
1.0
 40
1.0
 10
55.50057246880679
 20
-9.073181040234468
 30
0.0
 10
55.50057246880679
 20
-8.37765097354374
 30
0.0
 10
55.50057246880677
 20
-7.498822064924373
 30
0.0
 10
55.50057246880677
 20
-5.455629430232802
 30
0.0
 10
55.50057246880679
 20
-4.293035595090048
 30
0.0
 10
55.50057246880679
 20
-3.073293879341266
 30
0.0
  0
SPLINE
  5
C4
330
1F
100
AcDbEntity
  8
0
  6
Continuous
 62
     1
370
    15
100
AcDbSpline
210
0.0
220
0.0
230
1.0
 70
    24
 71
     3
 72
    10
 73
     6
 74
     0
 42
0.000000001
 43
0.00000001
 40
0.0
 40
0.0
 40
0.0
 40
0.0
 40
0.5
 40
0.5
 40
1.0
 40
1.0
 40
1.0
 40
1.0
 10
50.50057246880678
 20
2.285344061263174
 30
0.0
 10
50.50057246880678
 20
3.122611241274712
 30
0.0
 10
50.50057246880678
 20
3.916970041836176
 30
0.0
 10
50.50057246880678
 20
5.327291163764131
 30
0.0
 10
50.50057246880678
 20
5.942238767556199
 30
0.0
 10
50.50057246880678
 20
6.43212329249951
 30
0.0
  0
SPLINE
  5
C5
330
1F
100
AcDbEntity
  8
0
  6
Continuous
 62
     1
370
    15
100
AcDbSpline
210
0.0
220
0.0
230
1.0
 70
     8
 71
     3
 72
     9
 73
     5
 74
     0
 42
0.000000001
 43
0.00000001
 40
0.0
 40
0.0
 40
0.0
 40
0.0
 40
0.7753760826485889
 40
1.0
 40
1.0
 40
1.0
 40
1.0
 10
55.50057246880679
 20
8.050000000000013
 30
0.0
 10
54.39516322749387
 20
8.041270795422282
 30
0.0
 10
52.96952054125447
 20
8.030012768803877
 30
0.0
 10
51.54388712509216
 20
7.877209102925926
 30
0.0
 10
51.2236557624467
 20
7.842885744910767
 30
0.0
  0
SPLINE
  5
C6
330
1F
100
AcDbEntity
  8
0
  6
Continuous
 62
     1
370
    15
100
AcDbSpline
210
0.0
220
0.0
230
1.0
 70
     8
 71
     3
 72
     8
 73
     4
 74
     0
 42
0.000000001
 43
0.00000001
 40
0.0
 40
0.0
 40
0.0
 40
0.0
 40
1.0
 40
1.0
 40
1.0
 40
1.0
 10
55.50057246880679
 20
8.050000000000013
 30
0.0
 10
53.81881346532827
 20
7.594049493737284
 30
0.0
 10
52.14968556442536
 20
7.059251705257306
 30
0.0
 10
50.5005724688068
 20
6.432123292499507
 30
0.0
  0
SPLINE
  5
C7
330
1F
100
AcDbEntity
  8
0
  6
Continuous
 62
     1
370
    15
100
AcDbSpline
210
0.0
220
0.0
230
1.0
 70
     8
 71
     3
 72
    15
 73
    11
 74
     0
 42
0.000000001
 43
0.00000001
 40
0.0
 40
0.0
 40
0.0
 40
0.0
 40
0.0847459684179089
 40
0.2140175726367994
 40
0.3432881939123994
 40
0.4725583744284577
 40
0.6018286565081823
 40
0.7345522416541607
 40
0.8672760063787329
 40
1.0
 40
1.0
 40
1.0
 40
1.0
 10
31.14771909651861
 20
-8.62066467965784
 30
0.0
 10
30.42322468736746
 20
-8.735655960457597
 30
0.0
 10
28.59358561744925
 20
-9.02605508209841
 30
0.0
 10
25.65881624377644
 20
-9.212254141855658
 30
0.0
 10
22.3434138095529
 20
-9.203558371150041
 30
0.0
 10
19.02801764554789
 20
-8.930699801016658
 30
0.0
 10
15.68312721120104
 20
-8.409695094047038
 30
0.0
 10
12.30861268157038
 20
-7.64047685118646
 30
0.0
 10
8.904598216748202
 20
-6.653466248268706
 30
0.0
 10
6.635248370410487
 20
-5.837928214952874
 30
0.0
 10
5.500572468806773
 20
-5.430158846674058
 30
0.0
  0
SPLINE
  5
C8
330
1F
100
AcDbEntity
  8
0
  6
Continuous
 62
     4
370
    15
100
AcDbSpline
210
0.0
220
0.0
230
1.0
 70
    24
 71
     3
 72
    14
 73
    10
 74
     0
 42
0.000000001
 43
0.00000001
 40
0.0
 40
0.0
 40
0.0
 40
0.0
 40
0.2500000000000002
 40
0.2500000000000002
 40
0.5000000000000001
 40
0.5000000000000001
 40
0.75
 40
0.75
 40
1.0
 40
1.0
 40
1.0
 40
1.0
 10
5.500572468806778
 20
6.498215344056113
 30
0.0
 10
5.500572468806778
 20
5.735641273865459
 30
0.0
 10
5.500572468806778
 20
4.865781761777875
 30
0.0
 10
5.500572468806778
 20
2.966971351062571
 30
0.0
 10
5.500572468806778
 20
1.938634175756712
 30
0.0
 10
5.500572468806778
 20
-0.1813818262054761
 30
0.0
 10
5.500572468806782
 20
-1.271931019701864
 30
0.0
 10
5.500572468806778
 20
-3.407789320828173
 30
0.0
 10
5.500572468806778
 20
-4.45215175858364
 30
0.0
 10
5.500572468806778
 20
-5.430158846674056
 30
0.0
  0
SPLINE
  5
C9
330
1F
100
AcDbEntity
  8
0
  6
Continuous
 62
     4
370
    15
100
AcDbSpline
210
0.0
220
0.0
230
1.0
 70
    24
 71
     3
 72
    15
 73
    11
 74
     0
 42
0.000000001
 43
0.00000001
 40
0.0
 40
0.0
 40
0.0
 40
0.0
 40
0.1425717975606437
 40
0.2851435951212874
 40
0.3895976440555244
 40
0.4940516929897614
 40
0.601540358041992
 40
0.7090290230942227
 40
0.8976593836605805
 40
1.0
 40
1.0
 40
1.0
 40
1.0
 10
5.500572468806778
 20
-5.430158846674059
 30
0.0
 10
5.500572468806778
 20
-5.770492179396052
 30
0.0
 10
5.500572468806778
 20
-6.451158844840037
 30
0.0
 10
5.500572468806778
 20
-7.241939354116976
 30
0.0
 10
5.500572468806778
 20
-7.865042878919516
 30
0.0
 10
5.500572468806778
 20
-8.347764297884263
 30
0.0
 10
5.500572468806778
 20
-8.754421312567867
 30
0.0
 10
5.500572468806778
 20
-9.15194415898874
 30
0.0
 10
5.500572468806778
 20
-9.42993935565476
 30
0.0
 10
5.500572468806778
 20
-9.4385106965594
 30
0.0
 10
5.500572468806778
 20
-9.441525417547602
 30
0.0
  0
LINE
  5
CA
330
1F
100
AcDbEntity
  8
0
  6
Continuous
 62
     1
370
    15
100
AcDbLine
 10
55.50057246880679
 20
0.0000000000000173
 30
0.0
 11
55.50057246880679
 21
8.050000000000015
 31
0.0
  0
SPLINE
  5
CB
330
1F
100
AcDbEntity
  8
0
  6
Continuous
 62
     1
370
    15
100
AcDbSpline
210
0.0
220
0.0
230
1.0
 70
     8
 71
     3
 72
    13
 73
     9
 74
     0
 42
0.000000001
 43
0.00000001
 40
0.0
 40
0.0
 40
0.0
 40
0.0
 40
0.0070432365894573
 40
0.2056018780215928
 40
0.4041694922182203
 40
0.6027534739218293
 40
0.8013611960670712
 40
1.0
 40
1.0
 40
1.0
 40
1.0
 10
39.67445851016273
 20
7.709870755635146
 30
0.0
 10
39.711612925036
 20
7.72681147157011
 30
0.0
 10
40.79620200247412
 20
8.221334545872644
 30
0.0
 10
42.9282731899288
 20
9.02165768897095
 30
0.0
 10
46.07078743487734
 20
10.05731101680118
 30
0.0
 10
49.21361440443677
 20
10.81654249746346
 30
0.0
 10
52.35688344662736
 20
11.33316995443565
 30
0.0
 10
54.45262146908815
 20
11.43790750324338
 30
0.0
 10
55.50057246880679
 20
11.49028037514092
 30
0.0
  0
SPLINE
  5
CC
330
1F
100
AcDbEntity
  8
0
  6
Continuous
 62
     1
370
    15
100
AcDbSpline
210
0.0
220
0.0
230
1.0
 70
    24
 71
     3
 72
    10
 73
     6
 74
     0
 42
0.000000001
 43
0.00000001
 40
0.0
 40
0.0
 40
0.0
 40
0.0
 40
0.5
 40
0.5
 40
1.0
 40
1.0
 40
1.0
 40
1.0
 10
55.50057246880679
 20
8.050000000000015
 30
0.0
 10
55.50057246880679
 20
8.537970953284123
 30
0.0
 10
55.50057246880682
 20
9.105038391971863
 30
0.0
 10
55.50057246880679
 20
10.29474435104984
 30
0.0
 10
55.50057246880679
 20
10.91434451171695
 30
0.0
 10
55.50057246880679
 20
11.49028037514092
 30
0.0
  0
SPLINE
  5
CD
330
1F
100
AcDbEntity
  8
0
  6
Continuous
 62
     1
370
    15
100
AcDbSpline
210
0.0
220
0.0
230
1.0
 70
     8
 71
     3
 72
    10
 73
     6
 74
     0
 42
0.000000001
 43
0.00000001
 40
0.0
 40
0.0
 40
0.0
 40
0.0
 40
0.1069915373830273
 40
0.5534939146955506
 40
1.0
 40
1.0
 40
1.0
 40
1.0
 10
12.53812300057315
 20
-9.03814426843937
 30
0.0
 10
12.28713560124136
 20
-9.133386876285263
 30
0.0
 10
10.98871516918345
 20
-9.626100647410118
 30
0.0
 10
8.642877344082798
 20
-10.30735928813989
 30
0.0
 10
6.548010326698337
 20
-10.73603991621274
 30
0.0
 10
5.500572468803208
 20
-10.95038112024315
 30
0.0
  0
SPLINE
  5
CE
330
1F
100
AcDbEntity
  8
0
  6
Continuous
 62
     4
370
    15
100
AcDbSpline
210
0.0
220
0.0
230
1.0
 70
    24
 71
     3
 72
     8
 73
     4
 74
     0
 42
0.000000001
 43
0.00000001
 40
0.0
 40
0.0
 40
0.0
 40
0.0
 40
1.0
 40
1.0
 40
1.0
 40
1.0
 10
5.500572468806785
 20
-9.470862604403504
 30
0.0
 10
5.500572468806785
 20
-9.99045409037942
 30
0.0
 10
5.500572468806785
 20
-10.48691379398181
 30
0.0
 10
5.500572468806785
 20
-10.95038112023281
 30
0.0
  0
LINE
  5
CF
330
1F
100
AcDbEntity
  8
중심선
100
AcDbLine
 10
-67.4994275311932
 20
0.0000000000000072
 30
0.0
 11
62.50057246880679
 21
0.0000000000000177
 31
0.0
  0
CIRCLE
  5
D0
330
1F
100
AcDbEntity
  8
외형선
100
AcDbCircle
 10
0.0
 20
0.0
 30
0.0
 40
3.000000000000004
  0
INSERT
  5
D1
330
1F
100
AcDbEntity
  8
0
  6
Continuous
 62
     7
100
AcDbBlockReference
 66
     1
  2
블럭10
 10
-27.20622263194273
 20
-52.04717430164393
 30
0.0
  0
ATTRIB
  5
D2
330
D1
100
AcDbEntity
  8
FORMAT
 62
     2
100
AcDbText
 10
-40.16616182680049
 20
-49.97180738881173
 30
0.0
 40
4.233333333333333
  1
SEME35230E [ 2 FLUTE ]
 41
0.75
  7
SLDTEXTSTYLE0
 11
-40.16616182680049
 21
-52.0884740554784
 31
0.0
100
AcDbAttribute
  2
AUTOATTR0
 70
     0
 74
     1
  0
SEQEND
  5
D3
330
D1
100
AcDbEntity
  8
0
  6
Continuous
 62
     7
  0
HATCH
  5
D4
330
1F
100
AcDbEntity
  8
중심선
100
AcDbHatch
 10
0.0
 20
0.0
 30
0.0
210
0.0
220
0.0
230
1.0
  2
SOLID
 70
     1
 71
     0
 91
        1
 92
        0
 93
        4
 72
     1
 10
-21.49131332756187
 20
-35.79999999999999
 11
-24.93758857139916
 21
-35.79999999999999
 72
     1
 10
-24.93758857139916
 20
-35.79999999999999
 11
-27.06581843060318
 21
-38.33632558057258
 72
     1
 10
-27.06581843060318
 20
-38.33632558057258
 11
-23.61951010165275
 21
-38.33628615127009
 72
     1
 10
-23.61951010165275
 20
-38.33628615127009
 11
-21.49131332756187
 21
-35.79999999999999
 97
        0
 75
     0
 76
     1
 98
        1
 10
-3.267949192431113
 20
0.0000000000000053
  0
HATCH
  5
D5
330
1F
100
AcDbEntity
  8
중심선
100
AcDbHatch
 10
0.0
 20
0.0
 30
0.0
210
0.0
220
0.0
230
1.0
  2
SOLID
 70
     1
 71
     0
 91
        1
 92
        0
 93
        4
 72
     1
 10
-16.47854933652592
 20
-35.79999999999999
 11
-19.9248245803632
 21
-35.79999999999999
 72
     1
 10
-19.9248245803632
 20
-35.79999999999999
 11
-24.45596258872059
 21
-41.20000000000001
 72
     1
 10
-24.45596258872059
 20
-41.20000000000001
 11
-21.00968734488331
 21
-41.20000000000001
 72
     1
 10
-21.00968734488331
 20
-41.20000000000001
 11
-16.47854933652592
 21
-35.79999999999999
 97
        0
 75
     0
 76
     1
 98
        1
 10
-3.267949192431113
 20
0.0000000000000053
  0
HATCH
  5
D6
330
1F
100
AcDbEntity
  8
중심선
100
AcDbHatch
 10
0.0
 20
0.0
 30
0.0
210
0.0
220
0.0
230
1.0
  2
SOLID
 70
     1
 71
     0
 91
        1
 92
        0
 93
        4
 72
     1
 10
-11.46578534549003
 20
-35.80000000000002
 11
-14.91206058932714
 21
-35.79999999999999
 72
     1
 10
-14.91206058932714
 20
-35.79999999999999
 11
-21.96049749121639
 21
-44.20000000000001
 72
     1
 10
-21.96049749121639
 20
-44.20000000000001
 11
-18.51422224737911
 21
-44.20000000000001
 72
     1
 10
-18.51422224737911
 20
-44.20000000000001
 11
-11.46578534549003
 21
-35.80000000000002
 97
        0
 75
     0
 76
     1
 98
        1
 10
-3.267949192431113
 20
0.0000000000000053
  0
HATCH
  5
D7
330
1F
100
AcDbEntity
  8
중심선
100
AcDbHatch
 10
0.0
 20
0.0
 30
0.0
210
0.0
220
0.0
230
1.0
  2
SOLID
 70
     1
 71
     0
 91
        1
 92
        0
 93
        6
 72
     3
 10
-6.665894914477827
 20
-40.00000000005127
 11
3.960054785062283
 21
1.540882976769353E-10
 40
0.3939339440162628
 50
17.09539180608436
 51
320.0019657685078
 73
     0
 72
     1
 10
-4.982895258777232
 20
-38.58789400463829
 11
-2.677593385076194
 21
-36.65356729459037
 72
     3
 10
-6.665894914530673
 20
-40.00000000000014
 11
6.600054785286829
 21
-1.278976924368180E-13
 40
0.636358354079598
 50
39.99873849337411
 51
368.4976242363724
 73
     1
 72
     1
 10
-0.240562422630064
 20
-39.03999999993001
 11
-7.985827607694751
 21
-39.03999999992998
 72
     1
 10
-7.985827607694751
 20
-39.03999999992998
 11
-7.985852652140685
 21
-40.95999999992991
 72
     1
 10
-7.985852652140685
 20
-40.95999999992991
 11
-3.544472882668647
 21
-40.95999999992988
 97
        0
 75
     0
 76
     1
 98
        1
 10
-3.267949192431113
 20
0.0000000000000053
  0
DIMENSION
  5
D8
330
1F
100
AcDbEntity
  8
치수문자_일반주서
100
AcDbDimension
  2
_D
 10
5.50057246880678
 20
23.74091426371869
 30
0.0
 11
30.50057246880678
 21
23.74091426371869
 31
0.0
 70
   160
  1
<>
 71
     2
 42
50.00000000000001
  3
SLDDIMSTYLE0
100
AcDbAlignedDimension
 13
55.50057246880679
 23
11.49028037514092
 33
0.0
 14
5.500572468806778
 24
10.95038112022682
 34
0.0
100
AcDbRotatedDimension
  0
DIMENSION
  5
E3
330
1F
100
AcDbEntity
  8
치수문자_일반주서
100
AcDbDimension
  2
_D_1
 10
-64.4994275311932
 20
30.83415911661228
 30
0.0
 11
-4.4994275311932
 21
30.83415911661228
 31
0.0
 70
   160
  1
<>
 71
     2
 42
120.0
  3
SLDDIMSTYLE0
100
AcDbAlignedDimension
 13
55.50057246880679
 23
11.49028037514092
 33
0.0
 14
-64.4994275311932
 24
11.50000000000001
 34
0.0
 50
0.0000000000000034
100
AcDbRotatedDimension
  0
DIMENSION
  5
ED
330
1F
100
AcDbEntity
  8
치수문자_일반주서
100
AcDbDimension
  2
_D_2
 10
71.0667627810531
 20
-11.49028037514084
 30
0.0
 11
71.06676278105306
 21
0.0000000000000136
 31
0.0
 70
   160
  1
%%c<>
 71
     2
 42
22.99831191220179
 52
-270.0
  3
SLDDIMSTYLE1
100
AcDbAlignedDimension
 13
55.50000612016872
 23
11.5080315370609
 33
0.0
 14
55.5005724688068
 24
-11.49028037514089
 34
0.0
 50
90.0000000000002
100
AcDbRotatedDimension
  0
DIMENSION
  5
FB
330
1F
100
AcDbEntity
  8
치수문자_일반주서
100
AcDbDimension
  2
_D_3
 10
-75.91898697658172
 20
-12.50000000000004
 30
0.0
 11
-75.91898697658176
 21
0.0000000000000114
 31
0.0
 70
   160
  1
%%c<>
 71
     2
 42
25.0
 52
-270.0
  3
SLDDIMSTYLE1
100
AcDbAlignedDimension
 13
-63.49942753119321
 23
12.50000000000001
 33
0.0
 14
-63.49942753119321
 24
-12.49999999999999
 34
0.0
 50
90.0000000000002
100
AcDbRotatedDimension
  0
INSERT
  5
10C
330
1F
100
AcDbEntity
  8
외형선
100
AcDbBlockReference
  2
SW_DOWELSYMBOL_0
 10
0.0
 20
0.0
 30
0.0
  0
LINE
  5
15F
330
1F
100
AcDbEntity
  8
0
  6
Continuous
 62
     4
370
    15
100
AcDbLine
 10
2.000000000000004
 20
12.50000000000001
 30
0.0
 11
2.450806833057389
 21
12.04919316694263
 31
0.0
1001
PE_URL
1000

  0
LINE
  5
169
330
1F
100
AcDbEntity
  8
0
  6
Continuous
 62
     4
370
    15
100
AcDbLine
 10
2.000000000000006
 20
-12.49999999999999
 30
0.0
 11
2.450806833057391
 21
-12.0491931669426
 31
0.0
1001
PE_URL
1000

  0
ENDSEC
  0
SECTION
  2
OBJECTS
  0
DICTIONARY
  5
C
330
0
100
AcDbDictionary
281
     1
  3
ACAD_DETAILVIEWSTYLE
350
167
  3
ACAD_GROUP
350
D
  3
ACAD_LAYOUT
350
1A
  3
ACAD_MLINESTYLE
350
17
  3
ACAD_PLOTSETTINGS
350
19
  3
ACAD_PLOTSTYLENAME
350
E
  3
ACAD_SCALELIST
350
47
  3
ACAD_SECTIONVIEWSTYLE
350
168
  3
AcDbVariableDictionary
350
162
  3
APPDATA
350
12E
  3
DWGPROPS
350
16C
  0
DICTIONARY
  5
16A
330
1F
100
AcDbDictionary
280
     1
281
     1
  3
DIM_BOUNDING_BOXES_V1
360
16B
  0
DICTIONARY
  5
167
102
{ACAD_REACTORS
330
C
102
}
330
C
100
AcDbDictionary
281
     1
  0
DICTIONARY
  5
D
102
{ACAD_REACTORS
330
C
102
}
330
C
100
AcDbDictionary
281
     1
  0
DICTIONARY
  5
1A
102
{ACAD_REACTORS
330
C
102
}
330
C
100
AcDbDictionary
281
     1
  3
Layout1
350
1E
  3
Layout2
350
26
  3
Model
350
22
  0
DICTIONARY
  5
17
102
{ACAD_REACTORS
330
C
102
}
330
C
100
AcDbDictionary
281
     1
  3
Standard
350
18
  0
DICTIONARY
  5
19
102
{ACAD_REACTORS
330
C
102
}
330
C
100
AcDbDictionary
281
     1
  0
ACDBDICTIONARYWDFLT
  5
E
102
{ACAD_REACTORS
330
C
102
}
330
C
100
AcDbDictionary
281
     1
  3
Normal
350
F
100
AcDbDictionaryWithDefault
340
F
  0
DICTIONARY
  5
47
102
{ACAD_REACTORS
330
C
102
}
330
C
100
AcDbDictionary
281
     1
  3
A0
350
48
  3
A1
350
49
  3
A2
350
4A
  3
A3
350
4B
  3
A4
350
4C
  3
A5
350
4D
  3
A6
350
4E
  3
A7
350
4F
  3
A8
350
50
  3
A9
350
51
  3
B0
350
52
  3
B1
350
53
  3
B2
350
54
  3
B3
350
55
  3
B4
350
56
  3
B5
350
57
  3
B6
350
58
  3
B7
350
59
  3
B8
350
5A
  3
B9
350
5B
  3
C0
350
5C
  3
C1
350
5D
  3
C2
350
5E
  3
C3
350
5F
  3
C4
350
60
  3
C5
350
61
  3
C6
350
62
  3
C7
350
63
  3
C8
350
64
  3
C9
350
65
  3
D0
350
66
  3
D1
350
67
  3
D2
350
68
  0
DICTIONARY
  5
168
102
{ACAD_REACTORS
330
C
102
}
330
C
100
AcDbDictionary
281
     1
  0
DICTIONARY
  5
162
102
{ACAD_REACTORS
330
C
102
}
330
C
100
AcDbDictionary
281
     1
  0
DICTIONARY
  5
12E
102
{ACAD_REACTORS
330
C
102
}
330
C
100
AcDbDictionary
281
     1
  0
XRECORD
  5
16C
102
{ACAD_REACTORS
330
C
102
}
330
C
100
AcDbXrecord
280
     1
  1
DWGPROPS COOKIE
  2

  3

  4

  6

  7

  8
12017152
  9

300
=
301
=
302
=
303
=
304
=
305
=
306
=
307
=
308
=
309
=
 40
0.0
 41
2458250.193428623
 42
2459699.316304491
  1

 90
        0
  0
DICTIONARY
  5
16B
102
{ACAD_REACTORS
330
16A
102
}
330
16A
100
AcDbDictionary
281
     1
  0
LAYOUT
  5
1E
102
{ACAD_REACTORS
330
1A
102
}
330
1A
100
AcDbPlotSettings
  1

  2
none_device
  4

  6

 40
0.0
 41
0.0
 42
0.0
 43
0.0
 44
0.0
 45
0.0
 46
0.0
 47
0.0
 48
0.0
 49
0.0
140
0.0
141
0.0
142
1.0
143
1.0
 70
   688
 72
     1
 73
     0
 74
     5
  7

 75
    16
147
1.0
148
0.0
149
0.0
100
AcDbLayout
  1
Layout1
 70
     1
 71
     1
 10
0.0
 20
0.0
 11
420.0
 21
297.0
 12
0.0
 22
0.0
 32
0.0
 14
1.000000000000000E+20
 24
1.000000000000000E+20
 34
1.000000000000000E+20
 15
-1.000000000000000E+20
 25
-1.000000000000000E+20
 35
-1.000000000000000E+20
146
0.0
 13
0.0
 23
0.0
 33
0.0
 16
1.0
 26
0.0
 36
0.0
 17
0.0
 27
1.0
 37
0.0
 76
     0
330
1B
  0
LAYOUT
  5
26
102
{ACAD_REACTORS
330
1A
102
}
330
1A
100
AcDbPlotSettings
  1

  2
none_device
  4

  6

 40
0.0
 41
0.0
 42
0.0
 43
0.0
 44
0.0
 45
0.0
 46
0.0
 47
0.0
 48
0.0
 49
0.0
140
0.0
141
0.0
142
1.0
143
1.0
 70
   688
 72
     1
 73
     0
 74
     5
  7

 75
    16
147
1.0
148
0.0
149
0.0
100
AcDbLayout
  1
Layout2
 70
     1
 71
     2
 10
0.0
 20
0.0
 11
0.0
 21
0.0
 12
0.0
 22
0.0
 32
0.0
 14
0.0
 24
0.0
 34
0.0
 15
0.0
 25
0.0
 35
0.0
146
0.0
 13
0.0
 23
0.0
 33
0.0
 16
1.0
 26
0.0
 36
0.0
 17
0.0
 27
1.0
 37
0.0
 76
     0
330
23
  0
LAYOUT
  5
22
102
{ACAD_REACTORS
330
1A
102
}
330
1A
100
AcDbPlotSettings
  1

  2
none_device
  4
ANSI_A_(11.00_x_8.50_Inches)
  6

 40
6.35
 41
19.05
 42
6.35000508
 43
19.05000254
 44
279.4
 45
215.9
 46
132.8228794910454
 47
102.8343595858422
 48
0.0
 49
0.0
140
0.0
141
0.0
142
0.0713859819021044
143
1.0
 70
  1696
 72
     0
 73
     0
 74
     0
  7

 75
     0
147
0.0235690232323232
148
0.0
149
0.0
100
AcDbLayout
  1
Model
 70
     1
 71
     0
 10
0.0
 20
0.0
 11
420.0
 21
297.0
 12
0.0
 22
0.0
 32
0.0
 14
-80.29398697658179
 24
-49.97180738881173
 34
0.0
 15
71.6170961143864
 25
35.20915911661228
 35
0.0
146
0.0
 13
0.0
 23
0.0
 33
0.0
 16
1.0
 26
0.0
 36
0.0
 17
0.0
 27
1.0
 37
0.0
 76
     0
330
1F
331
29
  0
MLINESTYLE
  5
18
102
{ACAD_REACTORS
330
17
102
}
330
17
100
AcDbMlineStyle
  2
Standard
 70
     0
  3

 62
   256
 51
90.0
 52
90.0
 71
     2
 49
0.5
 62
   256
  6
BYLAYER
 49
-0.5
 62
   256
  6
BYLAYER
  0
ACDBPLACEHOLDER
  5
F
102
{ACAD_REACTORS
330
E
102
}
330
E
  0
SCALE
  5
48
102
{ACAD_REACTORS
330
47
102
}
330
47
100
AcDbScale
 70
     0
300
1:1
140
1.0
141
1.0
290
     1
  0
SCALE
  5
49
102
{ACAD_REACTORS
330
47
102
}
330
47
100
AcDbScale
 70
     0
300
1:2
140
1.0
141
2.0
290
     0
  0
SCALE
  5
4A
102
{ACAD_REACTORS
330
47
102
}
330
47
100
AcDbScale
 70
     0
300
1:4
140
1.0
141
4.0
290
     0
  0
SCALE
  5
4B
102
{ACAD_REACTORS
330
47
102
}
330
47
100
AcDbScale
 70
     0
300
1:5
140
1.0
141
5.0
290
     0
  0
SCALE
  5
4C
102
{ACAD_REACTORS
330
47
102
}
330
47
100
AcDbScale
 70
     0
300
1:8
140
1.0
141
8.0
290
     0
  0
SCALE
  5
4D
102
{ACAD_REACTORS
330
47
102
}
330
47
100
AcDbScale
 70
     0
300
1:10
140
1.0
141
10.0
290
     0
  0
SCALE
  5
4E
102
{ACAD_REACTORS
330
47
102
}
330
47
100
AcDbScale
 70
     0
300
1:16
140
1.0
141
16.0
290
     0
  0
SCALE
  5
4F
102
{ACAD_REACTORS
330
47
102
}
330
47
100
AcDbScale
 70
     0
300
1:20
140
1.0
141
20.0
290
     0
  0
SCALE
  5
50
102
{ACAD_REACTORS
330
47
102
}
330
47
100
AcDbScale
 70
     0
300
1:30
140
1.0
141
30.0
290
     0
  0
SCALE
  5
51
102
{ACAD_REACTORS
330
47
102
}
330
47
100
AcDbScale
 70
     0
300
1:40
140
1.0
141
40.0
290
     0
  0
SCALE
  5
52
102
{ACAD_REACTORS
330
47
102
}
330
47
100
AcDbScale
 70
     0
300
1:50
140
1.0
141
50.0
290
     0
  0
SCALE
  5
53
102
{ACAD_REACTORS
330
47
102
}
330
47
100
AcDbScale
 70
     0
300
1:100
140
1.0
141
100.0
290
     0
  0
SCALE
  5
54
102
{ACAD_REACTORS
330
47
102
}
330
47
100
AcDbScale
 70
     0
300
2:1
140
2.0
141
1.0
290
     0
  0
SCALE
  5
55
102
{ACAD_REACTORS
330
47
102
}
330
47
100
AcDbScale
 70
     0
300
4:1
140
4.0
141
1.0
290
     0
  0
SCALE
  5
56
102
{ACAD_REACTORS
330
47
102
}
330
47
100
AcDbScale
 70
     0
300
8:1
140
8.0
141
1.0
290
     0
  0
SCALE
  5
57
102
{ACAD_REACTORS
330
47
102
}
330
47
100
AcDbScale
 70
     0
300
10:1
140
10.0
141
1.0
290
     0
  0
SCALE
  5
58
102
{ACAD_REACTORS
330
47
102
}
330
47
100
AcDbScale
 70
     0
300
100:1
140
100.0
141
1.0
290
     0
  0
SCALE
  5
59
102
{ACAD_REACTORS
330
47
102
}
330
47
100
AcDbScale
 70
     0
300
1/128" = 1'-0"
140
0.0078125
141
12.0
290
     0
  0
SCALE
  5
5A
102
{ACAD_REACTORS
330
47
102
}
330
47
100
AcDbScale
 70
     0
300
1/64" = 1'-0"
140
0.015625
141
12.0
290
     0
  0
SCALE
  5
5B
102
{ACAD_REACTORS
330
47
102
}
330
47
100
AcDbScale
 70
     0
300
1/32" = 1'-0"
140
0.03125
141
12.0
290
     0
  0
SCALE
  5
5C
102
{ACAD_REACTORS
330
47
102
}
330
47
100
AcDbScale
 70
     0
300
1/16" = 1'-0"
140
0.0625
141
12.0
290
     0
  0
SCALE
  5
5D
102
{ACAD_REACTORS
330
47
102
}
330
47
100
AcDbScale
 70
     0
300
3/32" = 1'-0"
140
0.09375
141
12.0
290
     0
  0
SCALE
  5
5E
102
{ACAD_REACTORS
330
47
102
}
330
47
100
AcDbScale
 70
     0
300
1/8" = 1'-0"
140
0.125
141
12.0
290
     0
  0
SCALE
  5
5F
102
{ACAD_REACTORS
330
47
102
}
330
47
100
AcDbScale
 70
     0
300
3/16" = 1'-0"
140
0.1875
141
12.0
290
     0
  0
SCALE
  5
60
102
{ACAD_REACTORS
330
47
102
}
330
47
100
AcDbScale
 70
     0
300
1/4" = 1'-0"
140
0.25
141
12.0
290
     0
  0
SCALE
  5
61
102
{ACAD_REACTORS
330
47
102
}
330
47
100
AcDbScale
 70
     0
300
3/8" = 1'-0"
140
0.375
141
12.0
290
     0
  0
SCALE
  5
62
102
{ACAD_REACTORS
330
47
102
}
330
47
100
AcDbScale
 70
     0
300
1/2" = 1'-0"
140
0.5
141
12.0
290
     0
  0
SCALE
  5
63
102
{ACAD_REACTORS
330
47
102
}
330
47
100
AcDbScale
 70
     0
300
3/4" = 1'-0"
140
0.75
141
12.0
290
     0
  0
SCALE
  5
64
102
{ACAD_REACTORS
330
47
102
}
330
47
100
AcDbScale
 70
     0
300
1" = 1'-0"
140
1.0
141
12.0
290
     0
  0
SCALE
  5
65
102
{ACAD_REACTORS
330
47
102
}
330
47
100
AcDbScale
 70
     0
300
1-1/2" = 1'-0"
140
1.5
141
12.0
290
     0
  0
SCALE
  5
66
102
{ACAD_REACTORS
330
47
102
}
330
47
100
AcDbScale
 70
     0
300
3" = 1'-0"
140
3.0
141
12.0
290
     0
  0
SCALE
  5
67
102
{ACAD_REACTORS
330
47
102
}
330
47
100
AcDbScale
 70
     0
300
6" = 1'-0"
140
6.0
141
12.0
290
     0
  0
SCALE
  5
68
102
{ACAD_REACTORS
330
47
102
}
330
47
100
AcDbScale
 70
     0
300
1'-0" = 1'-0"
140
12.0
141
12.0
290
     0
  0
ENDSEC
  0
EOF
