  0
SECTION
  2
HEADER
  9
$ACADVER
  1
AC1015
  9
$ACADMAINTVER
 70
     6
  9
$DWGCODEPAGE
  3
ANSI_949
  9
$INSBASE
 10
0.0
 20
0.0
 30
0.0
  9
$EXTMIN
 10
-70.79455944538856
 20
-49.97180738881175
 30
0.0
  9
$EXTMAX
 10
71.11652364557962
 20
34.85915911661226
 30
0.0
  9
$LIMMIN
 10
0.0
 20
0.0
  9
$LIMMAX
 10
420.0
 20
297.0
  9
$ORTHOMODE
 70
     0
  9
$REGENMODE
 70
     1
  9
$FILLMODE
 70
     1
  9
$QTEXTMODE
 70
     0
  9
$MIRRTEXT
 70
     1
  9
$LTSCALE
 40
1.0
  9
$ATTMODE
 70
     1
  9
$TEXTSIZE
 40
3.5
  9
$TRACEWID
 40
1.0
  9
$TEXTSTYLE
  7
Standard
  9
$CLAYER
  8
0
  9
$CELTYPE
  6
ByLayer
  9
$CECOLOR
 62
   256
  9
$CELTSCALE
 40
1.0
  9
$DISPSILH
 70
     0
  9
$DIMSCALE
 40
1.0
  9
$DIMASZ
 40
3.302
  9
$DIMEXO
 40
1.0
  9
$DIMDLI
 40
3.75
  9
$DIMRND
 40
0.0
  9
$DIMDLE
 40
0.0
  9
$DIMEXE
 40
1.0
  9
$DIMTP
 40
0.0
  9
$DIMTM
 40
0.0
  9
$DIMTXT
 40
3.5
  9
$DIMCEN
 40
2.5
  9
$DIMTSZ
 40
0.0
  9
$DIMTOL
 70
     0
  9
$DIMLIM
 70
     0
  9
$DIMTIH
 70
     1
  9
$DIMTOH
 70
     1
  9
$DIMSE1
 70
     0
  9
$DIMSE2
 70
     0
  9
$DIMTAD
 70
     1
  9
$DIMZIN
 70
     0
  9
$DIMBLK
  1

  9
$DIMASO
 70
     1
  9
$DIMSHO
 70
     1
  9
$DIMPOST
  1

  9
$DIMAPOST
  1

  9
$DIMALT
 70
     0
  9
$DIMALTD
 70
     3
  9
$DIMALTF
 40
0.0393700787401575
  9
$DIMLFAC
 40
1.0
  9
$DIMTOFL
 70
     1
  9
$DIMTVP
 40
0.0
  9
$DIMTIX
 70
     0
  9
$DIMSOXD
 70
     0
  9
$DIMSAH
 70
     0
  9
$DIMBLK1
  1

  9
$DIMBLK2
  1

  9
$DIMSTYLE
  2
ISO-25
  9
$DIMCLRD
 70
     0
  9
$DIMCLRE
 70
     0
  9
$DIMCLRT
 70
     0
  9
$DIMTFAC
 40
1.0
  9
$DIMGAP
 40
1.524
  9
$DIMJUST
 70
     0
  9
$DIMSD1
 70
     0
  9
$DIMSD2
 70
     0
  9
$DIMTOLJ
 70
     0
  9
$DIMTZIN
 70
     0
  9
$DIMALTZ
 70
     0
  9
$DIMALTTZ
 70
     0
  9
$DIMUPT
 70
     0
  9
$DIMDEC
 70
     2
  9
$DIMTDEC
 70
     2
  9
$DIMALTU
 70
     2
  9
$DIMALTTD
 70
     3
  9
$DIMTXSTY
  7
Standard
  9
$DIMAUNIT
 70
     0
  9
$DIMADEC
 70
     2
  9
$DIMALTRND
 40
0.0
  9
$DIMAZIN
 70
     0
  9
$DIMDSEP
 70
    44
  9
$DIMATFIT
 70
     3
  9
$DIMFRAC
 70
     0
  9
$DIMLDRBLK
  1

  9
$DIMLUNIT
 70
     2
  9
$DIMLWD
 70
    -2
  9
$DIMLWE
 70
    -2
  9
$DIMTMOVE
 70
     0
  9
$LUNITS
 70
     2
  9
$LUPREC
 70
     2
  9
$SKETCHINC
 40
1.0
  9
$FILLETRAD
 40
10.0
  9
$AUNITS
 70
     0
  9
$AUPREC
 70
     2
  9
$MENU
  1
.
  9
$ELEVATION
 40
0.0
  9
$PELEVATION
 40
0.0
  9
$THICKNESS
 40
0.0
  9
$LIMCHECK
 70
     0
  9
$CHAMFERA
 40
0.0
  9
$CHAMFERB
 40
0.0
  9
$CHAMFERC
 40
0.0
  9
$CHAMFERD
 40
0.0
  9
$SKPOLY
 70
     0
  9
$TDCREATE
 40
2458250.56820022
  9
$TDUCREATE
 40
2458250.19320022
  9
$TDUPDATE
 40
2458269.770679028
  9
$TDUUPDATE
 40
2458269.395679028
  9
$TDINDWG
 40
0.0019269329
  9
$TDUSRTIMER
 40
2458269.393752384
  9
$USRTIMER
 70
     1
  9
$ANGBASE
 50
0.0
  9
$ANGDIR
 70
     0
  9
$PDMODE
 70
     0
  9
$PDSIZE
 40
-1.0
  9
$PLINEWID
 40
0.0
  9
$SPLFRAME
 70
     0
  9
$SPLINETYPE
 70
     6
  9
$SPLINESEGS
 70
     8
  9
$HANDSEED
  5
12A
  9
$SURFTAB1
 70
     6
  9
$SURFTAB2
 70
     6
  9
$SURFTYPE
 70
     6
  9
$SURFU
 70
     6
  9
$SURFV
 70
     6
  9
$UCSBASE
  2

  9
$UCSNAME
  2

  9
$UCSORG
 10
0.0
 20
0.0
 30
0.0
  9
$UCSXDIR
 10
1.0
 20
0.0
 30
0.0
  9
$UCSYDIR
 10
0.0
 20
1.0
 30
0.0
  9
$UCSORTHOREF
  2

  9
$UCSORTHOVIEW
 70
     0
  9
$UCSORGTOP
 10
0.0
 20
0.0
 30
0.0
  9
$UCSORGBOTTOM
 10
0.0
 20
0.0
 30
0.0
  9
$UCSORGLEFT
 10
0.0
 20
0.0
 30
0.0
  9
$UCSORGRIGHT
 10
0.0
 20
0.0
 30
0.0
  9
$UCSORGFRONT
 10
0.0
 20
0.0
 30
0.0
  9
$UCSORGBACK
 10
0.0
 20
0.0
 30
0.0
  9
$PUCSBASE
  2

  9
$PUCSNAME
  2

  9
$PUCSORG
 10
0.0
 20
0.0
 30
0.0
  9
$PUCSXDIR
 10
1.0
 20
0.0
 30
0.0
  9
$PUCSYDIR
 10
0.0
 20
1.0
 30
0.0
  9
$PUCSORTHOREF
  2

  9
$PUCSORTHOVIEW
 70
     0
  9
$PUCSORGTOP
 10
0.0
 20
0.0
 30
0.0
  9
$PUCSORGBOTTOM
 10
0.0
 20
0.0
 30
0.0
  9
$PUCSORGLEFT
 10
0.0
 20
0.0
 30
0.0
  9
$PUCSORGRIGHT
 10
0.0
 20
0.0
 30
0.0
  9
$PUCSORGFRONT
 10
0.0
 20
0.0
 30
0.0
  9
$PUCSORGBACK
 10
0.0
 20
0.0
 30
0.0
  9
$USERI1
 70
     0
  9
$USERI2
 70
     0
  9
$USERI3
 70
     0
  9
$USERI4
 70
     0
  9
$USERI5
 70
     0
  9
$USERR1
 40
0.0
  9
$USERR2
 40
0.0
  9
$USERR3
 40
0.0
  9
$USERR4
 40
0.0
  9
$USERR5
 40
0.0
  9
$WORLDVIEW
 70
     1
  9
$SHADEDGE
 70
     3
  9
$SHADEDIF
 70
    70
  9
$TILEMODE
 70
     1
  9
$MAXACTVP
 70
    64
  9
$PINSBASE
 10
0.0
 20
0.0
 30
0.0
  9
$PLIMCHECK
 70
     0
  9
$PEXTMIN
 10
1.000000000000000E+20
 20
1.000000000000000E+20
 30
1.000000000000000E+20
  9
$PEXTMAX
 10
-1.000000000000000E+20
 20
-1.000000000000000E+20
 30
-1.000000000000000E+20
  9
$PLIMMIN
 10
0.0
 20
0.0
  9
$PLIMMAX
 10
0.0
 20
0.0
  9
$UNITMODE
 70
     0
  9
$VISRETAIN
 70
     1
  9
$PLINEGEN
 70
     0
  9
$PSLTSCALE
 70
     1
  9
$TREEDEPTH
 70
  3020
  9
$CMLSTYLE
  2
Standard
  9
$CMLJUST
 70
     0
  9
$CMLSCALE
 40
20.0
  9
$PROXYGRAPHICS
 70
     1
  9
$MEASUREMENT
 70
     1
  9
$CELWEIGHT
370
    -1
  9
$ENDCAPS
280
     0
  9
$JOINSTYLE
280
     0
  9
$LWDISPLAY
290
     1
  9
$INSUNITS
 70
     4
  9
$HYPERLINKBASE
  1

  9
$STYLESHEET
  1

  9
$XEDIT
290
     1
  9
$CEPSNTYPE
380
     0
  9
$PSTYLEMODE
290
     1
  9
$FINGERPRINTGUID
  2
{5D83C3AB-C02D-4744-89B5-394B9FB3615D}
  9
$VERSIONGUID
  2
{FAEB1C32-E019-11D5-929B-00C0DF256EC4}
  9
$EXTNAMES
290
     1
  9
$PSVPSCALE
 40
0.0
  9
$OLESTARTUP
290
     0
  0
ENDSEC
  0
SECTION
  2
CLASSES
  0
CLASS
  1
ACDBDICTIONARYWDFLT
  2
AcDbDictionaryWithDefault
  3
ObjectDBX Classes
 90
        0
280
     0
281
     0
  0
CLASS
  1
VISUALSTYLE
  2
AcDbVisualStyle
  3
ObjectDBX Classes
 90
     4095
280
     0
281
     0
  0
CLASS
  1
MATERIAL
  2
AcDbMaterial
  3
ObjectDBX Classes
 90
     1153
280
     0
281
     0
  0
CLASS
  1
SCALE
  2
AcDbScale
  3
ObjectDBX Classes
 90
     1153
280
     0
281
     0
  0
CLASS
  1
SUN
  2
AcDbSun
  3
SCENEOE
 90
     1153
280
     0
281
     0
  0
CLASS
  1
ACDBPLACEHOLDER
  2
AcDbPlaceHolder
  3
ObjectDBX Classes
 90
        0
280
     0
281
     0
  0
CLASS
  1
LAYOUT
  2
AcDbLayout
  3
ObjectDBX Classes
 90
        0
280
     0
281
     0
  0
CLASS
  1
TABLESTYLE
  2
AcDbTableStyle
  3
ObjectDBX Classes
 90
     4095
280
     0
281
     0
  0
CLASS
  1
MLEADERSTYLE
  2
AcDbMLeaderStyle
  3
ACDB_MLEADERSTYLE_CLASS
 90
     4095
280
     0
281
     0
  0
CLASS
  1
RASTERVARIABLES
  2
AcDbRasterVariables
  3
ISM
 90
        0
280
     0
281
     0
  0
ENDSEC
  0
SECTION
  2
TABLES
  0
TABLE
  2
VPORT
  5
8
330
0
100
AcDbSymbolTable
 70
     1
  0
VPORT
  5
29
330
8
100
AcDbSymbolTableRecord
100
AcDbViewportTableRecord
  2
*Active
 70
     0
 10
0.0
 20
0.0
 11
1.0
 21
1.0
 12
22.32925752860625
 22
-13.31642554381205
 13
0.0
 23
0.0
 14
10.0
 24
10.0
 15
10.0
 25
10.0
 16
0.0
 26
0.0
 36
1.0
 17
0.0
 27
0.0
 37
0.0
 40
134.1421189368918
 41
1.354916067146283
 42
50.0
 43
0.0
 44
0.0
 50
0.0
 51
0.0
 71
    16
 72
  2000
 73
     1
 74
     3
 75
     0
 76
     0
 77
     0
 78
     0
281
     0
 65
     1
110
0.0
120
0.0
130
0.0
111
1.0
121
0.0
131
0.0
112
0.0
122
1.0
132
0.0
 79
     0
146
0.0
  0
ENDTAB
  0
TABLE
  2
LTYPE
  5
5
330
0
100
AcDbSymbolTable
 70
     6
  0
LTYPE
  5
14
330
5
100
AcDbSymbolTableRecord
100
AcDbLinetypeTableRecord
  2
ByBlock
 70
     0
  3

 72
    65
 73
     0
 40
0.0
  0
LTYPE
  5
15
330
5
100
AcDbSymbolTableRecord
100
AcDbLinetypeTableRecord
  2
ByLayer
 70
     0
  3

 72
    65
 73
     0
 40
0.0
  0
LTYPE
  5
16
330
5
100
AcDbSymbolTableRecord
100
AcDbLinetypeTableRecord
  2
Continuous
 70
     0
  3
Solid line
 72
    65
 73
     0
 40
0.0
  0
LTYPE
  5
6A
330
5
100
AcDbSymbolTableRecord
100
AcDbLinetypeTableRecord
  2
HIDDEN
 70
     0
  3
Hidden __ __ __ __ __ __ __ __ __ __ __ __ __ __
 72
    65
 73
     2
 40
1.905
 49
1.27
 74
     0
 49
-0.635
 74
     0
  0
LTYPE
  5
6B
330
5
100
AcDbSymbolTableRecord
100
AcDbLinetypeTableRecord
  2
PHANTOM
 70
     0
  3
Phantom ______  __  __  ______  __  __  ______
 72
    65
 73
     6
 40
12.7
 49
6.35
 74
     0
 49
-1.27
 74
     0
 49
1.27
 74
     0
 49
-1.27
 74
     0
 49
1.27
 74
     0
 49
-1.27
 74
     0
  0
LTYPE
  5
6C
330
5
100
AcDbSymbolTableRecord
100
AcDbLinetypeTableRecord
  2
CENTER
 70
     0
  3
Center ____ _ ____ _ ____ _ ____ _ ____ _ ____
 72
    65
 73
     4
 40
10.16
 49
6.35
 74
     0
 49
-1.27
 74
     0
 49
1.27
 74
     0
 49
-1.27
 74
     0
  0
LTYPE
  5
6D
330
5
100
AcDbSymbolTableRecord
100
AcDbLinetypeTableRecord
  2
CENTERX2
 70
     0
  3
Center (2x) ________  __  ________  __  _____
 72
    65
 73
     4
 40
20.32
 49
12.7
 74
     0
 49
-2.54
 74
     0
 49
2.54
 74
     0
 49
-2.54
 74
     0
  0
LTYPE
  5
6E
330
5
100
AcDbSymbolTableRecord
100
AcDbLinetypeTableRecord
  2
DOT2
 70
     0
  3
Dot (.5x) ........................................
 72
    65
 73
     2
 40
0.635
 49
0.0
 74
     0
 49
-0.635
 74
     0
  0
ENDTAB
  0
TABLE
  2
LAYER
  5
2
330
0
100
AcDbSymbolTable
 70
    17
  0
LAYER
  5
10
330
2
100
AcDbSymbolTableRecord
100
AcDbLayerTableRecord
  2
0
 70
     0
 62
     7
  6
Continuous
370
    -3
390
F
  0
LAYER
  5
6F
330
2
100
AcDbSymbolTableRecord
100
AcDbLayerTableRecord
  2
FORMAT
 70
     0
 62
     2
  6
Continuous
370
    -3
390
F
  0
LAYER
  5
70
330
2
100
AcDbSymbolTableRecord
100
AcDbLayerTableRecord
  2
외형선
 70
     0
 62
   100
  6
Continuous
370
    30
390
F
  0
LAYER
  5
71
330
2
100
AcDbSymbolTableRecord
100
AcDbLayerTableRecord
  2
숨은선
 70
     0
 62
     2
  6
HIDDEN
370
    15
390
F
  0
LAYER
  5
72
330
2
100
AcDbSymbolTableRecord
100
AcDbLayerTableRecord
  2
중심선
 70
     0
 62
     1
  6
CENTERX2
370
    -3
390
F
  0
LAYER
  5
73
330
2
100
AcDbSymbolTableRecord
100
AcDbLayerTableRecord
  2
파단선
 70
     0
 62
     4
  6
Continuous
370
    -3
390
F
  0
LAYER
  5
74
330
2
100
AcDbSymbolTableRecord
100
AcDbLayerTableRecord
  2
해칭선
 70
     0
 62
     4
  6
Continuous
370
    -3
390
F
  0
LAYER
  5
75
330
2
100
AcDbSymbolTableRecord
100
AcDbLayerTableRecord
  2
가는실선
 70
     0
 62
     4
  6
Continuous
370
    -3
390
F
  0
LAYER
  5
76
330
2
100
AcDbSymbolTableRecord
100
AcDbLayerTableRecord
  2
치수_보조선
 70
     0
 62
     4
  6
Continuous
370
    -3
390
F
  0
LAYER
  5
77
330
2
100
AcDbSymbolTableRecord
100
AcDbLayerTableRecord
  2
치수문자_일반주서
 70
     0
 62
     7
  6
Continuous
370
    15
390
F
  0
LAYER
  5
78
330
2
100
AcDbSymbolTableRecord
100
AcDbLayerTableRecord
  2
개별주서
 70
     0
 62
   100
  6
Continuous
370
    30
390
F
  0
LAYER
  5
79
330
2
100
AcDbSymbolTableRecord
100
AcDbLayerTableRecord
  2
중간선
 70
     0
 62
     2
  6
Continuous
370
    15
390
F
  0
LAYER
  5
7A
330
2
100
AcDbSymbolTableRecord
100
AcDbLayerTableRecord
  2
윤곽선
 70
     0
 62
     3
  6
Continuous
370
    40
390
F
  0
LAYER
  5
7B
330
2
100
AcDbSymbolTableRecord
100
AcDbLayerTableRecord
  2
중심마크
 70
     0
 62
   100
  6
Continuous
370
    30
390
F
  0
LAYER
  5
7C
330
2
100
AcDbSymbolTableRecord
100
AcDbLayerTableRecord
  2
가상선
 70
     0
 62
     4
  6
PHANTOM
370
    -3
390
F
  0
LAYER
  5
7D
330
2
100
AcDbSymbolTableRecord
100
AcDbLayerTableRecord
  2
특수지정선
 70
     0
 62
     5
  6
CENTERX2
370
    60
390
F
  0
LAYER
  5
11F
330
2
100
AcDbSymbolTableRecord
100
AcDbLayerTableRecord
  2
Defpoints
 70
     0
 62
     7
  6
Continuous
290
     0
370
    -3
390
F
  0
ENDTAB
  0
TABLE
  2
STYLE
  5
3
330
0
100
AcDbSymbolTable
 70
     2
  0
STYLE
  5
11
330
3
100
AcDbSymbolTableRecord
100
AcDbTextStyleTableRecord
  2
Standard
 70
     0
 40
0.0
 41
1.0
 50
0.0
 71
     0
 42
3.5
  3
txt
  4

  0
STYLE
  5
93
330
3
100
AcDbSymbolTableRecord
100
AcDbTextStyleTableRecord
  2
SLDTEXTSTYLE0
 70
     0
 40
0.0
 41
0.75
 50
0.0
 71
     0
 42
3.5
  3
TXT
  4

  0
ENDTAB
  0
TABLE
  2
VIEW
  5
6
330
0
100
AcDbSymbolTable
 70
     0
  0
ENDTAB
  0
TABLE
  2
UCS
  5
7
330
0
100
AcDbSymbolTable
 70
     0
  0
ENDTAB
  0
TABLE
  2
APPID
  5
9
330
0
100
AcDbSymbolTable
 70
     1
  0
APPID
  5
12
330
9
100
AcDbSymbolTableRecord
100
AcDbRegAppTableRecord
  2
ACAD
 70
     0
  0
ENDTAB
  0
TABLE
  2
DIMSTYLE
  5
A
330
0
100
AcDbSymbolTable
 70
     3
100
AcDbDimStyleTable
  0
DIMSTYLE
105
27
330
A
100
AcDbSymbolTableRecord
100
AcDbDimStyleTableRecord
  2
ISO-25
 70
     0
 41
2.5
 42
0.625
 43
3.75
 44
1.25
 73
     0
 74
     0
 77
     1
 78
     8
140
2.5
141
2.5
143
0.03937007874016
147
0.625
171
     3
172
     1
178
     0
271
     2
272
     2
274
     3
278
    44
283
     0
284
     8
340
11
  0
DIMSTYLE
105
C5
102
{ACAD_REACTORS
330
C4
330
CF
102
}
330
A
100
AcDbSymbolTableRecord
100
AcDbDimStyleTableRecord
  2
SLDDIMSTYLE0
 70
     0
 41
3.302
 44
0.0
 45
0.000000001
 73
     0
 74
     0
 77
     1
 78
    12
 79
     3
140
3.5
147
0.875
173
     1
178
     0
271
     2
272
     2
276
     2
284
    12
340
93
  0
DIMSTYLE
105
DA
102
{ACAD_REACTORS
330
D9
330
E7
102
}
330
A
100
AcDbSymbolTableRecord
100
AcDbDimStyleTableRecord
  2
SLDDIMSTYLE1
 70
     0
 41
3.302
 44
0.0
 45
0.000000001
 73
     0
 74
     0
 77
     1
 78
    12
 79
     3
140
3.5
147
0.875
172
     1
173
     1
178
     0
271
     2
272
     2
276
     2
284
    12
289
     0
340
93
  0
ENDTAB
  0
TABLE
  2
BLOCK_RECORD
  5
1
330
0
100
AcDbSymbolTable
 70
     7
  0
BLOCK_RECORD
  5
1F
330
1
100
AcDbSymbolTableRecord
100
AcDbBlockTableRecord
  2
*Model_Space
340
22
  0
BLOCK_RECORD
  5
1B
330
1
100
AcDbSymbolTableRecord
100
AcDbBlockTableRecord
  2
*Paper_Space
340
1E
  0
BLOCK_RECORD
  5
23
330
1
100
AcDbSymbolTableRecord
100
AcDbBlockTableRecord
  2
*Paper_Space0
340
26
  0
BLOCK_RECORD
  5
7E
330
1
100
AcDbSymbolTableRecord
100
AcDbBlockTableRecord
  2
블럭10
340
0
102
{BLKREFS
331
BD
102
}
  0
BLOCK_RECORD
  5
C6
330
1
100
AcDbSymbolTableRecord
100
AcDbBlockTableRecord
  2
_D
340
0
  0
BLOCK_RECORD
  5
D0
330
1
100
AcDbSymbolTableRecord
100
AcDbBlockTableRecord
  2
_D_1
340
0
  0
BLOCK_RECORD
  5
DB
330
1
100
AcDbSymbolTableRecord
100
AcDbBlockTableRecord
  2
_D_2
340
0
  0
BLOCK_RECORD
  5
E8
330
1
100
AcDbSymbolTableRecord
100
AcDbBlockTableRecord
  2
_D_3
340
0
  0
BLOCK_RECORD
  5
F4
330
1
100
AcDbSymbolTableRecord
100
AcDbBlockTableRecord
  2
SW_DOWELSYMBOL_0
340
0
102
{BLKREFS
331
FA
102
}
  0
ENDTAB
  0
ENDSEC
  0
SECTION
  2
BLOCKS
  0
BLOCK
  5
20
330
1F
100
AcDbEntity
  8
0
100
AcDbBlockBegin
  2
*Model_Space
 70
     0
 10
0.0
 20
0.0
 30
0.0
  3
*Model_Space
  1
*Model_Space
  0
ENDBLK
  5
21
330
1F
100
AcDbEntity
  8
0
100
AcDbBlockEnd
  0
BLOCK
  5
1C
330
1B
100
AcDbEntity
 67
     1
  8
0
100
AcDbBlockBegin
  2
*Paper_Space
 70
     0
 10
0.0
 20
0.0
 30
0.0
  3
*Paper_Space
  1
*Paper_Space
  0
ENDBLK
  5
1D
330
1B
100
AcDbEntity
 67
     1
  8
0
100
AcDbBlockEnd
  0
BLOCK
  5
24
330
23
100
AcDbEntity
  8
0
100
AcDbBlockBegin
  2
*Paper_Space0
 70
     0
 10
0.0
 20
0.0
 30
0.0
  3
*Paper_Space0
  1
*Paper_Space0
  0
ENDBLK
  5
25
330
23
100
AcDbEntity
  8
0
100
AcDbBlockEnd
  0
BLOCK
  5
7F
330
7E
100
AcDbEntity
  8
0
100
AcDbBlockBegin
  2
블럭10
 70
     2
 10
0.0
 20
0.0
 30
0.0
  3
블럭10
  1
블럭10
  0
ELLIPSE
  5
81
330
7E
100
AcDbEntity
  8
중심선
100
AcDbEllipse
 10
20.54032771741204
 20
12.0471743016438
 30
0.0
 11
6.600054785286829
 21
-1.261213355974178E-13
 31
0.0
210
0.0
220
0.0
230
1.0
 40
0.636358354079598
 41
0.9219305317359503
 42
6.513795318482858
  0
ELLIPSE
  5
82
330
7E
100
AcDbEntity
  8
중심선
100
AcDbEllipse
 10
20.54032771746488
 20
12.04717430159265
 30
0.0
 11
3.960054785062283
 21
1.540847449632565E-10
 31
0.0
210
0.0
220
0.0
230
1.0
 40
0.3939339440162632
 41
1.131841032648279
 42
5.62031148352944
  0
LINE
  5
83
330
7E
100
AcDbEntity
  8
중심선
100
AcDbLine
 10
2.268634060543552
 20
16.24717430164393
 30
0.0
 11
5.714909304380834
 21
16.24717430164393
 31
0.0
  0
LINE
  5
84
330
7E
100
AcDbEntity
  8
중심선
100
AcDbLine
 10
5.245725140726316
 20
7.84717430164391
 30
0.0
 11
8.692000384563599
 21
7.84717430164391
 31
0.0
  0
LINE
  5
85
330
7E
100
AcDbEntity
  8
중심선
100
AcDbLine
 10
15.74043728645272
 20
16.24717430164393
 30
0.0
 11
8.692000384563599
 21
7.84717430164391
 31
0.0
  0
LINE
  5
86
330
7E
100
AcDbEntity
  8
중심선
100
AcDbLine
 10
0.1404042013395286
 20
13.71084872107135
 30
0.0
 11
3.58671253028996
 21
13.71088815037384
 31
0.0
  0
LINE
  5
87
330
7E
100
AcDbEntity
  8
중심선
100
AcDbLine
 10
2.750260043222114
 20
10.84717430164391
 30
0.0
 11
6.196535287059397
 21
10.84717430164391
 31
0.0
  0
LINE
  5
88
330
7E
100
AcDbEntity
  8
중심선
100
AcDbLine
 10
12.29416204261559
 20
16.24717430164393
 30
0.0
 11
5.245725140726316
 21
7.84717430164391
 31
0.0
  0
LINE
  5
89
330
7E
100
AcDbEntity
  8
중심선
100
AcDbLine
 10
10.72767329541681
 20
16.24717430164393
 30
0.0
 11
6.196535287059397
 21
10.84717430164391
 31
0.0
  0
LINE
  5
8A
330
7E
100
AcDbEntity
  8
중심선
100
AcDbLine
 10
7.28139805157953
 20
16.24717430164393
 30
0.0
 11
2.750260043222114
 21
10.84717430164391
 31
0.0
  0
LINE
  5
8B
330
7E
100
AcDbEntity
  8
중심선
100
AcDbLine
 10
5.714909304380834
 20
16.24717430164393
 30
0.0
 11
3.58671253028996
 21
13.71088815037384
 31
0.0
  0
LINE
  5
8C
330
7E
100
AcDbEntity
  8
중심선
100
AcDbLine
 10
2.268634060543552
 20
16.24717430164393
 30
0.0
 11
0.1404042013395286
 21
13.71084872107135
 31
0.0
  0
LINE
  5
8D
330
7E
100
AcDbEntity
  8
중심선
100
AcDbLine
 10
7.28139805157953
 20
16.24717430164393
 30
0.0
 11
10.72767329541681
 21
16.24717430164393
 31
0.0
  0
LINE
  5
8E
330
7E
100
AcDbEntity
  8
중심선
100
AcDbLine
 10
12.29416204261559
 20
16.24717430164393
 30
0.0
 11
15.74043728645272
 21
16.24717430164393
 31
0.0
  0
LINE
  5
8F
330
7E
100
AcDbEntity
  8
중심선
100
AcDbLine
 10
19.22036997980202
 20
11.08717430171403
 30
0.0
 11
23.66174974927406
 21
11.08717430171406
 31
0.0
  0
LINE
  5
90
330
7E
100
AcDbEntity
  8
중심선
100
AcDbLine
 10
19.22039502424796
 20
13.00717430171391
 30
0.0
 11
19.22036997980202
 21
11.08717430171403
 31
0.0
  0
LINE
  5
91
330
7E
100
AcDbEntity
  8
중심선
100
AcDbLine
 10
19.22039502424796
 20
13.00717430171391
 30
0.0
 11
26.96566020931264
 21
13.00717430171391
 31
0.0
  0
LINE
  5
92
330
7E
100
AcDbEntity
  8
중심선
100
AcDbLine
 10
22.22332737316547
 20
13.45928029700563
 30
0.0
 11
24.52862924686651
 21
15.39360700705356
 31
0.0
  0
ATTDEF
  5
94
330
7E
100
AcDbEntity
  8
FORMAT
 62
     2
100
AcDbText
 10
-12.95993919485777
 20
2.075366912832191
 30
0.0
 40
4.233333333333333
  1
SEME35220E [ 2 FLUTE ]
 41
0.75
  7
SLDTEXTSTYLE0
 11
-12.95993919485777
 21
-0.0412997538344756
 31
0.0
100
AcDbAttributeDefinition
  3

  2
AUTOATTR0
 70
     0
 74
     1
  0
ENDBLK
  5
80
330
7E
100
AcDbEntity
  8
0
100
AcDbBlockEnd
  0
BLOCK
  5
C7
330
C6
100
AcDbEntity
  8
0
100
AcDbBlockBegin
  2
_D
 70
     0
 10
0.0
 20
0.0
 30
0.0
  3
_D
  1
_D
  0
SOLID
  5
C9
330
C6
100
AcDbEntity
  8
치수문자_일반주서
100
AcDbTrace
 10
54.99999999999999
 20
23.24133685610387
 30
0.0
 11
51.69799999999999
 21
23.74933685610387
 31
0.0
 12
51.69799999999999
 22
22.73333685610387
 32
0.0
 13
51.69799999999999
 23
22.73333685610387
 33
0.0
  0
SOLID
  5
CA
330
C6
100
AcDbEntity
  8
치수문자_일반주서
100
AcDbTrace
 10
9.999999999999991
 20
23.24133685610387
 30
0.0
 11
13.30199999999999
 21
22.73333685610387
 31
0.0
 12
13.30199999999999
 22
23.74933685610387
 32
0.0
 13
13.30199999999999
 23
23.74933685610387
 33
0.0
  0
LINE
  5
CB
330
C6
100
AcDbEntity
  8
치수문자_일반주서
100
AcDbLine
 10
54.99999999999999
 20
11.99070296752609
 30
0.0
 11
54.99999999999999
 21
24.24133685610387
 31
0.0
  0
LINE
  5
CC
330
C6
100
AcDbEntity
  8
치수문자_일반주서
100
AcDbLine
 10
9.999999999999991
 20
10.86254089722379
 30
0.0
 11
9.999999999999991
 21
24.24133685610387
 31
0.0
  0
LINE
  5
CD
330
C6
100
AcDbEntity
  8
치수문자_일반주서
100
AcDbLine
 10
54.99999999999999
 20
23.24133685610387
 30
0.0
 11
9.999999999999991
 21
23.24133685610387
 31
0.0
  0
MTEXT
  5
CE
330
C6
100
AcDbEntity
  8
치수문자_일반주서
100
AcDbMText
 10
29.91388880647717
 20
27.75307377068276
 30
0.0
 40
3.5
 41
0.0
 71
     1
 72
     1
  1
45
  7
SLDTEXTSTYLE0
 73
     1
 44
1.0
  0
ENDBLK
  5
C8
330
C6
100
AcDbEntity
  8
0
100
AcDbBlockEnd
  0
BLOCK
  5
D1
330
D0
100
AcDbEntity
  8
0
100
AcDbBlockBegin
  2
_D_1
 70
     0
 10
0.0
 20
0.0
 30
0.0
  3
_D_1
  1
_D_1
  0
LINE
  5
D3
330
D0
100
AcDbEntity
  8
치수문자_일반주서
 62
     0
370
    -2
100
AcDbLine
 10
54.99999999999999
 20
7.762500000000006
 30
0.0
 11
54.99999999999999
 21
30.48415911661226
 31
0.0
  0
LINE
  5
D4
330
D0
100
AcDbEntity
  8
치수문자_일반주서
 62
     0
370
    -2
100
AcDbLine
 10
-45.00000000000001
 20
8.289703194774608
 30
0.0
 11
-45.00000000000001
 21
30.48415911661226
 31
0.0
  0
LINE
  5
D5
330
D0
100
AcDbEntity
  8
치수문자_일반주서
 62
     0
370
    -2
100
AcDbLine
 10
51.69799999999999
 20
30.48415911661226
 30
0.0
 11
-41.69800000000001
 21
30.48415911661226
 31
0.0
  0
SOLID
  5
D6
330
D0
100
AcDbEntity
  8
치수문자_일반주서
 62
     0
100
AcDbTrace
 10
51.69799999999999
 20
29.93382578327893
 30
0.0
 11
51.69799999999999
 21
31.0344924499456
 31
0.0
 12
54.99999999999999
 22
30.48415911661226
 32
0.0
 13
54.99999999999999
 23
30.48415911661226
 33
0.0
  0
SOLID
  5
D7
330
D0
100
AcDbEntity
  8
치수문자_일반주서
 62
     0
100
AcDbTrace
 10
-41.69800000000001
 20
31.0344924499456
 30
0.0
 11
-41.69800000000001
 21
29.93382578327893
 31
0.0
 12
-45.00000000000001
 22
30.48415911661226
 32
0.0
 13
-45.00000000000001
 23
30.48415911661226
 33
0.0
  0
MTEXT
  5
D8
330
D0
100
AcDbEntity
  8
치수문자_일반주서
 62
     0
100
AcDbMText
 10
0.0000000000000052
 20
34.85915911661226
 30
0.0
 40
3.5
 41
0.0
 71
     2
 72
     1
  1
\A1;100
  7
SLDTEXTSTYLE0
 73
     1
 44
1.0
  0
POINT
  5
125
330
D0
100
AcDbEntity
  8
Defpoints
 62
     0
100
AcDbPoint
 10
54.99999999999999
 20
7.700000000000006
 30
0.0
  0
POINT
  5
126
330
D0
100
AcDbEntity
  8
Defpoints
 62
     0
100
AcDbPoint
 10
-45.00000000000001
 20
8.227203194774608
 30
0.0
  0
POINT
  5
127
330
D0
100
AcDbEntity
  8
Defpoints
 62
     0
100
AcDbPoint
 10
-45.00000000000001
 20
30.48415911661226
 30
0.0
  0
ENDBLK
  5
D2
330
D0
100
AcDbEntity
  8
0
100
AcDbBlockEnd
  0
BLOCK
  5
DC
330
DB
100
AcDbEntity
  8
0
100
AcDbBlockBegin
  2
_D_2
 70
     0
 10
0.0
 20
0.0
 30
0.0
  3
_D_2
  1
_D_2
  0
LINE
  5
DE
330
DB
100
AcDbEntity
  8
치수문자_일반주서
 62
     0
370
    -2
100
AcDbLine
 10
55.06249999999999
 20
11.01245742966588
 30
0.0
 11
70.56619031224623
 21
11.01245742966593
 31
0.0
  0
LINE
  5
DF
330
DB
100
AcDbEntity
  8
치수문자_일반주서
 62
     0
370
    -2
100
AcDbLine
 10
55.06249999999999
 20
-10.99070296752608
 30
0.0
 11
70.5661903122463
 21
-10.99070296752603
 31
0.0
  0
LINE
  5
E0
330
DB
100
AcDbEntity
  8
치수문자_일반주서
 62
     0
370
    -2
100
AcDbLine
 10
70.56619031224625
 20
7.710457429665931
 30
0.0
 11
70.56619031224629
 21
-7.688702967526028
 31
0.0
  0
SOLID
  5
E1
330
DB
100
AcDbEntity
  8
치수문자_일반주서
 62
     0
100
AcDbTrace
 10
71.11652364557958
 20
7.710457429665933
 30
0.0
 11
70.01585697891292
 21
7.710457429665929
 31
0.0
 12
70.56619031224623
 22
11.01245742966593
 32
0.0
 13
70.56619031224623
 23
11.01245742966593
 33
0.0
  0
SOLID
  5
E2
330
DB
100
AcDbEntity
  8
치수문자_일반주서
 62
     0
100
AcDbTrace
 10
70.01585697891296
 20
-7.68870296752603
 30
0.0
 11
71.11652364557962
 21
-7.688702967526027
 31
0.0
 12
70.5661903122463
 22
-10.99070296752603
 32
0.0
 13
70.5661903122463
 23
-10.99070296752603
 33
0.0
  0
MTEXT
  5
E3
330
DB
100
AcDbEntity
  8
치수문자_일반주서
 62
     0
100
AcDbMText
 10
66.19119031224628
 20
-0.0000000000000112
 30
0.0
 40
3.5
 41
0.0
 71
     2
 72
     1
  1
\A1;%%c22
  7
SLDTEXTSTYLE0
 11
-3.229275808264251E-15
 21
1.0
 31
0.0
 73
     1
 44
1.0
  0
POINT
  5
E4
330
DB
100
AcDbEntity
  8
Defpoints
 62
     0
100
AcDbPoint
 10
54.99999999999999
 20
11.01245742966588
 30
0.0
  0
POINT
  5
E5
330
DB
100
AcDbEntity
  8
Defpoints
 62
     0
100
AcDbPoint
 10
54.99999999999999
 20
-10.99070296752608
 30
0.0
  0
POINT
  5
E6
330
DB
100
AcDbEntity
  8
Defpoints
 62
     0
100
AcDbPoint
 10
70.5661903122463
 20
-10.99070296752603
 30
0.0
  0
ENDBLK
  5
DD
330
DB
100
AcDbEntity
  8
0
100
AcDbBlockEnd
  0
BLOCK
  5
E9
330
E8
100
AcDbEntity
  8
0
100
AcDbBlockBegin
  2
_D_3
 70
     0
 10
0.0
 20
0.0
 30
0.0
  3
_D_3
  1
_D_3
  0
LINE
  5
EB
330
E8
100
AcDbEntity
  8
치수문자_일반주서
 62
     0
370
    -2
100
AcDbLine
 10
-43.57259630199142
 20
10.00000000000001
 30
0.0
 11
-66.41955944538857
 21
9.999999999999924
 31
0.0
  0
LINE
  5
EC
330
E8
100
AcDbEntity
  8
치수문자_일반주서
 62
     0
370
    -2
100
AcDbLine
 10
-43.57259630199145
 20
-9.999999999999993
 30
0.0
 11
-66.4195594453885
 21
-10.00000000000008
 31
0.0
  0
LINE
  5
ED
330
E8
100
AcDbEntity
  8
치수문자_일반주서
 62
     0
370
    -2
100
AcDbLine
 10
-66.41955944538856
 20
6.697999999999924
 30
0.0
 11
-66.41955944538851
 21
-6.698000000000077
 31
0.0
  0
SOLID
  5
EE
330
E8
100
AcDbEntity
  8
치수문자_일반주서
 62
     0
100
AcDbTrace
 10
-65.86922611205523
 20
6.697999999999926
 30
0.0
 11
-66.96989277872188
 21
6.697999999999922
 31
0.0
 12
-66.41955944538857
 22
9.999999999999924
 32
0.0
 13
-66.41955944538857
 23
9.999999999999924
 33
0.0
  0
SOLID
  5
EF
330
E8
100
AcDbEntity
  8
치수문자_일반주서
 62
     0
100
AcDbTrace
 10
-66.96989277872184
 20
-6.698000000000079
 30
0.0
 11
-65.86922611205519
 21
-6.698000000000075
 31
0.0
 12
-66.4195594453885
 22
-10.00000000000008
 32
0.0
 13
-66.4195594453885
 23
-10.00000000000008
 33
0.0
  0
MTEXT
  5
F0
330
E8
100
AcDbEntity
  8
치수문자_일반주서
 62
     0
100
AcDbMText
 10
-70.79455944538854
 20
-0.0000000000000164
 30
0.0
 40
3.5
 41
0.0
 71
     2
 72
     1
  1
\A1;%%c20
  7
SLDTEXTSTYLE0
 11
-3.552713678800502E-15
 21
1.0
 31
0.0
 73
     1
 44
1.0
  0
POINT
  5
F1
330
E8
100
AcDbEntity
  8
Defpoints
 62
     0
100
AcDbPoint
 10
-43.51009630199142
 20
10.00000000000001
 30
0.0
  0
POINT
  5
F2
330
E8
100
AcDbEntity
  8
Defpoints
 62
     0
100
AcDbPoint
 10
-43.51009630199145
 20
-9.999999999999993
 30
0.0
  0
POINT
  5
F3
330
E8
100
AcDbEntity
  8
Defpoints
 62
     0
100
AcDbPoint
 10
-66.4195594453885
 20
-10.00000000000007
 30
0.0
  0
ENDBLK
  5
EA
330
E8
100
AcDbEntity
  8
0
100
AcDbBlockEnd
  0
BLOCK
  5
F5
330
F4
100
AcDbEntity
  8
0
100
AcDbBlockBegin
  2
SW_DOWELSYMBOL_0
 70
     0
 10
0.0
 20
0.0
 30
0.0
  3
SW_DOWELSYMBOL_0
  1
SW_DOWELSYMBOL_0
  0
CIRCLE
  5
F7
330
F4
100
AcDbEntity
  8
외형선
 62
     0
100
AcDbCircle
 10
0.0
 20
0.0
 30
0.0
 40
3.000000000000004
  0
HATCH
  5
F8
330
F4
100
AcDbEntity
  8
0
  6
Continuous
 62
     0
370
    30
100
AcDbHatch
 10
0.0
 20
0.0
 30
0.0
210
0.0
220
0.0
230
1.0
  2
SOLID
 70
     1
 71
     0
 91
        1
 92
        0
 93
        3
 72
     2
 10
0.0000000000000087
 20
-0.0000000000000035
 40
3.000000000000004
 50
0.0
 51
90.0
 73
     1
 72
     1
 10
0.0000000000000087
 20
3.000000000000001
 11
0.0000000000000087
 21
-0.0000000000000036
 72
     1
 10
0.0000000000000087
 20
-0.0000000000000035
 11
3.000000000000013
 21
-0.0000000000000035
 97
        0
 75
     0
 76
     1
 98
        1
 10
0.0
 20
0.0
  0
HATCH
  5
F9
330
F4
100
AcDbEntity
  8
0
  6
Continuous
 62
     0
370
    30
100
AcDbHatch
 10
0.0
 20
0.0
 30
0.0
210
0.0
220
0.0
230
1.0
  2
SOLID
 70
     1
 71
     0
 91
        1
 92
        0
 93
        3
 72
     2
 10
0.0000000000000087
 20
-0.0000000000000035
 40
3.000000000000004
 50
180.0
 51
270.0000000000008
 73
     1
 72
     1
 10
0.0000000000000087
 20
-3.000000000000008
 11
0.0000000000000087
 21
-0.0000000000000036
 72
     1
 10
0.0000000000000087
 20
-0.0000000000000035
 11
-2.999999999999996
 21
-0.0000000000000035
 97
        0
 75
     0
 76
     1
 98
        1
 10
0.0
 20
0.0
  0
ENDBLK
  5
F6
330
F4
100
AcDbEntity
  8
0
100
AcDbBlockEnd
  0
ENDSEC
  0
SECTION
  2
ENTITIES
  0
LINE
  5
95
330
1F
100
AcDbEntity
  8
0
  6
Continuous
 62
     4
370
    15
100
AcDbLine
 10
9.999999999999991
 20
10.00000000000001
 30
0.0
 11
-43.51009630199142
 21
10.00000000000001
 31
0.0
  0
LINE
  5
96
330
1F
100
AcDbEntity
  8
0
  6
Continuous
 62
     4
370
    15
100
AcDbLine
 10
-43.51009630199145
 20
-9.999999999999993
 30
0.0
 11
9.999999999999993
 21
-9.99999999999999
 31
0.0
  0
LINE
  5
99
330
1F
100
AcDbEntity
  8
0
  6
Continuous
 62
     1
370
    15
100
AcDbLine
 10
20.39332096041082
 20
3.111087626446859
 30
0.0
 11
20.29991130434942
 21
3.162515794896311
 31
0.0
  0
SPLINE
  5
9A
330
1F
100
AcDbEntity
  8
0
  6
Continuous
 62
     1
370
    15
100
AcDbSpline
210
0.0
220
0.0
230
1.0
 70
     8
 71
     3
 72
     9
 73
     5
 74
     0
 42
0.000000001
 43
0.00000001
 40
0.0
 40
0.0
 40
0.0
 40
0.0
 40
0.5231813240038877
 40
0.9999999999999999
 40
0.9999999999999999
 40
0.9999999999999999
 40
0.9999999999999999
 10
26.5011142949982
 20
2.818758003675328
 30
0.0
 10
25.96924195069765
 20
3.072705978211617
 30
0.0
 10
24.95263008039969
 20
3.558097873688378
 30
0.0
 10
23.93541988505089
 20
4.090922819145525
 30
0.0
 10
23.45039506649493
 20
4.344983704176101
 30
0.0
  0
SPLINE
  5
9B
330
1F
100
AcDbEntity
  8
0
  6
Continuous
 62
     1
370
    15
100
AcDbSpline
210
0.0
220
0.0
230
1.0
 70
     8
 71
     3
 72
    26
 73
    22
 74
     0
 42
0.000000001
 43
0.00000001
 40
0.0
 40
0.0
 40
0.0
 40
0.0
 40
0.105021652005787
 40
0.1892355498856
 40
0.259199065854276
 40
0.3051907974672046
 40
0.3468233772322257
 40
0.3890227738189608
 40
0.4305364931539267
 40
0.469421156695797
 40
0.5056569330149837
 40
0.5582151810566212
 40
0.6191019804280692
 40
0.6877142266093398
 40
0.7489550188352158
 40
0.7891689468597864
 40
0.8204523142182988
 40
0.8622574398490894
 40
0.9231266752603295
 40
0.9920184584942309
 40
1.0
 40
1.0
 40
1.0
 40
1.0
 10
22.8647494517645
 20
8.741028400157049
 30
0.0
 10
22.55083131411369
 20
8.7250503885239
 30
0.0
 10
21.98519108409576
 20
8.696260060436977
 30
0.0
 10
21.21102813446507
 20
8.664738230349085
 30
0.0
 10
20.6130329339641
 20
8.644050871308563
 30
0.0
 10
20.14095346831974
 20
8.630123535677827
 30
0.0
 10
19.75224423816865
 20
8.620104901156742
 30
0.0
 10
19.37744620999867
 20
8.611792914298105
 30
0.0
 10
19.0111360704661
 20
8.604982192090082
 30
0.0
 10
18.66254193925424
 20
8.599705085695286
 30
0.0
 10
18.28086444090172
 20
8.595161876879281
 30
0.0
 10
17.83331154660041
 20
8.59156953571006
 30
0.0
 10
17.28902344822171
 20
8.589883748642675
 30
0.0
 10
16.71884697280443
 20
8.591312565967828
 30
0.0
 10
16.21051118628611
 20
8.595440046538497
 30
0.0
 10
15.81376357836482
 20
8.600400955496042
 30
0.0
 10
15.47501147049797
 20
8.605694836682336
 30
0.0
 10
15.07460891351389
 20
8.613188807279927
 30
0.0
 10
14.56186380968819
 20
8.625305034471808
 30
0.0
 10
14.15013219419984
 20
8.63653193238894
 30
0.0
 10
13.92031195265062
 20
8.644438493291657
 30
0.0
 10
13.89645036213138
 20
8.645259409314564
 30
0.0
  0
SPLINE
  5
9C
330
1F
100
AcDbEntity
  8
0
  6
Continuous
 62
     1
370
    15
100
AcDbSpline
210
0.0
220
0.0
230
1.0
 70
     8
 71
     3
 72
    34
 73
    30
 74
     0
 42
0.000000001
 43
0.00000001
 40
0.0
 40
0.0
 40
0.0
 40
0.0
 40
0.060202640499244
 40
0.1078859385853462
 40
0.142932982615241
 40
0.1705108443146094
 40
0.195512040719365
 40
0.2179794981840496
 40
0.2540668753769038
 40
0.2930871343507375
 40
0.3263137754931035
 40
0.361221524669691
 40
0.406532679793794
 40
0.450661770059319
 40
0.4894570502986441
 40
0.5271754504472365
 40
0.5637704836898254
 40
0.6072366583527928
 40
0.6483859366313114
 40
0.6792669785614803
 40
0.7123236784061975
 40
0.751730668459023
 40
0.7870900516003523
 40
0.8093801009940199
 40
0.8286522146416495
 40
0.8565409287250207
 40
0.8936966091225537
 40
0.9413450407305431
 40
1.0
 40
1.0
 40
1.0
 40
1.0
 10
50.91337211677858
 20
7.523481701952899
 30
0.0
 10
50.53166601992776
 20
7.492204485398479
 30
0.0
 10
49.84763089819557
 20
7.436154255104129
 30
0.0
 10
48.93723128795185
 20
7.376966173328805
 30
0.0
 10
48.22580268015531
 20
7.337535663239744
 30
0.0
 10
47.6559145688564
 20
7.310721012273579
 30
0.0
 10
47.17101380890062
 20
7.291096989195077
 30
0.0
 10
46.63488473206988
 20
7.272665096658675
 30
0.0
 10
46.00990882481123
 20
7.255835592893066
 30
0.0
 10
45.31492355729573
 20
7.243783127300802
 30
0.0
 10
44.62841023095972
 20
7.238262491918831
 30
0.0
 10
43.90133506133361
 20
7.238817222711713
 30
0.0
 10
43.10407262357202
 20
7.247638554597275
 30
0.0
 10
42.2820571452679
 20
7.266152454995111
 30
0.0
 10
41.50893844483122
 20
7.291865624931428
 30
0.0
 10
40.78409585503748
 20
7.32300354136352
 30
0.0
 10
40.02917840503201
 20
7.362458896065799
 30
0.0
 10
39.2520280818546
 20
7.410854485572485
 30
0.0
 10
38.51157682088427
 20
7.46485412400273
 30
0.0
 10
37.83822713338449
 20
7.520003985549098
 30
0.0
 10
37.1759714599771
 20
7.579227337582676
 30
0.0
 10
36.48494476471843
 20
7.646944203871518
 30
0.0
 10
35.86231808024834
 20
7.713510650831604
 30
0.0
 10
35.37774023417538
 20
7.768513021843249
 30
0.0
 10
34.93663483624121
 20
7.820707073448839
 30
0.0
 10
34.38347137896181
 20
7.889487770441828
 30
0.0
 10
33.64436397093355
 20
7.985590495530253
 30
0.0
 10
32.72408468641839
 20
8.114388433532756
 30
0.0
 10
32.06188552714079
 20
8.216903727156406
 30
0.0
 10
31.69650428769871
 20
8.273468530238965
 30
0.0
  0
SPLINE
  5
9D
330
1F
100
AcDbEntity
  8
0
  6
Continuous
 62
     1
370
    15
100
AcDbSpline
210
0.0
220
0.0
230
1.0
 70
     8
 71
     3
 72
    20
 73
    16
 74
     0
 42
0.000000001
 43
0.00000001
 40
0.0
 40
0.0
 40
0.0
 40
0.0
 40
0.1317255697959812
 40
0.2399521629170095
 40
0.3255200559853098
 40
0.3911036976895401
 40
0.4377041985363005
 40
0.4823134199097152
 40
0.5473956103240011
 40
0.6295866924790482
 40
0.7080524340006777
 40
0.7738789182824507
 40
0.8453888385481397
 40
0.9382270224968818
 40
1.0
 40
1.0
 40
1.0
 40
1.0
 10
31.69650428769871
 20
-8.273468530238961
 30
0.0
 10
32.04676804584975
 20
-8.219209432752084
 30
0.0
 10
32.68481080770649
 20
-8.120370704477343
 30
0.0
 10
33.57395748412981
 20
-7.995185085523165
 30
0.0
 10
34.30003390195423
 20
-7.900157007885951
 30
0.0
 10
34.85284739810031
 20
-7.83095552180209
 30
0.0
 10
35.28367636251254
 20
-7.779464001832987
 30
0.0
 10
35.70010339721537
 20
-7.731749065368643
 30
0.0
 10
36.22498816665463
 20
-7.67426911705989
 30
0.0
 10
36.84225201144509
 20
-7.611341341686861
 30
0.0
 10
37.46197207532904
 20
-7.553172448557273
 30
0.0
 10
38.052192181752
 20
-7.502043971451827
 30
0.0
 10
38.68181479634799
 20
-7.452068820067713
 30
0.0
 10
39.30069375102003
 20
-7.40756414152883
 30
0.0
 10
39.72379025396334
 20
-7.382511126629261
 30
0.0
 10
39.89283322933806
 20
-7.372501504353327
 30
0.0
  0
SPLINE
  5
9E
330
1F
100
AcDbEntity
  8
0
  6
Continuous
 62
     1
370
    15
100
AcDbSpline
210
0.0
220
0.0
230
1.0
 70
     8
 71
     3
 72
    28
 73
    24
 74
     0
 42
0.000000001
 43
0.00000001
 40
0.0
 40
0.0
 40
0.0
 40
0.0
 40
0.0756619267404477
 40
0.1285943839802679
 40
0.1607431255179271
 40
0.1889687573085272
 40
0.2334818897814516
 40
0.2871482904859154
 40
0.3364687359506112
 40
0.3875751296398615
 40
0.423271122431892
 40
0.4474180050084853
 40
0.4778836558871161
 40
0.5351848354820288
 40
0.5944629168563696
 40
0.6439565883063377
 40
0.6899677706281313
 40
0.7414571987600778
 40
0.7934096318515856
 40
0.8236658118449577
 40
0.868078765116272
 40
0.9267865576499323
 40
1.0
 40
1.0
 40
1.0
 40
1.0
 10
9.999999999999988
 20
-8.842387746803023
 30
0.0
 10
10.32461746448103
 20
-8.820963905930407
 30
0.0
 10
10.87633461830631
 20
-8.784552123436995
 30
0.0
 10
11.56547241109661
 20
-8.7458083039247
 30
0.0
 10
12.0511227245373
 20
-8.720674284493718
 30
0.0
 10
12.50081736382775
 20
-8.69912608844034
 30
0.0
 10
13.0429147651055
 20
-8.675537245520985
 30
0.0
 10
13.67553182302375
 20
-8.651794439230251
 30
0.0
 10
14.33630387556432
 20
-8.63113026588066
 30
0.0
 10
14.91991755687608
 20
-8.6164494462808
 30
0.0
 10
15.39556595188318
 20
-8.607025174005875
 30
0.0
 10
15.78288769994663
 20
-8.600805899349098
 30
0.0
 10
16.26272119662622
 20
-8.594731031745974
 30
0.0
 10
16.89319743546323
 20
-8.590184466719137
 30
0.0
 10
17.60536091891306
 20
-8.590194523994633
 30
0.0
 10
18.26922451170278
 20
-8.59469560190554
 30
0.0
 10
18.8995832678153
 20
-8.602738292061149
 30
0.0
 10
19.53996979078065
 20
-8.614751151982281
 30
0.0
 10
20.11422496416093
 20
-8.629178521071314
 30
0.0
 10
20.65812977621369
 20
-8.645578084845088
 30
0.0
 10
21.2297168446437
 20
-8.665501362522468
 30
0.0
 10
21.98518869248719
 20
-8.696259181509243
 30
0.0
 10
22.55083046053838
 20
-8.725050074830838
 30
0.0
 10
22.86474945176451
 20
-8.741028400157047
 30
0.0
  0
LINE
  5
A0
330
1F
100
AcDbEntity
  8
0
  6
Continuous
 62
     1
370
    15
100
AcDbLine
 10
9.999999999999991
 20
5.419196655482699
 30
0.0
 11
9.999999999999991
 21
-6.143255230598431
 31
0.0
  0
SPLINE
  5
A2
330
1F
100
AcDbEntity
  8
0
  6
Continuous
 62
     1
370
    15
100
AcDbSpline
210
0.0
220
0.0
230
1.0
 70
     8
 71
     3
 72
    58
 73
    54
 74
     0
 42
0.000000001
 43
0.00000001
 40
0.0
 40
0.0
 40
0.0
 40
0.0
 40
0.0625
 40
0.0625
 40
0.0937499999999999
 40
0.0937499999999999
 40
0.1249999999999997
 40
0.1249999999999997
 40
0.1562499999999995
 40
0.1562499999999995
 40
0.1874999999999993
 40
0.1874999999999993
 40
0.249999999999999
 40
0.249999999999999
 40
0.2812499999999988
 40
0.2812499999999988
 40
0.3124999999999986
 40
0.3124999999999986
 40
0.3437499999999988
 40
0.3437499999999988
 40
0.3749999999999989
 40
0.3749999999999989
 40
0.4374999999999991
 40
0.4374999999999991
 40
0.4687499999999992
 40
0.4687499999999992
 40
0.4999999999999992
 40
0.4999999999999992
 40
0.5312499999999992
 40
0.5312499999999992
 40
0.5624999999999992
 40
0.5624999999999992
 40
0.6249999999999994
 40
0.6249999999999994
 40
0.6562499999999996
 40
0.6562499999999996
 40
0.6874999999999996
 40
0.6874999999999996
 40
0.7187499999999996
 40
0.7187499999999996
 40
0.7499999999999996
 40
0.7499999999999996
 40
0.8124999999999998
 40
0.8124999999999998
 40
0.8749999999999999
 40
0.8749999999999999
 40
0.9062499999999999
 40
0.9062499999999999
 40
0.9375
 40
0.9375
 40
0.96875
 40
0.96875
 40
1.0
 40
1.0
 40
1.0
 40
1.0
 10
54.99999999999999
 20
-10.99070296752607
 30
0.0
 10
54.06607173544511
 20
-10.96848233858396
 30
0.0
 10
53.12308797342988
 20
-10.90615825764229
 30
0.0
 10
51.7180114580956
 20
-10.75386005753079
 30
0.0
 10
51.25148822257882
 20
-10.6933714417551
 30
0.0
 10
50.31335433809841
 20
-10.55287210631041
 30
0.0
 10
49.84323723246899
 20
-10.47290727776096
 30
0.0
 10
48.9047425462445
 20
-10.29419311698068
 30
0.0
 10
48.43781941704873
 20
-10.19556038405312
 30
0.0
 10
47.50172427844019
 20
-9.979844220663212
 30
0.0
 10
47.03192950060874
 20
-9.86268953235235
 30
0.0
 10
45.62305020201838
 20
-9.484679201389945
 30
0.0
 10
44.68974107926233
 20
-9.197831754718022
 30
0.0
 10
43.28125687607319
 20
-8.718221555407306
 30
0.0
 10
42.8112319405503
 20
-8.550211163744722
 30
0.0
 10
41.8739590177268
 20
-8.19931041266311
 30
0.0
 10
41.40762953079878
 20
-8.016558976515292
 30
0.0
 10
40.46992408087998
 20
-7.636185920868673
 30
0.0
 10
39.99984104453222
 20
-7.43871653795939
 30
0.0
 10
39.06105327622204
 20
-7.030809099302046
 30
0.0
 10
38.59352420424023
 20
-6.820554470342391
 30
0.0
 10
37.19041601807116
 20
-6.171758378096024
 30
0.0
 10
36.24730291159943
 20
-5.713968887469456
 30
0.0
 10
34.84406453326387
 20
-5.000554273387007
 30
0.0
 10
34.37661952129917
 20
-4.758053389258515
 30
0.0
 10
33.43786352914675
 20
-4.264178406975655
 30
0.0
 10
32.96777457340637
 20
-4.013011503584326
 30
0.0
 10
32.03001383040757
 20
-3.504278232981213
 30
0.0
 10
31.56367190046839
 20
-3.246963458122265
 30
0.0
 10
30.62646241486237
 20
-2.726083965406893
 30
0.0
 10
30.15644750883741
 20
-2.462668503445148
 30
0.0
 10
28.74792791858854
 20
-1.666708056646683
 30
0.0
 10
27.8146384033667
 20
-1.129165176145276
 30
0.0
 10
26.40577139849237
 20
-0.3179282851356068
 30
0.0
 10
25.93595887434881
 20
-0.0469445098272566
 30
0.0
 10
24.99978503595318
 20
0.4939529563152788
 30
0.0
 10
24.53292110550882
 20
0.7639643128478928
 30
0.0
 10
23.59446637257397
 20
1.303017218472296
 30
0.0
 10
23.12434745908891
 20
1.571773702451921
 30
0.0
 10
22.18616643896436
 20
2.105552292431921
 30
0.0
 10
21.71960587740114
 20
2.370293986129107
 30
0.0
 10
20.31463671122847
 20
3.158349766156442
 30
0.0
 10
19.3716373397225
 20
3.675286557736317
 30
0.0
 10
17.50357691071364
 20
4.675559827304075
 30
0.0
 10
16.56081288744867
 20
5.1620382613564
 30
0.0
 10
15.15563049325213
 20
5.85948866639951
 30
0.0
 10
14.6891415810131
 20
6.086559376122001
 30
0.0
 10
13.75105581733591
 20
6.530064907203113
 30
0.0
 10
13.28094101582515
 20
6.746248441922196
 30
0.0
 10
12.34240736273506
 20
7.165705532921455
 30
0.0
 10
11.87542203341733
 20
7.368780503818718
 30
0.0
 10
10.93940657261824
 20
7.761507611893897
 30
0.0
 10
10.4696300362267
 20
7.951247391489629
 30
0.0
 10
9.99999999999998
 20
8.133564424010116
 30
0.0
  0
SPLINE
  5
A3
330
1F
100
AcDbEntity
  8
0
  6
Continuous
 62
     1
370
    15
100
AcDbSpline
210
0.0
220
0.0
230
1.0
 70
     8
 71
     3
 72
    13
 73
     9
 74
     0
 42
0.000000001
 43
0.00000001
 40
0.0
 40
0.0
 40
0.0
 40
0.0
 40
0.153521435962819
 40
0.3233996044022511
 40
0.4932498550412822
 40
0.6621828425323374
 40
0.8310968316374777
 40
1.0
 40
1.0
 40
1.0
 40
1.0
 10
27.68382503714183
 20
-1.05108108101568
 30
0.0
 10
26.77886502172304
 20
-0.6870687165627285
 30
0.0
 10
24.87252725754804
 20
0.0797392143513836
 30
0.0
 10
21.96491013365964
 20
1.255496590879162
 30
0.0
 10
18.96652734099473
 20
2.435644401484427
 30
0.0
 10
15.97387402942917
 20
3.55156176839417
 30
0.0
 10
12.98683873218609
 20
4.587839853377518
 30
0.0
 10
10.99559164994537
 20
5.179680633632625
 30
0.0
 10
9.999999999999991
 20
5.475591545027951
 30
0.0
  0
SPLINE
  5
A4
330
1F
100
AcDbEntity
  8
0
  6
Continuous
 62
     4
370
    15
100
AcDbSpline
210
0.0
220
0.0
230
1.0
 70
    24
 71
     3
 72
    10
 73
     6
 74
     0
 42
0.000000001
 43
0.00000001
 40
0.0
 40
0.0
 40
0.0
 40
0.0
 40
0.5
 40
0.5
 40
1.0
 40
1.0
 40
1.0
 40
1.0
 10
9.999999999999991
 20
8.133564424010112
 30
0.0
 10
9.999999999999991
 20
7.840919090498163
 30
0.0
 10
9.999999999999991
 20
7.442976024148808
 30
0.0
 10
9.999999999999991
 20
6.519519932342076
 30
0.0
 10
9.999999999999991
 20
5.99697361744317
 30
0.0
 10
9.999999999999991
 20
5.475591545027949
 30
0.0
  0
SPLINE
  5
A5
330
1F
100
AcDbEntity
  8
0
  6
Continuous
 62
     1
370
    15
100
AcDbSpline
210
0.0
220
0.0
230
1.0
 70
     8
 71
     3
 72
    58
 73
    54
 74
     0
 42
0.000000001
 43
0.00000001
 40
0.0
 40
0.0
 40
0.0
 40
0.0
 40
0.0625000000000006
 40
0.0625000000000006
 40
0.0937500000000009
 40
0.0937500000000009
 40
0.1250000000000012
 40
0.1250000000000012
 40
0.1562500000000015
 40
0.1562500000000015
 40
0.1875000000000018
 40
0.1875000000000018
 40
0.2500000000000019
 40
0.2500000000000019
 40
0.2812500000000018
 40
0.2812500000000018
 40
0.3125000000000018
 40
0.3125000000000018
 40
0.3437500000000017
 40
0.3437500000000017
 40
0.3750000000000016
 40
0.3750000000000016
 40
0.4375000000000014
 40
0.4375000000000014
 40
0.4687500000000012
 40
0.4687500000000012
 40
0.500000000000001
 40
0.500000000000001
 40
0.5312500000000009
 40
0.5312500000000009
 40
0.5625000000000006
 40
0.5625000000000006
 40
0.6250000000000004
 40
0.6250000000000004
 40
0.6562500000000004
 40
0.6562500000000004
 40
0.6875000000000003
 40
0.6875000000000003
 40
0.7187500000000003
 40
0.7187500000000003
 40
0.7500000000000003
 40
0.7500000000000003
 40
0.8125000000000002
 40
0.8125000000000002
 40
0.8750000000000002
 40
0.8750000000000002
 40
0.9062500000000002
 40
0.9062500000000002
 40
0.9375000000000001
 40
0.9375000000000001
 40
0.9687500000000001
 40
0.9687500000000001
 40
1.0
 40
1.0
 40
1.0
 40
1.0
 10
54.99999999999999
 20
-10.43834956155089
 30
0.0
 10
54.06607173544506
 20
-10.26782248680427
 30
0.0
 10
53.12308797342975
 20
-10.05872750819868
 30
0.0
 10
51.71801145809538
 20
-9.692166490036481
 30
0.0
 10
51.25148822257857
 20
-9.561247257539167
 30
0.0
 10
50.3133543380981
 20
-9.281814885108984
 30
0.0
 10
49.84323723246863
 20
-9.133424759849774
 30
0.0
 10
48.90474254624407
 20
-8.820502254629606
 30
0.0
 10
48.43781941704825
 20
-8.656152759634598
 30
0.0
 10
47.50172427843965
 20
-8.311806249028841
 30
0.0
 10
47.03192950060816
 20
-8.13171307214168
 30
0.0
 10
45.6230502020177
 20
-7.569803483932323
 30
0.0
 10
44.68974107926157
 20
-7.167126689872948
 30
0.0
 10
43.28125687607236
 20
-6.525098790227475
 30
0.0
 10
42.81123194054943
 20
-6.30487568926112
 30
0.0
 10
41.87395901772585
 20
-5.853821592680249
 30
0.0
 10
41.40762953079781
 20
-5.623155561736147
 30
0.0
 10
40.46992408087895
 20
-5.151210952178069
 30
0.0
 10
39.99984104453115
 20
-4.91013381972207
 30
0.0
 10
39.0610532762209
 20
-4.419728341730064
 30
0.0
 10
38.59352420423905
 20
-4.170613645172998
 30
0.0
 10
37.19041601806989
 20
-3.412526727675903
 30
0.0
 10
36.24730291159809
 20
-2.89147315029595
 30
0.0
 10
34.84406453326243
 20
-2.099100855378249
 30
0.0
 10
34.37661952129771
 20
-1.832891528232524
 30
0.0
 10
33.43786352914521
 20
-1.29689335150645
 30
0.0
 10
32.96777457340478
 20
-1.027335327566723
 30
0.0
 10
32.03001383040593
 20
-0.4873052522870865
 30
0.0
 10
31.56367190046672
 20
-0.2170909199917927
 30
0.0
 10
30.62646241486063
 20
0.3241111323523657
 30
0.0
 10
30.15644750883563
 20
0.5949346444915229
 30
0.0
 10
28.74792791858667
 20
1.404752839781363
 30
0.0
 10
27.81463840336477
 20
1.940392599481625
 30
0.0
 10
26.40577139849032
 20
2.732077504895453
 30
0.0
 10
25.93595887434674
 20
2.993760679581153
 30
0.0
 10
24.99978503595105
 20
3.510584395566529
 30
0.0
 10
24.53292110550666
 20
3.765825450417324
 30
0.0
 10
23.59446637257172
 20
4.269862670196405
 30
0.0
 10
23.12434745908663
 20
4.518385052608801
 30
0.0
 10
22.18616643896203
 20
5.006409758421886
 30
0.0
 10
21.71960587739877
 20
5.245663946301086
 30
0.0
 10
20.31463671122598
 20
5.949413009927
 30
0.0
 10
19.37163733971994
 20
6.399628924810963
 30
0.0
 10
17.50357691071099
 20
7.247651757993764
 30
0.0
 10
16.5608128874459
 20
7.648124127542729
 30
0.0
 10
15.15563049324929
 20
8.203772661366441
 30
0.0
 10
14.68914158101023
 20
8.381473351400034
 30
0.0
 10
13.75105581733296
 20
8.72198307300451
 30
0.0
 10
13.28094101582216
 20
8.884588991174477
 30
0.0
 10
12.34240736273202
 20
9.1931671687803
 30
0.0
 10
11.87542203341425
 20
9.339002157724718
 30
0.0
 10
10.93940657261509
 20
9.61370057307323
 30
0.0
 10
10.46963003622351
 20
9.742615903323923
 30
0.0
 10
9.999999999996755
 20
9.862540897236837
 30
0.0
  0
SPLINE
  5
A6
330
1F
100
AcDbEntity
  8
0
  6
Continuous
 62
     1
370
    15
100
AcDbSpline
210
0.0
220
0.0
230
1.0
 70
     8
 71
     3
 72
    17
 73
    13
 74
     0
 42
0.000000001
 43
0.00000001
 40
0.0
 40
0.0
 40
0.0
 40
0.0
 40
0.1052500403345226
 40
0.210482560497276
 40
0.3157017487022759
 40
0.4209118114807321
 40
0.5261169679186818
 40
0.6313214438580914
 40
0.7365294660782764
 40
0.8417452564745925
 40
0.9469730262513532
 40
1.0
 40
1.0
 40
1.0
 40
1.0
 10
54.99999999999999
 20
-8.67869490805037
 30
0.0
 10
53.99864980803221
 20
-8.475102200957817
 30
0.0
 10
51.99611611122863
 20
-8.067950677298436
 30
0.0
 10
48.99262458718429
 20
-7.199465762620405
 30
0.0
 10
45.98956334840738
 20
-6.167961083867904
 30
0.0
 10
42.98680289520379
 20
-4.979449465616175
 30
0.0
 10
39.98420283271545
 20
-3.668548556731289
 30
0.0
 10
36.98162490787734
 20
-2.26666849923904
 30
0.0
 10
33.97893181534099
 20
-0.8076725760738125
 30
0.0
 10
30.97598012557436
 20
0.6677441575766287
 30
0.0
 10
28.46942307425187
 20
1.896770164317922
 30
0.0
 10
26.9638014219247
 20
2.595680804882344
 30
0.0
 10
26.45930747719483
 20
2.829867252405223
 30
0.0
  0
LINE
  5
A7
330
1F
100
AcDbEntity
  8
0
  6
Continuous
 62
     1
370
    15
100
AcDbLine
 10
54.99999999999999
 20
-10.4383495615509
 30
0.0
 11
54.99999999999999
 21
-8.67869490805037
 31
0.0
  0
LINE
  5
A8
330
1F
100
AcDbEntity
  8
0
  6
Continuous
 62
     4
370
    15
100
AcDbLine
 10
9.999999999999991
 20
8.13356442401011
 30
0.0
 11
9.999999999999991
 21
9.862540897223793
 31
0.0
  0
LINE
  5
A9
330
1F
100
AcDbEntity
  8
0
  6
Continuous
 62
     1
370
    15
100
AcDbLine
 10
54.99999999999999
 20
-10.99070296752608
 30
0.0
 11
55.00000000000055
 21
-10.4383495615509
 31
0.0
  0
SPLINE
  5
AA
330
1F
100
AcDbEntity
  8
0
  6
Continuous
 62
     1
370
    15
100
AcDbSpline
210
0.0
220
0.0
230
1.0
 70
     8
 71
     3
 72
    10
 73
     6
 74
     0
 42
0.000000001
 43
0.00000001
 40
0.0
 40
0.0
 40
0.0
 40
0.0
 40
0.5
 40
0.5
 40
1.0
 40
1.0
 40
1.0
 40
1.0
 10
54.99999999999999
 20
-2.939672406326088
 30
0.0
 10
54.14398258082475
 20
-2.26670215017589
 30
0.0
 10
53.2992810999142
 20
-1.574094824119245
 30
0.0
 10
51.63217455028197
 20
-0.150188178945267
 30
0.0
 10
50.80974813322443
 20
0.5810740934196325
 30
0.0
 10
50.00000000000001
 20
1.334337576828698
 30
0.0
  0
LINE
  5
AB
330
1F
100
AcDbEntity
  8
0
  6
Continuous
 62
     1
370
    15
100
AcDbLine
 10
49.99999999999999
 20
2.937719435296593
 30
0.0
 11
54.99999999999999
 21
0.0000000000000061
 31
0.0
  0
LINE
  5
AC
330
1F
100
AcDbEntity
  8
0
  6
Continuous
 62
     1
370
    15
100
AcDbLine
 10
54.99999999999999
 20
0.0000000000000061
 30
0.0
 11
54.99999999999999
 21
-2.939672406326088
 31
0.0
  0
SPLINE
  5
AD
330
1F
100
AcDbEntity
  8
0
  6
Continuous
 62
     1
370
    15
100
AcDbSpline
210
0.0
220
0.0
230
1.0
 70
     8
 71
     3
 72
    16
 73
    12
 74
     0
 42
0.000000001
 43
0.00000001
 40
0.0
 40
0.0
 40
0.0
 40
0.0
 40
0.1179011948635784
 40
0.2358026295926109
 40
0.3537045694722962
 40
0.4716072796816208
 40
0.5895110252376358
 40
0.7074160709398041
 40
0.8253226813144452
 40
0.9550211859862612
 40
1.0
 40
1.0
 40
1.0
 40
1.0
 10
50.00000000000415
 20
2.282977112017979
 30
0.0
 10
48.93341754561877
 20
2.752552825979353
 30
0.0
 10
46.80025046692695
 20
3.691705209235862
 30
0.0
 10
43.60049326555473
 20
4.979351896328062
 30
0.0
 10
40.4007208840279
 20
6.131396568079185
 30
0.0
 10
37.20092349189677
 20
7.109996443819625
 30
0.0
 10
34.00109924487487
 20
7.887585250605669
 30
0.0
 10
30.80121647253979
 20
8.447804573902724
 30
0.0
 10
27.49469828026711
 20
8.762972902305032
 30
0.0
 10
24.84766314945284
 20
8.858045311948953
 30
0.0
 10
23.26736823520857
 20
8.737962998100393
 30
0.0
 10
22.86044768267476
 20
8.707042211695049
 30
0.0
  0
SPLINE
  5
AE
330
1F
100
AcDbEntity
  8
0
  6
Continuous
 62
     1
370
    15
100
AcDbSpline
210
0.0
220
0.0
230
1.0
 70
    24
 71
     3
 72
     8
 73
     4
 74
     0
 42
0.000000001
 43
0.00000001
 40
0.0
 40
0.0
 40
0.0
 40
0.0
 40
1.0
 40
1.0
 40
1.0
 40
1.0
 10
50.0
 20
1.33433757682286
 30
0.0
 10
50.0
 20
1.654158604074236
 30
0.0
 10
49.99999999999999
 20
1.970822689818924
 30
0.0
 10
49.99999999999999
 20
2.282977112019831
 30
0.0
  0
SPLINE
  5
AF
330
1F
100
AcDbEntity
  8
0
  6
Continuous
 62
     1
370
    15
100
AcDbSpline
210
0.0
220
0.0
230
1.0
 70
    24
 71
     3
 72
    10
 73
     6
 74
     0
 42
0.000000001
 43
0.00000001
 40
0.0
 40
0.0
 40
0.0
 40
0.0
 40
0.5
 40
0.5
 40
1.0
 40
1.0
 40
1.0
 40
1.0
 10
54.99999999999999
 20
-8.67869490805037
 30
0.0
 10
54.99999999999998
 20
-8.013405279041848
 30
0.0
 10
54.99999999999998
 20
-7.172786322971149
 30
0.0
 10
54.99999999999999
 20
-5.218428150657472
 30
0.0
 10
54.99999999999999
 20
-4.106381873564402
 30
0.0
 10
54.99999999999999
 20
-2.939672406326435
 30
0.0
  0
SPLINE
  5
B0
330
1F
100
AcDbEntity
  8
0
  6
Continuous
 62
     1
370
    15
100
AcDbSpline
210
0.0
220
0.0
230
1.0
 70
    24
 71
     3
 72
    10
 73
     6
 74
     0
 42
0.000000001
 43
0.00000001
 40
0.0
 40
0.0
 40
0.0
 40
0.0
 40
0.5
 40
0.5
 40
1.0
 40
1.0
 40
1.0
 40
1.0
 10
50.00000000000001
 20
2.282977112019827
 30
0.0
 10
50.0
 20
3.041227678271545
 30
0.0
 10
50.00000000000002
 20
3.760945801936472
 30
0.0
 10
50.0
 20
5.046477921679505
 30
0.0
 10
50.00000000000001
 20
5.611518999820876
 30
0.0
 10
50.0
 20
6.069159746183469
 30
0.0
  0
SPLINE
  5
B1
330
1F
100
AcDbEntity
  8
0
  6
Continuous
 62
     1
370
    15
100
AcDbSpline
210
0.0
220
0.0
230
1.0
 70
     8
 71
     3
 72
     9
 73
     5
 74
     0
 42
0.000000001
 43
0.00000001
 40
0.0
 40
0.0
 40
0.0
 40
0.0
 40
0.7338710691196809
 40
1.0
 40
1.0
 40
1.0
 40
1.0
 10
54.99999999999999
 20
7.700000000000006
 30
0.0
 10
53.99864824813208
 20
7.691243881586166
 30
0.0
 10
52.63416912638513
 20
7.679312469132006
 30
0.0
 10
51.26972658416161
 20
7.538878381821908
 30
0.0
 10
50.90660894915204
 20
7.501504808306919
 30
0.0
  0
SPLINE
  5
B2
330
1F
100
AcDbEntity
  8
0
  6
Continuous
 62
     1
370
    15
100
AcDbSpline
210
0.0
220
0.0
230
1.0
 70
     8
 71
     3
 72
     8
 73
     4
 74
     0
 42
0.000000001
 43
0.00000001
 40
0.0
 40
0.0
 40
0.0
 40
0.0
 40
1.0
 40
1.0
 40
1.0
 40
1.0
 10
54.99999999999999
 20
7.700000000000006
 30
0.0
 10
53.31740745021184
 20
7.243823506624327
 30
0.0
 10
51.64792918959275
 20
6.705515743298132
 30
0.0
 10
49.99999999999999
 20
6.069159746181326
 30
0.0
  0
SPLINE
  5
B3
330
1F
100
AcDbEntity
  8
0
  6
Continuous
 62
     1
370
    15
100
AcDbSpline
210
0.0
220
0.0
230
1.0
 70
     8
 71
     3
 72
    14
 73
    10
 74
     0
 42
0.000000001
 43
0.00000001
 40
0.0
 40
0.0
 40
0.0
 40
0.0
 40
0.0417229581272952
 40
0.189144335396894
 40
0.3513093923667529
 40
0.5134787292442673
 40
0.6756511048093464
 40
0.8378252762907201
 40
1.0
 40
1.0
 40
1.0
 40
1.0
 10
31.7068740863457
 20
-8.248496126799424
 30
0.0
 10
31.40499606397865
 20
-8.302893818754479
 30
0.0
 10
30.03648049187229
 20
-8.549497026047977
 30
0.0
 10
27.49469873738621
 20
-8.762330784603419
 30
0.0
 10
24.08116855456569
 20
-8.841408055819562
 30
0.0
 10
20.56097302993253
 20
-8.60297693709817
 30
0.0
 10
17.04068080444337
 20
-8.073058569533439
 30
0.0
 10
13.52035016051849
 20
-7.282029148509761
 30
0.0
 10
11.17345138542889
 20
-6.552049648990753
 30
0.0
 10
9.999999999999991
 20
-6.187059277809293
 30
0.0
  0
SPLINE
  5
B4
330
1F
100
AcDbEntity
  8
0
  6
Continuous
 62
     4
370
    15
100
AcDbSpline
210
0.0
220
0.0
230
1.0
 70
    24
 71
     3
 72
    14
 73
    10
 74
     0
 42
0.000000001
 43
0.00000001
 40
0.0
 40
0.0
 40
0.0
 40
0.0
 40
0.25
 40
0.25
 40
0.5
 40
0.5
 40
0.75
 40
0.75
 40
1.0
 40
1.0
 40
1.0
 40
1.0
 10
9.999999999999991
 20
5.47559154502795
 30
0.0
 10
9.999999999999991
 20
4.658678035971968
 30
0.0
 10
9.999999999999991
 20
3.75042044171347
 30
0.0
 10
9.999999999999991
 20
1.815425656404473
 30
0.0
 10
9.999999999999991
 20
0.7893987511539596
 30
0.0
 10
9.999999999999991
 20
-1.283390547233984
 30
0.0
 10
9.999999999999991
 20
-2.329048471573601
 30
0.0
 10
9.999999999999991
 20
-4.338843782521208
 30
0.0
 10
9.999999999999991
 20
-5.302165821954903
 30
0.0
 10
9.999999999999991
 20
-6.187059277809291
 30
0.0
  0
SPLINE
  5
B5
330
1F
100
AcDbEntity
  8
0
  6
Continuous
 62
     4
370
    15
100
AcDbSpline
210
0.0
220
0.0
230
1.0
 70
    24
 71
     3
 72
    14
 73
    10
 74
     0
 42
0.000000001
 43
0.00000001
 40
0.0
 40
0.0
 40
0.0
 40
0.0
 40
0.1680607461245171
 40
0.336121492249034
 40
0.459249808647989
 40
0.5823781250469441
 40
0.7090835854373295
 40
0.8357890458277151
 40
1.0
 40
1.0
 40
1.0
 40
1.0
 10
9.999999999999991
 20
-6.187059277809293
 30
0.0
 10
9.999999999999991
 20
-6.461386790302332
 30
0.0
 10
9.999999999999991
 20
-7.010041815288409
 30
0.0
 10
9.999999999999991
 20
-7.610299986461415
 30
0.0
 10
9.999999999999991
 20
-8.057745748216272
 30
0.0
 10
9.999999999999991
 20
-8.38165056818367
 30
0.0
 10
9.999999999999991
 20
-8.621608497534826
 30
0.0
 10
9.999999999999991
 20
-8.808728927748689
 30
0.0
 10
9.999999999999991
 20
-8.813403273450533
 30
0.0
 10
9.999999999999995
 20
-8.816041759040917
 30
0.0
  0
LINE
  5
B6
330
1F
100
AcDbEntity
  8
0
  6
Continuous
 62
     1
370
    15
100
AcDbLine
 10
54.99999999999999
 20
0.0000000000000061
 30
0.0
 11
54.99999999999999
 21
7.700000000000006
 31
0.0
  0
SPLINE
  5
B7
330
1F
100
AcDbEntity
  8
0
  6
Continuous
 62
     1
370
    15
100
AcDbSpline
210
0.0
220
0.0
230
1.0
 70
     8
 71
     3
 72
    13
 73
     9
 74
     0
 42
0.000000001
 43
0.00000001
 40
0.0
 40
0.0
 40
0.0
 40
0.0
 40
0.0639165626938546
 40
0.2511138495333651
 40
0.4382928483103221
 40
0.6254815719810792
 40
0.8127080022794394
 40
1.0
 40
1.0
 40
1.0
 40
1.0
 10
39.89276170494095
 20
7.372470303899684
 30
0.0
 10
40.21463992115872
 20
7.514990733329591
 30
0.0
 10
41.47922729176758
 20
8.074921558188114
 30
0.0
 10
43.68627045915542
 20
8.881589087404324
 30
0.0
 10
46.51404449286061
 20
9.762108464529625
 30
0.0
 10
49.34198800772894
 20
10.41225236895169
 30
0.0
 10
52.17059765526637
 20
10.85365028605229
 30
0.0
 10
54.05675581437833
 20
10.94501340868174
 30
0.0
 10
54.99999999999999
 20
10.99070296752608
 30
0.0
  0
SPLINE
  5
B8
330
1F
100
AcDbEntity
  8
0
  6
Continuous
 62
     1
370
    15
100
AcDbSpline
210
0.0
220
0.0
230
1.0
 70
    24
 71
     3
 72
    10
 73
     6
 74
     0
 42
0.000000001
 43
0.00000001
 40
0.0
 40
0.0
 40
0.0
 40
0.0
 40
0.5
 40
0.5
 40
1.0
 40
1.0
 40
1.0
 40
1.0
 10
54.99999999999999
 20
7.700000000000006
 30
0.0
 10
54.99999999999999
 20
8.166754824880458
 30
0.0
 10
54.99999999999999
 20
8.709167157538293
 30
0.0
 10
54.99999999999998
 20
9.847146770569413
 30
0.0
 10
54.99999999999999
 20
10.4398077938162
 30
0.0
 10
54.99999999999999
 20
10.99070296752609
 30
0.0
  0
SPLINE
  5
B9
330
1F
100
AcDbEntity
  8
0
  6
Continuous
 62
     1
370
    15
100
AcDbSpline
210
0.0
220
0.0
230
1.0
 70
     8
 71
     3
 72
     9
 73
     5
 74
     0
 42
0.000000001
 43
0.00000001
 40
0.0
 40
0.0
 40
0.0
 40
0.0
 40
0.2741183685927372
 40
1.0
 40
1.0
 40
1.0
 40
1.0
 10
13.8956653368807
 20
-8.645544661604694
 30
0.0
 10
13.53969633596731
 20
-8.77831777317754
 30
0.0
 10
12.24110039458311
 20
-9.262681926716303
 30
0.0
 10
10.94257542403865
 20
-9.610248619358726
 30
0.0
 10
9.999999999996772
 20
-9.862540897236833
 30
0.0
  0
SPLINE
  5
BA
330
1F
100
AcDbEntity
  8
0
  6
Continuous
 62
     4
370
    15
100
AcDbSpline
210
0.0
220
0.0
230
1.0
 70
    24
 71
     3
 72
    12
 73
     8
 74
     0
 42
0.000000001
 43
0.00000001
 40
0.0
 40
0.0
 40
0.0
 40
0.0
 40
0.0514060221391139
 40
0.3080576148152296
 40
0.564411057430256
 40
0.8210626501063699
 40
1.0
 40
1.0
 40
1.0
 40
1.0
 10
9.999999999999995
 20
-8.842387746803023
 30
0.0
 10
9.999999999999995
 20
-8.86123360439789
 30
0.0
 10
9.999999999999995
 20
-8.974169982243087
 30
0.0
 10
9.999999999999995
 20
-9.172777141623575
 30
0.0
 10
9.999999999999991
 20
-9.437285642668956
 30
0.0
 10
9.999999999999991
 20
-9.6666393910106
 30
0.0
 10
9.999999999999991
 20
-9.805498429241759
 30
0.0
 10
9.999999999999995
 20
-9.862540897223793
 30
0.0
  0
LINE
  5
BB
330
1F
100
AcDbEntity
  8
중심선
100
AcDbLine
 10
-57.99999999999999
 20
-0.0000000000000035
 30
0.0
 11
57.99999999999997
 21
-0.0000000000000035
 31
0.0
  0
CIRCLE
  5
BC
330
1F
100
AcDbEntity
  8
외형선
100
AcDbCircle
 10
0.0000000000000087
 20
-0.0000000000000035
 30
0.0
 40
3.000000000000004
  0
INSERT
  5
BD
330
1F
100
AcDbEntity
  8
0
  6
Continuous
 62
     7
100
AcDbBlockReference
 66
     1
  2
블럭10
 10
-23.93827343951161
 20
-52.04717430164393
 30
0.0
  0
ATTRIB
  5
BE
330
BD
100
AcDbEntity
  8
FORMAT
 62
     2
100
AcDbText
 10
-36.89821263436938
 20
-49.97180738881174
 30
0.0
 40
4.233333333333333
  1
SEME35220E [ 2 FLUTE ]
 41
0.75
  7
SLDTEXTSTYLE0
 11
-36.89821263436938
 21
-52.08847405547841
 31
0.0
100
AcDbAttribute
  2
AUTOATTR0
 70
     0
 74
     1
  0
SEQEND
  5
BF
330
BD
100
AcDbEntity
  8
0
  6
Continuous
 62
     7
  0
HATCH
  5
C0
330
1F
100
AcDbEntity
  8
중심선
100
AcDbHatch
 10
0.0
 20
0.0
 30
0.0
210
0.0
220
0.0
230
1.0
  2
SOLID
 70
     1
 71
     0
 91
        1
 92
        0
 93
        4
 72
     1
 10
-18.22336413513076
 20
-35.8
 11
-21.66963937896804
 21
-35.8
 72
     1
 10
-21.66963937896804
 20
-35.8
 11
-23.79786923817207
 21
-38.33632558057259
 72
     1
 10
-23.79786923817207
 20
-38.33632558057259
 11
-20.35156090922163
 21
-38.3362861512701
 72
     1
 10
-20.35156090922163
 20
-38.3362861512701
 11
-18.22336413513076
 21
-35.8
 97
        0
 75
     0
 76
     1
 98
        1
 10
0.0
 20
0.0
  0
HATCH
  5
C1
330
1F
100
AcDbEntity
  8
중심선
100
AcDbHatch
 10
0.0
 20
0.0
 30
0.0
210
0.0
220
0.0
230
1.0
  2
SOLID
 70
     1
 71
     0
 91
        1
 92
        0
 93
        4
 72
     1
 10
-13.21060014409481
 20
-35.8
 11
-16.65687538793209
 21
-35.8
 72
     1
 10
-16.65687538793209
 20
-35.8
 11
-21.18801339628948
 21
-41.20000000000002
 72
     1
 10
-21.18801339628948
 20
-41.20000000000002
 11
-17.7417381524522
 21
-41.20000000000002
 72
     1
 10
-17.7417381524522
 20
-41.20000000000002
 11
-13.21060014409481
 21
-35.8
 97
        0
 75
     0
 76
     1
 98
        1
 10
0.0
 20
0.0
  0
HATCH
  5
C2
330
1F
100
AcDbEntity
  8
중심선
100
AcDbHatch
 10
0.0
 20
0.0
 30
0.0
210
0.0
220
0.0
230
1.0
  2
SOLID
 70
     1
 71
     0
 91
        1
 92
        0
 93
        4
 72
     1
 10
-8.197836153058912
 20
-35.80000000000003
 11
-11.64411139689603
 21
-35.8
 72
     1
 10
-11.64411139689603
 20
-35.8
 11
-18.69254829878528
 21
-44.20000000000002
 72
     1
 10
-18.69254829878528
 20
-44.20000000000002
 11
-15.246273054948
 21
-44.20000000000002
 72
     1
 10
-15.246273054948
 20
-44.20000000000002
 11
-8.197836153058912
 21
-35.80000000000003
 97
        0
 75
     0
 76
     1
 98
        1
 10
0.0
 20
0.0
  0
HATCH
  5
C3
330
1F
100
AcDbEntity
  8
중심선
100
AcDbHatch
 10
0.0
 20
0.0
 30
0.0
210
0.0
220
0.0
230
1.0
  2
SOLID
 70
     1
 71
     0
 91
        1
 92
        0
 93
        6
 72
     3
 10
-3.397945722046714
 20
-40.00000000005127
 11
3.960054785062284
 21
1.540850780301639E-10
 40
0.3939339440162633
 50
17.09539180608433
 51
320.0019657685079
 73
     0
 72
     1
 10
-1.714946066346118
 20
-38.5878940046383
 11
0.5903558073549198
 21
-36.65356729459038
 72
     3
 10
-3.39794572209956
 20
-40.00000000000015
 11
6.600054785286829
 21
-1.249000902703301E-13
 40
0.6363583540795982
 50
39.99873849337408
 51
368.4976242363725
 73
     1
 72
     1
 10
3.027386769801049
 20
-39.03999999993002
 11
-4.717878415263637
 21
-39.03999999992999
 72
     1
 10
-4.717878415263637
 20
-39.03999999992999
 11
-4.717903459709571
 21
-40.95999999992991
 72
     1
 10
-4.717903459709571
 20
-40.95999999992991
 11
-0.2765236902375348
 21
-40.95999999992988
 97
        0
 75
     0
 76
     1
 98
        1
 10
0.0
 20
0.0
  0
DIMENSION
  5
C4
330
1F
100
AcDbEntity
  8
치수문자_일반주서
100
AcDbDimension
  2
_D
 10
9.999999999999991
 20
23.24133685610387
 30
0.0
 11
32.49999999999999
 21
23.24133685610387
 31
0.0
 70
   160
  1
<>
 71
     2
 42
-1.0
  3
SLDDIMSTYLE0
100
AcDbAlignedDimension
 13
54.99999999999999
 23
10.99070296752609
 33
0.0
 14
9.999999999999991
 24
9.862540897223793
 34
0.0
100
AcDbRotatedDimension
  0
DIMENSION
  5
CF
330
1F
100
AcDbEntity
  8
치수문자_일반주서
100
AcDbDimension
  2
_D_1
 10
-45.00000000000001
 20
30.48415911661226
 30
0.0
 11
0.0000000000000052
 21
30.48415911661226
 31
0.0
 70
   160
  1
<>
 71
     2
 42
100.0
  3
SLDDIMSTYLE0
100
AcDbAlignedDimension
 13
54.99999999999999
 23
7.700000000000006
 33
0.0
 14
-45.00000000000001
 24
8.227203194774608
 34
0.0
 50
0.0000000000000037
100
AcDbRotatedDimension
  0
DIMENSION
  5
D9
330
1F
100
AcDbEntity
  8
치수문자_일반주서
100
AcDbDimension
  2
_D_2
 10
70.5661903122463
 20
-10.99070296752603
 30
0.0
 11
70.56619031224628
 21
0.0000000000000029
 31
0.0
 70
   160
  1
%%c<>
 71
     2
 42
22.00316039719196
  3
SLDDIMSTYLE1
100
AcDbAlignedDimension
 13
54.99999999999999
 23
11.01245742966588
 33
0.0
 14
54.99999999999999
 24
-10.99070296752608
 34
0.0
 50
90.0000000000002
100
AcDbRotatedDimension
  0
DIMENSION
  5
E7
330
1F
100
AcDbEntity
  8
치수문자_일반주서
100
AcDbDimension
  2
_D_3
 10
-66.4195594453885
 20
-10.00000000000008
 30
0.0
 11
-66.41955944538854
 21
-0.000000000000001
 31
0.0
 70
   160
  1
%%c<>
 71
     2
 42
20.0
  3
SLDDIMSTYLE1
100
AcDbAlignedDimension
 13
-43.51009630199142
 23
10.00000000000001
 33
0.0
 14
-43.51009630199145
 24
-9.999999999999993
 34
0.0
 50
90.0000000000002
100
AcDbRotatedDimension
  0
INSERT
  5
FA
330
1F
100
AcDbEntity
  8
외형선
100
AcDbBlockReference
  2
SW_DOWELSYMBOL_0
 10
0.0000000000000087
 20
-0.0000000000000035
 30
0.0
  0
LINE
  5
121
330
1F
100
AcDbEntity
  8
0
  6
Continuous
 62
     4
370
    15
100
AcDbLine
 10
-45.00000000000001
 20
8.227203194774608
 30
0.0
 11
-45.00000000000001
 21
-8.227203194774619
 31
0.0
  0
LINE
  5
122
330
1F
100
AcDbEntity
  8
0
  6
Continuous
 62
     4
370
    15
100
AcDbLine
 10
-43.51009630199142
 20
10.00000000000001
 30
0.0
 11
-45.00000000000001
 21
8.227203194774608
 31
0.0
  0
LINE
  5
123
330
1F
100
AcDbEntity
  8
0
  6
Continuous
 62
     4
370
    15
100
AcDbLine
 10
-43.51009630199142
 20
-10.00000000000002
 30
0.0
 11
-45.00000000000001
 21
-8.227203194774615
 31
0.0
  0
LINE
  5
124
330
1F
100
AcDbEntity
  8
0
  6
Continuous
 62
     4
370
    15
100
AcDbLine
 10
-43.51009630199142
 20
10.00000000000001
 30
0.0
 11
-43.51009630199142
 21
-10.00000000000002
 31
0.0
  0
ENDSEC
  0
SECTION
  2
OBJECTS
  0
DICTIONARY
  5
C
330
0
100
AcDbDictionary
281
     1
  3
ACAD_GROUP
350
D
  3
ACAD_IMAGE_VARS
350
11E
  3
ACAD_LAYOUT
350
1A
  3
ACAD_MLINESTYLE
350
17
  3
ACAD_PLOTSETTINGS
350
19
  3
ACAD_PLOTSTYLENAME
350
E
  3
ACAD_SCALELIST
350
47
  3
APPDATA
350
11C
  3
DWGPROPS
350
129
  0
DICTIONARY
  5
D
102
{ACAD_REACTORS
330
C
102
}
330
C
100
AcDbDictionary
281
     1
  0
RASTERVARIABLES
  5
11E
102
{ACAD_REACTORS
330
C
102
}
330
C
100
AcDbRasterVariables
 90
        0
 70
     1
 71
     1
 72
     1
  0
DICTIONARY
  5
1A
102
{ACAD_REACTORS
330
C
102
}
330
C
100
AcDbDictionary
281
     1
  3
Layout1
350
1E
  3
Layout2
350
26
  3
Model
350
22
  0
DICTIONARY
  5
17
102
{ACAD_REACTORS
330
C
102
}
330
C
100
AcDbDictionary
281
     1
  3
Standard
350
18
  0
DICTIONARY
  5
19
102
{ACAD_REACTORS
330
C
102
}
330
C
100
AcDbDictionary
281
     1
  0
ACDBDICTIONARYWDFLT
  5
E
102
{ACAD_REACTORS
330
C
102
}
330
C
100
AcDbDictionary
281
     1
  3
Normal
350
F
100
AcDbDictionaryWithDefault
340
F
  0
DICTIONARY
  5
47
102
{ACAD_REACTORS
330
C
102
}
330
C
100
AcDbDictionary
281
     1
  3
A0
350
48
  3
A1
350
49
  3
A2
350
4A
  3
A3
350
4B
  3
A4
350
4C
  3
A5
350
4D
  3
A6
350
4E
  3
A7
350
4F
  3
A8
350
50
  3
A9
350
51
  3
B0
350
52
  3
B1
350
53
  3
B2
350
54
  3
B3
350
55
  3
B4
350
56
  3
B5
350
57
  3
B6
350
58
  3
B7
350
59
  3
B8
350
5A
  3
B9
350
5B
  3
C0
350
5C
  3
C1
350
5D
  3
C2
350
5E
  3
C3
350
5F
  3
C4
350
60
  3
C5
350
61
  3
C6
350
62
  3
C7
350
63
  3
C8
350
64
  3
C9
350
65
  3
D0
350
66
  3
D1
350
67
  3
D2
350
68
  0
DICTIONARY
  5
11C
102
{ACAD_REACTORS
330
C
102
}
330
C
100
AcDbDictionary
281
     1
  0
XRECORD
  5
129
102
{ACAD_REACTORS
330
C
102
}
330
C
100
AcDbXrecord
280
     1
  1
DWGPROPS COOKIE
  2

  3

  4

  6

  7

  8
12016016
  9

300
=
301
=
302
=
303
=
304
=
305
=
306
=
307
=
308
=
309
=
 40
0.0
 41
2458250.19320022
 42
2458269.395679028
  1

 90
        0
  0
LAYOUT
  5
1E
102
{ACAD_REACTORS
330
1A
102
}
330
1A
100
AcDbPlotSettings
  1

  2
none_device
  4

  6

 40
0.0
 41
0.0
 42
0.0
 43
0.0
 44
0.0
 45
0.0
 46
0.0
 47
0.0
 48
0.0
 49
0.0
140
0.0
141
0.0
142
1.0
143
1.0
 70
   688
 72
     1
 73
     0
 74
     5
  7

 75
    16
147
1.0
148
0.0
149
0.0
100
AcDbLayout
  1
Layout1
 70
     1
 71
     1
 10
0.0
 20
0.0
 11
420.0
 21
297.0
 12
0.0
 22
0.0
 32
0.0
 14
1.000000000000000E+20
 24
1.000000000000000E+20
 34
1.000000000000000E+20
 15
-1.000000000000000E+20
 25
-1.000000000000000E+20
 35
-1.000000000000000E+20
146
0.0
 13
0.0
 23
0.0
 33
0.0
 16
1.0
 26
0.0
 36
0.0
 17
0.0
 27
1.0
 37
0.0
 76
     0
330
1B
  0
LAYOUT
  5
26
102
{ACAD_REACTORS
330
1A
102
}
330
1A
100
AcDbPlotSettings
  1

  2
none_device
  4

  6

 40
0.0
 41
0.0
 42
0.0
 43
0.0
 44
0.0
 45
0.0
 46
0.0
 47
0.0
 48
0.0
 49
0.0
140
0.0
141
0.0
142
1.0
143
1.0
 70
   688
 72
     1
 73
     0
 74
     5
  7

 75
    16
147
1.0
148
0.0
149
0.0
100
AcDbLayout
  1
Layout2
 70
     1
 71
     2
 10
0.0
 20
0.0
 11
0.0
 21
0.0
 12
0.0
 22
0.0
 32
0.0
 14
0.0
 24
0.0
 34
0.0
 15
0.0
 25
0.0
 35
0.0
146
0.0
 13
0.0
 23
0.0
 33
0.0
 16
1.0
 26
0.0
 36
0.0
 17
0.0
 27
1.0
 37
0.0
 76
     0
330
23
  0
LAYOUT
  5
22
102
{ACAD_REACTORS
330
1A
102
}
330
1A
100
AcDbPlotSettings
  1

  2
none_device
  4
ANSI_A_(11.00_x_8.50_Inches)
  6

 40
6.35
 41
19.05
 42
6.35000508
 43
19.05000254
 44
279.4
 45
215.9
 46
132.7859019798055
 47
104.1514300555503
 48
0.0
 49
0.0
140
0.0
141
0.0
142
0.0763937336837208
143
1.0
 70
  1696
 72
     0
 73
     0
 74
     0
  7

 75
     0
147
0.0235690232323232
148
0.0
149
0.0
100
AcDbLayout
  1
Model
 70
     1
 71
     0
 10
0.0
 20
0.0
 11
420.0
 21
297.0
 12
0.0
 22
0.0
 32
0.0
 14
-70.79455944538856
 24
-49.97180738881175
 34
0.0
 15
71.11652364557962
 25
34.85915911661226
 35
0.0
146
0.0
 13
0.0
 23
0.0
 33
0.0
 16
1.0
 26
0.0
 36
0.0
 17
0.0
 27
1.0
 37
0.0
 76
     0
330
1F
331
29
  0
MLINESTYLE
  5
18
102
{ACAD_REACTORS
330
17
102
}
330
17
100
AcDbMlineStyle
  2
Standard
 70
     0
  3

 62
   256
 51
90.0
 52
90.0
 71
     2
 49
0.5
 62
   256
  6
BYLAYER
 49
-0.5
 62
   256
  6
BYLAYER
  0
ACDBPLACEHOLDER
  5
F
102
{ACAD_REACTORS
330
E
102
}
330
E
  0
SCALE
  5
48
102
{ACAD_REACTORS
330
47
102
}
330
47
100
AcDbScale
 70
     0
300
1:1
140
1.0
141
1.0
290
     1
  0
SCALE
  5
49
102
{ACAD_REACTORS
330
47
102
}
330
47
100
AcDbScale
 70
     0
300
1:2
140
1.0
141
2.0
290
     0
  0
SCALE
  5
4A
102
{ACAD_REACTORS
330
47
102
}
330
47
100
AcDbScale
 70
     0
300
1:4
140
1.0
141
4.0
290
     0
  0
SCALE
  5
4B
102
{ACAD_REACTORS
330
47
102
}
330
47
100
AcDbScale
 70
     0
300
1:5
140
1.0
141
5.0
290
     0
  0
SCALE
  5
4C
102
{ACAD_REACTORS
330
47
102
}
330
47
100
AcDbScale
 70
     0
300
1:8
140
1.0
141
8.0
290
     0
  0
SCALE
  5
4D
102
{ACAD_REACTORS
330
47
102
}
330
47
100
AcDbScale
 70
     0
300
1:10
140
1.0
141
10.0
290
     0
  0
SCALE
  5
4E
102
{ACAD_REACTORS
330
47
102
}
330
47
100
AcDbScale
 70
     0
300
1:16
140
1.0
141
16.0
290
     0
  0
SCALE
  5
4F
102
{ACAD_REACTORS
330
47
102
}
330
47
100
AcDbScale
 70
     0
300
1:20
140
1.0
141
20.0
290
     0
  0
SCALE
  5
50
102
{ACAD_REACTORS
330
47
102
}
330
47
100
AcDbScale
 70
     0
300
1:30
140
1.0
141
30.0
290
     0
  0
SCALE
  5
51
102
{ACAD_REACTORS
330
47
102
}
330
47
100
AcDbScale
 70
     0
300
1:40
140
1.0
141
40.0
290
     0
  0
SCALE
  5
52
102
{ACAD_REACTORS
330
47
102
}
330
47
100
AcDbScale
 70
     0
300
1:50
140
1.0
141
50.0
290
     0
  0
SCALE
  5
53
102
{ACAD_REACTORS
330
47
102
}
330
47
100
AcDbScale
 70
     0
300
1:100
140
1.0
141
100.0
290
     0
  0
SCALE
  5
54
102
{ACAD_REACTORS
330
47
102
}
330
47
100
AcDbScale
 70
     0
300
2:1
140
2.0
141
1.0
290
     0
  0
SCALE
  5
55
102
{ACAD_REACTORS
330
47
102
}
330
47
100
AcDbScale
 70
     0
300
4:1
140
4.0
141
1.0
290
     0
  0
SCALE
  5
56
102
{ACAD_REACTORS
330
47
102
}
330
47
100
AcDbScale
 70
     0
300
8:1
140
8.0
141
1.0
290
     0
  0
SCALE
  5
57
102
{ACAD_REACTORS
330
47
102
}
330
47
100
AcDbScale
 70
     0
300
10:1
140
10.0
141
1.0
290
     0
  0
SCALE
  5
58
102
{ACAD_REACTORS
330
47
102
}
330
47
100
AcDbScale
 70
     0
300
100:1
140
100.0
141
1.0
290
     0
  0
SCALE
  5
59
102
{ACAD_REACTORS
330
47
102
}
330
47
100
AcDbScale
 70
     0
300
1/128" = 1'-0"
140
0.0078125
141
12.0
290
     0
  0
SCALE
  5
5A
102
{ACAD_REACTORS
330
47
102
}
330
47
100
AcDbScale
 70
     0
300
1/64" = 1'-0"
140
0.015625
141
12.0
290
     0
  0
SCALE
  5
5B
102
{ACAD_REACTORS
330
47
102
}
330
47
100
AcDbScale
 70
     0
300
1/32" = 1'-0"
140
0.03125
141
12.0
290
     0
  0
SCALE
  5
5C
102
{ACAD_REACTORS
330
47
102
}
330
47
100
AcDbScale
 70
     0
300
1/16" = 1'-0"
140
0.0625
141
12.0
290
     0
  0
SCALE
  5
5D
102
{ACAD_REACTORS
330
47
102
}
330
47
100
AcDbScale
 70
     0
300
3/32" = 1'-0"
140
0.09375
141
12.0
290
     0
  0
SCALE
  5
5E
102
{ACAD_REACTORS
330
47
102
}
330
47
100
AcDbScale
 70
     0
300
1/8" = 1'-0"
140
0.125
141
12.0
290
     0
  0
SCALE
  5
5F
102
{ACAD_REACTORS
330
47
102
}
330
47
100
AcDbScale
 70
     0
300
3/16" = 1'-0"
140
0.1875
141
12.0
290
     0
  0
SCALE
  5
60
102
{ACAD_REACTORS
330
47
102
}
330
47
100
AcDbScale
 70
     0
300
1/4" = 1'-0"
140
0.25
141
12.0
290
     0
  0
SCALE
  5
61
102
{ACAD_REACTORS
330
47
102
}
330
47
100
AcDbScale
 70
     0
300
3/8" = 1'-0"
140
0.375
141
12.0
290
     0
  0
SCALE
  5
62
102
{ACAD_REACTORS
330
47
102
}
330
47
100
AcDbScale
 70
     0
300
1/2" = 1'-0"
140
0.5
141
12.0
290
     0
  0
SCALE
  5
63
102
{ACAD_REACTORS
330
47
102
}
330
47
100
AcDbScale
 70
     0
300
3/4" = 1'-0"
140
0.75
141
12.0
290
     0
  0
SCALE
  5
64
102
{ACAD_REACTORS
330
47
102
}
330
47
100
AcDbScale
 70
     0
300
1" = 1'-0"
140
1.0
141
12.0
290
     0
  0
SCALE
  5
65
102
{ACAD_REACTORS
330
47
102
}
330
47
100
AcDbScale
 70
     0
300
1-1/2" = 1'-0"
140
1.5
141
12.0
290
     0
  0
SCALE
  5
66
102
{ACAD_REACTORS
330
47
102
}
330
47
100
AcDbScale
 70
     0
300
3" = 1'-0"
140
3.0
141
12.0
290
     0
  0
SCALE
  5
67
102
{ACAD_REACTORS
330
47
102
}
330
47
100
AcDbScale
 70
     0
300
6" = 1'-0"
140
6.0
141
12.0
290
     0
  0
SCALE
  5
68
102
{ACAD_REACTORS
330
47
102
}
330
47
100
AcDbScale
 70
     0
300
1'-0" = 1'-0"
140
12.0
141
12.0
290
     0
  0
ENDSEC
  0
EOF
