  0
SECTION
  2
HEADER
  9
$ACADVER
  1
AC1015
  9
$ACADMAINTVER
 70
     6
  9
$DWGCODEPAGE
  3
ANSI_949
  9
$INSBASE
 10
0.0
 20
0.0
 30
0.0
  9
$EXTMIN
 10
-70.79455944538856
 20
-49.97180738881175
 30
0.0
  9
$EXTMAX
 10
71.11652364557962
 20
34.50915911661227
 30
0.0
  9
$LIMMIN
 10
0.0
 20
0.0
  9
$LIMMAX
 10
420.0
 20
297.0
  9
$ORTHOMODE
 70
     0
  9
$REGENMODE
 70
     1
  9
$FILLMODE
 70
     1
  9
$QTEXTMODE
 70
     0
  9
$MIRRTEXT
 70
     1
  9
$LTSCALE
 40
1.0
  9
$ATTMODE
 70
     1
  9
$TEXTSIZE
 40
3.5
  9
$TRACEWID
 40
1.0
  9
$TEXTSTYLE
  7
Standard
  9
$CLAYER
  8
0
  9
$CELTYPE
  6
ByLayer
  9
$CECOLOR
 62
   256
  9
$CELTSCALE
 40
1.0
  9
$DISPSILH
 70
     0
  9
$DIMSCALE
 40
1.0
  9
$DIMASZ
 40
3.302
  9
$DIMEXO
 40
1.0
  9
$DIMDLI
 40
3.75
  9
$DIMRND
 40
0.0
  9
$DIMDLE
 40
0.0
  9
$DIMEXE
 40
1.0
  9
$DIMTP
 40
0.0
  9
$DIMTM
 40
0.0
  9
$DIMTXT
 40
3.5
  9
$DIMCEN
 40
2.5
  9
$DIMTSZ
 40
0.0
  9
$DIMTOL
 70
     0
  9
$DIMLIM
 70
     0
  9
$DIMTIH
 70
     1
  9
$DIMTOH
 70
     1
  9
$DIMSE1
 70
     0
  9
$DIMSE2
 70
     0
  9
$DIMTAD
 70
     1
  9
$DIMZIN
 70
     0
  9
$DIMBLK
  1

  9
$DIMASO
 70
     1
  9
$DIMSHO
 70
     1
  9
$DIMPOST
  1

  9
$DIMAPOST
  1

  9
$DIMALT
 70
     0
  9
$DIMALTD
 70
     3
  9
$DIMALTF
 40
0.0393700787401575
  9
$DIMLFAC
 40
1.0
  9
$DIMTOFL
 70
     1
  9
$DIMTVP
 40
0.0
  9
$DIMTIX
 70
     0
  9
$DIMSOXD
 70
     0
  9
$DIMSAH
 70
     0
  9
$DIMBLK1
  1

  9
$DIMBLK2
  1

  9
$DIMSTYLE
  2
ISO-25
  9
$DIMCLRD
 70
     0
  9
$DIMCLRE
 70
     0
  9
$DIMCLRT
 70
     0
  9
$DIMTFAC
 40
1.0
  9
$DIMGAP
 40
1.524
  9
$DIMJUST
 70
     0
  9
$DIMSD1
 70
     0
  9
$DIMSD2
 70
     0
  9
$DIMTOLJ
 70
     0
  9
$DIMTZIN
 70
     0
  9
$DIMALTZ
 70
     0
  9
$DIMALTTZ
 70
     0
  9
$DIMUPT
 70
     0
  9
$DIMDEC
 70
     2
  9
$DIMTDEC
 70
     2
  9
$DIMALTU
 70
     2
  9
$DIMALTTD
 70
     3
  9
$DIMTXSTY
  7
Standard
  9
$DIMAUNIT
 70
     0
  9
$DIMADEC
 70
     2
  9
$DIMALTRND
 40
0.0
  9
$DIMAZIN
 70
     0
  9
$DIMDSEP
 70
    44
  9
$DIMATFIT
 70
     3
  9
$DIMFRAC
 70
     0
  9
$DIMLDRBLK
  1

  9
$DIMLUNIT
 70
     2
  9
$DIMLWD
 70
    -2
  9
$DIMLWE
 70
    -2
  9
$DIMTMOVE
 70
     0
  9
$LUNITS
 70
     2
  9
$LUPREC
 70
     2
  9
$SKETCHINC
 40
1.0
  9
$FILLETRAD
 40
10.0
  9
$AUNITS
 70
     0
  9
$AUPREC
 70
     2
  9
$MENU
  1
.
  9
$ELEVATION
 40
0.0
  9
$PELEVATION
 40
0.0
  9
$THICKNESS
 40
0.0
  9
$LIMCHECK
 70
     0
  9
$CHAMFERA
 40
0.0
  9
$CHAMFERB
 40
0.0
  9
$CHAMFERC
 40
0.0
  9
$CHAMFERD
 40
0.0
  9
$SKPOLY
 70
     0
  9
$TDCREATE
 40
2458250.568003044
  9
$TDUCREATE
 40
2458250.193003044
  9
$TDUPDATE
 40
2458269.771955301
  9
$TDUUPDATE
 40
2458269.396955301
  9
$TDINDWG
 40
0.0012523495
  9
$TDUSRTIMER
 40
2458269.395703195
  9
$USRTIMER
 70
     1
  9
$ANGBASE
 50
0.0
  9
$ANGDIR
 70
     0
  9
$PDMODE
 70
     0
  9
$PDSIZE
 40
-1.0
  9
$PLINEWID
 40
0.0
  9
$SPLFRAME
 70
     0
  9
$SPLINETYPE
 70
     6
  9
$SPLINESEGS
 70
     8
  9
$HANDSEED
  5
12D
  9
$SURFTAB1
 70
     6
  9
$SURFTAB2
 70
     6
  9
$SURFTYPE
 70
     6
  9
$SURFU
 70
     6
  9
$SURFV
 70
     6
  9
$UCSBASE
  2

  9
$UCSNAME
  2

  9
$UCSORG
 10
0.0
 20
0.0
 30
0.0
  9
$UCSXDIR
 10
1.0
 20
0.0
 30
0.0
  9
$UCSYDIR
 10
0.0
 20
1.0
 30
0.0
  9
$UCSORTHOREF
  2

  9
$UCSORTHOVIEW
 70
     0
  9
$UCSORGTOP
 10
0.0
 20
0.0
 30
0.0
  9
$UCSORGBOTTOM
 10
0.0
 20
0.0
 30
0.0
  9
$UCSORGLEFT
 10
0.0
 20
0.0
 30
0.0
  9
$UCSORGRIGHT
 10
0.0
 20
0.0
 30
0.0
  9
$UCSORGFRONT
 10
0.0
 20
0.0
 30
0.0
  9
$UCSORGBACK
 10
0.0
 20
0.0
 30
0.0
  9
$PUCSBASE
  2

  9
$PUCSNAME
  2

  9
$PUCSORG
 10
0.0
 20
0.0
 30
0.0
  9
$PUCSXDIR
 10
1.0
 20
0.0
 30
0.0
  9
$PUCSYDIR
 10
0.0
 20
1.0
 30
0.0
  9
$PUCSORTHOREF
  2

  9
$PUCSORTHOVIEW
 70
     0
  9
$PUCSORGTOP
 10
0.0
 20
0.0
 30
0.0
  9
$PUCSORGBOTTOM
 10
0.0
 20
0.0
 30
0.0
  9
$PUCSORGLEFT
 10
0.0
 20
0.0
 30
0.0
  9
$PUCSORGRIGHT
 10
0.0
 20
0.0
 30
0.0
  9
$PUCSORGFRONT
 10
0.0
 20
0.0
 30
0.0
  9
$PUCSORGBACK
 10
0.0
 20
0.0
 30
0.0
  9
$USERI1
 70
     0
  9
$USERI2
 70
     0
  9
$USERI3
 70
     0
  9
$USERI4
 70
     0
  9
$USERI5
 70
     0
  9
$USERR1
 40
0.0
  9
$USERR2
 40
0.0
  9
$USERR3
 40
0.0
  9
$USERR4
 40
0.0
  9
$USERR5
 40
0.0
  9
$WORLDVIEW
 70
     1
  9
$SHADEDGE
 70
     3
  9
$SHADEDIF
 70
    70
  9
$TILEMODE
 70
     1
  9
$MAXACTVP
 70
    64
  9
$PINSBASE
 10
0.0
 20
0.0
 30
0.0
  9
$PLIMCHECK
 70
     0
  9
$PEXTMIN
 10
1.000000000000000E+20
 20
1.000000000000000E+20
 30
1.000000000000000E+20
  9
$PEXTMAX
 10
-1.000000000000000E+20
 20
-1.000000000000000E+20
 30
-1.000000000000000E+20
  9
$PLIMMIN
 10
0.0
 20
0.0
  9
$PLIMMAX
 10
0.0
 20
0.0
  9
$UNITMODE
 70
     0
  9
$VISRETAIN
 70
     1
  9
$PLINEGEN
 70
     0
  9
$PSLTSCALE
 70
     1
  9
$TREEDEPTH
 70
  3020
  9
$CMLSTYLE
  2
Standard
  9
$CMLJUST
 70
     0
  9
$CMLSCALE
 40
20.0
  9
$PROXYGRAPHICS
 70
     1
  9
$MEASUREMENT
 70
     1
  9
$CELWEIGHT
370
    -1
  9
$ENDCAPS
280
     0
  9
$JOINSTYLE
280
     0
  9
$LWDISPLAY
290
     1
  9
$INSUNITS
 70
     4
  9
$HYPERLINKBASE
  1

  9
$STYLESHEET
  1

  9
$XEDIT
290
     1
  9
$CEPSNTYPE
380
     0
  9
$PSTYLEMODE
290
     1
  9
$FINGERPRINTGUID
  2
{E290AFE6-F97A-491D-9689-5B75752C978E}
  9
$VERSIONGUID
  2
{FAEB1C32-E019-11D5-929B-00C0DF256EC4}
  9
$EXTNAMES
290
     1
  9
$PSVPSCALE
 40
0.0
  9
$OLESTARTUP
290
     0
  0
ENDSEC
  0
SECTION
  2
CLASSES
  0
CLASS
  1
ACDBDICTIONARYWDFLT
  2
AcDbDictionaryWithDefault
  3
ObjectDBX Classes
 90
        0
280
     0
281
     0
  0
CLASS
  1
VISUALSTYLE
  2
AcDbVisualStyle
  3
ObjectDBX Classes
 90
     4095
280
     0
281
     0
  0
CLASS
  1
MATERIAL
  2
AcDbMaterial
  3
ObjectDBX Classes
 90
     1153
280
     0
281
     0
  0
CLASS
  1
SCALE
  2
AcDbScale
  3
ObjectDBX Classes
 90
     1153
280
     0
281
     0
  0
CLASS
  1
SUN
  2
AcDbSun
  3
SCENEOE
 90
     1153
280
     0
281
     0
  0
CLASS
  1
ACDBPLACEHOLDER
  2
AcDbPlaceHolder
  3
ObjectDBX Classes
 90
        0
280
     0
281
     0
  0
CLASS
  1
LAYOUT
  2
AcDbLayout
  3
ObjectDBX Classes
 90
        0
280
     0
281
     0
  0
CLASS
  1
TABLESTYLE
  2
AcDbTableStyle
  3
ObjectDBX Classes
 90
     4095
280
     0
281
     0
  0
CLASS
  1
MLEADERSTYLE
  2
AcDbMLeaderStyle
  3
ACDB_MLEADERSTYLE_CLASS
 90
     4095
280
     0
281
     0
  0
CLASS
  1
RASTERVARIABLES
  2
AcDbRasterVariables
  3
ISM
 90
        0
280
     0
281
     0
  0
ENDSEC
  0
SECTION
  2
TABLES
  0
TABLE
  2
VPORT
  5
8
330
0
100
AcDbSymbolTable
 70
     1
  0
VPORT
  5
29
330
8
100
AcDbSymbolTableRecord
100
AcDbViewportTableRecord
  2
*Active
 70
     0
 10
0.0
 20
0.0
 11
1.0
 21
1.0
 12
-26.12005810593996
 22
12.45696339723527
 13
0.0
 23
0.0
 14
10.0
 24
10.0
 15
10.0
 25
10.0
 16
0.0
 26
0.0
 36
1.0
 17
0.0
 27
0.0
 37
0.0
 40
68.68076489568861
 41
1.354916067146283
 42
50.0
 43
0.0
 44
0.0
 50
0.0
 51
0.0
 71
    16
 72
  2000
 73
     1
 74
     3
 75
     0
 76
     0
 77
     0
 78
     0
281
     0
 65
     1
110
0.0
120
0.0
130
0.0
111
1.0
121
0.0
131
0.0
112
0.0
122
1.0
132
0.0
 79
     0
146
0.0
  0
ENDTAB
  0
TABLE
  2
LTYPE
  5
5
330
0
100
AcDbSymbolTable
 70
     6
  0
LTYPE
  5
14
330
5
100
AcDbSymbolTableRecord
100
AcDbLinetypeTableRecord
  2
ByBlock
 70
     0
  3

 72
    65
 73
     0
 40
0.0
  0
LTYPE
  5
15
330
5
100
AcDbSymbolTableRecord
100
AcDbLinetypeTableRecord
  2
ByLayer
 70
     0
  3

 72
    65
 73
     0
 40
0.0
  0
LTYPE
  5
16
330
5
100
AcDbSymbolTableRecord
100
AcDbLinetypeTableRecord
  2
Continuous
 70
     0
  3
Solid line
 72
    65
 73
     0
 40
0.0
  0
LTYPE
  5
6A
330
5
100
AcDbSymbolTableRecord
100
AcDbLinetypeTableRecord
  2
HIDDEN
 70
     0
  3
Hidden __ __ __ __ __ __ __ __ __ __ __ __ __ __
 72
    65
 73
     2
 40
1.905
 49
1.27
 74
     0
 49
-0.635
 74
     0
  0
LTYPE
  5
6B
330
5
100
AcDbSymbolTableRecord
100
AcDbLinetypeTableRecord
  2
PHANTOM
 70
     0
  3
Phantom ______  __  __  ______  __  __  ______
 72
    65
 73
     6
 40
12.7
 49
6.35
 74
     0
 49
-1.27
 74
     0
 49
1.27
 74
     0
 49
-1.27
 74
     0
 49
1.27
 74
     0
 49
-1.27
 74
     0
  0
LTYPE
  5
6C
330
5
100
AcDbSymbolTableRecord
100
AcDbLinetypeTableRecord
  2
CENTER
 70
     0
  3
Center ____ _ ____ _ ____ _ ____ _ ____ _ ____
 72
    65
 73
     4
 40
10.16
 49
6.35
 74
     0
 49
-1.27
 74
     0
 49
1.27
 74
     0
 49
-1.27
 74
     0
  0
LTYPE
  5
6D
330
5
100
AcDbSymbolTableRecord
100
AcDbLinetypeTableRecord
  2
CENTERX2
 70
     0
  3
Center (2x) ________  __  ________  __  _____
 72
    65
 73
     4
 40
20.32
 49
12.7
 74
     0
 49
-2.54
 74
     0
 49
2.54
 74
     0
 49
-2.54
 74
     0
  0
LTYPE
  5
6E
330
5
100
AcDbSymbolTableRecord
100
AcDbLinetypeTableRecord
  2
DOT2
 70
     0
  3
Dot (.5x) ........................................
 72
    65
 73
     2
 40
0.635
 49
0.0
 74
     0
 49
-0.635
 74
     0
  0
ENDTAB
  0
TABLE
  2
LAYER
  5
2
330
0
100
AcDbSymbolTable
 70
    17
  0
LAYER
  5
10
330
2
100
AcDbSymbolTableRecord
100
AcDbLayerTableRecord
  2
0
 70
     0
 62
     7
  6
Continuous
370
    -3
390
F
  0
LAYER
  5
6F
330
2
100
AcDbSymbolTableRecord
100
AcDbLayerTableRecord
  2
FORMAT
 70
     0
 62
     2
  6
Continuous
370
    -3
390
F
  0
LAYER
  5
70
330
2
100
AcDbSymbolTableRecord
100
AcDbLayerTableRecord
  2
외형선
 70
     0
 62
   100
  6
Continuous
370
    30
390
F
  0
LAYER
  5
71
330
2
100
AcDbSymbolTableRecord
100
AcDbLayerTableRecord
  2
숨은선
 70
     0
 62
     2
  6
HIDDEN
370
    15
390
F
  0
LAYER
  5
72
330
2
100
AcDbSymbolTableRecord
100
AcDbLayerTableRecord
  2
중심선
 70
     0
 62
     1
  6
CENTERX2
370
    -3
390
F
  0
LAYER
  5
73
330
2
100
AcDbSymbolTableRecord
100
AcDbLayerTableRecord
  2
파단선
 70
     0
 62
     4
  6
Continuous
370
    -3
390
F
  0
LAYER
  5
74
330
2
100
AcDbSymbolTableRecord
100
AcDbLayerTableRecord
  2
해칭선
 70
     0
 62
     4
  6
Continuous
370
    -3
390
F
  0
LAYER
  5
75
330
2
100
AcDbSymbolTableRecord
100
AcDbLayerTableRecord
  2
가는실선
 70
     0
 62
     4
  6
Continuous
370
    -3
390
F
  0
LAYER
  5
76
330
2
100
AcDbSymbolTableRecord
100
AcDbLayerTableRecord
  2
치수_보조선
 70
     0
 62
     4
  6
Continuous
370
    -3
390
F
  0
LAYER
  5
77
330
2
100
AcDbSymbolTableRecord
100
AcDbLayerTableRecord
  2
치수문자_일반주서
 70
     0
 62
     7
  6
Continuous
370
    15
390
F
  0
LAYER
  5
78
330
2
100
AcDbSymbolTableRecord
100
AcDbLayerTableRecord
  2
개별주서
 70
     0
 62
   100
  6
Continuous
370
    30
390
F
  0
LAYER
  5
79
330
2
100
AcDbSymbolTableRecord
100
AcDbLayerTableRecord
  2
중간선
 70
     0
 62
     2
  6
Continuous
370
    15
390
F
  0
LAYER
  5
7A
330
2
100
AcDbSymbolTableRecord
100
AcDbLayerTableRecord
  2
윤곽선
 70
     0
 62
     3
  6
Continuous
370
    40
390
F
  0
LAYER
  5
7B
330
2
100
AcDbSymbolTableRecord
100
AcDbLayerTableRecord
  2
중심마크
 70
     0
 62
   100
  6
Continuous
370
    30
390
F
  0
LAYER
  5
7C
330
2
100
AcDbSymbolTableRecord
100
AcDbLayerTableRecord
  2
가상선
 70
     0
 62
     4
  6
PHANTOM
370
    -3
390
F
  0
LAYER
  5
7D
330
2
100
AcDbSymbolTableRecord
100
AcDbLayerTableRecord
  2
특수지정선
 70
     0
 62
     5
  6
CENTERX2
370
    60
390
F
  0
LAYER
  5
123
330
2
100
AcDbSymbolTableRecord
100
AcDbLayerTableRecord
  2
Defpoints
 70
     0
 62
     7
  6
Continuous
290
     0
370
    -3
390
F
  0
ENDTAB
  0
TABLE
  2
STYLE
  5
3
330
0
100
AcDbSymbolTable
 70
     2
  0
STYLE
  5
11
330
3
100
AcDbSymbolTableRecord
100
AcDbTextStyleTableRecord
  2
Standard
 70
     0
 40
0.0
 41
1.0
 50
0.0
 71
     0
 42
3.5
  3
txt
  4

  0
STYLE
  5
93
330
3
100
AcDbSymbolTableRecord
100
AcDbTextStyleTableRecord
  2
SLDTEXTSTYLE0
 70
     0
 40
0.0
 41
0.75
 50
0.0
 71
     0
 42
3.5
  3
TXT
  4

  0
ENDTAB
  0
TABLE
  2
VIEW
  5
6
330
0
100
AcDbSymbolTable
 70
     0
  0
ENDTAB
  0
TABLE
  2
UCS
  5
7
330
0
100
AcDbSymbolTable
 70
     0
  0
ENDTAB
  0
TABLE
  2
APPID
  5
9
330
0
100
AcDbSymbolTable
 70
     1
  0
APPID
  5
12
330
9
100
AcDbSymbolTableRecord
100
AcDbRegAppTableRecord
  2
ACAD
 70
     0
  0
ENDTAB
  0
TABLE
  2
DIMSTYLE
  5
A
330
0
100
AcDbSymbolTable
 70
     3
100
AcDbDimStyleTable
  0
DIMSTYLE
105
27
330
A
100
AcDbSymbolTableRecord
100
AcDbDimStyleTableRecord
  2
ISO-25
 70
     0
 41
2.5
 42
0.625
 43
3.75
 44
1.25
 73
     0
 74
     0
 77
     1
 78
     8
140
2.5
141
2.5
143
0.03937007874016
147
0.625
171
     3
172
     1
178
     0
271
     2
272
     2
274
     3
278
    44
283
     0
284
     8
340
11
  0
DIMSTYLE
105
C9
102
{ACAD_REACTORS
330
C8
330
D3
102
}
330
A
100
AcDbSymbolTableRecord
100
AcDbDimStyleTableRecord
  2
SLDDIMSTYLE0
 70
     0
 41
3.302
 44
0.0
 45
0.000000001
 73
     0
 74
     0
 77
     1
 78
    12
 79
     3
140
3.5
147
0.875
173
     1
178
     0
271
     2
272
     2
276
     2
284
    12
340
93
  0
DIMSTYLE
105
DE
102
{ACAD_REACTORS
330
DD
330
EB
102
}
330
A
100
AcDbSymbolTableRecord
100
AcDbDimStyleTableRecord
  2
SLDDIMSTYLE1
 70
     0
 41
3.302
 44
0.0
 45
0.000000001
 73
     0
 74
     0
 77
     1
 78
    12
 79
     3
140
3.5
147
0.875
172
     1
173
     1
178
     0
271
     2
272
     2
276
     2
284
    12
289
     0
340
93
  0
ENDTAB
  0
TABLE
  2
BLOCK_RECORD
  5
1
330
0
100
AcDbSymbolTable
 70
     7
  0
BLOCK_RECORD
  5
1F
330
1
100
AcDbSymbolTableRecord
100
AcDbBlockTableRecord
  2
*Model_Space
340
22
  0
BLOCK_RECORD
  5
1B
330
1
100
AcDbSymbolTableRecord
100
AcDbBlockTableRecord
  2
*Paper_Space
340
1E
  0
BLOCK_RECORD
  5
23
330
1
100
AcDbSymbolTableRecord
100
AcDbBlockTableRecord
  2
*Paper_Space0
340
26
  0
BLOCK_RECORD
  5
7E
330
1
100
AcDbSymbolTableRecord
100
AcDbBlockTableRecord
  2
블럭10
340
0
102
{BLKREFS
331
C1
102
}
  0
BLOCK_RECORD
  5
CA
330
1
100
AcDbSymbolTableRecord
100
AcDbBlockTableRecord
  2
_D
340
0
  0
BLOCK_RECORD
  5
D4
330
1
100
AcDbSymbolTableRecord
100
AcDbBlockTableRecord
  2
_D_1
340
0
  0
BLOCK_RECORD
  5
DF
330
1
100
AcDbSymbolTableRecord
100
AcDbBlockTableRecord
  2
_D_2
340
0
  0
BLOCK_RECORD
  5
EC
330
1
100
AcDbSymbolTableRecord
100
AcDbBlockTableRecord
  2
_D_3
340
0
  0
BLOCK_RECORD
  5
F8
330
1
100
AcDbSymbolTableRecord
100
AcDbBlockTableRecord
  2
SW_DOWELSYMBOL_0
340
0
102
{BLKREFS
331
FE
102
}
  0
ENDTAB
  0
ENDSEC
  0
SECTION
  2
BLOCKS
  0
BLOCK
  5
20
330
1F
100
AcDbEntity
  8
0
100
AcDbBlockBegin
  2
*Model_Space
 70
     0
 10
0.0
 20
0.0
 30
0.0
  3
*Model_Space
  1
*Model_Space
  0
ENDBLK
  5
21
330
1F
100
AcDbEntity
  8
0
100
AcDbBlockEnd
  0
BLOCK
  5
1C
330
1B
100
AcDbEntity
 67
     1
  8
0
100
AcDbBlockBegin
  2
*Paper_Space
 70
     0
 10
0.0
 20
0.0
 30
0.0
  3
*Paper_Space
  1
*Paper_Space
  0
ENDBLK
  5
1D
330
1B
100
AcDbEntity
 67
     1
  8
0
100
AcDbBlockEnd
  0
BLOCK
  5
24
330
23
100
AcDbEntity
  8
0
100
AcDbBlockBegin
  2
*Paper_Space0
 70
     0
 10
0.0
 20
0.0
 30
0.0
  3
*Paper_Space0
  1
*Paper_Space0
  0
ENDBLK
  5
25
330
23
100
AcDbEntity
  8
0
100
AcDbBlockEnd
  0
BLOCK
  5
7F
330
7E
100
AcDbEntity
  8
0
100
AcDbBlockBegin
  2
블럭10
 70
     2
 10
0.0
 20
0.0
 30
0.0
  3
블럭10
  1
블럭10
  0
ELLIPSE
  5
81
330
7E
100
AcDbEntity
  8
중심선
100
AcDbEllipse
 10
20.54032771741204
 20
12.0471743016438
 30
0.0
 11
6.600054785286829
 21
-1.261213355974178E-13
 31
0.0
210
0.0
220
0.0
230
1.0
 40
0.636358354079598
 41
0.9219305317359503
 42
6.513795318482858
  0
ELLIPSE
  5
82
330
7E
100
AcDbEntity
  8
중심선
100
AcDbEllipse
 10
20.54032771746488
 20
12.04717430159265
 30
0.0
 11
3.960054785062283
 21
1.540847449632565E-10
 31
0.0
210
0.0
220
0.0
230
1.0
 40
0.3939339440162632
 41
1.131841032648279
 42
5.62031148352944
  0
LINE
  5
83
330
7E
100
AcDbEntity
  8
중심선
100
AcDbLine
 10
2.268634060543552
 20
16.24717430164393
 30
0.0
 11
5.714909304380834
 21
16.24717430164393
 31
0.0
  0
LINE
  5
84
330
7E
100
AcDbEntity
  8
중심선
100
AcDbLine
 10
5.245725140726316
 20
7.84717430164391
 30
0.0
 11
8.692000384563599
 21
7.84717430164391
 31
0.0
  0
LINE
  5
85
330
7E
100
AcDbEntity
  8
중심선
100
AcDbLine
 10
15.74043728645272
 20
16.24717430164393
 30
0.0
 11
8.692000384563599
 21
7.84717430164391
 31
0.0
  0
LINE
  5
86
330
7E
100
AcDbEntity
  8
중심선
100
AcDbLine
 10
0.1404042013395286
 20
13.71084872107135
 30
0.0
 11
3.58671253028996
 21
13.71088815037384
 31
0.0
  0
LINE
  5
87
330
7E
100
AcDbEntity
  8
중심선
100
AcDbLine
 10
2.750260043222114
 20
10.84717430164391
 30
0.0
 11
6.196535287059397
 21
10.84717430164391
 31
0.0
  0
LINE
  5
88
330
7E
100
AcDbEntity
  8
중심선
100
AcDbLine
 10
12.29416204261559
 20
16.24717430164393
 30
0.0
 11
5.245725140726316
 21
7.84717430164391
 31
0.0
  0
LINE
  5
89
330
7E
100
AcDbEntity
  8
중심선
100
AcDbLine
 10
10.72767329541681
 20
16.24717430164393
 30
0.0
 11
6.196535287059397
 21
10.84717430164391
 31
0.0
  0
LINE
  5
8A
330
7E
100
AcDbEntity
  8
중심선
100
AcDbLine
 10
7.28139805157953
 20
16.24717430164393
 30
0.0
 11
2.750260043222114
 21
10.84717430164391
 31
0.0
  0
LINE
  5
8B
330
7E
100
AcDbEntity
  8
중심선
100
AcDbLine
 10
5.714909304380834
 20
16.24717430164393
 30
0.0
 11
3.58671253028996
 21
13.71088815037384
 31
0.0
  0
LINE
  5
8C
330
7E
100
AcDbEntity
  8
중심선
100
AcDbLine
 10
2.268634060543552
 20
16.24717430164393
 30
0.0
 11
0.1404042013395286
 21
13.71084872107135
 31
0.0
  0
LINE
  5
8D
330
7E
100
AcDbEntity
  8
중심선
100
AcDbLine
 10
7.28139805157953
 20
16.24717430164393
 30
0.0
 11
10.72767329541681
 21
16.24717430164393
 31
0.0
  0
LINE
  5
8E
330
7E
100
AcDbEntity
  8
중심선
100
AcDbLine
 10
12.29416204261559
 20
16.24717430164393
 30
0.0
 11
15.74043728645272
 21
16.24717430164393
 31
0.0
  0
LINE
  5
8F
330
7E
100
AcDbEntity
  8
중심선
100
AcDbLine
 10
19.22036997980202
 20
11.08717430171403
 30
0.0
 11
23.66174974927406
 21
11.08717430171406
 31
0.0
  0
LINE
  5
90
330
7E
100
AcDbEntity
  8
중심선
100
AcDbLine
 10
19.22039502424796
 20
13.00717430171391
 30
0.0
 11
19.22036997980202
 21
11.08717430171403
 31
0.0
  0
LINE
  5
91
330
7E
100
AcDbEntity
  8
중심선
100
AcDbLine
 10
19.22039502424796
 20
13.00717430171391
 30
0.0
 11
26.96566020931264
 21
13.00717430171391
 31
0.0
  0
LINE
  5
92
330
7E
100
AcDbEntity
  8
중심선
100
AcDbLine
 10
22.22332737316547
 20
13.45928029700563
 30
0.0
 11
24.52862924686651
 21
15.39360700705356
 31
0.0
  0
ATTDEF
  5
94
330
7E
100
AcDbEntity
  8
FORMAT
 62
     2
100
AcDbText
 10
-12.95993919485777
 20
2.075366912832191
 30
0.0
 40
4.233333333333333
  1
SEME35210E [ 2 FLUTE ]
 41
0.75
  7
SLDTEXTSTYLE0
 11
-12.95993919485777
 21
-0.0412997538344756
 31
0.0
100
AcDbAttributeDefinition
  3

  2
AUTOATTR0
 70
     0
 74
     1
  0
ENDBLK
  5
80
330
7E
100
AcDbEntity
  8
0
100
AcDbBlockEnd
  0
BLOCK
  5
CB
330
CA
100
AcDbEntity
  8
0
100
AcDbBlockBegin
  2
_D
 70
     0
 10
0.0
 20
0.0
 30
0.0
  3
_D
  1
_D
  0
SOLID
  5
CD
330
CA
100
AcDbEntity
  8
치수문자_일반주서
100
AcDbTrace
 10
54.99999999999999
 20
22.74175944848904
 30
0.0
 11
51.69799999999999
 21
23.24975944848904
 31
0.0
 12
51.69799999999999
 22
22.23375944848904
 32
0.0
 13
51.69799999999999
 23
22.23375944848904
 33
0.0
  0
SOLID
  5
CE
330
CA
100
AcDbEntity
  8
치수문자_일반주서
100
AcDbTrace
 10
9.999999999999991
 20
22.74175944848904
 30
0.0
 11
13.30199999999999
 21
22.23375944848904
 31
0.0
 12
13.30199999999999
 22
23.24975944848904
 32
0.0
 13
13.30199999999999
 23
23.24975944848904
 33
0.0
  0
LINE
  5
CF
330
CA
100
AcDbEntity
  8
치수문자_일반주서
100
AcDbLine
 10
54.99999999999999
 20
11.49112555991127
 30
0.0
 11
54.99999999999999
 21
23.74175944848904
 31
0.0
  0
LINE
  5
D0
330
CA
100
AcDbEntity
  8
치수문자_일반주서
100
AcDbLine
 10
9.999999999999991
 20
10.87681871199805
 30
0.0
 11
9.999999999999991
 21
23.74175944848904
 31
0.0
  0
LINE
  5
D1
330
CA
100
AcDbEntity
  8
치수문자_일반주서
100
AcDbLine
 10
54.99999999999999
 20
22.74175944848904
 30
0.0
 11
9.999999999999991
 21
22.74175944848904
 31
0.0
  0
MTEXT
  5
D2
330
CA
100
AcDbEntity
  8
치수문자_일반주서
100
AcDbMText
 10
29.91388880647717
 20
27.25349636306793
 30
0.0
 40
3.5
 41
0.0
 71
     1
 72
     1
  1
45
  7
SLDTEXTSTYLE0
 73
     1
 44
1.0
  0
ENDBLK
  5
CC
330
CA
100
AcDbEntity
  8
0
100
AcDbBlockEnd
  0
BLOCK
  5
D5
330
D4
100
AcDbEntity
  8
0
100
AcDbBlockBegin
  2
_D_1
 70
     0
 10
0.0
 20
0.0
 30
0.0
  3
_D_1
  1
_D_1
  0
LINE
  5
D7
330
D4
100
AcDbEntity
  8
치수문자_일반주서
 62
     0
370
    -2
100
AcDbLine
 10
54.99999999999999
 20
7.412500000000006
 30
0.0
 11
55.0
 21
30.13415911661227
 31
0.0
  0
LINE
  5
D8
330
D4
100
AcDbEntity
  8
치수문자_일반주서
 62
     0
370
    -2
100
AcDbLine
 10
-45.0
 20
7.787748157582259
 30
0.0
 11
-44.99999999999999
 21
30.13415911661227
 31
0.0
  0
LINE
  5
D9
330
D4
100
AcDbEntity
  8
치수문자_일반주서
 62
     0
370
    -2
100
AcDbLine
 10
51.698
 20
30.13415911661227
 30
0.0
 11
-41.69799999999999
 21
30.13415911661227
 31
0.0
  0
SOLID
  5
DA
330
D4
100
AcDbEntity
  8
치수문자_일반주서
 62
     0
100
AcDbTrace
 10
51.698
 20
29.58382578327893
 30
0.0
 11
51.698
 21
30.6844924499456
 31
0.0
 12
55.0
 22
30.13415911661227
 32
0.0
 13
55.0
 23
30.13415911661227
 33
0.0
  0
SOLID
  5
DB
330
D4
100
AcDbEntity
  8
치수문자_일반주서
 62
     0
100
AcDbTrace
 10
-41.69799999999999
 20
30.6844924499456
 30
0.0
 11
-41.69799999999999
 21
29.58382578327893
 31
0.0
 12
-44.99999999999999
 22
30.13415911661227
 32
0.0
 13
-44.99999999999999
 23
30.13415911661227
 33
0.0
  0
MTEXT
  5
DC
330
D4
100
AcDbEntity
  8
치수문자_일반주서
 62
     0
100
AcDbMText
 10
0.0000000000000052
 20
34.50915911661227
 30
0.0
 40
3.5
 41
0.0
 71
     2
 72
     1
  1
\A1;100
  7
SLDTEXTSTYLE0
 73
     1
 44
1.0
  0
POINT
  5
129
330
D4
100
AcDbEntity
  8
Defpoints
 62
     0
100
AcDbPoint
 10
54.99999999999999
 20
7.350000000000006
 30
0.0
  0
POINT
  5
12A
330
D4
100
AcDbEntity
  8
Defpoints
 62
     0
100
AcDbPoint
 10
-45.0
 20
7.725248157582259
 30
0.0
  0
POINT
  5
12B
330
D4
100
AcDbEntity
  8
Defpoints
 62
     0
100
AcDbPoint
 10
-45.0
 20
30.13415911661227
 30
0.0
  0
ENDBLK
  5
D6
330
D4
100
AcDbEntity
  8
0
100
AcDbBlockEnd
  0
BLOCK
  5
E0
330
DF
100
AcDbEntity
  8
0
100
AcDbBlockBegin
  2
_D_2
 70
     0
 10
0.0
 20
0.0
 30
0.0
  3
_D_2
  1
_D_2
  0
LINE
  5
E2
330
DF
100
AcDbEntity
  8
치수문자_일반주서
 62
     0
370
    -2
100
AcDbLine
 10
55.06249999999999
 20
10.50460695714419
 30
0.0
 11
70.56619031224623
 21
10.50460695714425
 31
0.0
  0
LINE
  5
E3
330
DF
100
AcDbEntity
  8
치수문자_일반주서
 62
     0
370
    -2
100
AcDbLine
 10
55.06249999999999
 20
-10.49112555991126
 30
0.0
 11
70.5661903122463
 21
-10.49112555991121
 31
0.0
  0
LINE
  5
E4
330
DF
100
AcDbEntity
  8
치수문자_일반주서
 62
     0
370
    -2
100
AcDbLine
 10
70.56619031224625
 20
7.202606957144248
 30
0.0
 11
70.56619031224629
 21
-7.18912555991121
 31
0.0
  0
SOLID
  5
E5
330
DF
100
AcDbEntity
  8
치수문자_일반주서
 62
     0
100
AcDbTrace
 10
71.11652364557958
 20
7.202606957144249
 30
0.0
 11
70.01585697891292
 21
7.202606957144246
 31
0.0
 12
70.56619031224623
 22
10.50460695714425
 32
0.0
 13
70.56619031224623
 23
10.50460695714425
 33
0.0
  0
SOLID
  5
E6
330
DF
100
AcDbEntity
  8
치수문자_일반주서
 62
     0
100
AcDbTrace
 10
70.01585697891296
 20
-7.189125559911211
 30
0.0
 11
71.11652364557962
 21
-7.189125559911208
 31
0.0
 12
70.5661903122463
 22
-10.49112555991121
 32
0.0
 13
70.5661903122463
 23
-10.49112555991121
 33
0.0
  0
MTEXT
  5
E7
330
DF
100
AcDbEntity
  8
치수문자_일반주서
 62
     0
100
AcDbMText
 10
66.19119031224628
 20
-0.000000000000012
 30
0.0
 40
3.5
 41
0.0
 71
     2
 72
     1
  1
\A1;%%c21
  7
SLDTEXTSTYLE0
 11
-3.384224556980354E-15
 21
1.0
 31
0.0
 73
     1
 44
1.0
  0
POINT
  5
E8
330
DF
100
AcDbEntity
  8
Defpoints
 62
     0
100
AcDbPoint
 10
54.99999999999999
 20
10.50460695714419
 30
0.0
  0
POINT
  5
E9
330
DF
100
AcDbEntity
  8
Defpoints
 62
     0
100
AcDbPoint
 10
54.99999999999999
 20
-10.49112555991126
 30
0.0
  0
POINT
  5
EA
330
DF
100
AcDbEntity
  8
Defpoints
 62
     0
100
AcDbPoint
 10
70.5661903122463
 20
-10.49112555991121
 30
0.0
  0
ENDBLK
  5
E1
330
DF
100
AcDbEntity
  8
0
100
AcDbBlockEnd
  0
BLOCK
  5
ED
330
EC
100
AcDbEntity
  8
0
100
AcDbBlockBegin
  2
_D_3
 70
     0
 10
0.0
 20
0.0
 30
0.0
  3
_D_3
  1
_D_3
  0
LINE
  5
EF
330
EC
100
AcDbEntity
  8
치수문자_일반주서
 62
     0
370
    -2
100
AcDbLine
 10
-43.19086873725123
 20
9.999999999999996
 30
0.0
 11
-66.41955944538857
 21
9.999999999999913
 31
0.0
  0
LINE
  5
F0
330
EC
100
AcDbEntity
  8
치수문자_일반주서
 62
     0
370
    -2
100
AcDbLine
 10
-43.19086873725124
 20
-10.0
 30
0.0
 11
-66.4195594453885
 21
-10.00000000000009
 31
0.0
  0
LINE
  5
F1
330
EC
100
AcDbEntity
  8
치수문자_일반주서
 62
     0
370
    -2
100
AcDbLine
 10
-66.41955944538856
 20
6.697999999999913
 30
0.0
 11
-66.41955944538851
 21
-6.698000000000086
 31
0.0
  0
SOLID
  5
F2
330
EC
100
AcDbEntity
  8
치수문자_일반주서
 62
     0
100
AcDbTrace
 10
-65.86922611205523
 20
6.697999999999915
 30
0.0
 11
-66.96989277872188
 21
6.697999999999912
 31
0.0
 12
-66.41955944538857
 22
9.999999999999913
 32
0.0
 13
-66.41955944538857
 23
9.999999999999913
 33
0.0
  0
SOLID
  5
F3
330
EC
100
AcDbEntity
  8
치수문자_일반주서
 62
     0
100
AcDbTrace
 10
-66.96989277872184
 20
-6.698000000000087
 30
0.0
 11
-65.86922611205519
 21
-6.698000000000084
 31
0.0
 12
-66.4195594453885
 22
-10.00000000000009
 32
0.0
 13
-66.4195594453885
 23
-10.00000000000009
 33
0.0
  0
MTEXT
  5
F4
330
EC
100
AcDbEntity
  8
치수문자_일반주서
 62
     0
100
AcDbMText
 10
-70.79455944538854
 20
-0.0000000000000164
 30
0.0
 40
3.5
 41
0.0
 71
     2
 72
     1
  1
\A1;%%c20
  7
SLDTEXTSTYLE0
 11
-3.552713678800502E-15
 21
1.0
 31
0.0
 73
     1
 44
1.0
  0
POINT
  5
F5
330
EC
100
AcDbEntity
  8
Defpoints
 62
     0
100
AcDbPoint
 10
-43.12836873725123
 20
9.999999999999996
 30
0.0
  0
POINT
  5
F6
330
EC
100
AcDbEntity
  8
Defpoints
 62
     0
100
AcDbPoint
 10
-43.12836873725124
 20
-10.0
 30
0.0
  0
POINT
  5
F7
330
EC
100
AcDbEntity
  8
Defpoints
 62
     0
100
AcDbPoint
 10
-66.4195594453885
 20
-10.00000000000008
 30
0.0
  0
ENDBLK
  5
EE
330
EC
100
AcDbEntity
  8
0
100
AcDbBlockEnd
  0
BLOCK
  5
F9
330
F8
100
AcDbEntity
  8
0
100
AcDbBlockBegin
  2
SW_DOWELSYMBOL_0
 70
     0
 10
0.0
 20
0.0
 30
0.0
  3
SW_DOWELSYMBOL_0
  1
SW_DOWELSYMBOL_0
  0
CIRCLE
  5
FB
330
F8
100
AcDbEntity
  8
외형선
 62
     0
100
AcDbCircle
 10
0.0
 20
0.0
 30
0.0
 40
3.000000000000004
  0
HATCH
  5
FC
330
F8
100
AcDbEntity
  8
0
  6
Continuous
 62
     0
370
    30
100
AcDbHatch
 10
0.0
 20
0.0
 30
0.0
210
0.0
220
0.0
230
1.0
  2
SOLID
 70
     1
 71
     0
 91
        1
 92
        0
 93
        3
 72
     2
 10
0.0000000000000087
 20
-0.0000000000000035
 40
3.000000000000004
 50
0.0
 51
90.0
 73
     1
 72
     1
 10
0.0000000000000087
 20
3.000000000000001
 11
0.0000000000000087
 21
-0.0000000000000036
 72
     1
 10
0.0000000000000087
 20
-0.0000000000000035
 11
3.000000000000013
 21
-0.0000000000000035
 97
        0
 75
     0
 76
     1
 98
        1
 10
0.0
 20
0.0
  0
HATCH
  5
FD
330
F8
100
AcDbEntity
  8
0
  6
Continuous
 62
     0
370
    30
100
AcDbHatch
 10
0.0
 20
0.0
 30
0.0
210
0.0
220
0.0
230
1.0
  2
SOLID
 70
     1
 71
     0
 91
        1
 92
        0
 93
        3
 72
     2
 10
0.0000000000000087
 20
-0.0000000000000035
 40
3.000000000000004
 50
180.0
 51
270.0000000000008
 73
     1
 72
     1
 10
0.0000000000000087
 20
-3.000000000000008
 11
0.0000000000000087
 21
-0.0000000000000036
 72
     1
 10
0.0000000000000087
 20
-0.0000000000000035
 11
-2.999999999999996
 21
-0.0000000000000035
 97
        0
 75
     0
 76
     1
 98
        1
 10
0.0
 20
0.0
  0
ENDBLK
  5
FA
330
F8
100
AcDbEntity
  8
0
100
AcDbBlockEnd
  0
ENDSEC
  0
SECTION
  2
ENTITIES
  0
LINE
  5
95
330
1F
100
AcDbEntity
  8
0
  6
Continuous
 62
     4
370
    15
100
AcDbLine
 10
9.999999999999984
 20
10.0
 30
0.0
 11
-43.12836873725123
 21
9.999999999999996
 31
0.0
  0
LINE
  5
96
330
1F
100
AcDbEntity
  8
0
  6
Continuous
 62
     4
370
    15
100
AcDbLine
 10
-43.12836873725124
 20
-10.0
 30
0.0
 11
9.999999999999993
 21
-10.0
 31
0.0
  0
SPLINE
  5
99
330
1F
100
AcDbEntity
  8
0
  6
Continuous
 62
     1
370
    15
100
AcDbSpline
210
0.0
220
0.0
230
1.0
 70
     8
 71
     3
 72
     9
 73
     5
 74
     0
 42
0.000000001
 43
0.00000001
 40
0.0
 40
0.0
 40
0.0
 40
0.0
 40
0.5238344649675638
 40
1.0
 40
1.0
 40
1.0
 40
1.0
 10
27.79656815084245
 20
2.69060929061883
 30
0.0
 10
27.28822955558024
 20
2.933326842821861
 30
0.0
 10
26.31781117103642
 20
3.396674652932178
 30
0.0
 10
25.34682914724827
 20
3.905291682550513
 30
0.0
 10
24.88448097238431
 20
4.147477582585336
 30
0.0
  0
SPLINE
  5
9A
330
1F
100
AcDbEntity
  8
0
  6
Continuous
 62
     1
370
    15
100
AcDbSpline
210
0.0
220
0.0
230
1.0
 70
     8
 71
     3
 72
    24
 73
    20
 74
     0
 42
0.000000001
 43
0.00000001
 40
0.0
 40
0.0
 40
0.0
 40
0.0
 40
0.1173985209794093
 40
0.2078660235573811
 40
0.2706220627750474
 40
0.3093906430268291
 40
0.3473031256861878
 40
0.3912028101689296
 40
0.4392870693038783
 40
0.4843798827505029
 40
0.5257631920945718
 40
0.5650203368748273
 40
0.6378123405945779
 40
0.7258704867838098
 40
0.8056193305390357
 40
0.8621438681602293
 40
0.9124547297150779
 40
0.9787325103046014
 40
1.0
 40
1.0
 40
1.0
 40
1.0
 10
24.32542586339541
 20
8.343708031632959
 30
0.0
 10
23.99161626251778
 20
8.326802219369211
 30
0.0
 10
23.40057240795441
 20
8.296868759041471
 30
0.0
 10
22.63254345790214
 20
8.266618499992806
 30
0.0
 10
22.08792304182523
 20
8.248438129545523
 30
0.0
 10
21.69346802088198
 20
8.237021543286007
 30
0.0
 10
21.35202818722652
 20
8.228237388320595
 30
0.0
 10
20.98380270618055
 20
8.220044898690478
 30
0.0
 10
20.59500929186139
 20
8.212917960751607
 30
0.0
 10
20.21410346192269
 20
8.207450894556715
 30
0.0
 10
19.85886087068043
 20
8.203665913669337
 30
0.0
 10
19.42632409879605
 20
8.200544711229712
 30
0.0
 10
18.85876088241006
 20
8.199200263733404
 30
0.0
 10
18.17413268856691
 20
8.20235218393287
 30
0.0
 10
17.53567049240855
 20
8.209915804918971
 30
0.0
 10
17.00582104311328
 20
8.219264460316305
 30
0.0
 10
16.51496465472914
 20
8.230354422550688
 30
0.0
 10
16.12390521261538
 20
8.240557932118351
 30
0.0
 10
15.87554167792708
 20
8.248843005419694
 30
0.0
 10
15.81520639199439
 20
8.250855709366903
 30
0.0
  0
SPLINE
  5
9B
330
1F
100
AcDbEntity
  8
0
  6
Continuous
 62
     1
370
    15
100
AcDbSpline
210
0.0
220
0.0
230
1.0
 70
     8
 71
     3
 72
    38
 73
    34
 74
     0
 42
0.000000001
 43
0.00000001
 40
0.0
 40
0.0
 40
0.0
 40
0.0
 40
0.055363618576687
 40
0.1003467425316014
 40
0.1348157577186253
 40
0.1656059567879177
 40
0.1895882153525603
 40
0.2093904759301471
 40
0.2315958150559957
 40
0.2580311914780533
 40
0.3155154144360401
 40
0.3694693336514611
 40
0.396754619227468
 40
0.4216185750742323
 40
0.4502694729074896
 40
0.4831715736302683
 40
0.5152613318269236
 40
0.5394888662148396
 40
0.5582666537988501
 40
0.5826587186031603
 40
0.6168775053991242
 40
0.6538586849163757
 40
0.685546622258526
 40
0.7139507887755401
 40
0.7505126319818312
 40
0.7883642688144052
 40
0.8211616201032929
 40
0.8478850894752674
 40
0.8734746502563414
 40
0.9005557070425934
 40
0.9293791457032621
 40
0.9615531510186667
 40
1.0
 40
1.0
 40
1.0
 40
1.0
 10
51.09916941358934
 20
7.181508829656162
 30
0.0
 10
50.76020838220801
 20
7.153660275175185
 30
0.0
 10
50.14584038714727
 20
7.103184677693982
 30
0.0
 10
49.32044618080593
 20
7.048571012234203
 30
0.0
 10
48.64524997986457
 20
7.009885362144179
 30
0.0
 10
48.09460651815021
 20
6.983047739524621
 30
0.0
 10
47.63499701945074
 20
6.963882109115528
 30
0.0
 10
47.2304441487593
 20
6.949283963615766
 30
0.0
 10
46.81063022673154
 20
6.936384769007721
 30
0.0
 10
46.15935312241461
 20
6.920426019362531
 30
0.0
 10
45.31371486848649
 20
6.908791407323603
 30
0.0
 10
44.46327147402918
 20
6.909374302252551
 30
0.0
 10
43.81246800852596
 20
6.916615326424346
 30
0.0
 10
43.31662660417734
 20
6.925459702361853
 30
0.0
 10
42.78650991693477
 20
6.93856391932151
 30
0.0
 10
42.21235296280737
 20
6.957346125748757
 30
0.0
 10
41.66524571046448
 20
6.979779255910444
 30
0.0
 10
41.20461873211049
 20
7.001924529018511
 30
0.0
 10
40.79110068734661
 20
7.02403964570961
 30
0.0
 10
40.31644727478113
 20
7.051997075458977
 30
0.0
 10
39.73014317750555
 20
7.090829966053027
 30
0.0
 10
39.09920291974119
 20
7.138330319048709
 30
0.0
 10
38.5036927416827
 20
7.188170754375469
 30
0.0
 10
37.91047381569042
 20
7.242035657140976
 30
0.0
 10
37.2801048281493
 20
7.304142761756293
 30
0.0
 10
36.62301305855244
 20
7.374652375309386
 30
0.0
 10
36.0249927650318
 20
7.443894968344236
 30
0.0
 10
35.50407939001324
 20
7.50781318365681
 30
0.0
 10
35.00847233329441
 20
7.571350525492919
 30
0.0
 10
34.49685913439035
 20
7.639625247824845
 30
0.0
 10
33.94232937991244
 20
7.713658772207121
 30
0.0
 10
33.32981575182375
 20
7.805581886632031
 30
0.0
 10
32.95808748590476
 20
7.865038943422215
 30
0.0
 10
32.75571411271063
 20
7.897408085739322
 30
0.0
  0
SPLINE
  5
9C
330
1F
100
AcDbEntity
  8
0
  6
Continuous
 62
     1
370
    15
100
AcDbSpline
210
0.0
220
0.0
230
1.0
 70
     8
 71
     3
 72
    21
 73
    17
 74
     0
 42
0.000000001
 43
0.00000001
 40
0.0
 40
0.0
 40
0.0
 40
0.0
 40
0.0899963793370081
 40
0.1653092869971879
 40
0.2391396486389595
 40
0.3081125758357713
 40
0.3731181620855271
 40
0.4468210817627002
 40
0.5430009776886173
 40
0.638459343160245
 40
0.7104539953015399
 40
0.772230835286932
 40
0.8439047850155943
 40
0.923650495173914
 40
0.9903710570446221
 40
1.0
 40
1.0
 40
1.0
 40
1.0
 10
32.75571411271063
 20
-7.897408085739318
 30
0.0
 10
32.95807318474374
 20
-7.865035209069039
 30
0.0
 10
33.32977518166449
 20
-7.805571292855562
 30
0.0
 10
33.95919654173197
 20
-7.711181228575838
 30
0.0
 10
34.54581229179698
 20
-7.633050769412609
 30
0.0
 10
35.10373380336656
 20
-7.558824634915261
 30
0.0
 10
35.65420981008331
 20
-7.488983878572986
 30
0.0
 10
36.26856895492817
 20
-7.414905485843144
 30
0.0
 10
36.9643773089258
 20
-7.33707131243913
 30
0.0
 10
37.65455024138965
 20
-7.266566198344876
 30
0.0
 10
38.25534342750132
 20
-7.210272308688783
 30
0.0
 10
38.79398984422815
 20
-7.163487046563673
 30
0.0
 10
39.35252199500538
 20
-7.118667774216065
 30
0.0
 10
39.92408150146635
 20
-7.077777780745701
 30
0.0
 10
40.33305430599718
 20
-7.051008954679413
 30
0.0
 10
40.53312588194245
 20
-7.039484343060889
 30
0.0
 10
40.55835823670569
 20
-7.038030897775156
 30
0.0
  0
SPLINE
  5
9D
330
1F
100
AcDbEntity
  8
0
  6
Continuous
 62
     1
370
    15
100
AcDbSpline
210
0.0
220
0.0
230
1.0
 70
     8
 71
     3
 72
    32
 73
    28
 74
     0
 42
0.000000001
 43
0.00000001
 40
0.0
 40
0.0
 40
0.0
 40
0.0
 40
0.0636341912899663
 40
0.1107792164348697
 40
0.1417258081249933
 40
0.1668817347502342
 40
0.1910868393960751
 40
0.2402485881238565
 40
0.3004966836204612
 40
0.3445467202872531
 40
0.3779326246013093
 40
0.4018543924613411
 40
0.4322336995910296
 40
0.4731608527254633
 40
0.5090686994610581
 40
0.5355053488770288
 40
0.5587391100162852
 40
0.5890190047926559
 40
0.6262516592669382
 40
0.6680410200384947
 40
0.7136652407612682
 40
0.7545616463270983
 40
0.7810450626567154
 40
0.8075633336829285
 40
0.8529693100920359
 40
0.9171103394621615
 40
1.0
 40
1.0
 40
1.0
 40
1.0
 10
9.99999999999998
 20
-8.599499901293079
 30
0.0
 10
10.30651544629034
 20
-8.573601286095997
 30
0.0
 10
10.8401207342165
 20
-8.52851501659023
 30
0.0
 10
11.52215081022942
 20
-8.477103231623886
 30
0.0
 10
12.01614443034085
 20
-8.442211601915496
 30
0.0
 10
12.39885571612179
 20
-8.416663670180458
 30
0.0
 10
12.86898303091703
 20
-8.386828331012824
 30
0.0
 10
13.50661107913007
 20
-8.349515060141485
 30
0.0
 10
14.23851791369844
 20
-8.312134331114962
 30
0.0
 10
14.89527855059755
 20
-8.28351851295355
 30
0.0
 10
15.37874437152454
 20
-8.26509708708331
 30
0.0
 10
15.79708205860356
 20
-8.250856901611115
 30
0.0
 10
16.25147391796092
 20
-8.237139148112158
 30
0.0
 10
16.76302943451812
 20
-8.22428606938497
 30
0.0
 10
17.25566276264419
 20
-8.214625373674666
 30
0.0
 10
17.66388084401671
 20
-8.208480184929265
 30
0.0
 10
18.04510306129909
 20
-8.204111531405175
 30
0.0
 10
18.47789006218093
 20
-8.200826957880675
 30
0.0
 10
18.99921978306696
 20
-8.199412659139565
 30
0.0
 10
19.59383363256171
 20
-8.201198430104668
 30
0.0
 10
20.20557913273076
 20
-8.206917817408268
 30
0.0
 10
20.74550960978329
 20
-8.215377154947127
 30
0.0
 10
21.18748460319225
 20
-8.22437379119991
 30
0.0
 10
21.65394529876259
 20
-8.235578597121588
 30
0.0
 10
22.303634410747
 20
-8.25470681474485
 30
0.0
 10
23.22350781219749
 20
-8.288422139807057
 30
0.0
 10
23.92816823471133
 20
-8.323776656280165
 30
0.0
 10
24.32542586339541
 20
-8.343708031632955
 30
0.0
  0
LINE
  5
A2
330
1F
100
AcDbEntity
  8
0
  6
Continuous
 62
     1
370
    15
100
AcDbLine
 10
9.999999999999991
 20
5.717568014015741
 30
0.0
 11
9.999999999999995
 21
3.950720490478857
 31
0.0
  0
LINE
  5
A3
330
1F
100
AcDbEntity
  8
0
  6
Continuous
 62
     1
370
    15
100
AcDbLine
 10
9.999999999999995
 20
0.6328094273312527
 30
0.0
 11
9.999999999999991
 21
-5.146372306240067
 31
0.0
  0
SPLINE
  5
A5
330
1F
100
AcDbEntity
  8
0
  6
Continuous
 62
     1
370
    15
100
AcDbSpline
210
0.0
220
0.0
230
1.0
 70
    24
 71
     3
 72
     8
 73
     4
 74
     0
 42
0.000000001
 43
0.00000001
 40
0.0
 40
0.0
 40
0.0
 40
0.0
 40
1.0
 40
1.0
 40
1.0
 40
1.0
 10
9.999999999999995
 20
3.950720490478857
 30
0.0
 10
9.999999999999995
 20
2.931049105504979
 30
0.0
 10
9.999999999999995
 20
1.800825103624049
 30
0.0
 10
9.999999999999995
 20
0.6328094273312527
 30
0.0
  0
SPLINE
  5
A6
330
1F
100
AcDbEntity
  8
0
  6
Continuous
 62
     1
370
    15
100
AcDbSpline
210
0.0
220
0.0
230
1.0
 70
     8
 71
     3
 72
    60
 73
    56
 74
     0
 42
0.000000001
 43
0.00000001
 40
0.0
 40
0.0
 40
0.0
 40
0.0
 40
0.0625
 40
0.0625
 40
0.0937499999999998
 40
0.0937499999999998
 40
0.1249999999999997
 40
0.1249999999999997
 40
0.1562499999999995
 40
0.1562499999999995
 40
0.1874999999999993
 40
0.1874999999999993
 40
0.2187499999999992
 40
0.2187499999999992
 40
0.249999999999999
 40
0.249999999999999
 40
0.3124999999999987
 40
0.3124999999999987
 40
0.3437499999999988
 40
0.3437499999999988
 40
0.3749999999999988
 40
0.3749999999999988
 40
0.4062499999999989
 40
0.4062499999999989
 40
0.437499999999999
 40
0.437499999999999
 40
0.4687499999999991
 40
0.4687499999999991
 40
0.4999999999999991
 40
0.4999999999999991
 40
0.5624999999999992
 40
0.5624999999999992
 40
0.6249999999999993
 40
0.6249999999999993
 40
0.6562499999999993
 40
0.6562499999999993
 40
0.6874999999999993
 40
0.6874999999999993
 40
0.7187499999999993
 40
0.7187499999999993
 40
0.7499999999999993
 40
0.7499999999999993
 40
0.7812499999999994
 40
0.7812499999999994
 40
0.8124999999999994
 40
0.8124999999999994
 40
0.8749999999999996
 40
0.8749999999999996
 40
0.9062499999999997
 40
0.9062499999999997
 40
0.9374999999999998
 40
0.9374999999999998
 40
0.9687499999999999
 40
0.9687499999999999
 40
1.0
 40
1.0
 40
1.0
 40
1.0
 10
54.99999999999999
 20
-10.49112555991125
 30
0.0
 10
54.06604384229593
 20
-10.46890426731718
 30
0.0
 10
53.12260073795294
 20
-10.40464530572629
 30
0.0
 10
51.71842968719701
 20
-10.24677594393825
 30
0.0
 10
51.25139811191373
 20
-10.18394871195425
 30
0.0
 10
50.31271432734743
 20
-10.0379076213973
 30
0.0
 10
49.84255979862778
 20
-9.95474570985232
 30
0.0
 10
48.90483912789914
 20
-9.768904954744679
 30
0.0
 10
48.43852058569367
 20
-9.666341745089136
 30
0.0
 10
47.50095052357697
 20
-9.441814761866004
 30
0.0
 10
47.03081148344082
 20
-9.319907731945058
 30
0.0
 10
46.09203858344957
 20
-9.057875276565907
 30
0.0
 10
45.62482953045192
 20
-8.91790479184168
 30
0.0
 10
44.688927301122
 20
-8.620365245384269
 30
0.0
 10
44.21908347997311
 20
-8.462653287653502
 30
0.0
 10
42.81018051552567
 20
-7.964718328704615
 30
0.0
 10
41.87676391147369
 20
-7.600364413859008
 30
0.0
 10
40.46795353247689
 20
-7.009509879614982
 30
0.0
 10
39.99802026358686
 20
-6.805311884066832
 30
0.0
 10
39.06170118104401
 20
-6.384294605592717
 30
0.0
 10
38.59482744817915
 20
-6.167420039459194
 30
0.0
 10
37.65623959699789
 20
-5.721061446667333
 30
0.0
 10
37.18607300836221
 20
-5.491807189918369
 30
0.0
 10
36.2482085236611
 20
-5.023212213213005
 30
0.0
 10
35.78187032893569
 20
-4.784115774357835
 30
0.0
 10
34.84445766642624
 20
-4.296070299526866
 30
0.0
 10
34.37433754316391
 20
-4.047271743629715
 30
0.0
 10
33.43548234786713
 20
-3.542340046149045
 30
0.0
 10
32.96807618614543
 20
-3.286454464403295
 30
0.0
 10
31.56455067494342
 20
-2.509525187557365
 30
0.0
 10
30.62105879654856
 20
-1.978021777473307
 30
0.0
 10
28.75209638372266
 20
-0.9068865727758384
 30
0.0
 10
27.80976072077761
 20
-0.3640622755673771
 30
0.0
 10
26.40498466503594
 20
0.4474515451866106
 30
0.0
 10
25.93824913548118
 20
0.7174875571600264
 30
0.0
 10
24.99976403332089
 20
1.256554541874168
 30
0.0
 10
24.5295888137302
 20
1.525280372823268
 30
0.0
 10
23.59158731317648
 20
2.058709447234129
 30
0.0
 10
23.125209813886
 20
2.323143550007041
 30
0.0
 10
22.18796133817137
 20
2.84770655468377
 30
0.0
 10
21.7178635596127
 20
3.107682753135003
 30
0.0
 10
20.77893289112408
 20
3.620684033730163
 30
0.0
 10
20.31130999442868
 20
3.873493965144909
 30
0.0
 10
19.37585162090168
 20
4.37095006874655
 30
0.0
 10
18.90611093183485
 20
4.615926239010469
 30
0.0
 10
17.49715637450455
 20
5.336253439068652
 30
0.0
 10
16.56367457927594
 20
5.796110387705639
 30
0.0
 10
15.15499776931824
 20
6.449927307113912
 30
0.0
 10
14.68498874573264
 20
6.661708633349519
 30
0.0
 10
13.74827985283071
 20
7.071091882825083
 30
0.0
 10
13.28166288413949
 20
7.268702722270382
 30
0.0
 10
12.34328734414702
 20
7.649767834104225
 30
0.0
 10
11.87310692277252
 20
7.83298535066426
 30
0.0
 10
10.93497520780261
 20
8.183152042680717
 30
0.0
 10
10.46853875285148
 20
8.34993827417358
 30
0.0
 10
9.999999999999835
 20
8.50849974113644
 30
0.0
  0
SPLINE
  5
A7
330
1F
100
AcDbEntity
  8
0
  6
Continuous
 62
     1
370
    15
100
AcDbSpline
210
0.0
220
0.0
230
1.0
 70
     8
 71
     3
 72
    14
 73
    10
 74
     0
 42
0.000000001
 43
0.00000001
 40
0.0
 40
0.0
 40
0.0
 40
0.0
 40
0.0494435708595135
 40
0.2082745809553499
 40
0.367106372561439
 40
0.525940035262732
 40
0.6839546201731996
 40
0.8419741387459317
 40
1.0
 40
1.0
 40
1.0
 40
1.0
 10
28.90604555231869
 20
-0.993226929744835
 30
0.0
 10
28.59445220270675
 20
-0.8694445343785022
 30
0.0
 10
27.28190593651381
 20
-0.3480273697925458
 30
0.0
 10
24.96840273221617
 20
0.5953118049816442
 30
0.0
 10
21.96552243495911
 20
1.795050768479324
 30
0.0
 10
18.96778063079956
 20
2.946994943994191
 30
0.0
 10
15.975163426675
 20
4.013630015684678
 30
0.0
 10
12.98762503306113
 20
4.981675406751287
 30
0.0
 10
10.99588833500483
 20
5.509808338195433
 30
0.0
 10
9.999999999999998
 20
5.773880103439509
 30
0.0
  0
SPLINE
  5
A8
330
1F
100
AcDbEntity
  8
0
  6
Continuous
 62
     4
370
    15
100
AcDbSpline
210
0.0
220
0.0
230
1.0
 70
    24
 71
     3
 72
    10
 73
     6
 74
     0
 42
0.000000001
 43
0.00000001
 40
0.0
 40
0.0
 40
0.0
 40
0.0
 40
0.5
 40
0.5
 40
1.0
 40
1.0
 40
1.0
 40
1.0
 10
9.999999999999995
 20
8.508499741136385
 30
0.0
 10
9.999999999999995
 20
8.178666994720011
 30
0.0
 10
9.999999999999995
 20
7.754006221865231
 30
0.0
 10
9.999999999999995
 20
6.804729566582469
 30
0.0
 10
9.999999999999995
 20
6.28304906975927
 30
0.0
 10
9.999999999999995
 20
5.77388010343951
 30
0.0
  0
SPLINE
  5
A9
330
1F
100
AcDbEntity
  8
0
  6
Continuous
 62
     1
370
    15
100
AcDbSpline
210
0.0
220
0.0
230
1.0
 70
     8
 71
     3
 72
    60
 73
    56
 74
     0
 42
0.000000001
 43
0.00000001
 40
0.0
 40
0.0
 40
0.0
 40
0.0
 40
0.0624999999999998
 40
0.0624999999999998
 40
0.0937499999999998
 40
0.0937499999999998
 40
0.1249999999999997
 40
0.1249999999999997
 40
0.1562499999999996
 40
0.1562499999999996
 40
0.1874999999999995
 40
0.1874999999999995
 40
0.2187499999999994
 40
0.2187499999999994
 40
0.2499999999999993
 40
0.2499999999999993
 40
0.3124999999999993
 40
0.3124999999999993
 40
0.3437499999999994
 40
0.3437499999999994
 40
0.3749999999999994
 40
0.3749999999999994
 40
0.4062499999999994
 40
0.4062499999999994
 40
0.4374999999999995
 40
0.4374999999999995
 40
0.4687499999999995
 40
0.4687499999999995
 40
0.4999999999999996
 40
0.4999999999999996
 40
0.5624999999999997
 40
0.5624999999999997
 40
0.6249999999999997
 40
0.6249999999999997
 40
0.6562499999999998
 40
0.6562499999999998
 40
0.6874999999999998
 40
0.6874999999999998
 40
0.7187499999999998
 40
0.7187499999999998
 40
0.7499999999999998
 40
0.7499999999999998
 40
0.7812499999999999
 40
0.7812499999999999
 40
0.8124999999999999
 40
0.8124999999999999
 40
0.875
 40
0.875
 40
0.90625
 40
0.90625
 40
0.9375
 40
0.9375
 40
0.9687500000000001
 40
0.9687500000000001
 40
1.0
 40
1.0
 40
1.0
 40
1.0
 10
54.99999999999999
 20
-9.963879126934943
 30
0.0
 10
54.06604384229588
 20
-9.79334695914498
 30
0.0
 10
53.12260073795283
 20
-9.582387582661742
 30
0.0
 10
51.71842968719686
 20
-9.210816111096527
 30
0.0
 10
51.25139811191352
 20
-9.077766069736667
 30
0.0
 10
50.31271432734714
 20
-8.793394077953963
 30
0.0
 10
49.84255979862749
 20
-8.642200933613097
 30
0.0
 10
48.9048391278988
 20
-8.323173299684095
 30
0.0
 10
48.43852058569331
 20
-8.155508927332038
 30
0.0
 10
47.50095052357655
 20
-7.803688795520705
 30
0.0
 10
47.03081148344036
 20
-7.6196454440451
 30
0.0
 10
46.09203858344907
 20
-7.236922018573949
 30
0.0
 10
45.6248295304514
 20
-7.038454015280081
 30
0.0
 10
44.68892730112144
 20
-6.627710733704182
 30
0.0
 10
44.2190834799725
 20
-6.415250696358206
 30
0.0
 10
42.81018051552498
 20
-5.759390076106484
 30
0.0
 10
41.87676391147294
 20
-5.298346470085188
 30
0.0
 10
40.46795353247607
 20
-4.576480573618569
 30
0.0
 10
39.99802026358602
 20
-4.330989516431958
 30
0.0
 10
39.06170118104313
 20
-3.832495804773223
 30
0.0
 10
38.59482744817822
 20
-3.579417468978966
 30
0.0
 10
37.65623959699693
 20
-3.065758084863803
 30
0.0
 10
37.18607300836123
 20
-2.805451113432762
 30
0.0
 10
36.24820852366004
 20
-2.280220303498266
 30
0.0
 10
35.78187032893464
 20
-2.015559083791826
 30
0.0
 10
34.84445766642511
 20
-1.481859939650896
 30
0.0
 10
34.37433754316274
 20
-1.212997308973937
 30
0.0
 10
33.43548234786591
 20
-0.6736514443270248
 30
0.0
 10
32.96807618614421
 20
-0.4034259348182718
 30
0.0
 10
31.5645506749421
 20
0.4078973354057567
 30
0.0
 10
30.62105879654718
 20
0.9508015215700204
 30
0.0
 10
28.75209638372121
 20
2.021304374208529
 30
0.0
 10
27.80976072077607
 20
2.552102338233547
 30
0.0
 10
26.40498466503434
 20
3.328275399639011
 30
0.0
 10
25.93824913547954
 20
3.583667427120952
 30
0.0
 10
24.9997640333192
 20
4.087710524405352
 30
0.0
 10
24.52958881372849
 20
4.336067831327421
 30
0.0
 10
23.59158731317472
 20
4.823232161548433
 30
0.0
 10
23.12520981388422
 20
5.061803087036751
 30
0.0
 10
22.18796133816954
 20
5.529157862499168
 30
0.0
 10
21.71786355961083
 20
5.757795804554942
 30
0.0
 10
20.77893289112216
 20
6.202923627396657
 30
0.0
 10
20.31130999442674
 20
6.419232690648379
 30
0.0
 10
19.37585162089968
 20
6.83869461697916
 30
0.0
 10
18.90611093183283
 20
7.042119709018213
 30
0.0
 10
17.49715637450244
 20
7.63065991366387
 30
0.0
 10
16.56367457927379
 20
7.993339393246715
 30
0.0
 10
15.15499776931601
 20
8.488561699976376
 30
0.0
 10
14.68498874573037
 20
8.645371642245006
 30
0.0
 10
13.74827985282841
 20
8.941101930646548
 30
0.0
 10
13.28166288413716
 20
9.080040327013586
 30
0.0
 10
12.34328734414462
 20
9.340053097415142
 30
0.0
 10
11.87310692277009
 20
9.460953436366632
 30
0.0
 10
10.93497520780014
 20
9.683463196071393
 30
0.0
 10
10.46853875284899
 20
9.784983561103706
 30
0.0
 10
9.999999999997316
 20
9.87681871200932
 30
0.0
  0
SPLINE
  5
AA
330
1F
100
AcDbEntity
  8
0
  6
Continuous
 62
     1
370
    15
100
AcDbSpline
210
0.0
220
0.0
230
1.0
 70
     8
 71
     3
 72
    17
 73
    13
 74
     0
 42
0.000000001
 43
0.00000001
 40
0.0
 40
0.0
 40
0.0
 40
0.0
 40
0.110187220034938
 40
0.2203684548875006
 40
0.3305444213372132
 40
0.4407158384063135
 40
0.5508834270557817
 40
0.6610479098796137
 40
0.7712100107976165
 40
0.8813704547469997
 40
0.9915299673730437
 40
0.9999999999999999
 40
0.9999999999999999
 40
0.9999999999999999
 40
0.9999999999999999
 10
54.99999999999999
 20
-8.284208775866261
 30
0.0
 10
53.998755889407
 20
-8.07962279360442
 30
0.0
 10
51.99632205409808
 20
-7.670461941843311
 30
0.0
 10
48.99277784073291
 20
-6.787610091283906
 30
0.0
 10
45.98939660106824
 20
-5.736266440270608
 30
0.0
 10
42.98615829806269
 20
-4.524582055457882
 30
0.0
 10
39.98303970567378
 20
-3.190802107320668
 30
0.0
 10
36.98001838022763
 20
-1.770570483922679
 30
0.0
 10
33.97707162005409
 20
-0.2998246254530766
 30
0.0
 10
30.9741767155054
 20
1.169984750194584
 30
0.0
 10
28.89530013112589
 20
2.189016881206109
 30
0.0
 10
27.81738513414231
 20
2.678986033271188
 30
0.0
 10
27.74042306559467
 20
2.713969347885962
 30
0.0
  0
LINE
  5
AB
330
1F
100
AcDbEntity
  8
0
  6
Continuous
 62
     1
370
    15
100
AcDbLine
 10
54.99999999999999
 20
-9.963879126934948
 30
0.0
 11
54.99999999999999
 21
-8.284208775866261
 31
0.0
  0
LINE
  5
AC
330
1F
100
AcDbEntity
  8
0
  6
Continuous
 62
     4
370
    15
100
AcDbLine
 10
9.999999999999995
 20
8.508499741136385
 30
0.0
 11
9.999999999999991
 21
9.876818711998046
 31
0.0
  0
LINE
  5
AD
330
1F
100
AcDbEntity
  8
0
  6
Continuous
 62
     1
370
    15
100
AcDbLine
 10
54.99999999999999
 20
-10.49112555991126
 30
0.0
 11
54.99999999999999
 21
-9.963879126934952
 31
0.0
  0
SPLINE
  5
AE
330
1F
100
AcDbEntity
  8
0
  6
Continuous
 62
     1
370
    15
100
AcDbSpline
210
0.0
220
0.0
230
1.0
 70
     8
 71
     3
 72
    10
 73
     6
 74
     0
 42
0.000000001
 43
0.00000001
 40
0.0
 40
0.0
 40
0.0
 40
0.0
 40
0.5
 40
0.5
 40
1.0
 40
1.0
 40
1.0
 40
1.0
 10
54.99999999999999
 20
-2.806050933311264
 30
0.0
 10
54.14182607097631
 20
-2.131385306304612
 30
0.0
 10
53.29603002936172
 20
-1.436446135186966
 30
0.0
 10
51.62882278955541
 20
-0.0066282473381027
 30
0.0
 10
50.80737463303991
 20
0.7281899359448
 30
0.0
 10
50.00000000000223
 20
1.486058918576171
 30
0.0
  0
LINE
  5
AF
330
1F
100
AcDbEntity
  8
0
  6
Continuous
 62
     1
370
    15
100
AcDbLine
 10
49.99999999999999
 20
2.937719435296593
 30
0.0
 11
54.99999999999999
 21
0.0000000000000061
 31
0.0
  0
LINE
  5
B0
330
1F
100
AcDbEntity
  8
0
  6
Continuous
 62
     1
370
    15
100
AcDbLine
 10
54.99999999999999
 20
0.0000000000000061
 30
0.0
 11
54.99999999999999
 21
-2.806050933311264
 31
0.0
  0
SPLINE
  5
B1
330
1F
100
AcDbEntity
  8
0
  6
Continuous
 62
     1
370
    15
100
AcDbSpline
210
0.0
220
0.0
230
1.0
 70
     8
 71
     3
 72
    17
 73
    13
 74
     0
 42
0.000000001
 43
0.00000001
 40
0.0
 40
0.0
 40
0.0
 40
0.0
 40
0.0909996568905871
 40
0.1820646502665204
 40
0.2731703843055066
 40
0.3901254423029241
 40
0.5070771570744711
 40
0.6240263078290704
 40
0.740973674874756
 40
0.8579200392845215
 40
0.9748661825614745
 40
1.0
 40
1.0
 40
1.0
 40
1.0
 10
50.00000000000001
 20
2.28028621234917
 30
0.0
 10
49.22124930467064
 20
2.623017610594359
 30
0.0
 10
47.66318878186642
 20
3.308726483451881
 30
0.0
 10
45.32517244495988
 20
4.272313114174475
 30
0.0
 10
42.76484679491164
 20
5.252798597927217
 30
0.0
 10
39.98302350617259
 20
6.202136941703188
 30
0.0
 10
36.97999353000424
 20
7.058576602410896
 30
0.0
 10
33.97704373276108
 20
7.721605602904382
 30
0.0
 10
30.9741443705671
 20
8.179715378351226
 30
0.0
 10
27.97127432216209
 20
8.396056234407366
 30
0.0
 10
25.75424587071389
 20
8.4401533916812
 30
0.0
 10
24.53817002494074
 20
8.341830800066187
 30
0.0
 10
24.32304730006704
 20
8.32443762191995
 30
0.0
  0
SPLINE
  5
B2
330
1F
100
AcDbEntity
  8
0
  6
Continuous
 62
     1
370
    15
100
AcDbSpline
210
0.0
220
0.0
230
1.0
 70
    24
 71
     3
 72
     8
 73
     4
 74
     0
 42
0.000000001
 43
0.00000001
 40
0.0
 40
0.0
 40
0.0
 40
0.0
 40
1.0
 40
1.0
 40
1.0
 40
1.0
 10
49.99999999999999
 20
1.486058918565271
 30
0.0
 10
49.99999999999999
 20
1.753660942247455
 30
0.0
 10
50.0
 20
2.018692193464812
 30
0.0
 10
50.0
 20
2.280286212349177
 30
0.0
  0
SPLINE
  5
B3
330
1F
100
AcDbEntity
  8
0
  6
Continuous
 62
     1
370
    15
100
AcDbSpline
210
0.0
220
0.0
230
1.0
 70
    24
 71
     3
 72
    10
 73
     6
 74
     0
 42
0.000000001
 43
0.00000001
 40
0.0
 40
0.0
 40
0.0
 40
0.0
 40
0.5
 40
0.5
 40
1.0
 40
1.0
 40
1.0
 40
1.0
 10
54.99999999999999
 20
-8.28420877586626
 30
0.0
 10
54.99999999999998
 20
-7.649159584539944
 30
0.0
 10
54.99999999999998
 20
-6.846750581017909
 30
0.0
 10
54.99999999999998
 20
-4.981226871082134
 30
0.0
 10
54.99999999999999
 20
-3.919728152038747
 30
0.0
 10
54.99999999999999
 20
-2.806050933311599
 30
0.0
  0
SPLINE
  5
B4
330
1F
100
AcDbEntity
  8
0
  6
Continuous
 62
     1
370
    15
100
AcDbSpline
210
0.0
220
0.0
230
1.0
 70
    24
 71
     3
 72
    10
 73
     6
 74
     0
 42
0.000000001
 43
0.00000001
 40
0.0
 40
0.0
 40
0.0
 40
0.0
 40
0.5
 40
0.5
 40
1.0
 40
1.0
 40
1.0
 40
1.0
 10
49.99999999999999
 20
2.280286212349182
 30
0.0
 10
49.99999999999998
 20
2.959934463783781
 30
0.0
 10
49.99999999999999
 20
3.605490339173631
 30
0.0
 10
49.99999999999997
 20
4.766160421676297
 30
0.0
 10
49.99999999999998
 20
5.280708348797802
 30
0.0
 10
49.99999999999997
 20
5.704781020550718
 30
0.0
  0
SPLINE
  5
B5
330
1F
100
AcDbEntity
  8
0
  6
Continuous
 62
     1
370
    15
100
AcDbSpline
210
0.0
220
0.0
230
1.0
 70
     8
 71
     3
 72
     9
 73
     5
 74
     0
 42
0.000000001
 43
0.00000001
 40
0.0
 40
0.0
 40
0.0
 40
0.0
 40
0.7686942600372045
 40
1.0
 40
1.0
 40
1.0
 40
1.0
 10
54.99999999999999
 20
7.350000000000006
 30
0.0
 10
53.99875378184077
 20
7.341942556464217
 30
0.0
 10
52.69622523413084
 20
7.331460569080313
 30
0.0
 10
51.39370807751383
 20
7.192656066563531
 30
0.0
 10
51.09242838278828
 20
7.160549788398718
 30
0.0
  0
SPLINE
  5
B6
330
1F
100
AcDbEntity
  8
0
  6
Continuous
 62
     1
370
    15
100
AcDbSpline
210
0.0
220
0.0
230
1.0
 70
     8
 71
     3
 72
     8
 73
     4
 74
     0
 42
0.000000001
 43
0.00000001
 40
0.0
 40
0.0
 40
0.0
 40
0.0
 40
1.0
 40
1.0
 40
1.0
 40
1.0
 10
54.99999999999999
 20
7.350000000000006
 30
0.0
 10
53.31647149427191
 20
6.89356975469925
 30
0.0
 10
51.64657331416257
 20
6.351458868511202
 30
0.0
 10
49.99999999999998
 20
5.704781020550722
 30
0.0
  0
SPLINE
  5
B7
330
1F
100
AcDbEntity
  8
0
  6
Continuous
 62
     1
370
    15
100
AcDbSpline
210
0.0
220
0.0
230
1.0
 70
     8
 71
     3
 72
    15
 73
    11
 74
     0
 42
0.000000001
 43
0.00000001
 40
0.0
 40
0.0
 40
0.0
 40
0.0
 40
0.078565108798467
 40
0.2104871718638695
 40
0.3424089854790474
 40
0.4743314313303932
 40
0.6062553908330565
 40
0.7374992230308689
 40
0.8687470461613563
 40
1.0
 40
1.0
 40
1.0
 40
1.0
 10
32.76246940246188
 20
-7.870260126475324
 30
0.0
 10
32.16635826768843
 20
-7.966992982711337
 30
0.0
 10
30.56929121344575
 20
-8.226154150395361
 30
0.0
 10
27.97127464170834
 20
-8.402110197605193
 30
0.0
 10
24.96841074637109
 20
-8.412548755269162
 30
0.0
 10
21.96553180135902
 20
-8.184393069143558
 30
0.0
 10
18.96778854720137
 20
-7.737632609030848
 30
0.0
 10
15.97517110111513
 20
-7.079045078819162
 30
0.0
 10
12.98762990745336
 20
-6.241205769815525
 30
0.0
 10
10.99588961233579
 20
-5.545591574719566
 30
0.0
 10
9.999999999999995
 20
-5.197777679108993
 30
0.0
  0
SPLINE
  5
B8
330
1F
100
AcDbEntity
  8
0
  6
Continuous
 62
     4
370
    15
100
AcDbSpline
210
0.0
220
0.0
230
1.0
 70
    24
 71
     3
 72
    14
 73
    10
 74
     0
 42
0.000000001
 43
0.00000001
 40
0.0
 40
0.0
 40
0.0
 40
0.0
 40
0.2500000000000002
 40
0.2500000000000002
 40
0.5000000000000001
 40
0.5000000000000001
 40
0.75
 40
0.75
 40
1.0
 40
1.0
 40
1.0
 40
1.0
 10
9.999999999999995
 20
5.773880103439512
 30
0.0
 10
9.999999999999995
 20
5.055962719979653
 30
0.0
 10
9.999999999999995
 20
4.242500638468798
 30
0.0
 10
9.999999999999995
 20
2.47782281279218
 30
0.0
 10
9.999999999999995
 20
1.527197077280519
 30
0.0
 10
9.999999999999995
 20
-0.4227828357517033
 30
0.0
 10
9.999999999999995
 20
-1.421097982449409
 30
0.0
 10
9.999999999999995
 20
-3.367487873501776
 30
0.0
 10
9.999999999999995
 20
-4.314717384801785
 30
0.0
 10
9.999999999999995
 20
-5.197777679108992
 30
0.0
  0
SPLINE
  5
B9
330
1F
100
AcDbEntity
  8
0
  6
Continuous
 62
     4
370
    15
100
AcDbSpline
210
0.0
220
0.0
230
1.0
 70
    24
 71
     3
 72
    15
 73
    11
 74
     0
 42
0.000000001
 43
0.00000001
 40
0.0
 40
0.0
 40
0.0
 40
0.0
 40
0.1459383282238566
 40
0.291876656447713
 40
0.3987971662434273
 40
0.5057176760391416
 40
0.6157444579773024
 40
0.7257712399154632
 40
0.9188557064391332
 40
1.0
 40
1.0
 40
1.0
 40
1.0
 10
9.999999999999995
 20
-5.197777679108995
 30
0.0
 10
9.999999999999995
 20
-5.497297075373692
 30
0.0
 10
9.999999999999995
 20
-6.096335867903088
 30
0.0
 10
9.999999999999995
 20
-6.783646995261575
 30
0.0
 10
9.999999999999995
 20
-7.319431363226864
 30
0.0
 10
9.999999999999995
 20
-7.728846046618441
 30
0.0
 10
9.999999999999995
 20
-8.067666197304453
 30
0.0
 10
9.999999999999995
 20
-8.386780883363322
 30
0.0
 10
9.999999999999995
 20
-8.591569178987358
 30
0.0
 10
9.999999999999995
 20
-8.572201662522584
 30
0.0
 10
9.999999999999995
 20
-8.56647081415687
 30
0.0
  0
LINE
  5
BA
330
1F
100
AcDbEntity
  8
0
  6
Continuous
 62
     1
370
    15
100
AcDbLine
 10
54.99999999999999
 20
0.0000000000000061
 30
0.0
 11
54.99999999999999
 21
7.350000000000006
 31
0.0
  0
SPLINE
  5
BB
330
1F
100
AcDbEntity
  8
0
  6
Continuous
 62
     1
370
    15
100
AcDbSpline
210
0.0
220
0.0
230
1.0
 70
     8
 71
     3
 72
    13
 73
     9
 74
     0
 42
0.000000001
 43
0.00000001
 40
0.0
 40
0.0
 40
0.0
 40
0.0
 40
0.0206600881438722
 40
0.2164936270596291
 40
0.4123335902802275
 40
0.6081907918326376
 40
0.8040760162172623
 40
1.0
 40
1.0
 40
1.0
 40
1.0
 10
40.55870114650653
 20
7.038185419627542
 30
0.0
 10
40.65815102388914
 20
7.08325175836474
 30
0.0
 10
41.70026974648429
 20
7.555494425654992
 30
0.0
 10
43.68507011484925
 20
8.296635272096449
 30
0.0
 10
46.51322265295954
 20
9.21609244927091
 30
0.0
 10
49.34167409221237
 20
9.891501967510097
 30
0.0
 10
52.17060136019635
 20
10.35076947690188
 30
0.0
 10
54.05680492302898
 20
10.44433711354141
 30
0.0
 10
54.99999999999999
 20
10.49112555991126
 30
0.0
  0
SPLINE
  5
BC
330
1F
100
AcDbEntity
  8
0
  6
Continuous
 62
     1
370
    15
100
AcDbSpline
210
0.0
220
0.0
230
1.0
 70
    24
 71
     3
 72
    10
 73
     6
 74
     0
 42
0.000000001
 43
0.00000001
 40
0.0
 40
0.0
 40
0.0
 40
0.0
 40
0.5
 40
0.5
 40
1.0
 40
1.0
 40
1.0
 40
1.0
 10
54.99999999999999
 20
7.350000000000006
 30
0.0
 10
54.99999999999999
 20
7.795538696476801
 30
0.0
 10
54.99999999999999
 20
8.313295923104738
 30
0.0
 10
54.99999999999998
 20
9.399549190088987
 30
0.0
 10
54.99999999999999
 20
9.965271075915462
 30
0.0
 10
54.99999999999999
 20
10.49112555991127
 30
0.0
  0
SPLINE
  5
BD
330
1F
100
AcDbEntity
  8
0
  6
Continuous
 62
     1
370
    15
100
AcDbSpline
210
0.0
220
0.0
230
1.0
 70
     8
 71
     3
 72
    10
 73
     6
 74
     0
 42
0.000000001
 43
0.00000001
 40
0.0
 40
0.0
 40
0.0
 40
0.0
 40
0.0273580422697482
 40
0.5136526550548804
 40
1.0
 40
1.0
 40
1.0
 40
1.0
 10
15.81586155996933
 20
-8.25060224768586
 30
0.0
 10
15.76282581533852
 20
-8.271202136137664
 30
0.0
 10
14.76706921938689
 20
-8.657969116492962
 30
0.0
 10
12.82847227853447
 20
-9.241702946019092
 30
0.0
 10
10.94285816927582
 20
-9.665105805029318
 30
0.0
 10
9.999999999997323
 20
-9.876818712009323
 30
0.0
  0
SPLINE
  5
BE
330
1F
100
AcDbEntity
  8
0
  6
Continuous
 62
     4
370
    15
100
AcDbSpline
210
0.0
220
0.0
230
1.0
 70
    24
 71
     3
 72
     8
 73
     4
 74
     0
 42
0.000000001
 43
0.00000001
 40
0.0
 40
0.0
 40
0.0
 40
0.0
 40
1.0
 40
1.0
 40
1.0
 40
1.0
 10
10.00000000000007
 20
-8.562594834279933
 30
0.0
 10
10.00000000000007
 20
-9.026127641507003
 30
0.0
 10
10.00000000000007
 20
-9.467130752604193
 30
0.0
 10
10.00000000000007
 20
-9.876818711999517
 30
0.0
  0
LINE
  5
BF
330
1F
100
AcDbEntity
  8
중심선
100
AcDbLine
 10
-57.99999999999999
 20
-0.0000000000000035
 30
0.0
 11
57.99999999999997
 21
-0.0000000000000035
 31
0.0
  0
CIRCLE
  5
C0
330
1F
100
AcDbEntity
  8
외형선
100
AcDbCircle
 10
0.0000000000000087
 20
-0.0000000000000035
 30
0.0
 40
3.000000000000004
  0
INSERT
  5
C1
330
1F
100
AcDbEntity
  8
0
  6
Continuous
 62
     7
100
AcDbBlockReference
 66
     1
  2
블럭10
 10
-23.93827343951161
 20
-52.04717430164393
 30
0.0
  0
ATTRIB
  5
C2
330
C1
100
AcDbEntity
  8
FORMAT
 62
     2
100
AcDbText
 10
-36.89821263436938
 20
-49.97180738881174
 30
0.0
 40
4.233333333333333
  1
SEME35210E [ 2 FLUTE ]
 41
0.75
  7
SLDTEXTSTYLE0
 11
-36.89821263436938
 21
-52.08847405547841
 31
0.0
100
AcDbAttribute
  2
AUTOATTR0
 70
     0
 74
     1
  0
SEQEND
  5
C3
330
C1
100
AcDbEntity
  8
0
  6
Continuous
 62
     7
  0
HATCH
  5
C4
330
1F
100
AcDbEntity
  8
중심선
100
AcDbHatch
 10
0.0
 20
0.0
 30
0.0
210
0.0
220
0.0
230
1.0
  2
SOLID
 70
     1
 71
     0
 91
        1
 92
        0
 93
        4
 72
     1
 10
-18.22336413513076
 20
-35.8
 11
-21.66963937896804
 21
-35.8
 72
     1
 10
-21.66963937896804
 20
-35.8
 11
-23.79786923817207
 21
-38.33632558057259
 72
     1
 10
-23.79786923817207
 20
-38.33632558057259
 11
-20.35156090922163
 21
-38.3362861512701
 72
     1
 10
-20.35156090922163
 20
-38.3362861512701
 11
-18.22336413513076
 21
-35.8
 97
        0
 75
     0
 76
     1
 98
        1
 10
0.0
 20
0.0
  0
HATCH
  5
C5
330
1F
100
AcDbEntity
  8
중심선
100
AcDbHatch
 10
0.0
 20
0.0
 30
0.0
210
0.0
220
0.0
230
1.0
  2
SOLID
 70
     1
 71
     0
 91
        1
 92
        0
 93
        4
 72
     1
 10
-13.21060014409481
 20
-35.8
 11
-16.65687538793209
 21
-35.8
 72
     1
 10
-16.65687538793209
 20
-35.8
 11
-21.18801339628948
 21
-41.20000000000002
 72
     1
 10
-21.18801339628948
 20
-41.20000000000002
 11
-17.7417381524522
 21
-41.20000000000002
 72
     1
 10
-17.7417381524522
 20
-41.20000000000002
 11
-13.21060014409481
 21
-35.8
 97
        0
 75
     0
 76
     1
 98
        1
 10
0.0
 20
0.0
  0
HATCH
  5
C6
330
1F
100
AcDbEntity
  8
중심선
100
AcDbHatch
 10
0.0
 20
0.0
 30
0.0
210
0.0
220
0.0
230
1.0
  2
SOLID
 70
     1
 71
     0
 91
        1
 92
        0
 93
        4
 72
     1
 10
-8.197836153058912
 20
-35.80000000000003
 11
-11.64411139689603
 21
-35.8
 72
     1
 10
-11.64411139689603
 20
-35.8
 11
-18.69254829878528
 21
-44.20000000000002
 72
     1
 10
-18.69254829878528
 20
-44.20000000000002
 11
-15.246273054948
 21
-44.20000000000002
 72
     1
 10
-15.246273054948
 20
-44.20000000000002
 11
-8.197836153058912
 21
-35.80000000000003
 97
        0
 75
     0
 76
     1
 98
        1
 10
0.0
 20
0.0
  0
HATCH
  5
C7
330
1F
100
AcDbEntity
  8
중심선
100
AcDbHatch
 10
0.0
 20
0.0
 30
0.0
210
0.0
220
0.0
230
1.0
  2
SOLID
 70
     1
 71
     0
 91
        1
 92
        0
 93
        6
 72
     3
 10
-3.397945722046714
 20
-40.00000000005127
 11
3.960054785062284
 21
1.540850780301639E-10
 40
0.3939339440162633
 50
17.09539180608433
 51
320.0019657685079
 73
     0
 72
     1
 10
-1.714946066346118
 20
-38.5878940046383
 11
0.5903558073549198
 21
-36.65356729459038
 72
     3
 10
-3.39794572209956
 20
-40.00000000000015
 11
6.600054785286829
 21
-1.249000902703301E-13
 40
0.6363583540795982
 50
39.99873849337408
 51
368.4976242363725
 73
     1
 72
     1
 10
3.027386769801049
 20
-39.03999999993002
 11
-4.717878415263637
 21
-39.03999999992999
 72
     1
 10
-4.717878415263637
 20
-39.03999999992999
 11
-4.717903459709571
 21
-40.95999999992991
 72
     1
 10
-4.717903459709571
 20
-40.95999999992991
 11
-0.2765236902375348
 21
-40.95999999992988
 97
        0
 75
     0
 76
     1
 98
        1
 10
0.0
 20
0.0
  0
DIMENSION
  5
C8
330
1F
100
AcDbEntity
  8
치수문자_일반주서
100
AcDbDimension
  2
_D
 10
9.999999999999991
 20
22.74175944848905
 30
0.0
 11
32.49999999999999
 21
22.74175944848905
 31
0.0
 70
   160
  1
<>
 71
     2
 42
-1.0
  3
SLDDIMSTYLE0
100
AcDbAlignedDimension
 13
54.99999999999999
 23
10.49112555991127
 33
0.0
 14
9.999999999999991
 24
9.876818711998046
 34
0.0
100
AcDbRotatedDimension
  0
DIMENSION
  5
D3
330
1F
100
AcDbEntity
  8
치수문자_일반주서
100
AcDbDimension
  2
_D_1
 10
-44.99999999999999
 20
30.13415911661227
 30
0.0
 11
0.0000000000000052
 21
30.13415911661227
 31
0.0
 70
   160
  1
<>
 71
     2
 42
100.0
  3
SLDDIMSTYLE0
100
AcDbAlignedDimension
 13
54.99999999999999
 23
7.350000000000006
 33
0.0
 14
-45.0
 24
7.725248157582259
 34
0.0
 50
0.0000000000000037
100
AcDbRotatedDimension
  0
DIMENSION
  5
DD
330
1F
100
AcDbEntity
  8
치수문자_일반주서
100
AcDbDimension
  2
_D_2
 10
70.5661903122463
 20
-10.49112555991121
 30
0.0
 11
70.56619031224628
 21
0.0000000000000029
 31
0.0
 70
   160
  1
%%c<>
 71
     2
 42
20.99573251705546
  3
SLDDIMSTYLE1
100
AcDbAlignedDimension
 13
54.99999999999999
 23
10.50460695714419
 33
0.0
 14
54.99999999999999
 24
-10.49112555991126
 34
0.0
 50
90.0000000000002
100
AcDbRotatedDimension
  0
DIMENSION
  5
EB
330
1F
100
AcDbEntity
  8
치수문자_일반주서
100
AcDbDimension
  2
_D_3
 10
-66.4195594453885
 20
-10.00000000000009
 30
0.0
 11
-66.41955944538854
 21
-0.000000000000001
 31
0.0
 70
   160
  1
%%c<>
 71
     2
 42
20.0
  3
SLDDIMSTYLE1
100
AcDbAlignedDimension
 13
-43.12836873725123
 23
9.999999999999996
 33
0.0
 14
-43.12836873725124
 24
-10.0
 34
0.0
 50
90.0000000000002
100
AcDbRotatedDimension
  0
INSERT
  5
FE
330
1F
100
AcDbEntity
  8
외형선
100
AcDbBlockReference
  2
SW_DOWELSYMBOL_0
 10
0.0000000000000087
 20
-0.0000000000000035
 30
0.0
  0
LINE
  5
125
330
1F
100
AcDbEntity
  8
0
  6
Continuous
 62
     4
370
    15
100
AcDbLine
 10
-45.0
 20
7.725248157582259
 30
0.0
 11
-45.0
 21
-7.725248157582268
 31
0.0
  0
LINE
  5
126
330
1F
100
AcDbEntity
  8
0
  6
Continuous
 62
     4
370
    15
100
AcDbLine
 10
-43.12836873725124
 20
9.999999999999995
 30
0.0
 11
-45.0
 21
7.72524815758226
 31
0.0
  0
LINE
  5
127
330
1F
100
AcDbEntity
  8
0
  6
Continuous
 62
     4
370
    15
100
AcDbLine
 10
-43.12836873725124
 20
-10.0
 30
0.0
 11
-45.0
 21
-7.725248157582267
 31
0.0
  0
LINE
  5
128
330
1F
100
AcDbEntity
  8
0
  6
Continuous
 62
     4
370
    15
100
AcDbLine
 10
-43.12836873725124
 20
9.999999999999995
 30
0.0
 11
-43.12836873725124
 21
-10.0
 31
0.0
  0
ENDSEC
  0
SECTION
  2
OBJECTS
  0
DICTIONARY
  5
C
330
0
100
AcDbDictionary
281
     1
  3
ACAD_GROUP
350
D
  3
ACAD_IMAGE_VARS
350
122
  3
ACAD_LAYOUT
350
1A
  3
ACAD_MLINESTYLE
350
17
  3
ACAD_PLOTSETTINGS
350
19
  3
ACAD_PLOTSTYLENAME
350
E
  3
ACAD_SCALELIST
350
47
  3
APPDATA
350
120
  3
DWGPROPS
350
12C
  0
DICTIONARY
  5
D
102
{ACAD_REACTORS
330
C
102
}
330
C
100
AcDbDictionary
281
     1
  0
RASTERVARIABLES
  5
122
102
{ACAD_REACTORS
330
C
102
}
330
C
100
AcDbRasterVariables
 90
        0
 70
     1
 71
     1
 72
     1
  0
DICTIONARY
  5
1A
102
{ACAD_REACTORS
330
C
102
}
330
C
100
AcDbDictionary
281
     1
  3
Layout1
350
1E
  3
Layout2
350
26
  3
Model
350
22
  0
DICTIONARY
  5
17
102
{ACAD_REACTORS
330
C
102
}
330
C
100
AcDbDictionary
281
     1
  3
Standard
350
18
  0
DICTIONARY
  5
19
102
{ACAD_REACTORS
330
C
102
}
330
C
100
AcDbDictionary
281
     1
  0
ACDBDICTIONARYWDFLT
  5
E
102
{ACAD_REACTORS
330
C
102
}
330
C
100
AcDbDictionary
281
     1
  3
Normal
350
F
100
AcDbDictionaryWithDefault
340
F
  0
DICTIONARY
  5
47
102
{ACAD_REACTORS
330
C
102
}
330
C
100
AcDbDictionary
281
     1
  3
A0
350
48
  3
A1
350
49
  3
A2
350
4A
  3
A3
350
4B
  3
A4
350
4C
  3
A5
350
4D
  3
A6
350
4E
  3
A7
350
4F
  3
A8
350
50
  3
A9
350
51
  3
B0
350
52
  3
B1
350
53
  3
B2
350
54
  3
B3
350
55
  3
B4
350
56
  3
B5
350
57
  3
B6
350
58
  3
B7
350
59
  3
B8
350
5A
  3
B9
350
5B
  3
C0
350
5C
  3
C1
350
5D
  3
C2
350
5E
  3
C3
350
5F
  3
C4
350
60
  3
C5
350
61
  3
C6
350
62
  3
C7
350
63
  3
C8
350
64
  3
C9
350
65
  3
D0
350
66
  3
D1
350
67
  3
D2
350
68
  0
DICTIONARY
  5
120
102
{ACAD_REACTORS
330
C
102
}
330
C
100
AcDbDictionary
281
     1
  0
XRECORD
  5
12C
102
{ACAD_REACTORS
330
C
102
}
330
C
100
AcDbXrecord
280
     1
  1
DWGPROPS COOKIE
  2

  3

  4

  6

  7

  8
12016016
  9

300
=
301
=
302
=
303
=
304
=
305
=
306
=
307
=
308
=
309
=
 40
0.0
 41
2458250.193003044
 42
2458269.396955301
  1

 90
        0
  0
LAYOUT
  5
1E
102
{ACAD_REACTORS
330
1A
102
}
330
1A
100
AcDbPlotSettings
  1

  2
none_device
  4

  6

 40
0.0
 41
0.0
 42
0.0
 43
0.0
 44
0.0
 45
0.0
 46
0.0
 47
0.0
 48
0.0
 49
0.0
140
0.0
141
0.0
142
1.0
143
1.0
 70
   688
 72
     1
 73
     0
 74
     5
  7

 75
    16
147
1.0
148
0.0
149
0.0
100
AcDbLayout
  1
Layout1
 70
     1
 71
     1
 10
0.0
 20
0.0
 11
420.0
 21
297.0
 12
0.0
 22
0.0
 32
0.0
 14
1.000000000000000E+20
 24
1.000000000000000E+20
 34
1.000000000000000E+20
 15
-1.000000000000000E+20
 25
-1.000000000000000E+20
 35
-1.000000000000000E+20
146
0.0
 13
0.0
 23
0.0
 33
0.0
 16
1.0
 26
0.0
 36
0.0
 17
0.0
 27
1.0
 37
0.0
 76
     0
330
1B
  0
LAYOUT
  5
26
102
{ACAD_REACTORS
330
1A
102
}
330
1A
100
AcDbPlotSettings
  1

  2
none_device
  4

  6

 40
0.0
 41
0.0
 42
0.0
 43
0.0
 44
0.0
 45
0.0
 46
0.0
 47
0.0
 48
0.0
 49
0.0
140
0.0
141
0.0
142
1.0
143
1.0
 70
   688
 72
     1
 73
     0
 74
     5
  7

 75
    16
147
1.0
148
0.0
149
0.0
100
AcDbLayout
  1
Layout2
 70
     1
 71
     2
 10
0.0
 20
0.0
 11
0.0
 21
0.0
 12
0.0
 22
0.0
 32
0.0
 14
0.0
 24
0.0
 34
0.0
 15
0.0
 25
0.0
 35
0.0
146
0.0
 13
0.0
 23
0.0
 33
0.0
 16
1.0
 26
0.0
 36
0.0
 17
0.0
 27
1.0
 37
0.0
 76
     0
330
23
  0
LAYOUT
  5
22
102
{ACAD_REACTORS
330
1A
102
}
330
1A
100
AcDbPlotSettings
  1

  2
none_device
  4
ANSI_A_(11.00_x_8.50_Inches)
  6

 40
6.35
 41
19.05
 42
6.35000508
 43
19.05000254
 44
279.4
 45
215.9
 46
132.7859019798055
 47
104.4910002017745
 48
0.0
 49
0.0
140
0.0
141
0.0
142
0.0763937336837208
143
1.0
 70
  1696
 72
     0
 73
     0
 74
     0
  7

 75
     0
147
0.0235690232323232
148
0.0
149
0.0
100
AcDbLayout
  1
Model
 70
     1
 71
     0
 10
0.0
 20
0.0
 11
420.0
 21
297.0
 12
0.0
 22
0.0
 32
0.0
 14
-70.79455944538856
 24
-49.97180738881175
 34
0.0
 15
71.11652364557962
 25
34.50915911661227
 35
0.0
146
0.0
 13
0.0
 23
0.0
 33
0.0
 16
1.0
 26
0.0
 36
0.0
 17
0.0
 27
1.0
 37
0.0
 76
     0
330
1F
331
29
  0
MLINESTYLE
  5
18
102
{ACAD_REACTORS
330
17
102
}
330
17
100
AcDbMlineStyle
  2
Standard
 70
     0
  3

 62
   256
 51
90.0
 52
90.0
 71
     2
 49
0.5
 62
   256
  6
BYLAYER
 49
-0.5
 62
   256
  6
BYLAYER
  0
ACDBPLACEHOLDER
  5
F
102
{ACAD_REACTORS
330
E
102
}
330
E
  0
SCALE
  5
48
102
{ACAD_REACTORS
330
47
102
}
330
47
100
AcDbScale
 70
     0
300
1:1
140
1.0
141
1.0
290
     1
  0
SCALE
  5
49
102
{ACAD_REACTORS
330
47
102
}
330
47
100
AcDbScale
 70
     0
300
1:2
140
1.0
141
2.0
290
     0
  0
SCALE
  5
4A
102
{ACAD_REACTORS
330
47
102
}
330
47
100
AcDbScale
 70
     0
300
1:4
140
1.0
141
4.0
290
     0
  0
SCALE
  5
4B
102
{ACAD_REACTORS
330
47
102
}
330
47
100
AcDbScale
 70
     0
300
1:5
140
1.0
141
5.0
290
     0
  0
SCALE
  5
4C
102
{ACAD_REACTORS
330
47
102
}
330
47
100
AcDbScale
 70
     0
300
1:8
140
1.0
141
8.0
290
     0
  0
SCALE
  5
4D
102
{ACAD_REACTORS
330
47
102
}
330
47
100
AcDbScale
 70
     0
300
1:10
140
1.0
141
10.0
290
     0
  0
SCALE
  5
4E
102
{ACAD_REACTORS
330
47
102
}
330
47
100
AcDbScale
 70
     0
300
1:16
140
1.0
141
16.0
290
     0
  0
SCALE
  5
4F
102
{ACAD_REACTORS
330
47
102
}
330
47
100
AcDbScale
 70
     0
300
1:20
140
1.0
141
20.0
290
     0
  0
SCALE
  5
50
102
{ACAD_REACTORS
330
47
102
}
330
47
100
AcDbScale
 70
     0
300
1:30
140
1.0
141
30.0
290
     0
  0
SCALE
  5
51
102
{ACAD_REACTORS
330
47
102
}
330
47
100
AcDbScale
 70
     0
300
1:40
140
1.0
141
40.0
290
     0
  0
SCALE
  5
52
102
{ACAD_REACTORS
330
47
102
}
330
47
100
AcDbScale
 70
     0
300
1:50
140
1.0
141
50.0
290
     0
  0
SCALE
  5
53
102
{ACAD_REACTORS
330
47
102
}
330
47
100
AcDbScale
 70
     0
300
1:100
140
1.0
141
100.0
290
     0
  0
SCALE
  5
54
102
{ACAD_REACTORS
330
47
102
}
330
47
100
AcDbScale
 70
     0
300
2:1
140
2.0
141
1.0
290
     0
  0
SCALE
  5
55
102
{ACAD_REACTORS
330
47
102
}
330
47
100
AcDbScale
 70
     0
300
4:1
140
4.0
141
1.0
290
     0
  0
SCALE
  5
56
102
{ACAD_REACTORS
330
47
102
}
330
47
100
AcDbScale
 70
     0
300
8:1
140
8.0
141
1.0
290
     0
  0
SCALE
  5
57
102
{ACAD_REACTORS
330
47
102
}
330
47
100
AcDbScale
 70
     0
300
10:1
140
10.0
141
1.0
290
     0
  0
SCALE
  5
58
102
{ACAD_REACTORS
330
47
102
}
330
47
100
AcDbScale
 70
     0
300
100:1
140
100.0
141
1.0
290
     0
  0
SCALE
  5
59
102
{ACAD_REACTORS
330
47
102
}
330
47
100
AcDbScale
 70
     0
300
1/128" = 1'-0"
140
0.0078125
141
12.0
290
     0
  0
SCALE
  5
5A
102
{ACAD_REACTORS
330
47
102
}
330
47
100
AcDbScale
 70
     0
300
1/64" = 1'-0"
140
0.015625
141
12.0
290
     0
  0
SCALE
  5
5B
102
{ACAD_REACTORS
330
47
102
}
330
47
100
AcDbScale
 70
     0
300
1/32" = 1'-0"
140
0.03125
141
12.0
290
     0
  0
SCALE
  5
5C
102
{ACAD_REACTORS
330
47
102
}
330
47
100
AcDbScale
 70
     0
300
1/16" = 1'-0"
140
0.0625
141
12.0
290
     0
  0
SCALE
  5
5D
102
{ACAD_REACTORS
330
47
102
}
330
47
100
AcDbScale
 70
     0
300
3/32" = 1'-0"
140
0.09375
141
12.0
290
     0
  0
SCALE
  5
5E
102
{ACAD_REACTORS
330
47
102
}
330
47
100
AcDbScale
 70
     0
300
1/8" = 1'-0"
140
0.125
141
12.0
290
     0
  0
SCALE
  5
5F
102
{ACAD_REACTORS
330
47
102
}
330
47
100
AcDbScale
 70
     0
300
3/16" = 1'-0"
140
0.1875
141
12.0
290
     0
  0
SCALE
  5
60
102
{ACAD_REACTORS
330
47
102
}
330
47
100
AcDbScale
 70
     0
300
1/4" = 1'-0"
140
0.25
141
12.0
290
     0
  0
SCALE
  5
61
102
{ACAD_REACTORS
330
47
102
}
330
47
100
AcDbScale
 70
     0
300
3/8" = 1'-0"
140
0.375
141
12.0
290
     0
  0
SCALE
  5
62
102
{ACAD_REACTORS
330
47
102
}
330
47
100
AcDbScale
 70
     0
300
1/2" = 1'-0"
140
0.5
141
12.0
290
     0
  0
SCALE
  5
63
102
{ACAD_REACTORS
330
47
102
}
330
47
100
AcDbScale
 70
     0
300
3/4" = 1'-0"
140
0.75
141
12.0
290
     0
  0
SCALE
  5
64
102
{ACAD_REACTORS
330
47
102
}
330
47
100
AcDbScale
 70
     0
300
1" = 1'-0"
140
1.0
141
12.0
290
     0
  0
SCALE
  5
65
102
{ACAD_REACTORS
330
47
102
}
330
47
100
AcDbScale
 70
     0
300
1-1/2" = 1'-0"
140
1.5
141
12.0
290
     0
  0
SCALE
  5
66
102
{ACAD_REACTORS
330
47
102
}
330
47
100
AcDbScale
 70
     0
300
3" = 1'-0"
140
3.0
141
12.0
290
     0
  0
SCALE
  5
67
102
{ACAD_REACTORS
330
47
102
}
330
47
100
AcDbScale
 70
     0
300
6" = 1'-0"
140
6.0
141
12.0
290
     0
  0
SCALE
  5
68
102
{ACAD_REACTORS
330
47
102
}
330
47
100
AcDbScale
 70
     0
300
1'-0" = 1'-0"
140
12.0
141
12.0
290
     0
  0
ENDSEC
  0
EOF
