  0
SECTION
  2
HEADER
  9
$ACADVER
  1
AC1015
  9
$ACADMAINTVER
 70
     6
  9
$DWGCODEPAGE
  3
ANSI_949
  9
$INSBASE
 10
0.0
 20
0.0
 30
0.0
  9
$EXTMIN
 10
-55.64455944538852
 20
-49.97180738881173
 30
0.0
  9
$EXTMAX
 10
76.26652364557964
 20
34.15915911661226
 30
0.0
  9
$LIMMIN
 10
0.0
 20
0.0
  9
$LIMMAX
 10
420.0
 20
297.0
  9
$ORTHOMODE
 70
     1
  9
$REGENMODE
 70
     1
  9
$FILLMODE
 70
     1
  9
$QTEXTMODE
 70
     0
  9
$MIRRTEXT
 70
     1
  9
$LTSCALE
 40
1.0
  9
$ATTMODE
 70
     1
  9
$TEXTSIZE
 40
3.5
  9
$TRACEWID
 40
1.0
  9
$TEXTSTYLE
  7
Standard
  9
$CLAYER
  8
0
  9
$CELTYPE
  6
ByLayer
  9
$CECOLOR
 62
   256
  9
$CELTSCALE
 40
1.0
  9
$DISPSILH
 70
     0
  9
$DIMSCALE
 40
1.0
  9
$DIMASZ
 40
3.302
  9
$DIMEXO
 40
1.0
  9
$DIMDLI
 40
3.75
  9
$DIMRND
 40
0.0
  9
$DIMDLE
 40
0.0
  9
$DIMEXE
 40
1.0
  9
$DIMTP
 40
0.0
  9
$DIMTM
 40
0.0
  9
$DIMTXT
 40
3.5
  9
$DIMCEN
 40
2.5
  9
$DIMTSZ
 40
0.0
  9
$DIMTOL
 70
     0
  9
$DIMLIM
 70
     0
  9
$DIMTIH
 70
     1
  9
$DIMTOH
 70
     1
  9
$DIMSE1
 70
     0
  9
$DIMSE2
 70
     0
  9
$DIMTAD
 70
     1
  9
$DIMZIN
 70
     0
  9
$DIMBLK
  1

  9
$DIMASO
 70
     1
  9
$DIMSHO
 70
     1
  9
$DIMPOST
  1

  9
$DIMAPOST
  1

  9
$DIMALT
 70
     0
  9
$DIMALTD
 70
     3
  9
$DIMALTF
 40
0.0393700787401575
  9
$DIMLFAC
 40
1.0
  9
$DIMTOFL
 70
     1
  9
$DIMTVP
 40
0.0
  9
$DIMTIX
 70
     0
  9
$DIMSOXD
 70
     0
  9
$DIMSAH
 70
     0
  9
$DIMBLK1
  1

  9
$DIMBLK2
  1

  9
$DIMSTYLE
  2
ISO-25
  9
$DIMCLRD
 70
     0
  9
$DIMCLRE
 70
     0
  9
$DIMCLRT
 70
     0
  9
$DIMTFAC
 40
1.0
  9
$DIMGAP
 40
1.524
  9
$DIMJUST
 70
     0
  9
$DIMSD1
 70
     0
  9
$DIMSD2
 70
     0
  9
$DIMTOLJ
 70
     0
  9
$DIMTZIN
 70
     0
  9
$DIMALTZ
 70
     0
  9
$DIMALTTZ
 70
     0
  9
$DIMUPT
 70
     0
  9
$DIMDEC
 70
     2
  9
$DIMTDEC
 70
     2
  9
$DIMALTU
 70
     2
  9
$DIMALTTD
 70
     3
  9
$DIMTXSTY
  7
Standard
  9
$DIMAUNIT
 70
     0
  9
$DIMADEC
 70
     2
  9
$DIMALTRND
 40
0.0
  9
$DIMAZIN
 70
     0
  9
$DIMDSEP
 70
    44
  9
$DIMATFIT
 70
     3
  9
$DIMFRAC
 70
     0
  9
$DIMLDRBLK
  1

  9
$DIMLUNIT
 70
     2
  9
$DIMLWD
 70
    -2
  9
$DIMLWE
 70
    -2
  9
$DIMTMOVE
 70
     0
  9
$LUNITS
 70
     2
  9
$LUPREC
 70
     2
  9
$SKETCHINC
 40
1.0
  9
$FILLETRAD
 40
10.0
  9
$AUNITS
 70
     0
  9
$AUPREC
 70
     2
  9
$MENU
  1
.
  9
$ELEVATION
 40
0.0
  9
$PELEVATION
 40
0.0
  9
$THICKNESS
 40
0.0
  9
$LIMCHECK
 70
     0
  9
$CHAMFERA
 40
0.0
  9
$CHAMFERB
 40
0.0
  9
$CHAMFERC
 40
0.0
  9
$CHAMFERD
 40
0.0
  9
$SKPOLY
 70
     0
  9
$TDCREATE
 40
2458250.512115625
  9
$TDUCREATE
 40
2458250.137115625
  9
$TDUPDATE
 40
2459702.689717755
  9
$TDUUPDATE
 40
2459702.314717755
  9
$TDINDWG
 40
0.0047893634
  9
$TDUSRTIMER
 40
0.0015681481
  9
$USRTIMER
 70
     1
  9
$ANGBASE
 50
0.0
  9
$ANGDIR
 70
     0
  9
$PDMODE
 70
     0
  9
$PDSIZE
 40
-1.0
  9
$PLINEWID
 40
0.0
  9
$SPLFRAME
 70
     0
  9
$SPLINETYPE
 70
     6
  9
$SPLINESEGS
 70
     8
  9
$HANDSEED
  5
19B
  9
$SURFTAB1
 70
     6
  9
$SURFTAB2
 70
     6
  9
$SURFTYPE
 70
     6
  9
$SURFU
 70
     6
  9
$SURFV
 70
     6
  9
$UCSBASE
  2

  9
$UCSNAME
  2

  9
$UCSORG
 10
0.0
 20
0.0
 30
0.0
  9
$UCSXDIR
 10
1.0
 20
0.0
 30
0.0
  9
$UCSYDIR
 10
0.0
 20
1.0
 30
0.0
  9
$UCSORTHOREF
  2

  9
$UCSORTHOVIEW
 70
     0
  9
$UCSORGTOP
 10
0.0
 20
0.0
 30
0.0
  9
$UCSORGBOTTOM
 10
0.0
 20
0.0
 30
0.0
  9
$UCSORGLEFT
 10
0.0
 20
0.0
 30
0.0
  9
$UCSORGRIGHT
 10
0.0
 20
0.0
 30
0.0
  9
$UCSORGFRONT
 10
0.0
 20
0.0
 30
0.0
  9
$UCSORGBACK
 10
0.0
 20
0.0
 30
0.0
  9
$PUCSBASE
  2

  9
$PUCSNAME
  2

  9
$PUCSORG
 10
0.0
 20
0.0
 30
0.0
  9
$PUCSXDIR
 10
1.0
 20
0.0
 30
0.0
  9
$PUCSYDIR
 10
0.0
 20
1.0
 30
0.0
  9
$PUCSORTHOREF
  2

  9
$PUCSORTHOVIEW
 70
     0
  9
$PUCSORGTOP
 10
0.0
 20
0.0
 30
0.0
  9
$PUCSORGBOTTOM
 10
0.0
 20
0.0
 30
0.0
  9
$PUCSORGLEFT
 10
0.0
 20
0.0
 30
0.0
  9
$PUCSORGRIGHT
 10
0.0
 20
0.0
 30
0.0
  9
$PUCSORGFRONT
 10
0.0
 20
0.0
 30
0.0
  9
$PUCSORGBACK
 10
0.0
 20
0.0
 30
0.0
  9
$USERI1
 70
     0
  9
$USERI2
 70
     0
  9
$USERI3
 70
     0
  9
$USERI4
 70
     0
  9
$USERI5
 70
     0
  9
$USERR1
 40
0.0
  9
$USERR2
 40
0.0
  9
$USERR3
 40
0.0
  9
$USERR4
 40
0.0
  9
$USERR5
 40
0.0
  9
$WORLDVIEW
 70
     1
  9
$SHADEDGE
 70
     3
  9
$SHADEDIF
 70
    70
  9
$TILEMODE
 70
     1
  9
$MAXACTVP
 70
    64
  9
$PINSBASE
 10
0.0
 20
0.0
 30
0.0
  9
$PLIMCHECK
 70
     0
  9
$PEXTMIN
 10
1.000000000000000E+20
 20
1.000000000000000E+20
 30
1.000000000000000E+20
  9
$PEXTMAX
 10
-1.000000000000000E+20
 20
-1.000000000000000E+20
 30
-1.000000000000000E+20
  9
$PLIMMIN
 10
0.0
 20
0.0
  9
$PLIMMAX
 10
0.0
 20
0.0
  9
$UNITMODE
 70
     0
  9
$VISRETAIN
 70
     1
  9
$PLINEGEN
 70
     0
  9
$PSLTSCALE
 70
     1
  9
$TREEDEPTH
 70
  3020
  9
$CMLSTYLE
  2
Standard
  9
$CMLJUST
 70
     0
  9
$CMLSCALE
 40
20.0
  9
$PROXYGRAPHICS
 70
     1
  9
$MEASUREMENT
 70
     1
  9
$CELWEIGHT
370
    -1
  9
$ENDCAPS
280
     0
  9
$JOINSTYLE
280
     0
  9
$LWDISPLAY
290
     1
  9
$INSUNITS
 70
     4
  9
$HYPERLINKBASE
  1

  9
$STYLESHEET
  1

  9
$XEDIT
290
     1
  9
$CEPSNTYPE
380
     0
  9
$PSTYLEMODE
290
     1
  9
$FINGERPRINTGUID
  2
{1381E27E-1670-4CD2-9CBC-9525EA2F2270}
  9
$VERSIONGUID
  2
{FAEB1C32-E019-11D5-929B-00C0DF256EC4}
  9
$EXTNAMES
290
     1
  9
$PSVPSCALE
 40
0.0
  9
$OLESTARTUP
290
     0
  0
ENDSEC
  0
SECTION
  2
CLASSES
  0
CLASS
  1
ACDBDICTIONARYWDFLT
  2
AcDbDictionaryWithDefault
  3
ObjectDBX Classes
 90
        0
280
     0
281
     0
  0
CLASS
  1
VISUALSTYLE
  2
AcDbVisualStyle
  3
ObjectDBX Classes
 90
     4095
280
     0
281
     0
  0
CLASS
  1
MATERIAL
  2
AcDbMaterial
  3
ObjectDBX Classes
 90
     1153
280
     0
281
     0
  0
CLASS
  1
SCALE
  2
AcDbScale
  3
ObjectDBX Classes
 90
     1153
280
     0
281
     0
  0
CLASS
  1
SUN
  2
AcDbSun
  3
SCENEOE
 90
     1153
280
     0
281
     0
  0
CLASS
  1
ACDBPLACEHOLDER
  2
AcDbPlaceHolder
  3
ObjectDBX Classes
 90
        0
280
     0
281
     0
  0
CLASS
  1
LAYOUT
  2
AcDbLayout
  3
ObjectDBX Classes
 90
        0
280
     0
281
     0
  0
CLASS
  1
TABLESTYLE
  2
AcDbTableStyle
  3
ObjectDBX Classes
 90
     4095
280
     0
281
     0
  0
CLASS
  1
MLEADERSTYLE
  2
AcDbMLeaderStyle
  3
ACDB_MLEADERSTYLE_CLASS
 90
     4095
280
     0
281
     0
  0
CLASS
  1
DIMASSOC
  2
AcDbDimAssoc
  3
"AcDbDimAssoc|Product Desc:     AcDim ARX App For Dimension|Company:          Autodesk, Inc.|WEB Address:      www.autodesk.com"
 90
        0
280
     0
281
     0
  0
CLASS
  1
BREAKDATA
  2
AcDbBreakData
  3
ObjectDBX Classes
 90
     1024
280
     0
281
     0
  0
ENDSEC
  0
SECTION
  2
TABLES
  0
TABLE
  2
VPORT
  5
8
330
0
100
AcDbSymbolTable
 70
     1
  0
VPORT
  5
29
330
8
100
AcDbSymbolTableRecord
100
AcDbViewportTableRecord
  2
*Active
 70
     0
 10
0.0
 20
0.0
 11
1.0
 21
1.0
 12
40.179471549481
 22
5.845142076621016
 13
0.0
 23
0.0
 14
10.0
 24
10.0
 15
10.0
 25
10.0
 16
0.0
 26
0.0
 36
1.0
 17
0.0
 27
0.0
 37
0.0
 40
106.576864259275
 41
1.531481481481481
 42
50.0
 43
0.0
 44
0.0
 50
0.0
 51
0.0
 71
    16
 72
  2000
 73
     1
 74
     3
 75
     0
 76
     0
 77
     0
 78
     0
281
     0
 65
     1
110
0.0
120
0.0
130
0.0
111
1.0
121
0.0
131
0.0
112
0.0
122
1.0
132
0.0
 79
     0
146
0.0
  0
ENDTAB
  0
TABLE
  2
LTYPE
  5
5
330
0
100
AcDbSymbolTable
 70
     6
  0
LTYPE
  5
14
330
5
100
AcDbSymbolTableRecord
100
AcDbLinetypeTableRecord
  2
ByBlock
 70
     0
  3

 72
    65
 73
     0
 40
0.0
  0
LTYPE
  5
15
330
5
100
AcDbSymbolTableRecord
100
AcDbLinetypeTableRecord
  2
ByLayer
 70
     0
  3

 72
    65
 73
     0
 40
0.0
  0
LTYPE
  5
16
330
5
100
AcDbSymbolTableRecord
100
AcDbLinetypeTableRecord
  2
Continuous
 70
     0
  3
Solid line
 72
    65
 73
     0
 40
0.0
  0
LTYPE
  5
6A
330
5
100
AcDbSymbolTableRecord
100
AcDbLinetypeTableRecord
  2
HIDDEN
 70
     0
  3
Hidden __ __ __ __ __ __ __ __ __ __ __ __ __ __
 72
    65
 73
     2
 40
1.905
 49
1.27
 74
     0
 49
-0.635
 74
     0
  0
LTYPE
  5
6B
330
5
100
AcDbSymbolTableRecord
100
AcDbLinetypeTableRecord
  2
PHANTOM
 70
     0
  3
Phantom ______  __  __  ______  __  __  ______
 72
    65
 73
     6
 40
12.7
 49
6.35
 74
     0
 49
-1.27
 74
     0
 49
1.27
 74
     0
 49
-1.27
 74
     0
 49
1.27
 74
     0
 49
-1.27
 74
     0
  0
LTYPE
  5
6C
330
5
100
AcDbSymbolTableRecord
100
AcDbLinetypeTableRecord
  2
CENTER
 70
     0
  3
Center ____ _ ____ _ ____ _ ____ _ ____ _ ____
 72
    65
 73
     4
 40
10.16
 49
6.35
 74
     0
 49
-1.27
 74
     0
 49
1.27
 74
     0
 49
-1.27
 74
     0
  0
LTYPE
  5
6D
330
5
100
AcDbSymbolTableRecord
100
AcDbLinetypeTableRecord
  2
CENTERX2
 70
     0
  3
Center (2x) ________  __  ________  __  _____
 72
    65
 73
     4
 40
20.32
 49
12.7
 74
     0
 49
-2.54
 74
     0
 49
2.54
 74
     0
 49
-2.54
 74
     0
  0
LTYPE
  5
6E
330
5
100
AcDbSymbolTableRecord
100
AcDbLinetypeTableRecord
  2
DOT2
 70
     0
  3
Dot (.5x) ........................................
 72
    65
 73
     2
 40
0.635
 49
0.0
 74
     0
 49
-0.635
 74
     0
  0
ENDTAB
  0
TABLE
  2
LAYER
  5
2
330
0
100
AcDbSymbolTable
 70
    17
  0
LAYER
  5
10
330
2
100
AcDbSymbolTableRecord
100
AcDbLayerTableRecord
  2
0
 70
     0
 62
     7
  6
Continuous
370
    -3
390
F
  0
LAYER
  5
6F
330
2
100
AcDbSymbolTableRecord
100
AcDbLayerTableRecord
  2
FORMAT
 70
     0
 62
     2
  6
Continuous
370
    -3
390
F
  0
LAYER
  5
70
330
2
100
AcDbSymbolTableRecord
100
AcDbLayerTableRecord
  2
외형선
 70
     0
 62
   100
  6
Continuous
370
    30
390
F
  0
LAYER
  5
71
330
2
100
AcDbSymbolTableRecord
100
AcDbLayerTableRecord
  2
숨은선
 70
     0
 62
     2
  6
HIDDEN
370
    15
390
F
  0
LAYER
  5
72
330
2
100
AcDbSymbolTableRecord
100
AcDbLayerTableRecord
  2
중심선
 70
     0
 62
     1
  6
CENTERX2
370
    -3
390
F
  0
LAYER
  5
73
330
2
100
AcDbSymbolTableRecord
100
AcDbLayerTableRecord
  2
파단선
 70
     0
 62
     4
  6
Continuous
370
    -3
390
F
  0
LAYER
  5
74
330
2
100
AcDbSymbolTableRecord
100
AcDbLayerTableRecord
  2
해칭선
 70
     0
 62
     4
  6
Continuous
370
    -3
390
F
  0
LAYER
  5
75
330
2
100
AcDbSymbolTableRecord
100
AcDbLayerTableRecord
  2
가는실선
 70
     0
 62
     4
  6
Continuous
370
    -3
390
F
  0
LAYER
  5
76
330
2
100
AcDbSymbolTableRecord
100
AcDbLayerTableRecord
  2
치수_보조선
 70
     0
 62
     4
  6
Continuous
370
    -3
390
F
  0
LAYER
  5
77
330
2
100
AcDbSymbolTableRecord
100
AcDbLayerTableRecord
  2
치수문자_일반주서
 70
     0
 62
     7
  6
Continuous
370
    15
390
F
  0
LAYER
  5
78
330
2
100
AcDbSymbolTableRecord
100
AcDbLayerTableRecord
  2
개별주서
 70
     0
 62
   100
  6
Continuous
370
    30
390
F
  0
LAYER
  5
79
330
2
100
AcDbSymbolTableRecord
100
AcDbLayerTableRecord
  2
중간선
 70
     0
 62
     2
  6
Continuous
370
    15
390
F
  0
LAYER
  5
7A
330
2
100
AcDbSymbolTableRecord
100
AcDbLayerTableRecord
  2
윤곽선
 70
     0
 62
     3
  6
Continuous
370
    40
390
F
  0
LAYER
  5
7B
330
2
100
AcDbSymbolTableRecord
100
AcDbLayerTableRecord
  2
중심마크
 70
     0
 62
   100
  6
Continuous
370
    30
390
F
  0
LAYER
  5
7C
330
2
100
AcDbSymbolTableRecord
100
AcDbLayerTableRecord
  2
가상선
 70
     0
 62
     4
  6
PHANTOM
370
    -3
390
F
  0
LAYER
  5
7D
330
2
100
AcDbSymbolTableRecord
100
AcDbLayerTableRecord
  2
특수지정선
 70
     0
 62
     5
  6
CENTERX2
370
    60
390
F
  0
LAYER
  5
12C
330
2
100
AcDbSymbolTableRecord
100
AcDbLayerTableRecord
  2
Defpoints
 70
     0
 62
     7
  6
Continuous
290
     0
370
    -3
390
F
  0
ENDTAB
  0
TABLE
  2
STYLE
  5
3
330
0
100
AcDbSymbolTable
 70
     2
  0
STYLE
  5
11
330
3
100
AcDbSymbolTableRecord
100
AcDbTextStyleTableRecord
  2
Standard
 70
     0
 40
0.0
 41
1.0
 50
0.0
 71
     0
 42
3.5
  3
txt
  4

  0
STYLE
  5
93
330
3
100
AcDbSymbolTableRecord
100
AcDbTextStyleTableRecord
  2
SLDTEXTSTYLE0
 70
     0
 40
0.0
 41
0.75
 50
0.0
 71
     0
 42
3.5
  3
TXT
  4

  0
ENDTAB
  0
TABLE
  2
VIEW
  5
6
330
0
100
AcDbSymbolTable
 70
     0
  0
ENDTAB
  0
TABLE
  2
UCS
  5
7
330
0
100
AcDbSymbolTable
 70
     0
  0
ENDTAB
  0
TABLE
  2
APPID
  5
9
330
0
100
AcDbSymbolTable
 70
     3
  0
APPID
  5
12
330
9
100
AcDbSymbolTableRecord
100
AcDbRegAppTableRecord
  2
ACAD
 70
     0
  0
APPID
  5
129
330
9
100
AcDbSymbolTableRecord
100
AcDbRegAppTableRecord
  2
PE_URL
 70
     0
  0
APPID
  5
194
330
9
100
AcDbSymbolTableRecord
100
AcDbRegAppTableRecord
  2
ENABLE_CUSTOM_SPLIT
 70
     0
  0
ENDTAB
  0
TABLE
  2
DIMSTYLE
  5
A
330
0
100
AcDbSymbolTable
 70
     3
100
AcDbDimStyleTable
  0
DIMSTYLE
105
27
330
A
100
AcDbSymbolTableRecord
100
AcDbDimStyleTableRecord
  2
ISO-25
 70
     0
 41
2.5
 42
0.625
 43
3.75
 44
1.25
 73
     0
 74
     0
 77
     1
 78
     8
140
2.5
141
2.5
143
0.03937007874016
147
0.625
171
     3
172
     1
178
     0
271
     2
272
     2
274
     3
278
    44
283
     0
284
     8
340
11
  0
DIMSTYLE
105
D1
102
{ACAD_REACTORS
330
D0
330
DB
330
183
102
}
330
A
100
AcDbSymbolTableRecord
100
AcDbDimStyleTableRecord
  2
SLDDIMSTYLE0
 70
     0
 41
3.302
 44
0.0
 45
0.000000001
 73
     0
 74
     0
 77
     1
 78
    12
 79
     3
140
3.5
147
0.875
173
     1
178
     0
271
     2
272
     2
276
     2
284
    12
340
93
  0
DIMSTYLE
105
E6
102
{ACAD_REACTORS
330
E5
330
F3
102
}
330
A
100
AcDbSymbolTableRecord
100
AcDbDimStyleTableRecord
  2
SLDDIMSTYLE1
 70
     0
 41
3.302
 44
0.0
 45
0.000000001
 73
     0
 74
     0
 77
     1
 78
    12
 79
     3
140
3.5
147
0.875
172
     1
173
     1
178
     0
271
     2
272
     2
276
     2
284
    12
289
     0
340
93
  0
ENDTAB
  0
TABLE
  2
BLOCK_RECORD
  5
1
330
0
100
AcDbSymbolTable
 70
     8
  0
BLOCK_RECORD
  5
1F
102
{ACAD_XDICTIONARY
360
158
102
}
330
1
100
AcDbSymbolTableRecord
100
AcDbBlockTableRecord
  2
*Model_Space
340
22
  0
BLOCK_RECORD
  5
1B
330
1
100
AcDbSymbolTableRecord
100
AcDbBlockTableRecord
  2
*Paper_Space
340
1E
  0
BLOCK_RECORD
  5
23
330
1
100
AcDbSymbolTableRecord
100
AcDbBlockTableRecord
  2
*Paper_Space0
340
26
  0
BLOCK_RECORD
  5
7E
330
1
100
AcDbSymbolTableRecord
100
AcDbBlockTableRecord
  2
블럭10
340
0
102
{BLKREFS
331
C9
102
}
  0
BLOCK_RECORD
  5
D2
330
1
100
AcDbSymbolTableRecord
100
AcDbBlockTableRecord
  2
_D
340
0
  0
BLOCK_RECORD
  5
DC
330
1
100
AcDbSymbolTableRecord
100
AcDbBlockTableRecord
  2
_D_1
340
0
  0
BLOCK_RECORD
  5
E7
330
1
100
AcDbSymbolTableRecord
100
AcDbBlockTableRecord
  2
_D_2
340
0
  0
BLOCK_RECORD
  5
F4
330
1
100
AcDbSymbolTableRecord
100
AcDbBlockTableRecord
  2
_D_3
340
0
  0
BLOCK_RECORD
  5
100
330
1
100
AcDbSymbolTableRecord
100
AcDbBlockTableRecord
  2
SW_DOWELSYMBOL_0
340
0
102
{BLKREFS
331
106
102
}
  0
BLOCK_RECORD
  5
186
330
1
100
AcDbSymbolTableRecord
100
AcDbBlockTableRecord
  2
*D7
340
0
  0
ENDTAB
  0
ENDSEC
  0
SECTION
  2
BLOCKS
  0
BLOCK
  5
20
330
1F
100
AcDbEntity
  8
0
100
AcDbBlockBegin
  2
*Model_Space
 70
     0
 10
0.0
 20
0.0
 30
0.0
  3
*Model_Space
  1

  0
ENDBLK
  5
21
330
1F
100
AcDbEntity
  8
0
100
AcDbBlockEnd
  0
BLOCK
  5
1C
330
1B
100
AcDbEntity
 67
     1
  8
0
100
AcDbBlockBegin
  2
*Paper_Space
 70
     0
 10
0.0
 20
0.0
 30
0.0
  3
*Paper_Space
  1

  0
ENDBLK
  5
1D
330
1B
100
AcDbEntity
 67
     1
  8
0
100
AcDbBlockEnd
  0
BLOCK
  5
24
330
23
100
AcDbEntity
  8
0
100
AcDbBlockBegin
  2
*Paper_Space0
 70
     0
 10
0.0
 20
0.0
 30
0.0
  3
*Paper_Space0
  1

  0
ENDBLK
  5
25
330
23
100
AcDbEntity
  8
0
100
AcDbBlockEnd
  0
BLOCK
  5
7F
330
7E
100
AcDbEntity
  8
0
100
AcDbBlockBegin
  2
블럭10
 70
     2
 10
0.0
 20
0.0
 30
0.0
  3
블럭10
  1

  0
ELLIPSE
  5
81
330
7E
100
AcDbEntity
  8
중심선
100
AcDbEllipse
 10
20.54032771741204
 20
12.0471743016438
 30
0.0
 11
6.600054785286829
 21
-1.261213355974178E-13
 31
0.0
210
0.0
220
0.0
230
1.0
 40
0.636358354079598
 41
0.9219305317359503
 42
6.513795318482858
  0
ELLIPSE
  5
82
330
7E
100
AcDbEntity
  8
중심선
100
AcDbEllipse
 10
20.54032771746488
 20
12.04717430159265
 30
0.0
 11
3.960054785062283
 21
1.540847449632565E-10
 31
0.0
210
0.0
220
0.0
230
1.0
 40
0.3939339440162632
 41
1.131841032648279
 42
5.62031148352944
  0
LINE
  5
83
330
7E
100
AcDbEntity
  8
중심선
100
AcDbLine
 10
2.268634060543552
 20
16.24717430164393
 30
0.0
 11
5.714909304380834
 21
16.24717430164393
 31
0.0
  0
LINE
  5
84
330
7E
100
AcDbEntity
  8
중심선
100
AcDbLine
 10
5.245725140726316
 20
7.84717430164391
 30
0.0
 11
8.692000384563599
 21
7.84717430164391
 31
0.0
  0
LINE
  5
85
330
7E
100
AcDbEntity
  8
중심선
100
AcDbLine
 10
15.74043728645272
 20
16.24717430164393
 30
0.0
 11
8.692000384563599
 21
7.84717430164391
 31
0.0
  0
LINE
  5
86
330
7E
100
AcDbEntity
  8
중심선
100
AcDbLine
 10
0.1404042013395286
 20
13.71084872107135
 30
0.0
 11
3.58671253028996
 21
13.71088815037384
 31
0.0
  0
LINE
  5
87
330
7E
100
AcDbEntity
  8
중심선
100
AcDbLine
 10
2.750260043222114
 20
10.84717430164391
 30
0.0
 11
6.196535287059397
 21
10.84717430164391
 31
0.0
  0
LINE
  5
88
330
7E
100
AcDbEntity
  8
중심선
100
AcDbLine
 10
12.29416204261559
 20
16.24717430164393
 30
0.0
 11
5.245725140726316
 21
7.84717430164391
 31
0.0
  0
LINE
  5
89
330
7E
100
AcDbEntity
  8
중심선
100
AcDbLine
 10
10.72767329541681
 20
16.24717430164393
 30
0.0
 11
6.196535287059397
 21
10.84717430164391
 31
0.0
  0
LINE
  5
8A
330
7E
100
AcDbEntity
  8
중심선
100
AcDbLine
 10
7.28139805157953
 20
16.24717430164393
 30
0.0
 11
2.750260043222114
 21
10.84717430164391
 31
0.0
  0
LINE
  5
8B
330
7E
100
AcDbEntity
  8
중심선
100
AcDbLine
 10
5.714909304380834
 20
16.24717430164393
 30
0.0
 11
3.58671253028996
 21
13.71088815037384
 31
0.0
  0
LINE
  5
8C
330
7E
100
AcDbEntity
  8
중심선
100
AcDbLine
 10
2.268634060543552
 20
16.24717430164393
 30
0.0
 11
0.1404042013395286
 21
13.71084872107135
 31
0.0
  0
LINE
  5
8D
330
7E
100
AcDbEntity
  8
중심선
100
AcDbLine
 10
7.28139805157953
 20
16.24717430164393
 30
0.0
 11
10.72767329541681
 21
16.24717430164393
 31
0.0
  0
LINE
  5
8E
330
7E
100
AcDbEntity
  8
중심선
100
AcDbLine
 10
12.29416204261559
 20
16.24717430164393
 30
0.0
 11
15.74043728645272
 21
16.24717430164393
 31
0.0
  0
LINE
  5
8F
330
7E
100
AcDbEntity
  8
중심선
100
AcDbLine
 10
19.22036997980202
 20
11.08717430171403
 30
0.0
 11
23.66174974927406
 21
11.08717430171406
 31
0.0
  0
LINE
  5
90
330
7E
100
AcDbEntity
  8
중심선
100
AcDbLine
 10
19.22039502424796
 20
13.00717430171391
 30
0.0
 11
19.22036997980202
 21
11.08717430171403
 31
0.0
  0
LINE
  5
91
330
7E
100
AcDbEntity
  8
중심선
100
AcDbLine
 10
19.22039502424796
 20
13.00717430171391
 30
0.0
 11
26.96566020931264
 21
13.00717430171391
 31
0.0
  0
LINE
  5
92
330
7E
100
AcDbEntity
  8
중심선
100
AcDbLine
 10
22.22332737316547
 20
13.45928029700563
 30
0.0
 11
24.52862924686651
 21
15.39360700705356
 31
0.0
  0
ATTDEF
  5
94
330
7E
100
AcDbEntity
  8
FORMAT
 62
     2
100
AcDbText
 10
-12.95993919485777
 20
2.075366912832191
 30
0.0
 40
4.233333333333333
  1
SEME35200E [ 2 FLUTE ]
 41
0.75
  7
SLDTEXTSTYLE0
 11
-12.95993919485777
 21
-0.0412997538344756
 31
0.0
100
AcDbAttributeDefinition
  3

  2
AUTOATTR0
 70
     0
 74
     1
  0
ENDBLK
  5
80
330
7E
100
AcDbEntity
  8
0
100
AcDbBlockEnd
  0
BLOCK
  5
D3
330
D2
100
AcDbEntity
  8
0
100
AcDbBlockBegin
  2
_D
 70
     0
 10
0.0
 20
0.0
 30
0.0
  3
_D
  1

  0
LINE
  5
D5
330
D2
100
AcDbEntity
  8
치수문자_일반주서
 62
     0
370
    -2
100
AcDbLine
 10
60.15000000000003
 20
10.05404815229645
 30
0.0
 11
60.15000000000003
 21
14.77245683420555
 31
0.0
  0
LINE
  5
D6
330
D2
100
AcDbEntity
  8
치수문자_일반주서
 62
     0
370
    -2
100
AcDbLine
 10
15.15000000000003
 20
9.912500000000009
 30
0.0
 11
15.15000000000003
 21
14.77245683420555
 31
0.0
  0
LINE
  5
D7
330
D2
100
AcDbEntity
  8
치수문자_일반주서
 62
     0
370
    -2
100
AcDbLine
 10
56.84800000000003
 20
14.77245683420555
 30
0.0
 11
18.45200000000003
 21
14.77245683420555
 31
0.0
  0
SOLID
  5
D8
330
D2
100
AcDbEntity
  8
치수문자_일반주서
 62
     0
100
AcDbTrace
 10
56.84800000000003
 20
14.22212350087222
 30
0.0
 11
56.84800000000003
 21
15.32279016753889
 31
0.0
 12
60.15000000000003
 22
14.77245683420555
 32
0.0
 13
60.15000000000003
 23
14.77245683420555
 33
0.0
  0
SOLID
  5
D9
330
D2
100
AcDbEntity
  8
치수문자_일반주서
 62
     0
100
AcDbTrace
 10
18.45200000000003
 20
15.32279016753889
 30
0.0
 11
18.45200000000003
 21
14.22212350087222
 31
0.0
 12
15.15000000000003
 22
14.77245683420555
 32
0.0
 13
15.15000000000003
 23
14.77245683420555
 33
0.0
  0
MTEXT
  5
DA
330
D2
100
AcDbEntity
  8
치수문자_일반주서
 62
     0
100
AcDbMText
 10
38.89660188710084
 20
19.14745683420556
 30
0.0
 40
3.5
 41
0.0
 71
     2
 72
     1
  1
\A1;45
  7
SLDTEXTSTYLE0
 73
     1
 44
1.0
  0
POINT
  5
130
330
D2
100
AcDbEntity
  8
Defpoints
 62
     0
100
AcDbPoint
 10
60.15000000000003
 20
9.991548152296447
 30
0.0
  0
POINT
  5
131
330
D2
100
AcDbEntity
  8
Defpoints
 62
     0
100
AcDbPoint
 10
15.15000000000003
 20
9.753365516114663
 30
0.0
  0
POINT
  5
132
330
D2
100
AcDbEntity
  8
Defpoints
 62
     0
100
AcDbPoint
 10
15.15000000000003
 20
14.77245683420555
 30
0.0
  0
ENDBLK
  5
D4
330
D2
100
AcDbEntity
  8
0
100
AcDbBlockEnd
  0
BLOCK
  5
DD
330
DC
100
AcDbEntity
  8
0
100
AcDbBlockBegin
  2
_D_1
 70
     0
 10
0.0
 20
0.0
 30
0.0
  3
_D_1
  1

  0
LINE
  5
DF
330
DC
100
AcDbEntity
  8
치수문자_일반주서
 62
     0
370
    -2
100
AcDbLine
 10
60.15000000000003
 20
10.05404815229645
 30
0.0
 11
60.15000000000002
 21
29.78415911661226
 31
0.0
  0
LINE
  5
E0
330
DC
100
AcDbEntity
  8
치수문자_일반주서
 62
     0
370
    -2
100
AcDbLine
 10
-39.84999999999998
 20
9.062499999999995
 30
0.0
 11
-39.84999999999999
 21
29.78415911661226
 31
0.0
  0
LINE
  5
E1
330
DC
100
AcDbEntity
  8
치수문자_일반주서
 62
     0
370
    -2
100
AcDbLine
 10
56.84800000000002
 20
29.78415911661226
 30
0.0
 11
-36.54799999999999
 21
29.78415911661226
 31
0.0
  0
SOLID
  5
E2
330
DC
100
AcDbEntity
  8
치수문자_일반주서
 62
     0
100
AcDbTrace
 10
56.84800000000002
 20
29.23382578327892
 30
0.0
 11
56.84800000000002
 21
30.33449244994559
 31
0.0
 12
60.15000000000002
 22
29.78415911661226
 32
0.0
 13
60.15000000000002
 23
29.78415911661226
 33
0.0
  0
SOLID
  5
E3
330
DC
100
AcDbEntity
  8
치수문자_일반주서
 62
     0
100
AcDbTrace
 10
-36.54799999999999
 20
30.33449244994559
 30
0.0
 11
-36.54799999999999
 21
29.23382578327892
 31
0.0
 12
-39.84999999999999
 22
29.78415911661226
 32
0.0
 13
-39.84999999999999
 23
29.78415911661226
 33
0.0
  0
MTEXT
  5
E4
330
DC
100
AcDbEntity
  8
치수문자_일반주서
 62
     0
100
AcDbMText
 10
10.15000000000004
 20
34.15915911661226
 30
0.0
 40
3.5
 41
0.0
 71
     2
 72
     1
  1
\A1;100
  7
SLDTEXTSTYLE0
 73
     1
 44
1.0
  0
POINT
  5
12D
330
DC
100
AcDbEntity
  8
Defpoints
 62
     0
100
AcDbPoint
 10
60.15000000000003
 20
9.991548152296447
 30
0.0
  0
POINT
  5
12E
330
DC
100
AcDbEntity
  8
Defpoints
 62
     0
100
AcDbPoint
 10
-39.84999999999998
 20
8.999999999999995
 30
0.0
  0
POINT
  5
12F
330
DC
100
AcDbEntity
  8
Defpoints
 62
     0
100
AcDbPoint
 10
-39.84999999999998
 20
29.78415911661226
 30
0.0
  0
ENDBLK
  5
DE
330
DC
100
AcDbEntity
  8
0
100
AcDbBlockEnd
  0
BLOCK
  5
E8
330
E7
100
AcDbEntity
  8
0
100
AcDbBlockBegin
  2
_D_2
 70
     0
 10
0.0
 20
0.0
 30
0.0
  3
_D_2
  1

  0
LINE
  5
EA
330
E7
100
AcDbEntity
  8
치수문자_일반주서
 62
     0
370
    -2
100
AcDbLine
 10
60.21250000000002
 20
10.00692834952621
 30
0.0
 11
75.71619031224625
 21
10.00692834952627
 31
0.0
  0
LINE
  5
EB
330
E7
100
AcDbEntity
  8
치수문자_일반주서
 62
     0
370
    -2
100
AcDbLine
 10
60.21250000000002
 20
-9.991548152296435
 30
0.0
 11
75.71619031224633
 21
-9.991548152296378
 31
0.0
  0
LINE
  5
EC
330
E7
100
AcDbEntity
  8
치수문자_일반주서
 62
     0
370
    -2
100
AcDbLine
 10
75.71619031224627
 20
6.704928349526268
 30
0.0
 11
75.71619031224631
 21
-6.689548152296378
 31
0.0
  0
SOLID
  5
ED
330
E7
100
AcDbEntity
  8
치수문자_일반주서
 62
     0
100
AcDbTrace
 10
76.2665236455796
 20
6.70492834952627
 30
0.0
 11
75.16585697891294
 21
6.704928349526266
 31
0.0
 12
75.71619031224625
 22
10.00692834952627
 32
0.0
 13
75.71619031224625
 23
10.00692834952627
 33
0.0
  0
SOLID
  5
EE
330
E7
100
AcDbEntity
  8
치수문자_일반주서
 62
     0
100
AcDbTrace
 10
75.16585697891298
 20
-6.68954815229638
 30
0.0
 11
76.26652364557964
 21
-6.689548152296377
 31
0.0
 12
75.71619031224633
 22
-9.991548152296378
 32
0.0
 13
75.71619031224633
 23
-9.991548152296378
 33
0.0
  0
MTEXT
  5
EF
330
E7
100
AcDbEntity
  8
치수문자_일반주서
 62
     0
100
AcDbMText
 10
71.3411903122463
 20
-0.0000000000000108
 30
0.0
 40
3.5
 41
0.0
 71
     2
 72
     1
  1
\A1;%%c20
  7
SLDTEXTSTYLE0
 11
-3.552984327057823E-15
 21
1.0
 31
0.0
 73
     1
 44
1.0
  0
POINT
  5
F0
330
E7
100
AcDbEntity
  8
Defpoints
 62
     0
100
AcDbPoint
 10
60.15000000000002
 20
10.00692834952621
 30
0.0
  0
POINT
  5
F1
330
E7
100
AcDbEntity
  8
Defpoints
 62
     0
100
AcDbPoint
 10
60.15000000000002
 20
-9.991548152296435
 30
0.0
  0
POINT
  5
F2
330
E7
100
AcDbEntity
  8
Defpoints
 62
     0
100
AcDbPoint
 10
75.71619031224633
 20
-9.991548152296376
 30
0.0
  0
ENDBLK
  5
E9
330
E7
100
AcDbEntity
  8
0
100
AcDbBlockEnd
  0
BLOCK
  5
F5
330
F4
100
AcDbEntity
  8
0
100
AcDbBlockBegin
  2
_D_3
 70
     0
 10
0.0
 20
0.0
 30
0.0
  3
_D_3
  1

  0
LINE
  5
F7
330
F4
100
AcDbEntity
  8
치수문자_일반주서
 62
     0
370
    -2
100
AcDbLine
 10
-38.91249999999998
 20
10.0
 30
0.0
 11
-51.26955944538854
 21
9.999999999999952
 31
0.0
  0
LINE
  5
F8
330
F4
100
AcDbEntity
  8
치수문자_일반주서
 62
     0
370
    -2
100
AcDbLine
 10
-38.91249999999998
 20
-9.999999999999998
 30
0.0
 11
-51.26955944538847
 21
-10.00000000000005
 31
0.0
  0
LINE
  5
F9
330
F4
100
AcDbEntity
  8
치수문자_일반주서
 62
     0
370
    -2
100
AcDbLine
 10
-51.26955944538853
 20
6.697999999999952
 30
0.0
 11
-51.26955944538849
 21
-6.698000000000047
 31
0.0
  0
SOLID
  5
FA
330
F4
100
AcDbEntity
  8
치수문자_일반주서
 62
     0
100
AcDbTrace
 10
-50.7192261120552
 20
6.697999999999954
 30
0.0
 11
-51.81989277872187
 21
6.697999999999951
 31
0.0
 12
-51.26955944538854
 22
9.999999999999952
 32
0.0
 13
-51.26955944538854
 23
9.999999999999952
 33
0.0
  0
SOLID
  5
FB
330
F4
100
AcDbEntity
  8
치수문자_일반주서
 62
     0
100
AcDbTrace
 10
-51.81989277872182
 20
-6.698000000000048
 30
0.0
 11
-50.71922611205515
 21
-6.698000000000045
 31
0.0
 12
-51.26955944538847
 22
-10.00000000000005
 32
0.0
 13
-51.26955944538847
 23
-10.00000000000005
 33
0.0
  0
MTEXT
  5
FC
330
F4
100
AcDbEntity
  8
치수문자_일반주서
 62
     0
100
AcDbMText
 10
-55.64455944538851
 20
-0.0000000000000114
 30
0.0
 40
3.5
 41
0.0
 71
     2
 72
     1
  1
\A1;%%c20
  7
SLDTEXTSTYLE0
 11
-3.552713678800502E-15
 21
1.0
 31
0.0
 73
     1
 44
1.0
  0
POINT
  5
FD
330
F4
100
AcDbEntity
  8
Defpoints
 62
     0
100
AcDbPoint
 10
-38.84999999999998
 20
10.0
 30
0.0
  0
POINT
  5
FE
330
F4
100
AcDbEntity
  8
Defpoints
 62
     0
100
AcDbPoint
 10
-38.84999999999998
 20
-9.999999999999998
 30
0.0
  0
POINT
  5
FF
330
F4
100
AcDbEntity
  8
Defpoints
 62
     0
100
AcDbPoint
 10
-51.26955944538848
 20
-10.00000000000004
 30
0.0
  0
ENDBLK
  5
F6
330
F4
100
AcDbEntity
  8
0
100
AcDbBlockEnd
  0
BLOCK
  5
101
330
100
100
AcDbEntity
  8
0
100
AcDbBlockBegin
  2
SW_DOWELSYMBOL_0
 70
     0
 10
0.0
 20
0.0
 30
0.0
  3
SW_DOWELSYMBOL_0
  1

  0
CIRCLE
  5
103
330
100
100
AcDbEntity
  8
외형선
 62
     0
100
AcDbCircle
 10
0.0
 20
0.0
 30
0.0
 40
3.000000000000004
  0
HATCH
  5
104
330
100
100
AcDbEntity
  8
0
  6
Continuous
 62
     0
370
    30
100
AcDbHatch
 10
0.0
 20
0.0
 30
0.0
210
0.0
220
0.0
230
1.0
  2
SOLID
 70
     1
 71
     0
 91
        1
 92
        0
 93
        3
 72
     2
 10
0.0000000000000087
 20
-0.0000000000000035
 40
3.000000000000004
 50
0.0
 51
90.0
 73
     1
 72
     1
 10
0.0000000000000087
 20
3.000000000000001
 11
0.0000000000000087
 21
-0.0000000000000036
 72
     1
 10
0.0000000000000087
 20
-0.0000000000000035
 11
3.000000000000013
 21
-0.0000000000000035
 97
        0
 75
     0
 76
     1
 98
        1
 10
0.0
 20
0.0
  0
HATCH
  5
105
330
100
100
AcDbEntity
  8
0
  6
Continuous
 62
     0
370
    30
100
AcDbHatch
 10
0.0
 20
0.0
 30
0.0
210
0.0
220
0.0
230
1.0
  2
SOLID
 70
     1
 71
     0
 91
        1
 92
        0
 93
        3
 72
     2
 10
0.0000000000000087
 20
-0.0000000000000035
 40
3.000000000000004
 50
180.0
 51
270.0000000000007
 73
     1
 72
     1
 10
0.0000000000000087
 20
-3.000000000000008
 11
0.0000000000000087
 21
-0.0000000000000036
 72
     1
 10
0.0000000000000087
 20
-0.0000000000000035
 11
-2.999999999999996
 21
-0.0000000000000035
 97
        0
 75
     0
 76
     1
 98
        1
 10
0.0
 20
0.0
  0
ENDBLK
  5
102
330
100
100
AcDbEntity
  8
0
100
AcDbBlockEnd
  0
BLOCK
  5
187
330
186
100
AcDbEntity
  8
0
100
AcDbBlockBegin
  2
*D7
 70
     1
 10
0.0
 20
0.0
 30
0.0
  3
*D7
  1

  0
LINE
  5
189
330
186
100
AcDbEntity
  8
치수문자_일반주서
 62
     0
370
    -2
100
AcDbLine
 10
0.1500000000000256
 20
9.912499999999998
 30
0.0
 11
0.150000000000027
 21
24.25
 31
0.0
  0
LINE
  5
18A
330
186
100
AcDbEntity
  8
치수문자_일반주서
 62
     0
370
    -2
100
AcDbLine
 10
60.15000000000003
 20
9.912499999999998
 30
0.0
 11
60.15000000000003
 21
24.25
 31
0.0
  0
LINE
  5
18B
330
186
100
AcDbEntity
  8
치수문자_일반주서
 62
     0
370
    -2
100
AcDbLine
 10
3.452000000000027
 20
24.25
 30
0.0
 11
56.84800000000003
 21
24.25
 31
0.0
  0
SOLID
  5
18C
330
186
100
AcDbEntity
  8
치수문자_일반주서
 62
     0
100
AcDbTrace
 10
3.452000000000027
 20
24.80033333333333
 30
0.0
 11
3.452000000000027
 21
23.69966666666666
 31
0.0
 12
0.150000000000027
 22
24.25
 32
0.0
 13
0.150000000000027
 23
24.25
 33
0.0
  0
SOLID
  5
18D
330
186
100
AcDbEntity
  8
치수문자_일반주서
 62
     0
100
AcDbTrace
 10
56.84800000000003
 20
23.69966666666666
 30
0.0
 11
56.84800000000003
 21
24.80033333333333
 31
0.0
 12
60.15000000000003
 22
24.25
 32
0.0
 13
60.15000000000003
 23
24.25
 33
0.0
  0
MTEXT
  5
18E
330
186
100
AcDbEntity
  8
치수문자_일반주서
 62
     0
100
AcDbMText
 10
30.01519653216126
 20
26.875
 30
0.0
 40
3.5
 41
0.0
 71
     5
 72
     1
  1
\A1;60
  7
SLDTEXTSTYLE0
 73
     1
 44
1.0
  0
POINT
  5
18F
330
186
100
AcDbEntity
  8
Defpoints
 62
     0
100
AcDbPoint
 10
0.1500000000000256
 20
9.849999999999998
 30
0.0
  0
POINT
  5
190
330
186
100
AcDbEntity
  8
Defpoints
 62
     0
100
AcDbPoint
 10
60.15000000000003
 20
9.849999999999998
 30
0.0
  0
POINT
  5
191
330
186
100
AcDbEntity
  8
Defpoints
 62
     0
100
AcDbPoint
 10
60.15000000000003
 20
24.25
 30
0.0
  0
ENDBLK
  5
188
330
186
100
AcDbEntity
  8
0
100
AcDbBlockEnd
  0
ENDSEC
  0
SECTION
  2
ENTITIES
  0
LINE
  5
95
330
1F
100
AcDbEntity
  8
0
  6
Continuous
 62
     4
370
    15
100
AcDbLine
 10
0.0000000000000218
 20
10.0
 30
0.0
 11
-38.84999999999999
 21
10.0
 31
0.0
  0
LINE
  5
96
330
1F
100
AcDbEntity
  8
0
  6
Continuous
 62
     4
370
    15
100
AcDbLine
 10
-38.84999999999998
 20
-9.999999999999998
 30
0.0
 11
-0.0000000000000156
 21
-9.999999999999996
 31
0.0
  0
LINE
  5
97
330
1F
100
AcDbEntity
  8
0
  6
Continuous
 62
     4
370
    15
100
AcDbLine
 10
-38.84999999999998
 20
9.999999999999995
 30
0.0
 11
-39.84999999999998
 21
8.999999999999995
 31
0.0
  0
LINE
  5
98
330
1F
100
AcDbEntity
  8
0
  6
Continuous
 62
     4
370
    15
100
AcDbLine
 10
-39.84999999999998
 20
-8.999999999999995
 30
0.0
 11
-38.84999999999998
 21
-9.999999999999995
 31
0.0
  0
LINE
  5
99
330
1F
100
AcDbEntity
  8
0
  6
Continuous
 62
     1
370
    15
100
AcDbLine
 10
28.67926757522874
 20
2.833348454991462
 30
0.0
 11
28.60341970625246
 21
2.875014053515603
 31
0.0
  0
SPLINE
  5
9A
330
1F
100
AcDbEntity
  8
0
  6
Continuous
 62
     1
370
    15
100
AcDbSpline
210
0.0
220
0.0
230
1.0
 70
     8
 71
     3
 72
     9
 73
     5
 74
     0
 42
0.000000001
 43
0.00000001
 40
0.0
 40
0.0
 40
0.0
 40
0.0
 40
0.5246348202449401
 40
0.9999999999999999
 40
0.9999999999999999
 40
0.9999999999999999
 40
0.9999999999999999
 10
34.24283604092843
 20
2.562498527535382
 30
0.0
 10
33.75758756836294
 20
2.793891743810559
 30
0.0
 10
32.83266140288474
 20
3.234947516980828
 30
0.0
 10
31.90768702393067
 20
3.71966738627608
 30
0.0
 10
31.46798641201034
 20
3.950086334074467
 30
0.0
  0
SPLINE
  5
9B
330
1F
100
AcDbEntity
  8
0
  6
Continuous
 62
     1
370
    15
100
AcDbSpline
210
0.0
220
0.0
230
1.0
 70
     8
 71
     3
 72
    27
 73
    23
 74
     0
 42
0.000000001
 43
0.00000001
 40
0.0
 40
0.0
 40
0.0
 40
0.0
 40
0.096109641433373
 40
0.1745269381873753
 40
0.2350425318418726
 40
0.2808132041110334
 40
0.3065592267372134
 40
0.331839079583768
 40
0.3625984859254625
 40
0.3989241885608797
 40
0.4402900675997842
 40
0.4993435710143885
 40
0.546528790605765
 40
0.5890496474457236
 40
0.6444791082069221
 40
0.7162287073830969
 40
0.7835726865218203
 40
0.8410845795368777
 40
0.8890118704185613
 40
0.9320951110159348
 40
0.9709568567301144
 40
1.0
 40
1.0
 40
1.0
 40
1.0
 10
30.93756189612869
 20
7.94639540727464
 30
0.0
 10
30.67506225615178
 20
7.932976294292496
 30
0.0
 10
30.19838522607233
 20
7.908608325928076
 30
0.0
 10
29.55723258323448
 20
7.881965554632687
 30
0.0
 10
29.05438837071327
 20
7.863765882466701
 30
0.0
 10
28.69508192165052
 20
7.852432126126447
 30
0.0
 10
28.43422133561374
 20
7.845010138928046
 30
0.0
 10
28.21343103295666
 20
7.839189175464008
 30
0.0
 10
27.96308813139714
 20
7.833176444239667
 30
0.0
 10
27.6686257964717
 20
7.826965680815951
 30
0.0
 10
27.2967359244139
 20
7.820375667954673
 30
0.0
 10
26.89532303188802
 20
7.815011269306708
 30
0.0
 10
26.49071898176698
 20
7.811462335785432
 30
0.0
 10
26.09575935549523
 20
7.80953007860849
 30
0.0
 10
25.63402644894847
 20
7.809228948450627
 30
0.0
 10
25.10490962373506
 20
7.811804075388075
 30
0.0
 10
24.57030535777789
 20
7.817652868202337
 30
0.0
 10
24.10036717571381
 20
7.825324733965779
 30
0.0
 10
23.6963537269119
 20
7.833738160933823
 30
0.0
 10
23.34306448929366
 20
7.842508138035382
 30
0.0
 10
23.04115089711002
 20
7.850954145011656
 30
0.0
 10
22.85644115768521
 20
7.856874178165946
 30
0.0
 10
22.77744019758178
 20
7.859406195722193
 30
0.0
  0
SPLINE
  5
9C
330
1F
100
AcDbEntity
  8
0
  6
Continuous
 62
     1
370
    15
100
AcDbSpline
210
0.0
220
0.0
230
1.0
 70
     8
 71
     3
 72
    38
 73
    34
 74
     0
 42
0.000000001
 43
0.00000001
 40
0.0
 40
0.0
 40
0.0
 40
0.0
 40
0.0562501473098853
 40
0.1035504796915941
 40
0.1436555469396613
 40
0.1750572597582101
 40
0.1904056553970099
 40
0.2053705367475094
 40
0.2272691782288586
 40
0.2565229293928243
 40
0.2875086271309588
 40
0.3255162161985275
 40
0.3552172127171886
 40
0.3858302282882307
 40
0.4187881500157602
 40
0.4501382293622771
 40
0.4793624093939621
 40
0.509276394113611
 40
0.5411639918996641
 40
0.5770140745234789
 40
0.6171776631056249
 40
0.654202391289994
 40
0.6837317939995685
 40
0.7131528286583674
 40
0.753227960871147
 40
0.794700632578849
 40
0.8240760684181656
 40
0.83406892458039
 40
0.8486031882989977
 40
0.872446787468297
 40
0.9055527778446667
 40
0.948075901163705
 40
1.0
 40
1.0
 40
1.0
 40
1.0
 10
56.43497740206456
 20
6.83952827994193
 30
0.0
 10
56.13508518223104
 20
6.813995758131735
 30
0.0
 10
55.58301581522193
 20
6.766993127780982
 30
0.0
 10
54.73987066221177
 20
6.709313274822647
 30
0.0
 10
54.02134532821457
 20
6.67220279344274
 30
0.0
 10
53.49820100009659
 20
6.647231678556582
 30
0.0
 10
53.1335139156964
 20
6.632281033052967
 30
0.0
 10
52.8377908396152
 20
6.621409607341611
 30
0.0
 10
52.45252904832164
 20
6.608885954441828
 30
0.0
 10
51.97380499887047
 20
6.59650484795011
 30
0.0
 10
51.39963893666813
 20
6.586061686277617
 30
0.0
 10
50.82370310291236
 20
6.580695720954594
 30
0.0
 10
50.25001559564281
 20
6.580367236643304
 30
0.0
 10
49.70545018717556
 20
6.584304101836008
 30
0.0
 10
49.15103357465861
 20
6.592840588115814
 30
0.0
 10
48.60474879920654
 20
6.60575565743532
 30
0.0
 10
48.0762858427494
 20
6.622354714172116
 30
0.0
 10
47.54487532635241
 20
6.643087297079183
 30
0.0
 10
46.97497433550584
 20
6.66988089256094
 30
0.0
 10
46.34502750806985
 20
6.704804217759316
 30
0.0
 10
45.68456322947902
 20
6.747639119791439
 30
0.0
 10
45.06220378244794
 20
6.794021759025739
 30
0.0
 10
44.51453244280072
 20
6.839131871691053
 30
0.0
 10
43.94401800275821
 20
6.890154930503955
 30
0.0
 10
43.29180795205656
 20
6.954204604371125
 30
0.0
 10
42.63694072722352
 20
7.024788855374698
 30
0.0
 10
42.16098523200446
 20
7.079946512614153
 30
0.0
 10
41.85171576535162
 20
7.117092903822817
 30
0.0
 10
41.57148110862071
 20
7.151543304858564
 30
0.0
 10
41.15418201024723
 20
7.204737226009403
 30
0.0
 10
40.57241609639681
 20
7.282913220065102
 30
0.0
 10
39.82443389365405
 20
7.388758914396445
 30
0.0
 10
39.26945307015012
 20
7.474313972458925
 30
0.0
 10
38.96434214709437
 20
7.521349440410278
 30
0.0
  0
SPLINE
  5
9D
330
1F
100
AcDbEntity
  8
0
  6
Continuous
 62
     1
370
    15
100
AcDbSpline
210
0.0
220
0.0
230
1.0
 70
     8
 71
     3
 72
    19
 73
    15
 74
     0
 42
0.000000001
 43
0.00000001
 40
0.0
 40
0.0
 40
0.0
 40
0.0
 40
0.1399816412922457
 40
0.2523279888346905
 40
0.3370981332248348
 40
0.3989896012075658
 40
0.448787517211783
 40
0.4881419100633342
 40
0.5597853848707446
 40
0.6509559123623374
 40
0.747959659967008
 40
0.8514955420202561
 40
0.9416518722091346
 40
1.0
 40
1.0
 40
1.0
 40
1.0
 10
38.96434214709437
 20
-7.521349440410265
 30
0.0
 10
39.30984478618518
 20
-7.468234266435534
 30
0.0
 10
39.93264064179922
 20
-7.372489960954305
 30
0.0
 10
40.76582285583376
 20
-7.256206025860065
 30
0.0
 10
41.40885949239905
 20
-7.171740138399476
 30
0.0
 10
41.90113623831412
 20
-7.110875095127845
 30
0.0
 10
42.2781277815581
 20
-7.066283414838964
 30
0.0
 10
42.67685861284064
 20
-7.020877402965538
 30
0.0
 10
43.17820522131501
 20
-6.966503206736229
 30
0.0
 10
43.82300294232338
 20
-6.901747337446567
 30
0.0
 10
44.54618685683852
 20
-6.835760983550225
 30
0.0
 10
45.26679334989964
 20
-6.777960287934363
 30
0.0
 10
45.89174577943908
 20
-6.733491528153421
 30
0.0
 10
46.26022307147284
 20
-6.711401586665718
 30
0.0
 10
46.4049996015252
 20
-6.702722340625892
 30
0.0
  0
SPLINE
  5
9E
330
1F
100
AcDbEntity
  8
0
  6
Continuous
 62
     1
370
    15
100
AcDbSpline
210
0.0
220
0.0
230
1.0
 70
     8
 71
     3
 72
    32
 73
    28
 74
     0
 42
0.000000001
 43
0.00000001
 40
0.0
 40
0.0
 40
0.0
 40
0.0
 40
0.0689532279916869
 40
0.1305599569822947
 40
0.1843341773569768
 40
0.2293985109616153
 40
0.270797678600866
 40
0.2986206282954473
 40
0.3329750954693341
 40
0.3724299852350599
 40
0.4029629128189974
 40
0.4243535746987118
 40
0.4503573880647007
 40
0.4976106333503401
 40
0.548213369673747
 40
0.5908042499381058
 40
0.6284555884272548
 40
0.6681930291100354
 40
0.7064800921121621
 40
0.7491140118873675
 40
0.780794422165373
 40
0.7928290117120321
 40
0.8132042606054299
 40
0.8440773682977916
 40
0.8855440808859709
 40
0.9375765012050752
 40
1.0
 40
1.0
 40
1.0
 40
1.0
 10
15.88162542576751
 20
-8.322774879449748
 30
0.0
 10
16.21574431560078
 20
-8.289723782914384
 30
0.0
 10
16.8483839925839
 20
-8.22714296012253
 30
0.0
 10
17.7879999572554
 20
-8.14702085469325
 30
0.0
 10
18.60489633984088
 20
-8.08323186356078
 30
0.0
 10
19.31127143603503
 20
-8.032952096468108
 30
0.0
 10
19.88234211504584
 20
-7.9961442932288
 30
0.0
 10
20.40309739673887
 20
-7.965263366688702
 30
0.0
 10
20.91348916952956
 20
-7.937408387412198
 30
0.0
 10
21.43743563347813
 20
-7.911743945917372
 30
0.0
 10
21.89611329954921
 20
-7.89171394277149
 30
0.0
 10
22.28753981457249
 20
-7.876248324184124
 30
0.0
 10
22.76334127144362
 20
-7.859241289570117
 30
0.0
 10
23.38632944704799
 20
-7.840591498209976
 30
0.0
 10
24.09253325650282
 20
-7.824919307068523
 30
0.0
 10
24.7491073845045
 20
-7.815208598893904
 30
0.0
 10
25.34986447238608
 20
-7.810168313691356
 30
0.0
 10
25.93065501465608
 20
-7.808905332921618
 30
0.0
 10
26.53660854662346
 20
-7.811368597596908
 30
0.0
 10
27.10225545521756
 20
-7.817320459195709
 30
0.0
 10
27.53603530142751
 20
-7.824464131594095
 30
0.0
 10
27.85772464621045
 20
-7.830889373553579
 30
0.0
 10
28.17510321288589
 20
-7.83806064063068
 30
0.0
 10
28.64023256145463
 20
-7.850452696067463
 30
0.0
 10
29.26459527155465
 20
-7.870710888915879
 30
0.0
 10
30.04793460806945
 20
-7.90133868092543
 30
0.0
 10
30.62359858371728
 20
-7.930494187470694
 30
0.0
 10
30.93756189612869
 20
-7.946395407274629
 30
0.0
  0
LINE
  5
A0
102
{ACAD_REACTORS
330
196
102
}
330
1F
100
AcDbEntity
  8
0
  6
Continuous
 62
     4
370
    15
100
AcDbLine
 10
15.15000000000003
 20
9.850000000000009
 30
0.0
 11
15.15000000000003
 21
8.764420963028229
 31
0.0
1001
PE_URL
1000

  0
LINE
  5
A5
330
1F
100
AcDbEntity
  8
0
  6
Continuous
 62
     4
370
    15
100
AcDbLine
 10
-38.84999999999998
 20
9.999999999999995
 30
0.0
 11
-38.84999999999998
 21
-10.00000000000001
 31
0.0
  0
LINE
  5
A6
330
1F
100
AcDbEntity
  8
0
  6
Continuous
 62
     4
370
    15
100
AcDbLine
 10
-39.84999999999998
 20
8.999999999999995
 30
0.0
 11
-39.84999999999998
 21
-8.999999999999979
 31
0.0
  0
SPLINE
  5
A7
330
1F
100
AcDbEntity
  8
0
  6
Continuous
 62
     1
370
    15
100
AcDbSpline
210
0.0
220
0.0
230
1.0
 70
    24
 71
     3
 72
    14
 73
    10
 74
     0
 42
0.000000001
 43
0.00000001
 40
0.0
 40
0.0
 40
0.0
 40
0.0
 40
0.25
 40
0.25
 40
0.5
 40
0.5
 40
0.75
 40
0.75
 40
1.0
 40
1.0
 40
1.0
 40
1.0
 10
15.15000000000001
 20
5.991361489690862
 30
0.0
 10
15.15000000000001
 20
5.382351056418146
 30
0.0
 10
15.15000000000001
 20
4.674931750352981
 30
0.0
 10
15.15000000000001
 20
3.105005520586363
 30
0.0
 10
15.15000000000001
 20
2.242960222422522
 30
0.0
 10
15.15000000000001
 20
0.4428557790634961
 30
0.0
 10
15.15000000000001
 20
-0.4942441952251027
 30
0.0
 10
15.15000000000001
 20
-2.350152991677901
 30
0.0
 10
15.15000000000001
 20
-3.268098510358674
 30
0.0
 10
15.15000000000001
 20
-4.137014599408799
 30
0.0
  0
SPLINE
  5
AB
330
1F
100
AcDbEntity
  8
0
  6
Continuous
 62
     1
370
    15
100
AcDbSpline
210
0.0
220
0.0
230
1.0
 70
    24
 71
     3
 72
    14
 73
    10
 74
     0
 42
0.000000001
 43
0.00000001
 40
0.0
 40
0.0
 40
0.0
 40
0.0
 40
0.25
 40
0.25
 40
0.5
 40
0.5
 40
0.75
 40
0.75
 40
1.0
 40
1.0
 40
1.0
 40
1.0
 10
15.15000000000003
 20
-4.137014599408807
 30
0.0
 10
15.15000000000003
 20
-4.746589122390147
 30
0.0
 10
15.15000000000003
 20
-5.320398820568754
 30
0.0
 10
15.15000000000003
 20
-6.34617443300875
 30
0.0
 10
15.15000000000003
 20
-6.797732394754587
 30
0.0
 10
15.15000000000003
 20
-7.540761674378426
 30
0.0
 10
15.15000000000003
 20
-7.832018427955942
 30
0.0
 10
15.15000000000003
 20
-8.239160959431501
 30
0.0
 10
15.15000000000003
 20
-8.355125922350041
 30
0.0
 10
15.15000000000003
 20
-8.38836765781331
 30
0.0
  0
SPLINE
  5
AC
330
1F
100
AcDbEntity
  8
0
  6
Continuous
 62
     4
370
    15
100
AcDbSpline
210
0.0
220
0.0
230
1.0
 70
    24
 71
     3
 72
    10
 73
     6
 74
     0
 42
0.000000001
 43
0.00000001
 40
0.0
 40
0.0
 40
0.0
 40
0.0
 40
0.5000000000000002
 40
0.5000000000000002
 40
1.0
 40
1.0
 40
1.0
 40
1.0
 10
15.15000000000003
 20
8.76442096302822
 30
0.0
 10
15.15000000000003
 20
8.402037141569433
 30
0.0
 10
15.15000000000003
 20
7.956606714838278
 30
0.0
 10
15.15000000000003
 20
6.994771589743352
 30
0.0
 10
15.15000000000003
 20
6.481230054157051
 30
0.0
 10
15.15000000000003
 20
5.991361489690862
 30
0.0
  0
SPLINE
  5
AD
330
1F
100
AcDbEntity
  8
0
  6
Continuous
 62
     1
370
    15
100
AcDbSpline
210
0.0
220
0.0
230
1.0
 70
    24
 71
     3
 72
     8
 73
     4
 74
     0
 42
0.000000001
 43
0.00000001
 40
0.0
 40
0.0
 40
0.0
 40
0.0
 40
1.0
 40
1.0
 40
1.0
 40
1.0
 10
15.15000000000003
 20
-8.388367657813314
 30
0.0
 10
15.15000000000003
 20
-8.8630975363701
 30
0.0
 10
15.15000000000003
 20
-9.321108667822736
 30
0.0
 10
15.15000000000003
 20
-9.753365516105601
 30
0.0
  0
SPLINE
  5
AE
330
1F
100
AcDbEntity
  8
0
  6
Continuous
 62
     1
370
    15
100
AcDbSpline
210
0.0
220
0.0
230
1.0
 70
     8
 71
     3
 72
    10
 73
     6
 74
     0
 42
0.000000001
 43
0.00000001
 40
0.0
 40
0.0
 40
0.0
 40
0.0
 40
0.5
 40
0.5
 40
1.0
 40
1.0
 40
1.0
 40
1.0
 10
60.15000000000003
 20
-2.672429460296444
 30
0.0
 10
59.29324315940784
 20
-1.998877176673858
 30
0.0
 10
58.4480363641846
 20
-1.303046910902133
 30
0.0
 10
56.78067637845722
 20
0.1330799216817041
 30
0.0
 10
55.95798421885811
 20
0.8737316691697636
 30
0.0
 10
55.15000000000225
 20
1.639931148972217
 30
0.0
  0
LINE
  5
AF
330
1F
100
AcDbEntity
  8
0
  6
Continuous
 62
     1
370
    15
100
AcDbLine
 10
55.15000000000003
 20
2.937719435296596
 30
0.0
 11
60.15000000000003
 21
0.0000000000000096
 31
0.0
  0
LINE
  5
B0
330
1F
100
AcDbEntity
  8
0
  6
Continuous
 62
     1
370
    15
100
AcDbLine
 10
60.15000000000003
 20
0.0000000000000096
 30
0.0
 11
60.15000000000003
 21
-2.672429460296439
 31
0.0
  0
SPLINE
  5
B1
330
1F
100
AcDbEntity
  8
0
  6
Continuous
 62
     1
370
    15
100
AcDbSpline
210
0.0
220
0.0
230
1.0
 70
     8
 71
     3
 72
    60
 73
    56
 74
     0
 42
0.000000001
 43
0.00000001
 40
0.0
 40
0.0
 40
0.0
 40
0.0
 40
0.0625000000000002
 40
0.0625000000000002
 40
0.0937500000000001
 40
0.0937500000000001
 40
0.1250000000000001
 40
0.1250000000000001
 40
0.15625
 40
0.15625
 40
0.1874999999999999
 40
0.1874999999999999
 40
0.2187499999999999
 40
0.2187499999999999
 40
0.2499999999999998
 40
0.2499999999999998
 40
0.3124999999999998
 40
0.3124999999999998
 40
0.3437499999999998
 40
0.3437499999999998
 40
0.3749999999999997
 40
0.3749999999999997
 40
0.4062499999999997
 40
0.4062499999999997
 40
0.4374999999999997
 40
0.4374999999999997
 40
0.4999999999999997
 40
0.4999999999999997
 40
0.5624999999999997
 40
0.5624999999999997
 40
0.5937499999999998
 40
0.5937499999999998
 40
0.6249999999999999
 40
0.6249999999999999
 40
0.65625
 40
0.65625
 40
0.6875000000000001
 40
0.6875000000000001
 40
0.7187500000000002
 40
0.7187500000000002
 40
0.7500000000000002
 40
0.7500000000000002
 40
0.8125000000000003
 40
0.8125000000000003
 40
0.8437500000000003
 40
0.8437500000000003
 40
0.8750000000000003
 40
0.8750000000000003
 40
0.9062500000000003
 40
0.9062500000000003
 40
0.9375000000000003
 40
0.9375000000000003
 40
0.9687500000000002
 40
0.9687500000000002
 40
1.0
 40
1.0
 40
1.0
 40
1.0
 10
60.15000000000003
 20
-9.991548152296433
 30
0.0
 10
59.21648531497392
 20
-9.969330508403168
 30
0.0
 10
58.2724238286367
 20
-9.902956298462815
 30
0.0
 10
56.86832032119864
 20
-9.738938474842188
 30
0.0
 10
56.40162711544409
 20
-9.673583582234878
 30
0.0
 10
55.46290675524295
 20
-9.521506870405869
 30
0.0
 10
54.99258414242582
 20
-9.434845773181847
 30
0.0
 10
54.05466123974591
 20
-9.241152094474417
 30
0.0
 10
53.58860807737813
 20
-9.134264244541521
 30
0.0
 10
52.65130364385353
 20
-8.900286267241409
 30
0.0
 10
52.18104835797759
 20
-8.77324223883939
 30
0.0
 10
51.24197662736385
 20
-8.50026277540955
 30
0.0
 10
50.77450502291222
 20
-8.354478740358921
 30
0.0
 10
49.83932003414854
 20
-8.044905923644354
 30
0.0
 10
49.36948785976187
 20
-7.880864001754542
 30
0.0
 10
47.96021895511416
 20
-7.363279741060836
 30
0.0
 10
47.02723080159926
 20
-6.985128292065677
 30
0.0
 10
45.61836418421296
 20
-6.373166873472339
 30
0.0
 10
45.1481792097333
 20
-6.161851920514209
 30
0.0
 10
44.2113263962365
 20
-5.726688899262555
 30
0.0
 10
43.74511731567564
 20
-5.502934762650818
 30
0.0
 10
42.80684948516012
 20
-5.042899466871793
 30
0.0
 10
42.33651047110487
 20
-4.806879482612124
 30
0.0
 10
41.39806997197563
 20
-4.325165125945263
 30
0.0
 10
40.93172230673834
 20
-4.079788622449783
 30
0.0
 10
39.52684433617968
 20
-3.330030239421408
 30
0.0
 10
38.58423466301103
 20
-2.812220720380375
 30
0.0
 10
36.71583250007432
 20
-1.759577144296482
 30
0.0
 10
35.77170461127774
 20
-1.221319463093526
 30
0.0
 10
34.36843791533288
 20
-0.4118738356498707
 30
0.0
 10
33.90127710602166
 20
-0.1414249209318461
 30
0.0
 10
32.96231884506312
 20
0.4000815978759084
 30
0.0
 10
32.49203375719066
 20
0.6708466610766644
 30
0.0
 10
31.55449762379214
 20
1.209726868015625
 30
0.0
 10
31.08847822143637
 20
1.477609789984316
 30
0.0
 10
30.15076391722594
 20
2.01062560377155
 30
0.0
 10
29.68045943356502
 20
2.275487620675883
 30
0.0
 10
28.74160239665717
 20
2.799297059637581
 30
0.0
 10
28.27466583122711
 20
3.05795026825233
 30
0.0
 10
27.33890003005097
 20
3.568336016137565
 30
0.0
 10
26.86893205942724
 20
3.820266022987938
 30
0.0
 10
25.45972627257185
 20
4.562488133212787
 30
0.0
 10
24.52684502666757
 20
5.03825946534643
 30
0.0
 10
23.11778244556057
 20
5.717271698867946
 30
0.0
 10
22.64768888554765
 20
5.937623029351999
 30
0.0
 10
21.71132937421138
 20
6.364218304901846
 30
0.0
 10
21.24484224045594
 20
6.570517951722182
 30
0.0
 10
20.30627137495018
 20
6.969046910581622
 30
0.0
 10
19.83593708582286
 20
7.161003819273025
 30
0.0
 10
18.89781836634991
 20
7.528413126761534
 30
0.0
 10
18.43169412722967
 20
7.703677712827931
 30
0.0
 10
17.49463414711939
 20
8.037523045377897
 30
0.0
 10
17.02441511300208
 20
8.195987372261802
 30
0.0
 10
16.08524274673339
 20
8.494393764455184
 30
0.0
 10
15.61742309480048
 20
8.634230885758454
 30
0.0
 10
15.14999999999808
 20
8.764420963028774
 30
0.0
  0
SPLINE
  5
B2
330
1F
100
AcDbEntity
  8
0
  6
Continuous
 62
     1
370
    15
100
AcDbSpline
210
0.0
220
0.0
230
1.0
 70
     8
 71
     3
 72
    14
 73
    10
 74
     0
 42
0.000000001
 43
0.00000001
 40
0.0
 40
0.0
 40
0.0
 40
0.0
 40
0.0179500501747114
 40
0.1816307763848601
 40
0.3453086425982951
 40
0.508983431644372
 40
0.6726549268455935
 40
0.8363258117235876
 40
1.0
 40
1.0
 40
1.0
 40
1.0
 10
35.31037180317159
 20
-0.9519359406755472
 30
0.0
 10
35.18974626262469
 20
-0.9043519913905939
 30
0.0
 10
33.96917526877625
 20
-0.4228653343638635
 30
0.0
 10
31.64863081340219
 20
0.5283721392283712
 30
0.0
 10
28.34882634803918
 20
1.845032753130448
 30
0.0
 10
25.049080894561
 20
3.100479858668535
 30
0.0
 10
21.74939288965637
 20
4.238361776874903
 30
0.0
 10
18.44971088914271
 20
5.238748142731501
 30
0.0
 10
16.24991102946129
 20
5.740488686269096
 30
0.0
 10
15.14999999999517
 20
5.991361489691876
 30
0.0
  0
SPLINE
  5
B3
330
1F
100
AcDbEntity
  8
0
  6
Continuous
 62
     4
370
    15
100
AcDbSpline
210
0.0
220
0.0
230
1.0
 70
    24
 71
     3
 72
    10
 73
     6
 74
     0
 42
0.000000001
 43
0.00000001
 40
0.0
 40
0.0
 40
0.0
 40
0.0
 40
0.4999999999999999
 40
0.4999999999999999
 40
1.0
 40
1.0
 40
1.0
 40
1.0
 10
15.15000000000003
 20
8.764420963028227
 30
0.0
 10
15.15000000000003
 20
8.402037141569437
 30
0.0
 10
15.15000000000003
 20
7.956606714838284
 30
0.0
 10
15.15000000000003
 20
6.994771589743354
 30
0.0
 10
15.15000000000003
 20
6.481230054157053
 30
0.0
 10
15.15000000000003
 20
5.991361489690862
 30
0.0
  0
SPLINE
  5
B4
330
1F
100
AcDbEntity
  8
0
  6
Continuous
 62
     1
370
    15
100
AcDbSpline
210
0.0
220
0.0
230
1.0
 70
     8
 71
     3
 72
    60
 73
    56
 74
     0
 42
0.000000001
 43
0.00000001
 40
0.0
 40
0.0
 40
0.0
 40
0.0
 40
0.0625000000000003
 40
0.0625000000000003
 40
0.0937500000000003
 40
0.0937500000000003
 40
0.1250000000000002
 40
0.1250000000000002
 40
0.1562500000000002
 40
0.1562500000000002
 40
0.1875000000000002
 40
0.1875000000000002
 40
0.2187500000000002
 40
0.2187500000000002
 40
0.2500000000000002
 40
0.2500000000000002
 40
0.3125000000000004
 40
0.3125000000000004
 40
0.3437500000000004
 40
0.3437500000000004
 40
0.3750000000000003
 40
0.3750000000000003
 40
0.4062500000000003
 40
0.4062500000000003
 40
0.4375000000000003
 40
0.4375000000000003
 40
0.5000000000000002
 40
0.5000000000000002
 40
0.5625000000000002
 40
0.5625000000000002
 40
0.5937500000000002
 40
0.5937500000000002
 40
0.6250000000000002
 40
0.6250000000000002
 40
0.6562500000000003
 40
0.6562500000000003
 40
0.6875000000000003
 40
0.6875000000000003
 40
0.7187500000000003
 40
0.7187500000000003
 40
0.7500000000000003
 40
0.7500000000000003
 40
0.8125000000000003
 40
0.8125000000000003
 40
0.8437500000000003
 40
0.8437500000000003
 40
0.8750000000000003
 40
0.8750000000000003
 40
0.9062500000000002
 40
0.9062500000000002
 40
0.9375000000000001
 40
0.9375000000000001
 40
0.9687500000000001
 40
0.9687500000000001
 40
1.0
 40
1.0
 40
1.0
 40
1.0
 10
60.15000000000003
 20
-9.48940869231899
 30
0.0
 10
59.21648531497388
 20
-9.318904525639025
 30
0.0
 10
58.27242382863657
 20
-9.105904831492472
 30
0.0
 10
56.86832032119841
 20
-8.728772877289499
 30
0.0
 10
56.40162711544386
 20
-8.593476912265418
 30
0.0
 10
55.46290675524263
 20
-8.303780403462083
 30
0.0
 10
54.99258414242549
 20
-8.149527971920145
 30
0.0
 10
54.05466123974552
 20
-7.823754311992099
 30
0.0
 10
53.58860807737772
 20
-7.652445028009292
 30
0.0
 10
52.65130364385305
 20
-7.292778703967448
 30
0.0
 10
52.18104835797709
 20
-7.104518573214671
 30
0.0
 10
51.24197662736325
 20
-6.712974626277844
 30
0.0
 10
50.7745050229116
 20
-6.509895095894724
 30
0.0
 10
49.83932003414787
 20
-6.089887617880868
 30
0.0
 10
49.36948785976116
 20
-5.872627533202583
 30
0.0
 10
47.96021895511335
 20
-5.202204347731821
 30
0.0
 10
47.0272308015984
 20
-4.731451332505236
 30
0.0
 10
45.618364184212
 20
-3.995718745634264
 30
0.0
 10
45.14817920973232
 20
-3.74570445310327
 30
0.0
 10
44.21132639623545
 20
-3.238627073580967
 30
0.0
 10
43.74511731567459
 20
-2.981660094570201
 30
0.0
 10
42.80684948515898
 20
-2.460671860445846
 30
0.0
 10
42.3365104711037
 20
-2.196959024670094
 30
0.0
 10
41.39806997197439
 20
-1.665700900042047
 30
0.0
 10
40.93172230673706
 20
-1.398494624789619
 30
0.0
 10
39.52684433617832
 20
-0.5920471312888015
 30
0.0
 10
38.58423466300962
 20
-0.0482900665215409
 30
0.0
 10
36.71583250007276
 20
1.031674730518118
 30
0.0
 10
35.77170461127612
 20
1.57138283451034
 30
0.0
 10
34.36843791533117
 20
2.36462056388833
 30
0.0
 10
33.90127710601993
 20
2.626619632327435
 30
0.0
 10
32.96231884506133
 20
3.145130322981536
 30
0.0
 10
32.49203375718884
 20
3.401354291199334
 30
0.0
 10
31.55449762379025
 20
3.905218723177472
 30
0.0
 10
31.08847822143445
 20
4.152653480364854
 30
0.0
 10
30.15076391722396
 20
4.638863437091388
 30
0.0
 10
29.680459433563
 20
4.877379995053536
 30
0.0
 10
28.74160239665511
 20
5.342866786995155
 30
0.0
 10
28.27466583122502
 20
5.569584137803676
 30
0.0
 10
27.33890003004881
 20
6.010621565805685
 30
0.0
 10
26.86893205942504
 20
6.225103507319173
 30
0.0
 10
25.45972627256956
 20
6.84718285454306
 30
0.0
 10
24.52684502666522
 20
7.232649026738851
 30
0.0
 10
23.11778244555812
 20
7.762044610861714
 30
0.0
 10
22.64768888554517
 20
7.930201351837979
 30
0.0
 10
21.71132937420885
 20
8.248292437570486
 30
0.0
 10
21.24484224045337
 20
8.398280737819114
 30
0.0
 10
20.30627137494755
 20
8.680070056492676
 30
0.0
 10
19.8359370858202
 20
8.811665144565767
 30
0.0
 10
18.8978183663472
 20
9.054965056494623
 30
0.0
 10
18.43169412722693
 20
9.166561755550031
 30
0.0
 10
17.49463414711657
 20
9.369784186398288
 30
0.0
 10
17.02441511299923
 20
9.461321186353244
 30
0.0
 10
16.08524274673049
 20
9.623295944478684
 30
0.0
 10
15.61742309479756
 20
9.693686385938975
 30
0.0
 10
15.14999999999512
 20
9.753365516115293
 30
0.0
  0
SPLINE
  5
B5
330
1F
100
AcDbEntity
  8
0
  6
Continuous
 62
     1
370
    15
100
AcDbSpline
210
0.0
220
0.0
230
1.0
 70
     8
 71
     3
 72
    16
 73
    12
 74
     0
 42
0.000000001
 43
0.00000001
 40
0.0
 40
0.0
 40
0.0
 40
0.0
 40
0.1157797207875917
 40
0.2315502597404606
 40
0.3473128999639115
 40
0.4630689295161174
 40
0.5788196406059315
 40
0.6945663287851659
 40
0.8103102921364118
 40
0.9260528304574788
 40
1.0
 40
1.0
 40
1.0
 40
1.0
 10
60.15000000000003
 20
-7.889722643682155
 30
0.0
 10
59.14872187406966
 20
-7.684043236828031
 30
0.0
 10
57.14624502791318
 20
-7.27270073439008
 30
0.0
 10
54.14268390460857
 20
-6.374152909521789
 30
0.0
 10
51.13935519829854
 20
-5.30147603328231
 30
0.0
 10
48.13622421095035
 20
-4.065232022161554
 30
0.0
 10
45.13325146034639
 20
-2.708546120293071
 30
0.0
 10
42.13039864863591
 20
-1.269511815259398
 30
0.0
 10
39.12762690574488
 20
0.2044229257475914
 30
0.0
 10
36.48633042200916
 20
1.505629840139566
 30
0.0
 10
34.8459517389005
 20
2.272027556137559
 30
0.0
 10
34.20647919207678
 20
2.570794118014811
 30
0.0
  0
LINE
  5
B6
330
1F
100
AcDbEntity
  8
0
  6
Continuous
 62
     1
370
    15
100
AcDbLine
 10
60.15000000000003
 20
-9.489408692318992
 30
0.0
 11
60.15000000000003
 21
-7.889722643682153
 31
0.0
  0
LINE
  5
B7
330
1F
100
AcDbEntity
  8
0
  6
Continuous
 62
     1
370
    15
100
AcDbLine
 10
60.15000000000003
 20
-9.991548152296435
 30
0.0
 11
60.15000000000058
 21
-9.489408692318998
 31
0.0
  0
SPLINE
  5
B8
330
1F
100
AcDbEntity
  8
0
  6
Continuous
 62
     1
370
    15
100
AcDbSpline
210
0.0
220
0.0
230
1.0
 70
     8
 71
     3
 72
    16
 73
    12
 74
     0
 42
0.000000001
 43
0.00000001
 40
0.0
 40
0.0
 40
0.0
 40
0.0
 40
0.1155907821129059
 40
0.2311875075765327
 40
0.3468019288901004
 40
0.4624457529014864
 40
0.5781183972505803
 40
0.6937614157837508
 40
0.8093752995354109
 40
0.9249717567392624
 40
1.0
 40
1.0
 40
1.0
 40
1.0
 10
55.15000000000026
 20
2.277336188987481
 30
0.0
 10
54.21692309684153
 20
2.684819428610987
 30
0.0
 10
52.35072131435173
 20
3.499806859492392
 30
0.0
 10
49.55123816385947
 20
4.615174359303724
 30
0.0
 10
46.7512666897737
 20
5.614466696512005
 30
0.0
 10
43.95059515535934
 20
6.466420321191995
 30
0.0
 10
41.14953482896457
 20
7.149265565331714
 30
0.0
 10
38.34888005736386
 20
7.648121048588726
 30
0.0
 10
35.54891343062916
 20
7.938452678525924
 30
0.0
 10
33.07690180265079
 20
8.041795316522009
 30
0.0
 10
31.53807394374255
 20
7.953882215816696
 30
0.0
 10
30.93240452811499
 20
7.919280375187184
 30
0.0
  0
SPLINE
  5
B9
330
1F
100
AcDbEntity
  8
0
  6
Continuous
 62
     1
370
    15
100
AcDbSpline
210
0.0
220
0.0
230
1.0
 70
    24
 71
     3
 72
     8
 73
     4
 74
     0
 42
0.000000001
 43
0.00000001
 40
0.0
 40
0.0
 40
0.0
 40
0.0
 40
1.0
 40
1.0
 40
1.0
 40
1.0
 10
55.15000000000001
 20
1.639931148969719
 30
0.0
 10
55.15000000000001
 20
1.854493127015608
 30
0.0
 10
55.15000000000003
 20
2.067125113711662
 30
0.0
 10
55.15000000000003
 20
2.27733618898758
 30
0.0
  0
SPLINE
  5
BA
330
1F
100
AcDbEntity
  8
0
  6
Continuous
 62
     1
370
    15
100
AcDbSpline
210
0.0
220
0.0
230
1.0
 70
    24
 71
     3
 72
    10
 73
     6
 74
     0
 42
0.000000001
 43
0.00000001
 40
0.0
 40
0.0
 40
0.0
 40
0.0
 40
0.5
 40
0.5
 40
1.0
 40
1.0
 40
1.0
 40
1.0
 10
60.15000000000003
 20
-7.889722643682149
 30
0.0
 10
60.15000000000003
 20
-7.284913890038038
 30
0.0
 10
60.15000000000006
 20
-6.520714839064679
 30
0.0
 10
60.15000000000001
 20
-4.744025591506795
 30
0.0
 10
60.15000000000003
 20
-3.733074430513093
 30
0.0
 10
60.15000000000003
 20
-2.672429460296764
 30
0.0
  0
SPLINE
  5
BB
330
1F
100
AcDbEntity
  8
0
  6
Continuous
 62
     1
370
    15
100
AcDbSpline
210
0.0
220
0.0
230
1.0
 70
    24
 71
     3
 72
    10
 73
     6
 74
     0
 42
0.000000001
 43
0.00000001
 40
0.0
 40
0.0
 40
0.0
 40
0.0
 40
0.5
 40
0.5
 40
1.0
 40
1.0
 40
1.0
 40
1.0
 10
55.15000000000002
 20
2.27733618898758
 30
0.0
 10
55.15000000000001
 20
2.878840455911242
 30
0.0
 10
55.15000000000002
 20
3.450743803947675
 30
0.0
 10
55.15000000000003
 20
4.486413301752648
 30
0.0
 10
55.15000000000002
 20
4.949784524560212
 30
0.0
 10
55.15000000000001
 20
5.338750903172983
 30
0.0
  0
SPLINE
  5
BC
330
1F
100
AcDbEntity
  8
0
  6
Continuous
 62
     1
370
    15
100
AcDbSpline
210
0.0
220
0.0
230
1.0
 70
     8
 71
     3
 72
     9
 73
     5
 74
     0
 42
0.000000001
 43
0.00000001
 40
0.0
 40
0.0
 40
0.0
 40
0.0
 40
0.8470798754202182
 40
1.0
 40
1.0
 40
1.0
 40
1.0
 10
60.15000000000003
 20
7.000000000000008
 30
0.0
 10
59.09991529917363
 20
6.993577489397174
 30
0.0
 10
57.86026278080219
 20
6.985995547257835
 30
0.0
 10
56.62061136077595
 20
6.844366542847363
 30
0.0
 10
56.43104371119004
 20
6.822708617848805
 30
0.0
  0
SPLINE
  5
BD
330
1F
100
AcDbEntity
  8
0
  6
Continuous
 62
     1
370
    15
100
AcDbSpline
210
0.0
220
0.0
230
1.0
 70
     8
 71
     3
 72
    10
 73
     6
 74
     0
 42
0.000000001
 43
0.00000001
 40
0.0
 40
0.0
 40
0.0
 40
0.0
 40
0.5
 40
0.5
 40
1.0
 40
1.0
 40
1.0
 40
1.0
 10
60.15000000000003
 20
7.000000000000008
 30
0.0
 10
59.30771059584998
 20
6.771619550379102
 30
0.0
 10
58.46925221747544
 20
6.519974797585367
 30
0.0
 10
56.80165776358472
 20
5.967893441178422
 30
0.0
 10
55.97249864322524
 20
5.667920129140787
 30
0.0
 10
55.15000000000001
 20
5.338750903173012
 30
0.0
  0
SPLINE
  5
BE
330
1F
100
AcDbEntity
  8
0
  6
Continuous
 62
     1
370
    15
100
AcDbSpline
210
0.0
220
0.0
230
1.0
 70
     8
 71
     3
 72
    16
 73
    12
 74
     0
 42
0.000000001
 43
0.00000001
 40
0.0
 40
0.0
 40
0.0
 40
0.0
 40
0.026180820782702
 40
0.1437134510017604
 40
0.2612283654592422
 40
0.3843426759550013
 40
0.5074579730363008
 40
0.6305778104974491
 40
0.7537057368929285
 40
0.8768452914493224
 40
0.9999999999999999
 40
0.9999999999999999
 40
0.9999999999999999
 40
0.9999999999999999
 10
38.97235839584912
 20
-7.50323382864487
 30
0.0
 10
38.76445738735955
 20
-7.541138424915504
 30
0.0
 10
37.62323375480925
 20
-7.74920678091146
 30
0.0
 10
35.54892019666359
 20
-7.933942635933848
 30
0.0
 10
32.70496105238573
 20
-8.038714127943678
 30
0.0
 10
29.81653995023459
 20
-7.906967606908321
 30
0.0
 10
26.88364735615795
 20
-7.551468795324254
 30
0.0
 10
23.95062205784462
 20
-6.979258002694583
 30
0.0
 10
21.01738023071131
 20
-6.205392466684645
 30
0.0
 10
18.08382820337158
 20
-5.262329872835441
 30
0.0
 10
16.1279828475414
 20
-4.512135076546069
 30
0.0
 10
15.14999999999637
 20
-4.137014599407356
 30
0.0
  0
SPLINE
  5
BF
330
1F
100
AcDbEntity
  8
0
  6
Continuous
 62
     4
370
    15
100
AcDbSpline
210
0.0
220
0.0
230
1.0
 70
    24
 71
     3
 72
    14
 73
    10
 74
     0
 42
0.000000001
 43
0.00000001
 40
0.0
 40
0.0
 40
0.0
 40
0.0
 40
0.25
 40
0.25
 40
0.5
 40
0.5
 40
0.75
 40
0.75
 40
1.0
 40
1.0
 40
1.0
 40
1.0
 10
15.15000000000001
 20
5.991361489690862
 30
0.0
 10
15.15000000000001
 20
5.382351056418146
 30
0.0
 10
15.15000000000001
 20
4.674931750352981
 30
0.0
 10
15.15000000000001
 20
3.105005520586363
 30
0.0
 10
15.15000000000001
 20
2.242960222422522
 30
0.0
 10
15.15000000000001
 20
0.4428557790634961
 30
0.0
 10
15.15000000000001
 20
-0.4942441952251027
 30
0.0
 10
15.15000000000001
 20
-2.350152991677901
 30
0.0
 10
15.15000000000001
 20
-3.268098510358674
 30
0.0
 10
15.15000000000001
 20
-4.137014599408799
 30
0.0
  0
LINE
  5
C0
330
1F
100
AcDbEntity
  8
0
  6
Continuous
 62
     1
370
    15
100
AcDbLine
 10
15.88778116340584
 20
-8.299437633837389
 30
0.0
 11
15.14999999999998
 21
-8.388367657813316
 31
0.0
  0
SPLINE
  5
C1
330
1F
100
AcDbEntity
  8
0
  6
Continuous
 62
     4
370
    15
100
AcDbSpline
210
0.0
220
0.0
230
1.0
 70
    24
 71
     3
 72
    14
 73
    10
 74
     0
 42
0.000000001
 43
0.00000001
 40
0.0
 40
0.0
 40
0.0
 40
0.0
 40
0.25
 40
0.25
 40
0.5
 40
0.5
 40
0.75
 40
0.75
 40
1.0
 40
1.0
 40
1.0
 40
1.0
 10
15.15000000000003
 20
-4.137014599408807
 30
0.0
 10
15.15000000000003
 20
-4.746589122390147
 30
0.0
 10
15.15000000000003
 20
-5.320398820568754
 30
0.0
 10
15.15000000000003
 20
-6.34617443300875
 30
0.0
 10
15.15000000000003
 20
-6.797732394754587
 30
0.0
 10
15.15000000000003
 20
-7.540761674378426
 30
0.0
 10
15.15000000000003
 20
-7.832018427955942
 30
0.0
 10
15.15000000000003
 20
-8.239160959431501
 30
0.0
 10
15.15000000000003
 20
-8.355125922350041
 30
0.0
 10
15.15000000000003
 20
-8.38836765781331
 30
0.0
  0
LINE
  5
C2
330
1F
100
AcDbEntity
  8
0
  6
Continuous
 62
     1
370
    15
100
AcDbLine
 10
60.15000000000003
 20
0.0000000000000096
 30
0.0
 11
60.15000000000003
 21
7.000000000000008
 31
0.0
  0
SPLINE
  5
C3
102
{ACAD_REACTORS
330
197
102
}
330
1F
100
AcDbEntity
  8
0
  6
Continuous
 62
     1
370
    15
100
AcDbSpline
210
0.0
220
0.0
230
1.0
 70
     8
 71
     3
 72
    12
 73
     8
 74
     0
 42
0.000000001
 43
0.00000001
 40
0.0
 40
0.0
 40
0.0
 40
0.0
 40
0.176861951014538
 40
0.3826003003670723
 40
0.5883590209907101
 40
0.7941537385518403
 40
1.0
 40
1.0
 40
1.0
 40
1.0
 10
46.40431961361904
 20
6.702447610196828
 30
0.0
 10
47.21464908290076
 20
7.040979811749268
 30
0.0
 10
48.96761119015465
 20
7.773316649915459
 30
0.0
 10
51.66330306958902
 20
8.658974716608444
 30
0.0
 10
54.49161821872891
 20
9.370565228210156
 30
0.0
 10
57.32051306179766
 20
9.847122582371478
 30
0.0
 10
59.206758958106
 20
9.943402277080386
 30
0.0
 10
60.15000000000003
 20
9.991548152296446
 30
0.0
  0
SPLINE
  5
C4
102
{ACAD_REACTORS
330
197
102
}
330
1F
100
AcDbEntity
  8
0
  6
Continuous
 62
     1
370
    15
100
AcDbSpline
210
0.0
220
0.0
230
1.0
 70
    24
 71
     3
 72
    10
 73
     6
 74
     0
 42
0.000000001
 43
0.00000001
 40
0.0
 40
0.0
 40
0.0
 40
0.0
 40
0.5
 40
0.5
 40
1.0
 40
1.0
 40
1.0
 40
1.0
 10
60.15000000000003
 20
7.00000000000001
 30
0.0
 10
60.15000000000001
 20
7.424322568073149
 30
0.0
 10
60.15000000000001
 20
7.917424688671182
 30
0.0
 10
60.15000000000003
 20
8.951951609608562
 30
0.0
 10
60.15000000000003
 20
9.490734358014736
 30
0.0
 10
60.15000000000003
 20
9.991548152296447
 30
0.0
  0
SPLINE
  5
C5
330
1F
100
AcDbEntity
  8
0
  6
Continuous
 62
     1
370
    15
100
AcDbSpline
210
0.0
220
0.0
230
1.0
 70
     8
 71
     3
 72
    10
 73
     6
 74
     0
 42
0.000000001
 43
0.00000001
 40
0.0
 40
0.0
 40
0.0
 40
0.0
 40
0.2581537789517233
 40
0.6290375481286232
 40
1.0
 40
1.0
 40
1.0
 40
1.0
 10
22.77646454756398
 20
-7.859738111612573
 30
0.0
 10
22.12022369308019
 20
-8.091492934833687
 30
0.0
 10
20.52117625801044
 20
-8.656204737070187
 30
0.0
 10
17.97905355929653
 20
-9.313224177841729
 30
0.0
 10
16.09308453049255
 20
-9.606641363087682
 30
0.0
 10
15.14999999999513
 20
-9.753365516115284
 30
0.0
  0
SPLINE
  5
C6
330
1F
100
AcDbEntity
  8
0
  6
Continuous
 62
     4
370
    15
100
AcDbSpline
210
0.0
220
0.0
230
1.0
 70
    24
 71
     3
 72
     8
 73
     4
 74
     0
 42
0.000000001
 43
0.00000001
 40
0.0
 40
0.0
 40
0.0
 40
0.0
 40
1.0
 40
1.0
 40
1.0
 40
1.0
 10
15.15000000000003
 20
-8.388367657813314
 30
0.0
 10
15.15000000000003
 20
-8.8630975363701
 30
0.0
 10
15.15000000000003
 20
-9.321108667822738
 30
0.0
 10
15.15000000000003
 20
-9.85
 30
0.0
  0
LINE
  5
C7
330
1F
100
AcDbEntity
  8
중심선
100
AcDbLine
 10
-42.84999999999996
 20
0.0
 30
0.0
 11
67.15000000000002
 21
0.0000000000000093
 31
0.0
  0
CIRCLE
  5
C8
330
1F
100
AcDbEntity
  8
외형선
100
AcDbCircle
 10
-0.0000000000000014
 20
0.0
 30
0.0
 40
3.000000000000004
  0
INSERT
  5
C9
330
1F
100
AcDbEntity
  8
0
  6
Continuous
 62
     7
100
AcDbBlockReference
 66
     1
  2
블럭10
 10
-18.88828803708427
 20
-52.04717430164393
 30
0.0
  0
ATTRIB
  5
CA
330
C9
100
AcDbEntity
  8
FORMAT
 62
     2
100
AcDbText
 10
-31.84822723194203
 20
-49.97180738881174
 30
0.0
 40
4.233333333333333
  1
SEME35200E [ 2 FLUTE ]
 41
0.75
  7
SLDTEXTSTYLE0
 11
-31.84822723194203
 21
-52.08847405547841
 31
0.0
100
AcDbAttribute
  2
AUTOATTR0
 70
     0
 74
     1
  0
SEQEND
  5
CB
330
C9
100
AcDbEntity
  8
0
  6
Continuous
 62
     7
  0
HATCH
  5
CC
330
1F
100
AcDbEntity
  8
중심선
100
AcDbHatch
 10
0.0
 20
0.0
 30
0.0
210
0.0
220
0.0
230
1.0
  2
SOLID
 70
     1
 71
     0
 91
        1
 92
        0
 93
        4
 72
     1
 10
-13.17337873270341
 20
-35.8
 11
-16.6196539765407
 21
-35.8
 72
     1
 10
-16.6196539765407
 20
-35.8
 11
-18.74788383574472
 21
-38.33632558057259
 72
     1
 10
-18.74788383574472
 20
-38.33632558057259
 11
-15.30157550679428
 21
-38.3362861512701
 72
     1
 10
-15.30157550679428
 20
-38.3362861512701
 11
-13.17337873270341
 21
-35.8
 97
        0
 75
     0
 76
     1
 98
        1
 10
5.049985402427348
 20
0.0000000000000017
  0
HATCH
  5
CD
330
1F
100
AcDbEntity
  8
중심선
100
AcDbHatch
 10
0.0
 20
0.0
 30
0.0
210
0.0
220
0.0
230
1.0
  2
SOLID
 70
     1
 71
     0
 91
        1
 92
        0
 93
        4
 72
     1
 10
-8.16061474166746
 20
-35.8
 11
-11.60688998550474
 21
-35.8
 72
     1
 10
-11.60688998550474
 20
-35.8
 11
-16.13802799386213
 21
-41.20000000000002
 72
     1
 10
-16.13802799386213
 20
-41.20000000000002
 11
-12.69175275002485
 21
-41.20000000000002
 72
     1
 10
-12.69175275002485
 20
-41.20000000000002
 11
-8.16061474166746
 21
-35.8
 97
        0
 75
     0
 76
     1
 98
        1
 10
5.049985402427348
 20
0.0000000000000017
  0
HATCH
  5
CE
330
1F
100
AcDbEntity
  8
중심선
100
AcDbHatch
 10
0.0
 20
0.0
 30
0.0
210
0.0
220
0.0
230
1.0
  2
SOLID
 70
     1
 71
     0
 91
        1
 92
        0
 93
        4
 72
     1
 10
-3.147850750631564
 20
-35.80000000000003
 11
-6.594125994468682
 21
-35.8
 72
     1
 10
-6.594125994468682
 20
-35.8
 11
-13.64256289635793
 21
-44.20000000000002
 72
     1
 10
-13.64256289635793
 20
-44.20000000000002
 11
-10.19628765252065
 21
-44.20000000000002
 72
     1
 10
-10.19628765252065
 20
-44.20000000000002
 11
-3.147850750631564
 21
-35.80000000000003
 97
        0
 75
     0
 76
     1
 98
        1
 10
5.049985402427348
 20
0.0000000000000017
  0
HATCH
  5
CF
330
1F
100
AcDbEntity
  8
중심선
100
AcDbHatch
 10
0.0
 20
0.0
 30
0.0
210
0.0
220
0.0
230
1.0
  2
SOLID
 70
     1
 71
     0
 91
        1
 92
        0
 93
        6
 72
     3
 10
1.652039680380634
 20
-40.00000000005127
 11
3.960054785062284
 21
1.540882976769353E-10
 40
0.3939339440162627
 50
17.09539180608438
 51
320.0019657685078
 73
     0
 72
     1
 10
3.33503933608123
 20
-38.5878940046383
 11
5.640341209782267
 21
-36.65356729459038
 72
     3
 10
1.652039680327788
 20
-40.00000000000015
 11
6.600054785286829
 21
-1.278976924368180E-13
 40
0.636358354079598
 50
39.99873849337411
 51
368.4976242363724
 73
     1
 72
     1
 10
8.077372172228397
 20
-39.03999999993002
 11
0.3321069871637103
 21
-39.03999999992999
 72
     1
 10
0.3321069871637103
 20
-39.03999999992999
 11
0.3320819427177764
 21
-40.95999999992991
 72
     1
 10
0.3320819427177764
 20
-40.95999999992991
 11
4.773461712189813
 21
-40.95999999992988
 97
        0
 75
     0
 76
     1
 98
        1
 10
5.049985402427348
 20
0.0000000000000017
  0
DIMENSION
  5
D0
102
{ACAD_XDICTIONARY
360
195
102
}
330
1F
100
AcDbEntity
  8
치수문자_일반주서
100
AcDbDimension
  2
_D
 10
15.15000000000003
 20
14.77245683420555
 30
0.0
 11
38.89660188710084
 21
14.77245683420555
 31
0.0
 70
   160
  1
<>
 71
     2
 42
45.0
  3
SLDDIMSTYLE0
100
AcDbAlignedDimension
 13
60.15000000000003
 23
9.991548152296447
 33
0.0
 14
15.15000000000003
 24
9.753365516114663
 34
0.0
100
AcDbRotatedDimension
1001
ENABLE_CUSTOM_SPLIT
1070
     1
  0
DIMENSION
  5
DB
330
1F
100
AcDbEntity
  8
치수문자_일반주서
100
AcDbDimension
  2
_D_1
 10
-39.84999999999999
 20
29.78415911661226
 30
0.0
 11
10.15000000000004
 21
29.78415911661226
 31
0.0
 70
   160
  1
<>
 71
     2
 42
100.0
  3
SLDDIMSTYLE0
100
AcDbAlignedDimension
 13
60.15000000000003
 23
9.991548152296447
 33
0.0
 14
-39.84999999999998
 24
8.999999999999995
 34
0.0
 50
0.0000000000000041
100
AcDbRotatedDimension
  0
DIMENSION
  5
E5
330
1F
100
AcDbEntity
  8
치수문자_일반주서
100
AcDbDimension
  2
_D_2
 10
75.71619031224633
 20
-9.991548152296378
 30
0.0
 11
75.7161903122463
 21
0.0000000000000047
 31
0.0
 70
   160
  1
%%c<>
 71
     2
 42
19.99847650182264
 52
-270.0
  3
SLDDIMSTYLE1
100
AcDbAlignedDimension
 13
60.15000000000002
 23
10.00692834952621
 33
0.0
 14
60.15000000000002
 24
-9.991548152296435
 34
0.0
 50
90.0000000000002
100
AcDbRotatedDimension
  0
DIMENSION
  5
F3
330
1F
100
AcDbEntity
  8
치수문자_일반주서
100
AcDbDimension
  2
_D_3
 10
-51.26955944538847
 20
-10.00000000000005
 30
0.0
 11
-51.26955944538851
 21
0.0000000000000041
 31
0.0
 70
   160
  1
%%c<>
 71
     2
 42
20.0
 52
-270.0
  3
SLDDIMSTYLE1
100
AcDbAlignedDimension
 13
-38.84999999999998
 23
10.0
 33
0.0
 14
-38.84999999999998
 24
-9.999999999999998
 34
0.0
 50
90.0000000000002
100
AcDbRotatedDimension
  0
INSERT
  5
106
330
1F
100
AcDbEntity
  8
외형선
100
AcDbBlockReference
  2
SW_DOWELSYMBOL_0
 10
-0.0000000000000014
 20
0.0
 30
0.0
  0
LINE
  5
17D
102
{ACAD_REACTORS
102
}
330
1F
100
AcDbEntity
  8
0
  6
Continuous
 62
     4
370
    15
100
AcDbLine
 10
0.1500000000000256
 20
9.849999999999998
 30
0.0
 11
0.1500000000000256
 21
-9.85
 31
0.0
1001
PE_URL
1000

  0
LINE
  5
17E
330
1F
100
AcDbEntity
  8
0
  6
Continuous
 62
     4
370
    15
100
AcDbLine
 10
0.1500000000000256
 20
9.849999999999998
 30
0.0
 11
0.0000000000000218
 21
10.0
 31
0.0
1001
PE_URL
1000

  0
LINE
  5
17F
330
1F
100
AcDbEntity
  8
0
  6
Continuous
 62
     4
370
    15
100
AcDbLine
 10
0.1499999999999826
 20
-9.849999999999998
 30
0.0
 11
-0.0000000000000218
 21
-10.0
 31
0.0
1001
PE_URL
1000

  0
LINE
  5
180
330
1F
100
AcDbEntity
  8
0
  6
Continuous
 62
     4
370
    15
100
AcDbLine
 10
-0.0000000000000218
 20
-10.0
 30
0.0
 11
0.0000000000000218
 21
10.0
 31
0.0
1001
PE_URL
1000

  0
LINE
  5
181
330
1F
100
AcDbEntity
  8
0
  6
Continuous
 62
     4
370
    15
100
AcDbLine
 10
0.1500000000000256
 20
-9.85
 30
0.0
 11
15.15000000000003
 21
-9.85
 31
0.0
1001
PE_URL
1000

  0
LINE
  5
182
102
{ACAD_REACTORS
330
196
102
}
330
1F
100
AcDbEntity
  8
0
  6
Continuous
 62
     4
370
    15
100
AcDbLine
 10
0.1500000000000239
 20
9.850000000000007
 30
0.0
 11
15.15000000000003
 21
9.850000000000009
 31
0.0
1001
PE_URL
1000

  0
DIMENSION
  5
183
102
{ACAD_REACTORS
102
}
102
{ACAD_XDICTIONARY
360
184
102
}
330
1F
100
AcDbEntity
  8
치수문자_일반주서
100
AcDbDimension
  2
*D7
 10
60.15000000000003
 20
24.25
 30
0.0
 11
30.01519653216126
 21
24.25
 31
0.0
 70
   160
 71
     5
 42
60.0
  3
SLDDIMSTYLE0
100
AcDbAlignedDimension
 13
0.1500000000000256
 23
9.849999999999998
 33
0.0
 14
60.15000000000003
 24
9.849999999999998
 34
0.0
100
AcDbRotatedDimension
1001
ENABLE_CUSTOM_SPLIT
1070
     1
1001
PE_URL
1000

  0
ENDSEC
  0
SECTION
  2
OBJECTS
  0
DICTIONARY
  5
C
330
0
100
AcDbDictionary
281
     1
  3
ACAD_GROUP
350
D
  3
ACAD_LAYOUT
350
1A
  3
ACAD_MLINESTYLE
350
17
  3
ACAD_PLOTSETTINGS
350
19
  3
ACAD_PLOTSTYLENAME
350
E
  3
ACAD_SCALELIST
350
47
  3
APPDATA
350
128
  3
DWGPROPS
350
19A
  0
DICTIONARY
  5
158
330
1F
100
AcDbDictionary
280
     1
281
     1
  3
DIM_BOUNDING_BOXES_V1
360
159
  0
DICTIONARY
  5
195
330
D0
100
AcDbDictionary
280
     1
281
     1
  3
ACAD_CUSTOM_BREAKDATA
360
196
  0
DICTIONARY
  5
184
330
183
100
AcDbDictionary
280
     1
281
     1
  3
ACAD_CUSTOM_BREAKDATA
360
197
  0
DICTIONARY
  5
D
102
{ACAD_REACTORS
330
C
102
}
330
C
100
AcDbDictionary
281
     1
  0
DICTIONARY
  5
1A
102
{ACAD_REACTORS
330
C
102
}
330
C
100
AcDbDictionary
281
     1
  3
Layout1
350
1E
  3
Layout2
350
26
  3
Model
350
22
  0
DICTIONARY
  5
17
102
{ACAD_REACTORS
330
C
102
}
330
C
100
AcDbDictionary
281
     1
  3
Standard
350
18
  0
DICTIONARY
  5
19
102
{ACAD_REACTORS
330
C
102
}
330
C
100
AcDbDictionary
281
     1
  0
ACDBDICTIONARYWDFLT
  5
E
102
{ACAD_REACTORS
330
C
102
}
330
C
100
AcDbDictionary
281
     1
  3
Normal
350
F
100
AcDbDictionaryWithDefault
340
F
  0
DICTIONARY
  5
47
102
{ACAD_REACTORS
330
C
102
}
330
C
100
AcDbDictionary
281
     1
  3
A0
350
48
  3
A1
350
49
  3
A2
350
4A
  3
A3
350
4B
  3
A4
350
4C
  3
A5
350
4D
  3
A6
350
4E
  3
A7
350
4F
  3
A8
350
50
  3
A9
350
51
  3
B0
350
52
  3
B1
350
53
  3
B2
350
54
  3
B3
350
55
  3
B4
350
56
  3
B5
350
57
  3
B6
350
58
  3
B7
350
59
  3
B8
350
5A
  3
B9
350
5B
  3
C0
350
5C
  3
C1
350
5D
  3
C2
350
5E
  3
C3
350
5F
  3
C4
350
60
  3
C5
350
61
  3
C6
350
62
  3
C7
350
63
  3
C8
350
64
  3
C9
350
65
  3
D0
350
66
  3
D1
350
67
  3
D2
350
68
  0
DICTIONARY
  5
128
102
{ACAD_REACTORS
330
C
102
}
330
C
100
AcDbDictionary
281
     1
  0
XRECORD
  5
19A
102
{ACAD_REACTORS
330
C
102
}
330
C
100
AcDbXrecord
280
     1
  1
DWGPROPS COOKIE
  2

  3

  4

  6

  7

  8
12016016
  9

300
=
301
=
302
=
303
=
304
=
305
=
306
=
307
=
308
=
309
=
 40
0.0
 41
2458250.137115625
 42
2459702.314717755
  1

 90
        0
  0
DICTIONARY
  5
159
102
{ACAD_REACTORS
330
158
102
}
330
158
100
AcDbDictionary
281
     1
  0
BREAKDATA
  5
196
102
{ACAD_REACTORS
330
195
102
}
330
195
100
AcDbBreakData
 70
     0
330
D0
 90
        2
100
AcDbBreakPointRef
 71
     0
 72
     0
 91
       -1
 10
0.0
 20
0.0
 30
0.0
 11
0.0
 21
0.0
 31
0.0
331
182
 73
     2
 92
        0
100
AcDbBreakPointRef
 71
     0
 72
     0
 91
       -1
 10
0.0
 20
0.0
 30
0.0
 11
0.0
 21
0.0
 31
0.0
331
A0
 73
     2
 92
        0
  0
BREAKDATA
  5
197
102
{ACAD_REACTORS
330
184
102
}
330
184
100
AcDbBreakData
 70
     0
330
183
 90
        2
100
AcDbBreakPointRef
 71
     0
 72
     0
 91
       -1
 10
0.0
 20
0.0
 30
0.0
 11
0.0
 21
0.0
 31
0.0
331
C3
 73
     2
 92
        0
100
AcDbBreakPointRef
 71
     0
 72
     0
 91
       -1
 10
0.0
 20
0.0
 30
0.0
 11
0.0
 21
0.0
 31
0.0
331
C4
 73
     2
 92
        0
  0
LAYOUT
  5
1E
102
{ACAD_REACTORS
330
1A
102
}
330
1A
100
AcDbPlotSettings
  1

  2
none_device
  4

  6

 40
0.0
 41
0.0
 42
0.0
 43
0.0
 44
0.0
 45
0.0
 46
0.0
 47
0.0
 48
0.0
 49
0.0
140
0.0
141
0.0
142
1.0
143
1.0
 70
   688
 72
     1
 73
     0
 74
     5
  7

 75
    16
147
1.0
148
0.0
149
0.0
100
AcDbLayout
  1
Layout1
 70
     1
 71
     1
 10
0.0
 20
0.0
 11
420.0
 21
297.0
 12
0.0
 22
0.0
 32
0.0
 14
1.000000000000000E+20
 24
1.000000000000000E+20
 34
1.000000000000000E+20
 15
-1.000000000000000E+20
 25
-1.000000000000000E+20
 35
-1.000000000000000E+20
146
0.0
 13
0.0
 23
0.0
 33
0.0
 16
1.0
 26
0.0
 36
0.0
 17
0.0
 27
1.0
 37
0.0
 76
     0
330
1B
  0
LAYOUT
  5
26
102
{ACAD_REACTORS
330
1A
102
}
330
1A
100
AcDbPlotSettings
  1

  2
none_device
  4

  6

 40
0.0
 41
0.0
 42
0.0
 43
0.0
 44
0.0
 45
0.0
 46
0.0
 47
0.0
 48
0.0
 49
0.0
140
0.0
141
0.0
142
1.0
143
1.0
 70
   688
 72
     1
 73
     0
 74
     5
  7

 75
    16
147
1.0
148
0.0
149
0.0
100
AcDbLayout
  1
Layout2
 70
     1
 71
     2
 10
0.0
 20
0.0
 11
0.0
 21
0.0
 12
0.0
 22
0.0
 32
0.0
 14
0.0
 24
0.0
 34
0.0
 15
0.0
 25
0.0
 35
0.0
146
0.0
 13
0.0
 23
0.0
 33
0.0
 16
1.0
 26
0.0
 36
0.0
 17
0.0
 27
1.0
 37
0.0
 76
     0
330
23
  0
LAYOUT
  5
22
102
{ACAD_REACTORS
330
1A
102
}
330
1A
100
AcDbPlotSettings
  1

  2
none_device
  4
ANSI_A_(11.00_x_8.50_Inches)
  6

 40
6.35
 41
19.05
 42
6.35000508
 43
19.05000254
 44
279.4
 45
215.9
 46
122.3093956985059
 47
106.0324154146325
 48
0.0
 49
0.0
140
0.0
141
0.0
142
0.0821570819270315
143
1.0
 70
  1696
 72
     0
 73
     0
 74
     0
  7

 75
     0
147
0.0235690232323232
148
0.0
149
0.0
100
AcDbLayout
  1
Model
 70
     1
 71
     0
 10
0.0
 20
0.0
 11
420.0
 21
297.0
 12
0.0
 22
0.0
 32
0.0
 14
-55.64455944538852
 24
-49.97180738881173
 34
0.0
 15
76.26652364557964
 25
34.15915911661226
 35
0.0
146
0.0
 13
0.0
 23
0.0
 33
0.0
 16
1.0
 26
0.0
 36
0.0
 17
0.0
 27
1.0
 37
0.0
 76
     0
330
1F
331
29
  0
MLINESTYLE
  5
18
102
{ACAD_REACTORS
330
17
102
}
330
17
100
AcDbMlineStyle
  2
Standard
 70
     0
  3

 62
   256
 51
90.0
 52
90.0
 71
     2
 49
0.5
 62
   256
  6
BYLAYER
 49
-0.5
 62
   256
  6
BYLAYER
  0
ACDBPLACEHOLDER
  5
F
102
{ACAD_REACTORS
330
E
102
}
330
E
  0
SCALE
  5
48
102
{ACAD_REACTORS
330
47
102
}
330
47
100
AcDbScale
 70
     0
300
1:1
140
1.0
141
1.0
290
     1
  0
SCALE
  5
49
102
{ACAD_REACTORS
330
47
102
}
330
47
100
AcDbScale
 70
     0
300
1:2
140
1.0
141
2.0
290
     0
  0
SCALE
  5
4A
102
{ACAD_REACTORS
330
47
102
}
330
47
100
AcDbScale
 70
     0
300
1:4
140
1.0
141
4.0
290
     0
  0
SCALE
  5
4B
102
{ACAD_REACTORS
330
47
102
}
330
47
100
AcDbScale
 70
     0
300
1:5
140
1.0
141
5.0
290
     0
  0
SCALE
  5
4C
102
{ACAD_REACTORS
330
47
102
}
330
47
100
AcDbScale
 70
     0
300
1:8
140
1.0
141
8.0
290
     0
  0
SCALE
  5
4D
102
{ACAD_REACTORS
330
47
102
}
330
47
100
AcDbScale
 70
     0
300
1:10
140
1.0
141
10.0
290
     0
  0
SCALE
  5
4E
102
{ACAD_REACTORS
330
47
102
}
330
47
100
AcDbScale
 70
     0
300
1:16
140
1.0
141
16.0
290
     0
  0
SCALE
  5
4F
102
{ACAD_REACTORS
330
47
102
}
330
47
100
AcDbScale
 70
     0
300
1:20
140
1.0
141
20.0
290
     0
  0
SCALE
  5
50
102
{ACAD_REACTORS
330
47
102
}
330
47
100
AcDbScale
 70
     0
300
1:30
140
1.0
141
30.0
290
     0
  0
SCALE
  5
51
102
{ACAD_REACTORS
330
47
102
}
330
47
100
AcDbScale
 70
     0
300
1:40
140
1.0
141
40.0
290
     0
  0
SCALE
  5
52
102
{ACAD_REACTORS
330
47
102
}
330
47
100
AcDbScale
 70
     0
300
1:50
140
1.0
141
50.0
290
     0
  0
SCALE
  5
53
102
{ACAD_REACTORS
330
47
102
}
330
47
100
AcDbScale
 70
     0
300
1:100
140
1.0
141
100.0
290
     0
  0
SCALE
  5
54
102
{ACAD_REACTORS
330
47
102
}
330
47
100
AcDbScale
 70
     0
300
2:1
140
2.0
141
1.0
290
     0
  0
SCALE
  5
55
102
{ACAD_REACTORS
330
47
102
}
330
47
100
AcDbScale
 70
     0
300
4:1
140
4.0
141
1.0
290
     0
  0
SCALE
  5
56
102
{ACAD_REACTORS
330
47
102
}
330
47
100
AcDbScale
 70
     0
300
8:1
140
8.0
141
1.0
290
     0
  0
SCALE
  5
57
102
{ACAD_REACTORS
330
47
102
}
330
47
100
AcDbScale
 70
     0
300
10:1
140
10.0
141
1.0
290
     0
  0
SCALE
  5
58
102
{ACAD_REACTORS
330
47
102
}
330
47
100
AcDbScale
 70
     0
300
100:1
140
100.0
141
1.0
290
     0
  0
SCALE
  5
59
102
{ACAD_REACTORS
330
47
102
}
330
47
100
AcDbScale
 70
     0
300
1/128" = 1'-0"
140
0.0078125
141
12.0
290
     0
  0
SCALE
  5
5A
102
{ACAD_REACTORS
330
47
102
}
330
47
100
AcDbScale
 70
     0
300
1/64" = 1'-0"
140
0.015625
141
12.0
290
     0
  0
SCALE
  5
5B
102
{ACAD_REACTORS
330
47
102
}
330
47
100
AcDbScale
 70
     0
300
1/32" = 1'-0"
140
0.03125
141
12.0
290
     0
  0
SCALE
  5
5C
102
{ACAD_REACTORS
330
47
102
}
330
47
100
AcDbScale
 70
     0
300
1/16" = 1'-0"
140
0.0625
141
12.0
290
     0
  0
SCALE
  5
5D
102
{ACAD_REACTORS
330
47
102
}
330
47
100
AcDbScale
 70
     0
300
3/32" = 1'-0"
140
0.09375
141
12.0
290
     0
  0
SCALE
  5
5E
102
{ACAD_REACTORS
330
47
102
}
330
47
100
AcDbScale
 70
     0
300
1/8" = 1'-0"
140
0.125
141
12.0
290
     0
  0
SCALE
  5
5F
102
{ACAD_REACTORS
330
47
102
}
330
47
100
AcDbScale
 70
     0
300
3/16" = 1'-0"
140
0.1875
141
12.0
290
     0
  0
SCALE
  5
60
102
{ACAD_REACTORS
330
47
102
}
330
47
100
AcDbScale
 70
     0
300
1/4" = 1'-0"
140
0.25
141
12.0
290
     0
  0
SCALE
  5
61
102
{ACAD_REACTORS
330
47
102
}
330
47
100
AcDbScale
 70
     0
300
3/8" = 1'-0"
140
0.375
141
12.0
290
     0
  0
SCALE
  5
62
102
{ACAD_REACTORS
330
47
102
}
330
47
100
AcDbScale
 70
     0
300
1/2" = 1'-0"
140
0.5
141
12.0
290
     0
  0
SCALE
  5
63
102
{ACAD_REACTORS
330
47
102
}
330
47
100
AcDbScale
 70
     0
300
3/4" = 1'-0"
140
0.75
141
12.0
290
     0
  0
SCALE
  5
64
102
{ACAD_REACTORS
330
47
102
}
330
47
100
AcDbScale
 70
     0
300
1" = 1'-0"
140
1.0
141
12.0
290
     0
  0
SCALE
  5
65
102
{ACAD_REACTORS
330
47
102
}
330
47
100
AcDbScale
 70
     0
300
1-1/2" = 1'-0"
140
1.5
141
12.0
290
     0
  0
SCALE
  5
66
102
{ACAD_REACTORS
330
47
102
}
330
47
100
AcDbScale
 70
     0
300
3" = 1'-0"
140
3.0
141
12.0
290
     0
  0
SCALE
  5
67
102
{ACAD_REACTORS
330
47
102
}
330
47
100
AcDbScale
 70
     0
300
6" = 1'-0"
140
6.0
141
12.0
290
     0
  0
SCALE
  5
68
102
{ACAD_REACTORS
330
47
102
}
330
47
100
AcDbScale
 70
     0
300
1'-0" = 1'-0"
140
12.0
141
12.0
290
     0
  0
ENDSEC
  0
EOF
