  0
SECTION
  2
HEADER
  9
$ACADVER
  1
AC1015
  9
$ACADMAINTVER
 70
     6
  9
$DWGCODEPAGE
  3
ANSI_949
  9
$INSBASE
 10
0.0
 20
0.0
 30
0.0
  9
$EXTMIN
 10
-59.02500000000005
 20
-49.97180738881174
 30
0.0
  9
$EXTMAX
 10
71.1165236455796
 20
33.45915911661227
 30
0.0
  9
$LIMMIN
 10
0.0
 20
0.0
  9
$LIMMAX
 10
420.0
 20
297.0
  9
$ORTHOMODE
 70
     1
  9
$REGENMODE
 70
     1
  9
$FILLMODE
 70
     1
  9
$QTEXTMODE
 70
     0
  9
$MIRRTEXT
 70
     1
  9
$LTSCALE
 40
1.0
  9
$ATTMODE
 70
     1
  9
$TEXTSIZE
 40
3.5
  9
$TRACEWID
 40
1.0
  9
$TEXTSTYLE
  7
Standard
  9
$CLAYER
  8
0
  9
$CELTYPE
  6
ByLayer
  9
$CECOLOR
 62
   256
  9
$CELTSCALE
 40
1.0
  9
$DISPSILH
 70
     0
  9
$DIMSCALE
 40
1.0
  9
$DIMASZ
 40
3.302
  9
$DIMEXO
 40
1.0
  9
$DIMDLI
 40
3.75
  9
$DIMRND
 40
0.0
  9
$DIMDLE
 40
0.0
  9
$DIMEXE
 40
1.0
  9
$DIMTP
 40
0.0
  9
$DIMTM
 40
0.0
  9
$DIMTXT
 40
3.5
  9
$DIMCEN
 40
2.5
  9
$DIMTSZ
 40
0.0
  9
$DIMTOL
 70
     0
  9
$DIMLIM
 70
     0
  9
$DIMTIH
 70
     1
  9
$DIMTOH
 70
     1
  9
$DIMSE1
 70
     0
  9
$DIMSE2
 70
     0
  9
$DIMTAD
 70
     1
  9
$DIMZIN
 70
     0
  9
$DIMBLK
  1

  9
$DIMASO
 70
     1
  9
$DIMSHO
 70
     1
  9
$DIMPOST
  1

  9
$DIMAPOST
  1

  9
$DIMALT
 70
     0
  9
$DIMALTD
 70
     3
  9
$DIMALTF
 40
0.0393700787401575
  9
$DIMLFAC
 40
1.0
  9
$DIMTOFL
 70
     1
  9
$DIMTVP
 40
0.0
  9
$DIMTIX
 70
     0
  9
$DIMSOXD
 70
     0
  9
$DIMSAH
 70
     0
  9
$DIMBLK1
  1

  9
$DIMBLK2
  1

  9
$DIMSTYLE
  2
ISO-25
  9
$DIMCLRD
 70
     0
  9
$DIMCLRE
 70
     0
  9
$DIMCLRT
 70
     0
  9
$DIMTFAC
 40
1.0
  9
$DIMGAP
 40
1.524
  9
$DIMJUST
 70
     0
  9
$DIMSD1
 70
     0
  9
$DIMSD2
 70
     0
  9
$DIMTOLJ
 70
     0
  9
$DIMTZIN
 70
     0
  9
$DIMALTZ
 70
     0
  9
$DIMALTTZ
 70
     0
  9
$DIMUPT
 70
     0
  9
$DIMDEC
 70
     2
  9
$DIMTDEC
 70
     2
  9
$DIMALTU
 70
     2
  9
$DIMALTTD
 70
     3
  9
$DIMTXSTY
  7
Standard
  9
$DIMAUNIT
 70
     0
  9
$DIMADEC
 70
     2
  9
$DIMALTRND
 40
0.0
  9
$DIMAZIN
 70
     0
  9
$DIMDSEP
 70
    44
  9
$DIMATFIT
 70
     3
  9
$DIMFRAC
 70
     0
  9
$DIMLDRBLK
  1

  9
$DIMLUNIT
 70
     2
  9
$DIMLWD
 70
    -2
  9
$DIMLWE
 70
    -2
  9
$DIMTMOVE
 70
     0
  9
$LUNITS
 70
     2
  9
$LUPREC
 70
     2
  9
$SKETCHINC
 40
1.0
  9
$FILLETRAD
 40
10.0
  9
$AUNITS
 70
     0
  9
$AUPREC
 70
     2
  9
$MENU
  1
.
  9
$ELEVATION
 40
0.0
  9
$PELEVATION
 40
0.0
  9
$THICKNESS
 40
0.0
  9
$LIMCHECK
 70
     0
  9
$CHAMFERA
 40
0.0
  9
$CHAMFERB
 40
0.0
  9
$CHAMFERC
 40
0.0
  9
$CHAMFERD
 40
0.0
  9
$SKPOLY
 70
     0
  9
$TDCREATE
 40
2458250.511179861
  9
$TDUCREATE
 40
2458250.136179861
  9
$TDUPDATE
 40
2459699.696811898
  9
$TDUUPDATE
 40
2459699.321811898
  9
$TDINDWG
 40
0.0037023611
  9
$TDUSRTIMER
 40
0.0018289468
  9
$USRTIMER
 70
     1
  9
$ANGBASE
 50
0.0
  9
$ANGDIR
 70
     0
  9
$PDMODE
 70
     0
  9
$PDSIZE
 40
-1.0
  9
$PLINEWID
 40
0.0
  9
$SPLFRAME
 70
     0
  9
$SPLINETYPE
 70
     6
  9
$SPLINESEGS
 70
     8
  9
$HANDSEED
  5
164
  9
$SURFTAB1
 70
     6
  9
$SURFTAB2
 70
     6
  9
$SURFTYPE
 70
     6
  9
$SURFU
 70
     6
  9
$SURFV
 70
     6
  9
$UCSBASE
  2

  9
$UCSNAME
  2

  9
$UCSORG
 10
0.0
 20
0.0
 30
0.0
  9
$UCSXDIR
 10
1.0
 20
0.0
 30
0.0
  9
$UCSYDIR
 10
0.0
 20
1.0
 30
0.0
  9
$UCSORTHOREF
  2

  9
$UCSORTHOVIEW
 70
     0
  9
$UCSORGTOP
 10
0.0
 20
0.0
 30
0.0
  9
$UCSORGBOTTOM
 10
0.0
 20
0.0
 30
0.0
  9
$UCSORGLEFT
 10
0.0
 20
0.0
 30
0.0
  9
$UCSORGRIGHT
 10
0.0
 20
0.0
 30
0.0
  9
$UCSORGFRONT
 10
0.0
 20
0.0
 30
0.0
  9
$UCSORGBACK
 10
0.0
 20
0.0
 30
0.0
  9
$PUCSBASE
  2

  9
$PUCSNAME
  2

  9
$PUCSORG
 10
0.0
 20
0.0
 30
0.0
  9
$PUCSXDIR
 10
1.0
 20
0.0
 30
0.0
  9
$PUCSYDIR
 10
0.0
 20
1.0
 30
0.0
  9
$PUCSORTHOREF
  2

  9
$PUCSORTHOVIEW
 70
     0
  9
$PUCSORGTOP
 10
0.0
 20
0.0
 30
0.0
  9
$PUCSORGBOTTOM
 10
0.0
 20
0.0
 30
0.0
  9
$PUCSORGLEFT
 10
0.0
 20
0.0
 30
0.0
  9
$PUCSORGRIGHT
 10
0.0
 20
0.0
 30
0.0
  9
$PUCSORGFRONT
 10
0.0
 20
0.0
 30
0.0
  9
$PUCSORGBACK
 10
0.0
 20
0.0
 30
0.0
  9
$USERI1
 70
     0
  9
$USERI2
 70
     0
  9
$USERI3
 70
     0
  9
$USERI4
 70
     0
  9
$USERI5
 70
     0
  9
$USERR1
 40
0.0
  9
$USERR2
 40
0.0
  9
$USERR3
 40
0.0
  9
$USERR4
 40
0.0
  9
$USERR5
 40
0.0
  9
$WORLDVIEW
 70
     1
  9
$SHADEDGE
 70
     3
  9
$SHADEDIF
 70
    70
  9
$TILEMODE
 70
     1
  9
$MAXACTVP
 70
    64
  9
$PINSBASE
 10
0.0
 20
0.0
 30
0.0
  9
$PLIMCHECK
 70
     0
  9
$PEXTMIN
 10
1.000000000000000E+20
 20
1.000000000000000E+20
 30
1.000000000000000E+20
  9
$PEXTMAX
 10
-1.000000000000000E+20
 20
-1.000000000000000E+20
 30
-1.000000000000000E+20
  9
$PLIMMIN
 10
0.0
 20
0.0
  9
$PLIMMAX
 10
0.0
 20
0.0
  9
$UNITMODE
 70
     0
  9
$VISRETAIN
 70
     1
  9
$PLINEGEN
 70
     0
  9
$PSLTSCALE
 70
     1
  9
$TREEDEPTH
 70
  3020
  9
$CMLSTYLE
  2
Standard
  9
$CMLJUST
 70
     0
  9
$CMLSCALE
 40
20.0
  9
$PROXYGRAPHICS
 70
     1
  9
$MEASUREMENT
 70
     1
  9
$CELWEIGHT
370
    -1
  9
$ENDCAPS
280
     0
  9
$JOINSTYLE
280
     0
  9
$LWDISPLAY
290
     1
  9
$INSUNITS
 70
     4
  9
$HYPERLINKBASE
  1

  9
$STYLESHEET
  1

  9
$XEDIT
290
     1
  9
$CEPSNTYPE
380
     0
  9
$PSTYLEMODE
290
     1
  9
$FINGERPRINTGUID
  2
{666CB106-ADE4-42DC-9060-3E33BE403ECE}
  9
$VERSIONGUID
  2
{FAEB1C32-E019-11D5-929B-00C0DF256EC4}
  9
$EXTNAMES
290
     1
  9
$PSVPSCALE
 40
0.0
  9
$OLESTARTUP
290
     0
  0
ENDSEC
  0
SECTION
  2
CLASSES
  0
CLASS
  1
ACDBDICTIONARYWDFLT
  2
AcDbDictionaryWithDefault
  3
ObjectDBX Classes
 90
        0
280
     0
281
     0
  0
CLASS
  1
VISUALSTYLE
  2
AcDbVisualStyle
  3
ObjectDBX Classes
 90
     4095
280
     0
281
     0
  0
CLASS
  1
MATERIAL
  2
AcDbMaterial
  3
ObjectDBX Classes
 90
     1153
280
     0
281
     0
  0
CLASS
  1
SCALE
  2
AcDbScale
  3
ObjectDBX Classes
 90
     1153
280
     0
281
     0
  0
CLASS
  1
SUN
  2
AcDbSun
  3
SCENEOE
 90
     1153
280
     0
281
     0
  0
CLASS
  1
ACDBPLACEHOLDER
  2
AcDbPlaceHolder
  3
ObjectDBX Classes
 90
        0
280
     0
281
     0
  0
CLASS
  1
LAYOUT
  2
AcDbLayout
  3
ObjectDBX Classes
 90
        0
280
     0
281
     0
  0
CLASS
  1
TABLESTYLE
  2
AcDbTableStyle
  3
ObjectDBX Classes
 90
     4095
280
     0
281
     0
  0
CLASS
  1
MLEADERSTYLE
  2
AcDbMLeaderStyle
  3
ACDB_MLEADERSTYLE_CLASS
 90
     4095
280
     0
281
     0
  0
CLASS
  1
RASTERVARIABLES
  2
AcDbRasterVariables
  3
ISM
 90
        0
280
     0
281
     0
  0
CLASS
  1
BREAKDATA
  2
AcDbBreakData
  3
ObjectDBX Classes
 90
     1024
280
     0
281
     0
  0
ENDSEC
  0
SECTION
  2
TABLES
  0
TABLE
  2
VPORT
  5
8
330
0
100
AcDbSymbolTable
 70
     1
  0
VPORT
  5
29
330
8
100
AcDbSymbolTableRecord
100
AcDbViewportTableRecord
  2
*Active
 70
     0
 10
0.0
 20
0.0
 11
1.0
 21
1.0
 12
26.13709388907025
 22
13.38059146723003
 13
0.0
 23
0.0
 14
10.0
 24
10.0
 15
10.0
 25
10.0
 16
0.0
 26
0.0
 36
1.0
 17
0.0
 27
0.0
 37
0.0
 40
90.4115381315564
 41
2.315548780487805
 42
50.0
 43
0.0
 44
0.0
 50
0.0
 51
0.0
 71
    16
 72
  2000
 73
     1
 74
     3
 75
     0
 76
     0
 77
     0
 78
     0
281
     0
 65
     1
110
0.0
120
0.0
130
0.0
111
1.0
121
0.0
131
0.0
112
0.0
122
1.0
132
0.0
 79
     0
146
0.0
  0
ENDTAB
  0
TABLE
  2
LTYPE
  5
5
330
0
100
AcDbSymbolTable
 70
     6
  0
LTYPE
  5
14
330
5
100
AcDbSymbolTableRecord
100
AcDbLinetypeTableRecord
  2
ByBlock
 70
     0
  3

 72
    65
 73
     0
 40
0.0
  0
LTYPE
  5
15
330
5
100
AcDbSymbolTableRecord
100
AcDbLinetypeTableRecord
  2
ByLayer
 70
     0
  3

 72
    65
 73
     0
 40
0.0
  0
LTYPE
  5
16
330
5
100
AcDbSymbolTableRecord
100
AcDbLinetypeTableRecord
  2
Continuous
 70
     0
  3
Solid line
 72
    65
 73
     0
 40
0.0
  0
LTYPE
  5
6A
330
5
100
AcDbSymbolTableRecord
100
AcDbLinetypeTableRecord
  2
HIDDEN
 70
     0
  3
Hidden __ __ __ __ __ __ __ __ __ __ __ __ __ __
 72
    65
 73
     2
 40
1.905
 49
1.27
 74
     0
 49
-0.635
 74
     0
  0
LTYPE
  5
6B
330
5
100
AcDbSymbolTableRecord
100
AcDbLinetypeTableRecord
  2
PHANTOM
 70
     0
  3
Phantom ______  __  __  ______  __  __  ______
 72
    65
 73
     6
 40
12.7
 49
6.35
 74
     0
 49
-1.27
 74
     0
 49
1.27
 74
     0
 49
-1.27
 74
     0
 49
1.27
 74
     0
 49
-1.27
 74
     0
  0
LTYPE
  5
6C
330
5
100
AcDbSymbolTableRecord
100
AcDbLinetypeTableRecord
  2
CENTER
 70
     0
  3
Center ____ _ ____ _ ____ _ ____ _ ____ _ ____
 72
    65
 73
     4
 40
10.16
 49
6.35
 74
     0
 49
-1.27
 74
     0
 49
1.27
 74
     0
 49
-1.27
 74
     0
  0
LTYPE
  5
6D
330
5
100
AcDbSymbolTableRecord
100
AcDbLinetypeTableRecord
  2
CENTERX2
 70
     0
  3
Center (2x) ________  __  ________  __  _____
 72
    65
 73
     4
 40
20.32
 49
12.7
 74
     0
 49
-2.54
 74
     0
 49
2.54
 74
     0
 49
-2.54
 74
     0
  0
LTYPE
  5
6E
330
5
100
AcDbSymbolTableRecord
100
AcDbLinetypeTableRecord
  2
DOT2
 70
     0
  3
Dot (.5x) ........................................
 72
    65
 73
     2
 40
0.635
 49
0.0
 74
     0
 49
-0.635
 74
     0
  0
ENDTAB
  0
TABLE
  2
LAYER
  5
2
330
0
100
AcDbSymbolTable
 70
    17
  0
LAYER
  5
10
330
2
100
AcDbSymbolTableRecord
100
AcDbLayerTableRecord
  2
0
 70
     0
 62
     7
  6
Continuous
370
    -3
390
F
  0
LAYER
  5
6F
330
2
100
AcDbSymbolTableRecord
100
AcDbLayerTableRecord
  2
FORMAT
 70
     0
 62
     2
  6
Continuous
370
    -3
390
F
  0
LAYER
  5
70
330
2
100
AcDbSymbolTableRecord
100
AcDbLayerTableRecord
  2
외형선
 70
     0
 62
   100
  6
Continuous
370
    30
390
F
  0
LAYER
  5
71
330
2
100
AcDbSymbolTableRecord
100
AcDbLayerTableRecord
  2
숨은선
 70
     0
 62
     2
  6
HIDDEN
370
    15
390
F
  0
LAYER
  5
72
330
2
100
AcDbSymbolTableRecord
100
AcDbLayerTableRecord
  2
중심선
 70
     0
 62
     1
  6
CENTERX2
370
    -3
390
F
  0
LAYER
  5
73
330
2
100
AcDbSymbolTableRecord
100
AcDbLayerTableRecord
  2
파단선
 70
     0
 62
     4
  6
Continuous
370
    -3
390
F
  0
LAYER
  5
74
330
2
100
AcDbSymbolTableRecord
100
AcDbLayerTableRecord
  2
해칭선
 70
     0
 62
     4
  6
Continuous
370
    -3
390
F
  0
LAYER
  5
75
330
2
100
AcDbSymbolTableRecord
100
AcDbLayerTableRecord
  2
가는실선
 70
     0
 62
     4
  6
Continuous
370
    -3
390
F
  0
LAYER
  5
76
330
2
100
AcDbSymbolTableRecord
100
AcDbLayerTableRecord
  2
치수_보조선
 70
     0
 62
     4
  6
Continuous
370
    -3
390
F
  0
LAYER
  5
77
330
2
100
AcDbSymbolTableRecord
100
AcDbLayerTableRecord
  2
치수문자_일반주서
 70
     0
 62
     7
  6
Continuous
370
    15
390
F
  0
LAYER
  5
78
330
2
100
AcDbSymbolTableRecord
100
AcDbLayerTableRecord
  2
개별주서
 70
     0
 62
   100
  6
Continuous
370
    30
390
F
  0
LAYER
  5
79
330
2
100
AcDbSymbolTableRecord
100
AcDbLayerTableRecord
  2
중간선
 70
     0
 62
     2
  6
Continuous
370
    15
390
F
  0
LAYER
  5
7A
330
2
100
AcDbSymbolTableRecord
100
AcDbLayerTableRecord
  2
윤곽선
 70
     0
 62
     3
  6
Continuous
370
    40
390
F
  0
LAYER
  5
7B
330
2
100
AcDbSymbolTableRecord
100
AcDbLayerTableRecord
  2
중심마크
 70
     0
 62
   100
  6
Continuous
370
    30
390
F
  0
LAYER
  5
7C
330
2
100
AcDbSymbolTableRecord
100
AcDbLayerTableRecord
  2
가상선
 70
     0
 62
     4
  6
PHANTOM
370
    -3
390
F
  0
LAYER
  5
7D
330
2
100
AcDbSymbolTableRecord
100
AcDbLayerTableRecord
  2
특수지정선
 70
     0
 62
     5
  6
CENTERX2
370
    60
390
F
  0
LAYER
  5
12A
330
2
100
AcDbSymbolTableRecord
100
AcDbLayerTableRecord
  2
Defpoints
 70
     0
 62
     7
  6
Continuous
290
     0
370
    -3
390
F
  0
ENDTAB
  0
TABLE
  2
STYLE
  5
3
330
0
100
AcDbSymbolTable
 70
     2
  0
STYLE
  5
11
330
3
100
AcDbSymbolTableRecord
100
AcDbTextStyleTableRecord
  2
Standard
 70
     0
 40
0.0
 41
1.0
 50
0.0
 71
     0
 42
3.5
  3
txt
  4

  0
STYLE
  5
93
330
3
100
AcDbSymbolTableRecord
100
AcDbTextStyleTableRecord
  2
SLDTEXTSTYLE0
 70
     0
 40
0.0
 41
0.75
 50
0.0
 71
     0
 42
3.5
  3
TXT
  4

  0
ENDTAB
  0
TABLE
  2
VIEW
  5
6
330
0
100
AcDbSymbolTable
 70
     0
  0
ENDTAB
  0
TABLE
  2
UCS
  5
7
330
0
100
AcDbSymbolTable
 70
     0
  0
ENDTAB
  0
TABLE
  2
APPID
  5
9
330
0
100
AcDbSymbolTable
 70
     2
  0
APPID
  5
12
330
9
100
AcDbSymbolTableRecord
100
AcDbRegAppTableRecord
  2
ACAD
 70
     0
  0
APPID
  5
154
330
9
100
AcDbSymbolTableRecord
100
AcDbRegAppTableRecord
  2
ENABLE_CUSTOM_SPLIT
 70
     0
  0
ENDTAB
  0
TABLE
  2
DIMSTYLE
  5
A
330
0
100
AcDbSymbolTable
 70
     3
100
AcDbDimStyleTable
  0
DIMSTYLE
105
27
330
A
100
AcDbSymbolTableRecord
100
AcDbDimStyleTableRecord
  2
ISO-25
 70
     0
 41
2.5
 42
0.625
 43
3.75
 44
1.25
 73
     0
 74
     0
 77
     1
 78
     8
140
2.5
141
2.5
143
0.03937007874016
147
0.625
171
     3
172
     1
178
     0
271
     2
272
     2
274
     3
278
    44
283
     0
284
     8
340
11
  0
DIMSTYLE
105
D0
102
{ACAD_REACTORS
330
CF
330
DA
102
}
330
A
100
AcDbSymbolTableRecord
100
AcDbDimStyleTableRecord
  2
SLDDIMSTYLE0
 70
     0
 41
3.302
 44
0.0
 45
0.000000001
 73
     0
 74
     0
 77
     1
 78
    12
 79
     3
140
3.5
147
0.875
173
     1
178
     0
271
     2
272
     2
276
     2
284
    12
340
93
  0
DIMSTYLE
105
E5
102
{ACAD_REACTORS
330
E4
330
F2
102
}
330
A
100
AcDbSymbolTableRecord
100
AcDbDimStyleTableRecord
  2
SLDDIMSTYLE1
 70
     0
 41
3.302
 44
0.0
 45
0.000000001
 73
     0
 74
     0
 77
     1
 78
    12
 79
     3
140
3.5
147
0.875
172
     1
173
     1
178
     0
271
     2
272
     2
276
     2
284
    12
289
     0
340
93
  0
ENDTAB
  0
TABLE
  2
BLOCK_RECORD
  5
1
330
0
100
AcDbSymbolTable
 70
     7
  0
BLOCK_RECORD
  5
1F
102
{ACAD_XDICTIONARY
360
161
102
}
330
1
100
AcDbSymbolTableRecord
100
AcDbBlockTableRecord
  2
*Model_Space
340
22
  0
BLOCK_RECORD
  5
1B
330
1
100
AcDbSymbolTableRecord
100
AcDbBlockTableRecord
  2
*Paper_Space
340
1E
  0
BLOCK_RECORD
  5
23
330
1
100
AcDbSymbolTableRecord
100
AcDbBlockTableRecord
  2
*Paper_Space0
340
26
  0
BLOCK_RECORD
  5
7E
330
1
100
AcDbSymbolTableRecord
100
AcDbBlockTableRecord
  2
블럭10
340
0
102
{BLKREFS
331
C8
102
}
  0
BLOCK_RECORD
  5
D1
330
1
100
AcDbSymbolTableRecord
100
AcDbBlockTableRecord
  2
_D
340
0
  0
BLOCK_RECORD
  5
DB
330
1
100
AcDbSymbolTableRecord
100
AcDbBlockTableRecord
  2
_D_1
340
0
  0
BLOCK_RECORD
  5
E6
330
1
100
AcDbSymbolTableRecord
100
AcDbBlockTableRecord
  2
_D_2
340
0
  0
BLOCK_RECORD
  5
F3
330
1
100
AcDbSymbolTableRecord
100
AcDbBlockTableRecord
  2
_D_3
340
0
  0
BLOCK_RECORD
  5
FF
330
1
100
AcDbSymbolTableRecord
100
AcDbBlockTableRecord
  2
SW_DOWELSYMBOL_0
340
0
102
{BLKREFS
331
105
102
}
  0
ENDTAB
  0
ENDSEC
  0
SECTION
  2
BLOCKS
  0
BLOCK
  5
20
330
1F
100
AcDbEntity
  8
0
100
AcDbBlockBegin
  2
*Model_Space
 70
     0
 10
0.0
 20
0.0
 30
0.0
  3
*Model_Space
  1
*Model_Space
  0
ENDBLK
  5
21
330
1F
100
AcDbEntity
  8
0
100
AcDbBlockEnd
  0
BLOCK
  5
1C
330
1B
100
AcDbEntity
 67
     1
  8
0
100
AcDbBlockBegin
  2
*Paper_Space
 70
     0
 10
0.0
 20
0.0
 30
0.0
  3
*Paper_Space
  1
*Paper_Space
  0
ENDBLK
  5
1D
330
1B
100
AcDbEntity
 67
     1
  8
0
100
AcDbBlockEnd
  0
BLOCK
  5
24
330
23
100
AcDbEntity
  8
0
100
AcDbBlockBegin
  2
*Paper_Space0
 70
     0
 10
0.0
 20
0.0
 30
0.0
  3
*Paper_Space0
  1
*Paper_Space0
  0
ENDBLK
  5
25
330
23
100
AcDbEntity
  8
0
100
AcDbBlockEnd
  0
BLOCK
  5
7F
330
7E
100
AcDbEntity
  8
0
100
AcDbBlockBegin
  2
블럭10
 70
     2
 10
0.0
 20
0.0
 30
0.0
  3
블럭10
  1
블럭10
  0
ELLIPSE
  5
81
330
7E
100
AcDbEntity
  8
중심선
100
AcDbEllipse
 10
20.54032771741204
 20
12.0471743016438
 30
0.0
 11
6.600054785286829
 21
-1.261213355974178E-13
 31
0.0
210
0.0
220
0.0
230
1.0
 40
0.636358354079598
 41
0.9219305317359503
 42
6.513795318482858
  0
ELLIPSE
  5
82
330
7E
100
AcDbEntity
  8
중심선
100
AcDbEllipse
 10
20.54032771746488
 20
12.04717430159265
 30
0.0
 11
3.960054785062283
 21
1.540847449632565E-10
 31
0.0
210
0.0
220
0.0
230
1.0
 40
0.3939339440162632
 41
1.131841032648279
 42
5.62031148352944
  0
LINE
  5
83
330
7E
100
AcDbEntity
  8
중심선
100
AcDbLine
 10
2.268634060543552
 20
16.24717430164393
 30
0.0
 11
5.714909304380834
 21
16.24717430164393
 31
0.0
  0
LINE
  5
84
330
7E
100
AcDbEntity
  8
중심선
100
AcDbLine
 10
5.245725140726316
 20
7.84717430164391
 30
0.0
 11
8.692000384563599
 21
7.84717430164391
 31
0.0
  0
LINE
  5
85
330
7E
100
AcDbEntity
  8
중심선
100
AcDbLine
 10
15.74043728645272
 20
16.24717430164393
 30
0.0
 11
8.692000384563599
 21
7.84717430164391
 31
0.0
  0
LINE
  5
86
330
7E
100
AcDbEntity
  8
중심선
100
AcDbLine
 10
0.1404042013395286
 20
13.71084872107135
 30
0.0
 11
3.58671253028996
 21
13.71088815037384
 31
0.0
  0
LINE
  5
87
330
7E
100
AcDbEntity
  8
중심선
100
AcDbLine
 10
2.750260043222114
 20
10.84717430164391
 30
0.0
 11
6.196535287059397
 21
10.84717430164391
 31
0.0
  0
LINE
  5
88
330
7E
100
AcDbEntity
  8
중심선
100
AcDbLine
 10
12.29416204261559
 20
16.24717430164393
 30
0.0
 11
5.245725140726316
 21
7.84717430164391
 31
0.0
  0
LINE
  5
89
330
7E
100
AcDbEntity
  8
중심선
100
AcDbLine
 10
10.72767329541681
 20
16.24717430164393
 30
0.0
 11
6.196535287059397
 21
10.84717430164391
 31
0.0
  0
LINE
  5
8A
330
7E
100
AcDbEntity
  8
중심선
100
AcDbLine
 10
7.28139805157953
 20
16.24717430164393
 30
0.0
 11
2.750260043222114
 21
10.84717430164391
 31
0.0
  0
LINE
  5
8B
330
7E
100
AcDbEntity
  8
중심선
100
AcDbLine
 10
5.714909304380834
 20
16.24717430164393
 30
0.0
 11
3.58671253028996
 21
13.71088815037384
 31
0.0
  0
LINE
  5
8C
330
7E
100
AcDbEntity
  8
중심선
100
AcDbLine
 10
2.268634060543552
 20
16.24717430164393
 30
0.0
 11
0.1404042013395286
 21
13.71084872107135
 31
0.0
  0
LINE
  5
8D
330
7E
100
AcDbEntity
  8
중심선
100
AcDbLine
 10
7.28139805157953
 20
16.24717430164393
 30
0.0
 11
10.72767329541681
 21
16.24717430164393
 31
0.0
  0
LINE
  5
8E
330
7E
100
AcDbEntity
  8
중심선
100
AcDbLine
 10
12.29416204261559
 20
16.24717430164393
 30
0.0
 11
15.74043728645272
 21
16.24717430164393
 31
0.0
  0
LINE
  5
8F
330
7E
100
AcDbEntity
  8
중심선
100
AcDbLine
 10
19.22036997980202
 20
11.08717430171403
 30
0.0
 11
23.66174974927406
 21
11.08717430171406
 31
0.0
  0
LINE
  5
90
330
7E
100
AcDbEntity
  8
중심선
100
AcDbLine
 10
19.22039502424796
 20
13.00717430171391
 30
0.0
 11
19.22036997980202
 21
11.08717430171403
 31
0.0
  0
LINE
  5
91
330
7E
100
AcDbEntity
  8
중심선
100
AcDbLine
 10
19.22039502424796
 20
13.00717430171391
 30
0.0
 11
26.96566020931264
 21
13.00717430171391
 31
0.0
  0
LINE
  5
92
330
7E
100
AcDbEntity
  8
중심선
100
AcDbLine
 10
22.22332737316547
 20
13.45928029700563
 30
0.0
 11
24.52862924686651
 21
15.39360700705356
 31
0.0
  0
ATTDEF
  5
94
330
7E
100
AcDbEntity
  8
FORMAT
 62
     2
100
AcDbText
 10
-12.95993919485777
 20
2.075366912832191
 30
0.0
 40
4.233333333333333
  1
SEME35180E [ 2 FLUTE ]
 41
0.75
  7
SLDTEXTSTYLE0
 11
-12.95993919485777
 21
-0.0412997538344756
 31
0.0
100
AcDbAttributeDefinition
  3

  2
AUTOATTR0
 70
     0
 74
     1
  0
ENDBLK
  5
80
330
7E
100
AcDbEntity
  8
0
100
AcDbBlockEnd
  0
BLOCK
  5
D2
330
D1
100
AcDbEntity
  8
0
100
AcDbBlockBegin
  2
_D
 70
     0
 10
0.0
 20
0.0
 30
0.0
  3
_D
  1
_D
  0
SOLID
  5
D4
330
D1
100
AcDbEntity
  8
치수문자_일반주서
100
AcDbTrace
 10
54.99999999999999
 20
21.24302722564457
 30
0.0
 11
51.69799999999999
 21
21.75102722564457
 31
0.0
 12
51.69799999999999
 22
20.73502722564457
 32
0.0
 13
51.69799999999999
 23
20.73502722564457
 33
0.0
  0
SOLID
  5
D5
330
D1
100
AcDbEntity
  8
치수문자_일반주서
100
AcDbTrace
 10
9.999999999999991
 20
21.24302722564457
 30
0.0
 11
13.30199999999999
 21
20.73502722564457
 31
0.0
 12
13.30199999999999
 22
21.75102722564457
 32
0.0
 13
13.30199999999999
 23
21.75102722564457
 33
0.0
  0
LINE
  5
D6
330
D1
100
AcDbEntity
  8
치수문자_일반주서
100
AcDbLine
 10
54.99999999999999
 20
9.992393337066797
 30
0.0
 11
54.99999999999999
 21
22.24302722564457
 31
0.0
  0
LINE
  5
D7
330
D1
100
AcDbEntity
  8
치수문자_일반주서
100
AcDbLine
 10
9.999999999999991
 20
9.999999999999998
 30
0.0
 11
9.999999999999991
 21
22.24302722564457
 31
0.0
  0
LINE
  5
D8
330
D1
100
AcDbEntity
  8
치수문자_일반주서
100
AcDbLine
 10
54.99999999999999
 20
21.24302722564457
 30
0.0
 11
9.999999999999991
 21
21.24302722564457
 31
0.0
  0
MTEXT
  5
D9
330
D1
100
AcDbEntity
  8
치수문자_일반주서
100
AcDbMText
 10
29.91388880647717
 20
25.75476414022346
 30
0.0
 40
3.5
 41
0.0
 71
     1
 72
     1
  1
45
  7
SLDTEXTSTYLE0
 73
     1
 44
1.0
  0
ENDBLK
  5
D3
330
D1
100
AcDbEntity
  8
0
100
AcDbBlockEnd
  0
BLOCK
  5
DC
330
DB
100
AcDbEntity
  8
0
100
AcDbBlockBegin
  2
_D_1
 70
     0
 10
0.0
 20
0.0
 30
0.0
  3
_D_1
  1
_D_1
  0
LINE
  5
DE
330
DB
100
AcDbEntity
  8
치수문자_일반주서
 62
     0
370
    -2
100
AcDbLine
 10
54.9999999999996
 20
9.054893337066776
 30
0.0
 11
54.99999999999959
 21
29.08415911661227
 31
0.0
  0
LINE
  5
DF
330
DB
100
AcDbEntity
  8
치수문자_일반주서
 62
     0
370
    -2
100
AcDbLine
 10
-45.00000000000001
 20
7.062499999999986
 30
0.0
 11
-45.00000000000001
 21
29.08415911661227
 31
0.0
  0
LINE
  5
E0
330
DB
100
AcDbEntity
  8
치수문자_일반주서
 62
     0
370
    -2
100
AcDbLine
 10
51.6979999999996
 20
29.08415911661227
 30
0.0
 11
-41.69800000000001
 21
29.08415911661227
 31
0.0
  0
SOLID
  5
E1
330
DB
100
AcDbEntity
  8
치수문자_일반주서
 62
     0
100
AcDbTrace
 10
51.6979999999996
 20
28.53382578327894
 30
0.0
 11
51.6979999999996
 21
29.6344924499456
 31
0.0
 12
54.99999999999959
 22
29.08415911661227
 32
0.0
 13
54.99999999999959
 23
29.08415911661227
 33
0.0
  0
SOLID
  5
E2
330
DB
100
AcDbEntity
  8
치수문자_일반주서
 62
     0
100
AcDbTrace
 10
-41.69800000000001
 20
29.6344924499456
 30
0.0
 11
-41.69800000000001
 21
28.53382578327894
 31
0.0
 12
-45.00000000000001
 22
29.08415911661227
 32
0.0
 13
-45.00000000000001
 23
29.08415911661227
 33
0.0
  0
MTEXT
  5
E3
330
DB
100
AcDbEntity
  8
치수문자_일반주서
 62
     0
100
AcDbMText
 10
0.0000000000000052
 20
33.45915911661227
 30
0.0
 40
3.5
 41
0.0
 71
     2
 72
     1
  1
\A1;100
  7
SLDTEXTSTYLE0
 73
     1
 44
1.0
  0
POINT
  5
14F
330
DB
100
AcDbEntity
  8
Defpoints
 62
     0
100
AcDbPoint
 10
54.9999999999996
 20
8.992393337066776
 30
0.0
  0
POINT
  5
150
330
DB
100
AcDbEntity
  8
Defpoints
 62
     0
100
AcDbPoint
 10
-45.00000000000001
 20
6.999999999999986
 30
0.0
  0
POINT
  5
151
330
DB
100
AcDbEntity
  8
Defpoints
 62
     0
100
AcDbPoint
 10
-45.00000000000001
 20
29.08415911661227
 30
0.0
  0
ENDBLK
  5
DD
330
DB
100
AcDbEntity
  8
0
100
AcDbBlockEnd
  0
BLOCK
  5
E7
330
E6
100
AcDbEntity
  8
0
100
AcDbBlockBegin
  2
_D_2
 70
     0
 10
0.0
 20
0.0
 30
0.0
  3
_D_2
  1
_D_2
  0
LINE
  5
E9
330
E6
100
AcDbEntity
  8
치수문자_일반주서
 62
     0
370
    -2
100
AcDbLine
 10
10.06249999999999
 20
9.000000000000005
 30
0.0
 11
70.56619031224623
 21
9.00000000000022
 31
0.0
  0
LINE
  5
EA
330
E6
100
AcDbEntity
  8
치수문자_일반주서
 62
     0
370
    -2
100
AcDbLine
 10
10.06249999999999
 20
-9.000000000000005
 30
0.0
 11
70.56619031224629
 21
-8.99999999999979
 31
0.0
  0
LINE
  5
EB
330
E6
100
AcDbEntity
  8
치수문자_일반주서
 62
     0
370
    -2
100
AcDbLine
 10
70.56619031224625
 20
5.698000000000221
 30
0.0
 11
70.56619031224628
 21
-5.697999999999791
 31
0.0
  0
SOLID
  5
EC
330
E6
100
AcDbEntity
  8
치수문자_일반주서
 62
     0
100
AcDbTrace
 10
71.11652364557958
 20
5.698000000000222
 30
0.0
 11
70.01585697891292
 21
5.698000000000219
 31
0.0
 12
70.56619031224623
 22
9.00000000000022
 32
0.0
 13
70.56619031224623
 23
9.00000000000022
 33
0.0
  0
SOLID
  5
ED
330
E6
100
AcDbEntity
  8
치수문자_일반주서
 62
     0
100
AcDbTrace
 10
70.01585697891295
 20
-5.697999999999793
 30
0.0
 11
71.1165236455796
 21
-5.697999999999789
 31
0.0
 12
70.56619031224629
 22
-8.99999999999979
 32
0.0
 13
70.56619031224629
 23
-8.99999999999979
 33
0.0
  0
MTEXT
  5
EE
330
E6
100
AcDbEntity
  8
치수문자_일반주서
 62
     0
100
AcDbMText
 10
66.19119031224626
 20
-0.0000000000000124
 30
0.0
 40
3.5
 41
0.0
 71
     2
 72
     1
  1
\A1;%%c18
  7
SLDTEXTSTYLE0
 11
-3.157967714489332E-15
 21
1.0
 31
0.0
 73
     1
 44
1.0
  0
POINT
  5
EF
330
E6
100
AcDbEntity
  8
Defpoints
 62
     0
100
AcDbPoint
 10
9.999999999999993
 20
9.000000000000005
 30
0.0
  0
POINT
  5
F0
330
E6
100
AcDbEntity
  8
Defpoints
 62
     0
100
AcDbPoint
 10
9.999999999999993
 20
-9.000000000000005
 30
0.0
  0
POINT
  5
F1
330
E6
100
AcDbEntity
  8
Defpoints
 62
     0
100
AcDbPoint
 10
70.56619031224629
 20
-8.999999999999794
 30
0.0
  0
ENDBLK
  5
E8
330
E6
100
AcDbEntity
  8
0
100
AcDbBlockEnd
  0
BLOCK
  5
F4
330
F3
100
AcDbEntity
  8
0
100
AcDbBlockBegin
  2
_D_3
 70
     0
 10
0.0
 20
0.0
 30
0.0
  3
_D_3
  1
_D_3
  0
LINE
  5
F6
330
F3
100
AcDbEntity
  8
치수문자_일반주서
 62
     0
370
    -2
100
AcDbLine
 10
-44.0625
 20
7.999999999999993
 30
0.0
 11
-54.65000000000007
 21
7.999999999999956
 31
0.0
  0
LINE
  5
F7
330
F3
100
AcDbEntity
  8
치수문자_일반주서
 62
     0
370
    -2
100
AcDbLine
 10
-44.06250000000001
 20
-8.000000000000014
 30
0.0
 11
-54.65000000000001
 21
-8.000000000000052
 31
0.0
  0
LINE
  5
F8
330
F3
100
AcDbEntity
  8
치수문자_일반주서
 62
     0
370
    -2
100
AcDbLine
 10
-54.65000000000006
 20
4.697999999999956
 30
0.0
 11
-54.65000000000003
 21
-4.698000000000052
 31
0.0
  0
SOLID
  5
F9
330
F3
100
AcDbEntity
  8
치수문자_일반주서
 62
     0
100
AcDbTrace
 10
-54.09966666666672
 20
4.697999999999958
 30
0.0
 11
-55.20033333333339
 21
4.697999999999954
 31
0.0
 12
-54.65000000000007
 22
7.999999999999956
 32
0.0
 13
-54.65000000000007
 23
7.999999999999956
 33
0.0
  0
SOLID
  5
FA
330
F3
100
AcDbEntity
  8
치수문자_일반주서
 62
     0
100
AcDbTrace
 10
-55.20033333333336
 20
-4.698000000000054
 30
0.0
 11
-54.09966666666669
 21
-4.69800000000005
 31
0.0
 12
-54.65000000000001
 22
-8.000000000000052
 32
0.0
 13
-54.65000000000001
 23
-8.000000000000052
 33
0.0
  0
MTEXT
  5
FB
330
F3
100
AcDbEntity
  8
치수문자_일반주서
 62
     0
100
AcDbMText
 10
-59.02500000000004
 20
-0.0000000000000634
 30
0.0
 40
3.5
 41
0.0
 71
     2
 72
     1
  1
\A1;%%c16
  7
SLDTEXTSTYLE0
 11
-3.552713678800499E-15
 21
1.0
 31
0.0
 73
     1
 44
1.0
  0
POINT
  5
FC
330
F3
100
AcDbEntity
  8
Defpoints
 62
     0
100
AcDbPoint
 10
-44.0
 20
7.999999999999993
 30
0.0
  0
POINT
  5
FD
330
F3
100
AcDbEntity
  8
Defpoints
 62
     0
100
AcDbPoint
 10
-44.00000000000001
 20
-8.000000000000014
 30
0.0
  0
POINT
  5
FE
330
F3
100
AcDbEntity
  8
Defpoints
 62
     0
100
AcDbPoint
 10
-54.65000000000001
 20
-8.000000000000052
 30
0.0
  0
ENDBLK
  5
F5
330
F3
100
AcDbEntity
  8
0
100
AcDbBlockEnd
  0
BLOCK
  5
100
330
FF
100
AcDbEntity
  8
0
100
AcDbBlockBegin
  2
SW_DOWELSYMBOL_0
 70
     0
 10
0.0
 20
0.0
 30
0.0
  3
SW_DOWELSYMBOL_0
  1
SW_DOWELSYMBOL_0
  0
CIRCLE
  5
102
330
FF
100
AcDbEntity
  8
외형선
 62
     0
100
AcDbCircle
 10
0.0
 20
0.0
 30
0.0
 40
3.000000000000004
  0
HATCH
  5
103
330
FF
100
AcDbEntity
  8
0
  6
Continuous
 62
     0
370
    30
100
AcDbHatch
 10
0.0
 20
0.0
 30
0.0
210
0.0
220
0.0
230
1.0
  2
SOLID
 70
     1
 71
     0
 91
        1
 92
        0
 93
        3
 72
     2
 10
0.0000000000000087
 20
-0.0000000000000035
 40
3.000000000000004
 50
0.0
 51
90.0
 73
     1
 72
     1
 10
0.0000000000000087
 20
3.000000000000001
 11
0.0000000000000087
 21
-0.0000000000000036
 72
     1
 10
0.0000000000000087
 20
-0.0000000000000035
 11
3.000000000000013
 21
-0.0000000000000035
 97
        0
 75
     0
 76
     1
 98
        1
 10
0.0
 20
0.0
  0
HATCH
  5
104
330
FF
100
AcDbEntity
  8
0
  6
Continuous
 62
     0
370
    30
100
AcDbHatch
 10
0.0
 20
0.0
 30
0.0
210
0.0
220
0.0
230
1.0
  2
SOLID
 70
     1
 71
     0
 91
        1
 92
        0
 93
        3
 72
     2
 10
0.0000000000000087
 20
-0.0000000000000035
 40
3.000000000000004
 50
180.0
 51
270.0000000000007
 73
     1
 72
     1
 10
0.0000000000000087
 20
-3.000000000000008
 11
0.0000000000000087
 21
-0.0000000000000036
 72
     1
 10
0.0000000000000087
 20
-0.0000000000000035
 11
-2.999999999999996
 21
-0.0000000000000035
 97
        0
 75
     0
 76
     1
 98
        1
 10
0.0
 20
0.0
  0
ENDBLK
  5
101
330
FF
100
AcDbEntity
  8
0
100
AcDbBlockEnd
  0
ENDSEC
  0
SECTION
  2
ENTITIES
  0
LINE
  5
95
330
1F
100
AcDbEntity
  8
0
  6
Continuous
 62
     4
370
    15
100
AcDbLine
 10
9.999999999999991
 20
7.999999999999996
 30
0.0
 11
-44.0
 21
7.999999999999993
 31
0.0
  0
LINE
  5
96
330
1F
100
AcDbEntity
  8
0
  6
Continuous
 62
     4
370
    15
100
AcDbLine
 10
-44.00000000000001
 20
-8.000000000000007
 30
0.0
 11
9.999999999999993
 21
-8.000000000000004
 31
0.0
  0
LINE
  5
97
102
{ACAD_REACTORS
330
153
102
}
330
1F
100
AcDbEntity
  8
0
  6
Continuous
 62
     4
370
    15
100
AcDbLine
 10
-44.00000000000001
 20
7.999999999999985
 30
0.0
 11
-45.00000000000001
 21
6.999999999999986
 31
0.0
  0
LINE
  5
98
330
1F
100
AcDbEntity
  8
0
  6
Continuous
 62
     4
370
    15
100
AcDbLine
 10
-45.00000000000001
 20
-7.000000000000014
 30
0.0
 11
-44.00000000000001
 21
-8.00000000000001
 31
0.0
  0
LINE
  5
99
330
1F
100
AcDbEntity
  8
0
  6
Continuous
 62
     1
370
    15
100
AcDbLine
 10
26.68195747605709
 20
2.546929966248687
 30
0.0
 11
26.60786643022972
 21
2.587629580595807
 31
0.0
  0
SPLINE
  5
9A
330
1F
100
AcDbEntity
  8
0
  6
Continuous
 62
     1
370
    15
100
AcDbSpline
210
0.0
220
0.0
230
1.0
 70
     8
 71
     3
 72
     9
 73
     5
 74
     0
 42
0.000000001
 43
0.00000001
 40
0.0
 40
0.0
 40
0.0
 40
0.0
 40
0.5259507176743526
 40
1.0
 40
1.0
 40
1.0
 40
1.0
 10
31.68362807333945
 20
2.306213233905645
 30
0.0
 10
31.24577902048491
 20
2.515012371218554
 30
0.0
 10
30.41328837423077
 20
2.912006101422359
 30
0.0
 10
29.5807818389532
 20
3.348287895937647
 30
0.0
 10
29.18613271337346
 20
3.555106967519365
 30
0.0
  0
LINE
  5
9B
330
1F
100
AcDbEntity
  8
0
  6
Continuous
 62
     1
370
    15
100
AcDbLine
 10
11.02932217099326
 20
9.000000000000005
 30
0.0
 11
9.999999999999991
 21
9.000000000000005
 31
0.0
  0
SPLINE
  5
9C
330
1F
100
AcDbEntity
  8
0
  6
Continuous
 62
     1
370
    15
100
AcDbSpline
210
0.0
220
0.0
230
1.0
 70
     8
 71
     3
 72
    20
 73
    16
 74
     0
 42
0.000000001
 43
0.00000001
 40
0.0
 40
0.0
 40
0.0
 40
0.0
 40
0.1258634464534637
 40
0.2432525537230587
 40
0.3432940078751719
 40
0.4210801001448935
 40
0.4835627024462328
 40
0.5362376015291536
 40
0.587199280760573
 40
0.6593241551699057
 40
0.7433182804959286
 40
0.8105492709191807
 40
0.866066917767737
 40
0.949311462935338
 40
0.9999999999999999
 40
0.9999999999999999
 40
0.9999999999999999
 40
0.9999999999999999
 10
28.70880388032357
 20
7.151755768973199
 30
0.0
 10
28.42019737974325
 20
7.136476832490256
 30
0.0
 10
27.86241614726129
 20
7.106947684652858
 30
0.0
 10
27.0038523964464
 20
7.075684795630324
 30
0.0
 10
26.27478597310107
 20
7.054991448844527
 30
0.0
 10
25.68387056688365
 20
7.042331395397788
 30
0.0
 10
25.21470184934642
 20
7.035194291837066
 30
0.0
 10
24.81155628504479
 20
7.03103034179112
 30
0.0
 10
24.38509666660616
 20
7.028504363030087
 30
0.0
 10
23.87876608242838
 20
7.028219613780761
 30
0.0
 10
23.33237012178495
 20
7.031635905476366
 30
0.0
 10
22.82717889612702
 20
7.038062058701141
 30
0.0
 10
22.3248187930574
 20
7.047246230124725
 30
0.0
 10
21.86282743298854
 20
7.057774643035819
 30
0.0
 10
21.53622694090384
 20
7.068502169296855
 30
0.0
 10
21.41262117545402
 20
7.072562126728072
 30
0.0
  0
SPLINE
  5
9D
330
1F
100
AcDbEntity
  8
0
  6
Continuous
 62
     1
370
    15
100
AcDbSpline
210
0.0
220
0.0
230
1.0
 70
     8
 71
     3
 72
    34
 73
    30
 74
     0
 42
0.000000001
 43
0.00000001
 40
0.0
 40
0.0
 40
0.0
 40
0.0
 40
0.0585667892026296
 40
0.1066483335920915
 40
0.1450292917106541
 40
0.1781617841536273
 40
0.2159514238720407
 40
0.247871995461073
 40
0.2769745726150572
 40
0.3064412674089064
 40
0.347552642345317
 40
0.3817090771480383
 40
0.4073823219810691
 40
0.4297739090767065
 40
0.4607189415919355
 40
0.499987979499133
 40
0.5460856992544653
 40
0.5834822989842937
 40
0.6191918205851177
 40
0.6591953096650974
 40
0.6965049202191714
 40
0.7270576250000947
 40
0.7523445224214849
 40
0.777869318378067
 40
0.8061009722008988
 40
0.8416590863493129
 40
0.884654537864539
 40
0.9369027883207023
 40
1.0
 40
1.0
 40
1.0
 40
1.0
 10
51.65650971207869
 20
6.155578038850685
 30
0.0
 10
51.35938087723503
 20
6.131026627898059
 30
0.0
 10
50.81831834794725
 20
6.086319258737472
 30
0.0
 10
50.06329273721469
 20
6.036290287328699
 30
0.0
 10
49.42183239357102
 20
6.001390936613643
 30
0.0
 10
48.83857974776852
 20
5.974581827503159
 30
0.0
 10
48.29360320589979
 20
5.954444330943041
 30
0.0
 10
47.77650689780972
 20
5.939960558266174
 30
0.0
 10
47.30137645552664
 20
5.930342082320449
 30
0.0
 10
46.77795228025944
 20
5.923680854578018
 30
0.0
 10
46.22864088018867
 20
5.921677609067831
 30
0.0
 10
45.69910567062873
 20
5.924903824732507
 30
0.0
 10
45.26801508618419
 20
5.930835559146969
 30
0.0
 10
44.85211124987679
 20
5.939117978040137
 30
0.0
 10
44.36109883132214
 20
5.952250105328672
 30
0.0
 10
43.74280079867216
 20
5.974264362419839
 30
0.0
 10
43.09320601026634
 20
6.004684363971296
 30
0.0
 10
42.4770567064709
 20
6.04036280815858
 30
0.0
 10
41.89593592391848
 20
6.078949967272751
 30
0.0
 10
41.30334082046404
 20
6.123653115231697
 30
0.0
 10
40.73742528461047
 20
6.171839512787085
 30
0.0
 10
40.24843510201427
 20
6.217574853882465
 30
0.0
 10
39.82127092315609
 20
6.260261459468475
 30
0.0
 10
39.40717197941326
 20
6.304076975269268
 30
0.0
 10
38.93649980090905
 20
6.356792346983425
 30
0.0
 10
38.3679759199739
 20
6.424638281455413
 30
0.0
 10
37.6668441086987
 20
6.514044581710784
 30
0.0
 10
36.83448369520553
 20
6.629875409082411
 30
0.0
 10
36.25171061811417
 20
6.719943329673244
 30
0.0
 10
35.9329173554625
 20
6.769213015240586
 30
0.0
  0
SPLINE
  5
9E
330
1F
100
AcDbEntity
  8
0
  6
Continuous
 62
     1
370
    15
100
AcDbSpline
210
0.0
220
0.0
230
1.0
 70
     8
 71
     3
 72
    30
 73
    26
 74
     0
 42
0.000000001
 43
0.00000001
 40
0.0
 40
0.0
 40
0.0
 40
0.0
 40
0.0690118381375867
 40
0.1319527586979664
 40
0.1855673170984072
 40
0.2280777652548759
 40
0.262444919515925
 40
0.2910556776235825
 40
0.318414317949575
 40
0.3572713265538158
 40
0.4026746384258055
 40
0.4391034698059534
 40
0.4689688469901467
 40
0.5130731643525658
 40
0.5637386973792743
 40
0.6067408713257827
 40
0.6441145000800867
 40
0.6801351864699121
 40
0.7294521536013978
 40
0.7759319562420488
 40
0.8159185305594036
 40
0.8479219165969659
 40
0.8829915274377477
 40
0.9337363973551344
 40
1.0
 40
1.0
 40
1.0
 40
1.0
 10
15.17088238556492
 20
-7.489256402167157
 30
0.0
 10
15.46661602566904
 20
-7.459788039848158
 30
0.0
 10
16.03206784820609
 20
-7.403443624060375
 30
0.0
 10
16.88891556278558
 20
-7.330924584396766
 30
0.0
 10
17.6155550751023
 20
-7.27447243069854
 30
0.0
 10
18.20950693473731
 20
-7.232221668590149
 30
0.0
 10
18.68507996512009
 20
-7.2012291945408
 30
0.0
 10
19.09292095420977
 20
-7.17657147765447
 30
0.0
 10
19.5209570871759
 20
-7.152504011257671
 30
0.0
 10
20.02568063341702
 20
-7.126658892718003
 30
0.0
 10
20.57131455616197
 20
-7.102191352778746
 30
0.0
 10
21.0762111793645
 20
-7.082840560284597
 30
0.0
 10
21.57508174201694
 20
-7.066345732022365
 30
0.0
 10
22.13823564870611
 20
-7.051018459629408
 30
0.0
 10
22.76072476395055
 20
-7.038739602705341
 30
0.0
 10
23.35277067213647
 20
-7.031459380705601
 30
0.0
 10
23.87864364609765
 20
-7.028396334650704
 30
0.0
 10
24.43295031770999
 20
-7.028429412398377
 30
0.0
 10
25.02837666196087
 20
-7.032521200065469
 30
0.0
 10
25.6419115389214
 20
-7.041419975096844
 30
0.0
 10
26.17794682011631
 20
-7.052932855245027
 30
0.0
 10
26.66434724631917
 20
-7.066149374229212
 30
0.0
 10
27.19832439267302
 20
-7.083538160725584
 30
0.0
 10
27.88367697566193
 20
-7.110069907744434
 30
0.0
 10
28.41047211712235
 20
-7.136683885592979
 30
0.0
 10
28.70880388032357
 20
-7.151755768973193
 30
0.0
  0
SPLINE
  5
9F
330
1F
100
AcDbEntity
  8
0
  6
Continuous
 62
     1
370
    15
100
AcDbSpline
210
0.0
220
0.0
230
1.0
 70
     8
 71
     3
 72
    19
 73
    15
 74
     0
 42
0.000000001
 43
0.00000001
 40
0.0
 40
0.0
 40
0.0
 40
0.0
 40
0.1473943428883918
 40
0.269445640213486
 40
0.3698825082558785
 40
0.4529458438576876
 40
0.5188946544805526
 40
0.5785202770279123
 40
0.6375901714006755
 40
0.7089609297082858
 40
0.7961157402725018
 40
0.8895634193261426
 40
0.9729804409524596
 40
1.0
 40
1.0
 40
1.0
 40
1.0
 10
35.93291735546249
 20
-6.769213015240583
 30
0.0
 10
36.25171061658505
 20
-6.719943328627071
 30
0.0
 10
36.8344836908811
 20
-6.629875406123776
 30
0.0
 10
37.66684412158131
 20
-6.514044590524631
 30
0.0
 10
38.36797588369124
 20
-6.424638256631987
 30
0.0
 10
38.93649990181191
 20
-6.356792416017885
 30
0.0
 10
39.40717169797229
 20
-6.304076782716476
 30
0.0
 10
39.82127186552932
 20
-6.260262104209675
 30
0.0
 10
40.24843130082991
 20
-6.217572253235451
 30
0.0
 10
40.73744447624605
 20
-6.171852643081375
 30
0.0
 10
41.3032492204707
 20
-6.123590445488681
 30
0.0
 10
41.89628587259249
 20
-6.079189390799614
 30
0.0
 10
42.34352731159196
 20
-6.048611291423846
 30
0.0
 10
42.58874728582132
 20
-6.034704125521432
 30
0.0
 10
42.64874312717115
 20
-6.031301580024356
 30
0.0
  0
LINE
  5
A0
330
1F
100
AcDbEntity
  8
0
  6
Continuous
 62
     1
370
    15
100
AcDbLine
 10
9.999999999999991
 20
-9.000000000000005
 30
0.0
 11
11.02932217099323
 21
-9.000000000000005
 31
0.0
  0
SPLINE
  5
A3
330
1F
100
AcDbEntity
  8
0
  6
Continuous
 62
     1
370
    15
100
AcDbSpline
210
0.0
220
0.0
230
1.0
 70
    24
 71
     3
 72
    14
 73
    10
 74
     0
 42
0.000000001
 43
0.00000001
 40
0.0
 40
0.0
 40
0.0
 40
0.0
 40
0.25
 40
0.25
 40
0.5
 40
0.5
 40
0.75
 40
0.75
 40
1.0
 40
1.0
 40
1.0
 40
1.0
 10
9.999999999999995
 20
6.096483309614615
 30
0.0
 10
9.999999999999995
 20
5.758382489906399
 30
0.0
 10
9.999999999999995
 20
5.333681945257476
 30
0.0
 10
9.999999999999995
 20
4.323669289627198
 30
0.0
 10
9.999999999999995
 20
3.738459760895334
 30
0.0
 10
9.999999999999995
 20
2.450104560280638
 30
0.0
 10
9.999999999999995
 20
1.747465328940577
 30
0.0
 10
9.999999999999995
 20
0.2882147345374076
 30
0.0
 10
9.999999999999995
 20
-0.4677587091708988
 30
0.0
 10
9.999999999999995
 20
-1.21730549185519
 30
0.0
  0
LINE
  5
A6
330
1F
100
AcDbEntity
  8
0
  6
Continuous
 62
     4
370
    15
100
AcDbLine
 10
-44.00000000000001
 20
6.999999999999984
 30
0.0
 11
-44.00000000000001
 21
-7.000000000000011
 31
0.0
  0
LINE
  5
A7
330
1F
100
AcDbEntity
  8
0
  6
Continuous
 62
     1
370
    15
100
AcDbLine
 10
9.999999999999991
 20
7.000000000000001
 30
0.0
 11
9.999999999999988
 21
6.844953556616832
 31
0.0
  0
LINE
  5
A8
330
1F
100
AcDbEntity
  8
0
  6
Continuous
 62
     1
370
    15
100
AcDbLine
 10
9.999999999999991
 20
-1.217305491857261
 30
0.0
 11
9.999999999999991
 21
-1.747796572382748
 31
0.0
  0
LINE
  5
A9
330
1F
100
AcDbEntity
  8
0
  6
Continuous
 62
     1
370
    15
100
AcDbLine
 10
9.999999999999991
 20
-1.902909733590556
 30
0.0
 11
9.999999999999991
 21
-6.999999999999999
 31
0.0
  0
LINE
  5
AA
102
{ACAD_REACTORS
330
153
102
}
330
1F
100
AcDbEntity
  8
0
  6
Continuous
 62
     4
370
    15
100
AcDbLine
 10
-45.00000000000001
 20
6.999999999999986
 30
0.0
 11
-45.00000000000001
 21
-7.000000000000009
 31
0.0
  0
SPLINE
  5
AB
330
1F
100
AcDbEntity
  8
0
  6
Continuous
 62
     4
370
    15
100
AcDbSpline
210
0.0
220
0.0
230
1.0
 70
    24
 71
     3
 72
     8
 73
     4
 74
     0
 42
0.000000001
 43
0.00000001
 40
0.0
 40
0.0
 40
0.0
 40
0.0
 40
1.0
 40
1.0
 40
1.0
 40
1.0
 10
9.999999999999995
 20
6.844953556616835
 30
0.0
 10
9.999999999999995
 20
6.586803251515026
 30
0.0
 10
9.999999999999995
 20
6.334854856260685
 30
0.0
 10
9.999999999999995
 20
6.096483309614615
 30
0.0
  0
SPLINE
  5
AC
330
1F
100
AcDbEntity
  8
0
  6
Continuous
 62
     1
370
    15
100
AcDbSpline
210
0.0
220
0.0
230
1.0
 70
     8
 71
     3
 72
    64
 73
    60
 74
     0
 42
0.000000001
 43
0.00000001
 40
0.0
 40
0.0
 40
0.0
 40
0.0
 40
0.03125
 40
0.03125
 40
0.0625
 40
0.0625
 40
0.0937500000000001
 40
0.0937500000000001
 40
0.1250000000000001
 40
0.1250000000000001
 40
0.1562500000000002
 40
0.1562500000000002
 40
0.1875000000000002
 40
0.1875000000000002
 40
0.2187500000000003
 40
0.2187500000000003
 40
0.2500000000000004
 40
0.2500000000000004
 40
0.2812500000000004
 40
0.2812500000000004
 40
0.3125000000000006
 40
0.3125000000000006
 40
0.3437500000000006
 40
0.3437500000000006
 40
0.3750000000000007
 40
0.3750000000000007
 40
0.4062500000000007
 40
0.4062500000000007
 40
0.4375000000000008
 40
0.4375000000000008
 40
0.4687500000000008
 40
0.4687500000000008
 40
0.5000000000000009
 40
0.5000000000000009
 40
0.5312500000000009
 40
0.5312500000000009
 40
0.5625000000000009
 40
0.5625000000000009
 40
0.5937500000000009
 40
0.5937500000000009
 40
0.6250000000000009
 40
0.6250000000000009
 40
0.6562500000000009
 40
0.6562500000000009
 40
0.6875000000000009
 40
0.6875000000000009
 40
0.7187500000000009
 40
0.7187500000000009
 40
0.7500000000000009
 40
0.7500000000000009
 40
0.7812500000000009
 40
0.7812500000000009
 40
0.8125000000000009
 40
0.8125000000000009
 40
0.8750000000000007
 40
0.8750000000000007
 40
0.9375000000000003
 40
0.9375000000000003
 40
1.0
 40
1.0
 40
1.0
 40
1.0
 10
9.999999999999995
 20
8.79517271664101
 30
0.0
 10
10.46956901255268
 20
8.737730471150325
 30
0.0
 10
10.93984640273988
 20
8.668292452958017
 30
0.0
 10
11.87608905355165
 20
8.506343901491968
 30
0.0
 10
12.34284791315873
 20
8.41382594704697
 30
0.0
 10
13.28183453936652
 20
8.205848976917432
 30
0.0
 10
13.7521759072821
 20
8.09049273620888
 30
0.0
 10
14.68882328074729
 20
7.838505916970955
 30
0.0
 10
15.15529036610195
 20
7.701899998897963
 30
0.0
 10
16.09409856294511
 20
7.407594246712113
 30
0.0
 10
16.56449031203849
 20
7.250061753478175
 30
0.0
 10
17.50151560194546
 20
6.916195740601962
 30
0.0
 10
17.96776030593068
 20
6.739945639847329
 30
0.0
 10
18.90636306007164
 20
6.368878657969793
 30
0.0
 10
19.37679158892624
 20
6.17428240373016
 30
0.0
 10
20.31416795288024
 20
5.769359103916185
 30
0.0
 10
20.78025968966254
 20
5.55918825063257
 30
0.0
 10
21.71863000748154
 20
5.12342007794636
 30
0.0
 10
22.18908171112809
 20
4.89807696245367
 30
0.0
 10
23.12678227310523
 20
4.435229904732743
 30
0.0
 10
23.59279047149261
 20
4.197956642233816
 30
0.0
 10
24.53090138167213
 20
3.711647410101835
 30
0.0
 10
25.00136265290258
 20
3.462873446640315
 30
0.0
 10
25.93936050581064
 20
2.957121291758445
 30
0.0
 10
26.40535460260751
 20
2.700439018523924
 30
0.0
 10
27.34317915871226
 20
2.179388312051586
 30
0.0
 10
27.81363638939427
 20
1.915260830631254
 30
0.0
 10
28.75190459763965
 20
1.383019465418338
 30
0.0
 10
29.21795403100035
 20
1.115248700007459
 30
0.0
 10
30.15546531405207
 20
0.5763816753256401
 30
0.0
 10
30.62590489644366
 20
0.3054767615164372
 30
0.0
 10
31.56441649850414
 20
-0.2359741536115501
 30
0.0
 10
32.03059070128594
 20
-0.5061538449057017
 30
0.0
 10
32.96776182233287
 20
-1.045336855475199
 30
0.0
 10
33.43817015039696
 20
-1.31422314192606
 30
0.0
 10
34.37689816139963
 20
-1.84730181802362
 30
0.0
 10
34.84326655451706
 20
-2.111131448534225
 30
0.0
 10
35.78007065719725
 20
-2.633123925762464
 30
0.0
 10
36.25043412791588
 20
-2.891261480317165
 30
0.0
 10
37.18935154221981
 20
-3.398655562225016
 30
0.0
 10
37.65598352800109
 20
-3.647578955541003
 30
0.0
 10
38.59239379109924
 20
-4.135437257442438
 30
0.0
 10
39.06269880578714
 20
-4.374445703420205
 30
0.0
 10
40.00177859957022
 20
-4.83967514832753
 30
0.0
 10
40.46874355511773
 20
-5.065614735594646
 30
0.0
 10
41.40473319511492
 20
-5.503508718347916
 30
0.0
 10
41.87496616073225
 20
-5.715629788671742
 30
0.0
 10
42.81418129458162
 20
-6.123582740181245
 30
0.0
 10
43.28154856513726
 20
-6.319200090021921
 30
0.0
 10
44.21709083875304
 20
-6.69292737228024
 30
0.0
 10
44.68723816921695
 20
-6.871277037541755
 30
0.0
 10
45.62656159072274
 20
-7.208701251686871
 30
0.0
 10
46.09440048303959
 20
-7.367633982305867
 30
0.0
 10
47.4970027931296
 20
-7.81380470027959
 30
0.0
 10
48.44001748702053
 20
-8.071106753173012
 30
0.0
 10
50.30915245627647
 20
-8.494178002622348
 30
0.0
 10
51.25323264231533
 20
-8.66125108115132
 30
0.0
 10
53.12131295258396
 20
-8.89882515031254
 30
0.0
 10
54.06651373143273
 20
-8.970176369485078
 30
0.0
 10
54.99999999999999
 20
-8.99239333706679
 30
0.0
  0
SPLINE
  5
AD
330
1F
100
AcDbEntity
  8
0
  6
Continuous
 62
     1
370
    15
100
AcDbSpline
210
0.0
220
0.0
230
1.0
 70
     8
 71
     3
 72
    15
 73
    11
 74
     0
 42
0.000000001
 43
0.00000001
 40
0.0
 40
0.0
 40
0.0
 40
0.0
 40
0.073408165250826
 40
0.2060724456569133
 40
0.3387379853457339
 40
0.4714043305914429
 40
0.6040710274244088
 40
0.7360478317738113
 40
0.8680242564763836
 40
1.0
 40
1.0
 40
1.0
 40
1.0
 10
32.63813197988657
 20
-0.8519352692642841
 30
0.0
 10
32.08419147272693
 20
-0.6306521184744867
 30
0.0
 10
30.52916180172538
 20
-0.0094629100245723
 30
0.0
 10
27.97302887947443
 20
1.029687923294346
 30
0.0
 10
24.96972845906106
 20
2.207173274650084
 30
0.0
 10
21.9664089204211
 20
3.304140213561043
 30
0.0
 10
18.96828132712424
 20
4.277931022418309
 30
0.0
 10
15.97537697000808
 20
5.088453225179604
 30
0.0
 10
12.98768282091015
 20
5.727232317605806
 30
0.0
 10
10.9958925602384
 20
5.973399857372455
 30
0.0
 10
10.00000000000001
 20
6.096483309614615
 30
0.0
  0
SPLINE
  5
AE
330
1F
100
AcDbEntity
  8
0
  6
Continuous
 62
     4
370
    15
100
AcDbSpline
210
0.0
220
0.0
230
1.0
 70
    24
 71
     3
 72
    10
 73
     6
 74
     0
 42
0.000000001
 43
0.00000001
 40
0.0
 40
0.0
 40
0.0
 40
0.0
 40
0.4999999999999996
 40
0.4999999999999996
 40
1.0
 40
1.0
 40
1.0
 40
1.0
 10
9.999999999999995
 20
8.795172716641003
 30
0.0
 10
9.999999999999995
 20
8.38807803950745
 30
0.0
 10
9.999999999999991
 20
7.925735097328827
 30
0.0
 10
9.999999999999991
 20
6.991226365223546
 30
0.0
 10
9.999999999999995
 20
6.5216256729889
 30
0.0
 10
9.999999999999995
 20
6.096483309614615
 30
0.0
  0
SPLINE
  5
AF
330
1F
100
AcDbEntity
  8
0
  6
Continuous
 62
     1
370
    15
100
AcDbSpline
210
0.0
220
0.0
230
1.0
 70
     8
 71
     3
 72
    23
 73
    19
 74
     0
 42
0.000000001
 43
0.00000001
 40
0.0
 40
0.0
 40
0.0
 40
0.0
 40
0.0641916940415227
 40
0.1283828384854508
 40
0.1925734562770935
 40
0.2567635703969792
 40
0.3209532038593345
 40
0.3839982469219397
 40
0.4470418506817364
 40
0.5100841648300122
 40
0.5731253393579038
 40
0.6374521818012614
 40
0.7017788129550117
 40
0.7661052494639428
 40
0.8304315079833093
 40
0.8947576051779389
 40
0.9590835577213377
 40
1.0
 40
1.0
 40
1.0
 40
1.0
 10
54.99999999999999
 20
-8.540467823087093
 30
0.0
 10
54.05913623062183
 20
-8.342107069617
 30
0.0
 10
52.1774167473698
 20
-7.945387261005464
 30
0.0
 10
49.35485560756921
 20
-7.015735141366178
 30
0.0
 10
46.53232122365372
 20
-5.876768347305326
 30
0.0
 10
43.70981599937446
 20
-4.54031352335118
 30
0.0
 10
40.90409639092472
 20
-3.06566289691563
 30
0.0
 10
38.11521918437474
 20
-1.501667630491046
 30
0.0
 10
35.34316579043936
 20
0.1001991084734556
 30
0.0
 10
32.57117660374549
 20
1.698910103576998
 30
0.0
 10
29.78040973537395
 20
3.254551574855402
 30
0.0
 10
26.97074921030226
 20
4.715889962694406
 30
0.0
 10
24.14227210478979
 20
6.03241468630898
 30
0.0
 10
21.31380002183611
 20
7.150002315874645
 30
0.0
 10
18.48533872539761
 20
8.03608528354329
 30
0.0
 10
15.6568856065986
 20
8.646163294047765
 30
0.0
 10
13.17154759833891
 20
8.97264129882861
 30
0.0
 10
11.62902756537503
 20
8.967667220822506
 30
0.0
 10
11.02932217099326
 20
8.96573338440639
 30
0.0
  0
SPLINE
  5
B0
330
1F
100
AcDbEntity
  8
0
  6
Continuous
 62
     1
370
    15
100
AcDbSpline
210
0.0
220
0.0
230
1.0
 70
     8
 71
     3
 72
    15
 73
    11
 74
     0
 42
0.000000001
 43
0.00000001
 40
0.0
 40
0.0
 40
0.0
 40
0.0
 40
0.1285213758759232
 40
0.2570472790949369
 40
0.3855772936597066
 40
0.5141110023455385
 40
0.6426479868237673
 40
0.7711878277858436
 40
0.8997301050680538
 40
0.9999999999999999
 40
0.9999999999999999
 40
0.9999999999999999
 40
0.9999999999999999
 10
54.99999999999999
 20
-7.100750379313937
 30
0.0
 10
53.9991281443548
 20
-6.892542547196885
 30
0.0
 10
51.99734917597003
 20
-6.476119548554133
 30
0.0
 10
48.99461078646485
 20
-5.541527598482713
 30
0.0
 10
45.99176332826912
 20
-4.4207205141158
 30
0.0
 10
42.98881641558754
 20
-3.131476625453164
 30
0.0
 10
39.98578175173893
 20
-1.727031678572509
 30
0.0
 10
36.98267023523967
 20
-0.2608701711762272
 30
0.0
 10
34.19968903153705
 20
1.115495220639052
 30
0.0
 10
32.41774359754535
 20
1.954062867274995
 30
0.0
 10
31.63686083369667
 20
2.32153933938688
 30
0.0
  0
LINE
  5
B1
330
1F
100
AcDbEntity
  8
0
  6
Continuous
 62
     1
370
    15
100
AcDbLine
 10
54.99999999999999
 20
-8.540467823087099
 30
0.0
 11
54.99999999999999
 21
-7.100750379313937
 31
0.0
  0
LINE
  5
B2
330
1F
100
AcDbEntity
  8
0
  6
Continuous
 62
     4
370
    15
100
AcDbLine
 10
9.999999999999995
 20
8.79517271664101
 30
0.0
 11
9.999999999999991
 21
9.000000000000005
 31
0.0
  0
LINE
  5
B3
330
1F
100
AcDbEntity
  8
0
  6
Continuous
 62
     1
370
    15
100
AcDbLine
 10
54.99999999999999
 20
-8.992393337066792
 30
0.0
 11
55.00000000000056
 21
-8.540467823087102
 31
0.0
  0
SPLINE
  5
B4
330
1F
100
AcDbEntity
  8
0
  6
Continuous
 62
     1
370
    15
100
AcDbSpline
210
0.0
220
0.0
230
1.0
 70
     8
 71
     3
 72
    12
 73
     8
 74
     0
 42
0.000000001
 43
0.00000001
 40
0.0
 40
0.0
 40
0.0
 40
0.0
 40
0.5
 40
0.5
 40
0.75
 40
0.75
 40
1.0
 40
1.0
 40
1.0
 40
1.0
 10
54.99999999999999
 20
-2.405186514266801
 30
0.0
 10
54.13971381298325
 20
-1.728859581839177
 30
0.0
 10
53.29231869166453
 20
-1.027668077686365
 30
0.0
 10
52.04074809507861
 20
0.061773807246514
 30
0.0
 10
51.62685406331185
 20
0.431278821987239
 30
0.0
 10
50.80624521854642
 20
1.184136286907566
 30
0.0
 10
50.39797665465187
 20
1.569041250122942
 30
0.0
 10
49.99999999999997
 20
1.955973187525284
 30
0.0
  0
LINE
  5
B5
330
1F
100
AcDbEntity
  8
0
  6
Continuous
 62
     1
370
    15
100
AcDbLine
 10
49.99999999999999
 20
2.937719435296593
 30
0.0
 11
54.99999999999999
 21
0.0000000000000061
 31
0.0
  0
LINE
  5
B6
330
1F
100
AcDbEntity
  8
0
  6
Continuous
 62
     1
370
    15
100
AcDbLine
 10
54.99999999999999
 20
0.0000000000000061
 30
0.0
 11
54.99999999999999
 21
-2.405186514266797
 31
0.0
  0
SPLINE
  5
B7
330
1F
100
AcDbEntity
  8
0
  6
Continuous
 62
     1
370
    15
100
AcDbSpline
210
0.0
220
0.0
230
1.0
 70
     8
 71
     3
 72
    15
 73
    11
 74
     0
 42
0.000000001
 43
0.00000001
 40
0.0
 40
0.0
 40
0.0
 40
0.0
 40
0.1097587251962564
 40
0.2195072487672472
 40
0.3292866361711769
 40
0.4703074167041281
 40
0.6113313748526116
 40
0.75235804324724
 40
0.8933869537042927
 40
1.0
 40
1.0
 40
1.0
 40
1.0
 10
49.99999999999998
 20
2.269675982330463
 30
0.0
 10
49.22100887582939
 20
2.606284696696213
 30
0.0
 10
47.66309903153191
 20
3.279470839022384
 30
0.0
 10
45.32610624174325
 20
4.202200049864454
 30
0.0
 10
42.76719181153471
 20
5.113058326700158
 30
0.0
 10
39.98577134890584
 20
5.947648719403042
 30
0.0
 10
36.98270007645728
 20
6.631378667191518
 30
0.0
 10
33.9795173341097
 20
7.060980275382555
 30
0.0
 10
31.22060260969534
 20
7.24546602479414
 30
0.0
 10
29.46274236900216
 20
7.162701326874127
 30
0.0
 10
28.70596093470947
 20
7.127070060320189
 30
0.0
  0
SPLINE
  5
B8
330
1F
100
AcDbEntity
  8
0
  6
Continuous
 62
     1
370
    15
100
AcDbSpline
210
0.0
220
0.0
230
1.0
 70
    24
 71
     3
 72
     8
 73
     4
 74
     0
 42
0.000000001
 43
0.00000001
 40
0.0
 40
0.0
 40
0.0
 40
0.0
 40
1.0
 40
1.0
 40
1.0
 40
1.0
 10
50.0
 20
1.955973187525297
 30
0.0
 10
50.0
 20
2.061208827775567
 30
0.0
 10
49.99999999999999
 20
2.165800204981201
 30
0.0
 10
49.99999999999999
 20
2.26967598233046
 30
0.0
  0
SPLINE
  5
B9
330
1F
100
AcDbEntity
  8
0
  6
Continuous
 62
     1
370
    15
100
AcDbSpline
210
0.0
220
0.0
230
1.0
 70
    24
 71
     3
 72
    10
 73
     6
 74
     0
 42
0.000000001
 43
0.00000001
 40
0.0
 40
0.0
 40
0.0
 40
0.0
 40
0.5
 40
0.5
 40
1.0
 40
1.0
 40
1.0
 40
1.0
 10
54.99999999999999
 20
-7.100750379313934
 30
0.0
 10
54.99999999999999
 20
-6.556422501034232
 30
0.0
 10
55.00000000000001
 20
-5.868643355158208
 30
0.0
 10
54.99999999999996
 20
-4.269623032356114
 30
0.0
 10
54.99999999999999
 20
-3.359766987461785
 30
0.0
 10
54.99999999999999
 20
-2.40518651426709
 30
0.0
  0
SPLINE
  5
BA
330
1F
100
AcDbEntity
  8
0
  6
Continuous
 62
     1
370
    15
100
AcDbSpline
210
0.0
220
0.0
230
1.0
 70
    24
 71
     3
 72
    10
 73
     6
 74
     0
 42
0.000000001
 43
0.00000001
 40
0.0
 40
0.0
 40
0.0
 40
0.0
 40
0.4999999999999999
 40
0.4999999999999999
 40
1.0
 40
1.0
 40
1.0
 40
1.0
 10
49.99999999999999
 20
2.269675982330458
 30
0.0
 10
49.99999999999999
 20
2.716702351941896
 30
0.0
 10
50.00000000000001
 20
3.143168731149018
 30
0.0
 10
49.99999999999999
 20
3.928424395620572
 30
0.0
 10
49.99999999999999
 20
4.287058423038024
 30
0.0
 10
50.0
 20
4.600248776142755
 30
0.0
  0
SPLINE
  5
BB
330
1F
100
AcDbEntity
  8
0
  6
Continuous
 62
     1
370
    15
100
AcDbSpline
210
0.0
220
0.0
230
1.0
 70
     8
 71
     3
 72
     9
 73
     5
 74
     0
 42
0.000000001
 43
0.00000001
 40
0.0
 40
0.0
 40
0.0
 40
0.0
 40
0.8972079707053926
 40
1.0
 40
1.0
 40
1.0
 40
1.0
 10
54.99999999999999
 20
6.300000000000005
 30
0.0
 10
53.99913019950811
 20
6.295361490445725
 30
0.0
 10
52.88359195957809
 20
6.290191552476232
 30
0.0
 10
51.76804739296534
 20
6.15754391152812
 30
0.0
 10
51.65337830319464
 20
6.14390879133392
 30
0.0
  0
SPLINE
  5
BC
330
1F
100
AcDbEntity
  8
0
  6
Continuous
 62
     1
370
    15
100
AcDbSpline
210
0.0
220
0.0
230
1.0
 70
     8
 71
     3
 72
    10
 73
     6
 74
     0
 42
0.000000001
 43
0.00000001
 40
0.0
 40
0.0
 40
0.0
 40
0.0
 40
0.5
 40
0.5
 40
1.0
 40
1.0
 40
1.0
 40
1.0
 10
54.99999999999999
 20
6.300000000000005
 30
0.0
 10
54.15631326354517
 20
6.071240674213187
 30
0.0
 10
53.31722513627346
 20
5.816690976438025
 30
0.0
 10
51.6488895869057
 20
5.252507842484855
 30
0.0
 10
50.82062103064067
 20
4.943697147379762
 30
0.0
 10
50.00000000000001
 20
4.600248776142755
 30
0.0
  0
SPLINE
  5
BD
330
1F
100
AcDbEntity
  8
0
  6
Continuous
 62
     1
370
    15
100
AcDbSpline
210
0.0
220
0.0
230
1.0
 70
     8
 71
     3
 72
     9
 73
     5
 74
     0
 42
0.000000001
 43
0.00000001
 40
0.0
 40
0.0
 40
0.0
 40
0.0
 40
0.4228853654790225
 40
1.0
 40
1.0
 40
1.0
 40
1.0
 10
15.17689394190789
 20
-7.461643730339198
 30
0.0
 10
14.44714928931064
 20
-7.533434337845502
 30
0.0
 10
12.72151697339772
 20
-7.703198092675333
 30
0.0
 10
10.99588656338992
 20
-7.6307861608135
 30
0.0
 10
9.99999999999998
 20
-7.588996175222102
 30
0.0
  0
SPLINE
  5
BE
330
1F
100
AcDbEntity
  8
0
  6
Continuous
 62
     1
370
    15
100
AcDbSpline
210
0.0
220
0.0
230
1.0
 70
     8
 71
     3
 72
    16
 73
    12
 74
     0
 42
0.000000001
 43
0.00000001
 40
0.0
 40
0.0
 40
0.0
 40
0.0
 40
0.0757512981501146
 40
0.1915056387280302
 40
0.3072614347247882
 40
0.4230183008714183
 40
0.5387758515769375
 40
0.6545337010443228
 40
0.7696895420636378
 40
0.884845060457392
 40
0.9999999999999999
 40
0.9999999999999999
 40
0.9999999999999999
 40
0.9999999999999999
 10
35.94488697614234
 20
-6.738939234931942
 30
0.0
 10
35.28976967638832
 20
-6.843129300175216
 30
0.0
 10
33.63357816555035
 20
-7.10653052867942
 30
0.0
 10
30.9762922978385
 20
-7.235238333178096
 30
0.0
 10
27.97302285275655
 20
-7.150301668542974
 30
0.0
 10
24.96972126822859
 20
-6.790831334995908
 30
0.0
 10
21.96640116619489
 20
-6.182683804148946
 30
0.0
 10
18.96827219928188
 20
-5.346853786707344
 30
0.0
 10
15.97537119088665
 20
-4.31479912092848
 30
0.0
 10
12.98767961537594
 20
-3.131265034975538
 30
0.0
 10
10.99589153643742
 20
-2.25393422749906
 30
0.0
 10
9.99999999999998
 20
-1.815269926281192
 30
0.0
  0
SPLINE
  5
BF
330
1F
100
AcDbEntity
  8
0
  6
Continuous
 62
     4
370
    15
100
AcDbSpline
210
0.0
220
0.0
230
1.0
 70
    24
 71
     3
 72
    14
 73
    10
 74
     0
 42
0.000000001
 43
0.00000001
 40
0.0
 40
0.0
 40
0.0
 40
0.0
 40
0.25
 40
0.25
 40
0.5
 40
0.5
 40
0.75
 40
0.75
 40
1.0
 40
1.0
 40
1.0
 40
1.0
 10
9.999999999999995
 20
-1.815269926281197
 30
0.0
 10
9.999999999999995
 20
-2.462216915547426
 30
0.0
 10
9.999999999999995
 20
-3.097785421685617
 30
0.0
 10
9.999999999999995
 20
-4.296693483649077
 30
0.0
 10
9.999999999999995
 20
-4.859631915205362
 30
0.0
 10
9.999999999999995
 20
-5.868733628603363
 30
0.0
 10
9.999999999999995
 20
-6.314605512502639
 30
0.0
 10
9.999999999999995
 20
-7.061731333505797
 30
0.0
 10
9.999999999999991
 20
-7.362939898553861
 30
0.0
 10
9.999999999999995
 20
-7.5889961752221
 30
0.0
  0
SPLINE
  5
C0
330
1F
100
AcDbEntity
  8
0
  6
Continuous
 62
     4
370
    15
100
AcDbSpline
210
0.0
220
0.0
230
1.0
 70
    24
 71
     3
 72
    14
 73
    10
 74
     0
 42
0.000000001
 43
0.00000001
 40
0.0
 40
0.0
 40
0.0
 40
0.0
 40
0.2499999999999998
 40
0.2499999999999998
 40
0.4999999999999999
 40
0.4999999999999999
 40
0.75
 40
0.75
 40
1.0
 40
1.0
 40
1.0
 40
1.0
 10
9.999999999999995
 20
6.096483309614615
 30
0.0
 10
9.999999999999995
 20
5.735835348724965
 30
0.0
 10
9.999999999999995
 20
5.276451746128987
 30
0.0
 10
9.999999999999995
 20
4.176733161522523
 30
0.0
 10
9.999999999999995
 20
3.536580925406655
 30
0.0
 10
9.999999999999995
 20
2.130434270759452
 30
0.0
 10
9.999999999999995
 20
1.365189105954204
 30
0.0
 10
9.999999999999995
 20
-0.2111739552924005
 30
0.0
 10
9.999999999999995
 20
-1.021439632953156
 30
0.0
 10
9.999999999999995
 20
-1.815269926281197
 30
0.0
  0
LINE
  5
C1
330
1F
100
AcDbEntity
  8
0
  6
Continuous
 62
     1
370
    15
100
AcDbLine
 10
54.99999999999999
 20
0.0000000000000061
 30
0.0
 11
54.99999999999999
 21
6.300000000000005
 31
0.0
  0
SPLINE
  5
C2
330
1F
100
AcDbEntity
  8
0
  6
Continuous
 62
     1
370
    15
100
AcDbSpline
210
0.0
220
0.0
230
1.0
 70
     8
 71
     3
 72
    12
 73
     8
 74
     0
 42
0.000000001
 43
0.00000001
 40
0.0
 40
0.0
 40
0.0
 40
0.0
 40
0.0087859171152053
 40
0.2565903058056884
 40
0.5043940730240274
 40
0.7521972830016589
 40
1.0
 40
1.0
 40
1.0
 40
1.0
 10
21.41408120247522
 20
-7.071988041757025
 30
0.0
 10
21.38065343684508
 20
-7.085173296948442
 30
0.0
 10
20.40440468637659
 20
-7.470245067752747
 30
0.0
 10
18.48533878345745
 20
-8.018944731211025
 30
0.0
 10
15.65688557742857
 20
-8.65449737320487
 30
0.0
 10
12.82844012043995
 20
-9.001516685786685
 30
0.0
 10
10.9428127482665
 20
-8.987417044841214
 30
0.0
 10
9.999999999996689
 20
-8.980367231380935
 30
0.0
  0
SPLINE
  5
C3
330
1F
100
AcDbEntity
  8
0
  6
Continuous
 62
     4
370
    15
100
AcDbSpline
210
0.0
220
0.0
230
1.0
 70
    24
 71
     3
 72
     8
 73
     4
 74
     0
 42
0.000000001
 43
0.00000001
 40
0.0
 40
0.0
 40
0.0
 40
0.0
 40
1.0
 40
1.0
 40
1.0
 40
1.0
 10
10.00000000000002
 20
-7.588996175222103
 30
0.0
 10
10.00000000000002
 20
-8.060122244612742
 30
0.0
 10
10.00000000000002
 20
-8.526925942436892
 30
0.0
 10
10.00000000000002
 20
-8.980367231370892
 30
0.0
  0
SPLINE
  5
C4
330
1F
100
AcDbEntity
  8
0
  6
Continuous
 62
     1
370
    15
100
AcDbSpline
210
0.0
220
0.0
230
1.0
 70
     8
 71
     3
 72
    14
 73
    10
 74
     0
 42
0.000000001
 43
0.00000001
 40
0.0
 40
0.0
 40
0.0
 40
0.0
 40
0.0280179241498442
 40
0.2376671258874471
 40
0.3429691606015283
 40
0.5055009140286078
 40
0.6687125068565019
 40
0.8339990531119448
 40
1.0
 40
1.0
 40
1.0
 40
1.0
 10
42.61695557679548
 20
6.033134232715985
 30
0.0
 10
42.73261898763921
 20
6.083720159610471
 30
0.0
 10
43.71375485903884
 20
6.512824464093063
 30
0.0
 10
45.13006937306805
 20
7.047154720845167
 30
0.0
 10
47.09962810665193
 20
7.698193498449031
 30
0.0
 10
48.87980262872913
 20
8.189344440420818
 30
0.0
 10
50.90628718849686
 20
8.610651021826987
 30
0.0
 10
52.94705606128993
 20
8.89862293837668
 30
0.0
 10
54.31470227276454
 20
8.961091634232828
 30
0.0
 10
54.9999999999996
 20
8.992393337066776
 30
0.0
  0
SPLINE
  5
C5
330
1F
100
AcDbEntity
  8
0
  6
Continuous
 62
     1
370
    15
100
AcDbSpline
210
0.0
220
0.0
230
1.0
 70
    24
 71
     3
 72
    10
 73
     6
 74
     0
 42
0.000000001
 43
0.00000001
 40
0.0
 40
0.0
 40
0.0
 40
0.0
 40
0.5000000000000004
 40
0.5000000000000004
 40
1.0
 40
1.0
 40
1.0
 40
1.0
 10
54.99999999999999
 20
6.300000000000005
 30
0.0
 10
55.00000000000002
 20
6.68189031126583
 30
0.0
 10
54.99999999999999
 20
7.125682219804056
 30
0.0
 10
54.99999999999999
 20
8.0567564486477
 30
0.0
 10
54.99999999999999
 20
8.541660922213254
 30
0.0
 10
54.99999999999999
 20
8.992393337066797
 30
0.0
  0
LINE
  5
C6
330
1F
100
AcDbEntity
  8
중심선
100
AcDbLine
 10
-48.47585488879667
 20
0.0000000000000036
 30
0.0
 11
57.99999999999997
 21
-0.0000000000000035
 31
0.0
  0
CIRCLE
  5
C7
330
1F
100
AcDbEntity
  8
외형선
100
AcDbCircle
 10
0.0000000000000087
 20
-0.0000000000000035
 30
0.0
 40
3.000000000000004
  0
INSERT
  5
C8
330
1F
100
AcDbEntity
  8
0
  6
Continuous
 62
     7
100
AcDbBlockReference
 66
     1
  2
블럭10
 10
-23.93827343951161
 20
-52.04717430164393
 30
0.0
  0
ATTRIB
  5
C9
330
C8
100
AcDbEntity
  8
FORMAT
 62
     2
100
AcDbText
 10
-36.89821263436938
 20
-49.97180738881174
 30
0.0
 40
4.233333333333333
  1
SEME35180E [ 2 FLUTE ]
 41
0.75
  7
SLDTEXTSTYLE0
 11
-36.89821263436938
 21
-52.08847405547841
 31
0.0
100
AcDbAttribute
  2
AUTOATTR0
 70
     0
 74
     1
  0
SEQEND
  5
CA
330
C8
100
AcDbEntity
  8
0
  6
Continuous
 62
     7
  0
HATCH
  5
CB
330
1F
100
AcDbEntity
  8
중심선
100
AcDbHatch
 10
0.0
 20
0.0
 30
0.0
210
0.0
220
0.0
230
1.0
  2
SOLID
 70
     1
 71
     0
 91
        1
 92
        0
 93
        4
 72
     1
 10
-18.22336413513076
 20
-35.8
 11
-21.66963937896804
 21
-35.8
 72
     1
 10
-21.66963937896804
 20
-35.8
 11
-23.79786923817207
 21
-38.33632558057259
 72
     1
 10
-23.79786923817207
 20
-38.33632558057259
 11
-20.35156090922163
 21
-38.3362861512701
 72
     1
 10
-20.35156090922163
 20
-38.3362861512701
 11
-18.22336413513076
 21
-35.8
 97
        0
 75
     0
 76
     1
 98
        1
 10
0.0
 20
0.0
  0
HATCH
  5
CC
330
1F
100
AcDbEntity
  8
중심선
100
AcDbHatch
 10
0.0
 20
0.0
 30
0.0
210
0.0
220
0.0
230
1.0
  2
SOLID
 70
     1
 71
     0
 91
        1
 92
        0
 93
        4
 72
     1
 10
-13.21060014409481
 20
-35.8
 11
-16.65687538793209
 21
-35.8
 72
     1
 10
-16.65687538793209
 20
-35.8
 11
-21.18801339628948
 21
-41.20000000000002
 72
     1
 10
-21.18801339628948
 20
-41.20000000000002
 11
-17.7417381524522
 21
-41.20000000000002
 72
     1
 10
-17.7417381524522
 20
-41.20000000000002
 11
-13.21060014409481
 21
-35.8
 97
        0
 75
     0
 76
     1
 98
        1
 10
0.0
 20
0.0
  0
HATCH
  5
CD
330
1F
100
AcDbEntity
  8
중심선
100
AcDbHatch
 10
0.0
 20
0.0
 30
0.0
210
0.0
220
0.0
230
1.0
  2
SOLID
 70
     1
 71
     0
 91
        1
 92
        0
 93
        4
 72
     1
 10
-8.197836153058912
 20
-35.80000000000003
 11
-11.64411139689603
 21
-35.8
 72
     1
 10
-11.64411139689603
 20
-35.8
 11
-18.69254829878528
 21
-44.20000000000002
 72
     1
 10
-18.69254829878528
 20
-44.20000000000002
 11
-15.246273054948
 21
-44.20000000000002
 72
     1
 10
-15.246273054948
 20
-44.20000000000002
 11
-8.197836153058912
 21
-35.80000000000003
 97
        0
 75
     0
 76
     1
 98
        1
 10
0.0
 20
0.0
  0
HATCH
  5
CE
330
1F
100
AcDbEntity
  8
중심선
100
AcDbHatch
 10
0.0
 20
0.0
 30
0.0
210
0.0
220
0.0
230
1.0
  2
SOLID
 70
     1
 71
     0
 91
        1
 92
        0
 93
        6
 72
     3
 10
-3.397945722046714
 20
-40.00000000005127
 11
3.960054785062284
 21
1.540850780301639E-10
 40
0.3939339440162633
 50
17.09539180608433
 51
320.0019657685079
 73
     0
 72
     1
 10
-1.714946066346118
 20
-38.5878940046383
 11
0.5903558073549198
 21
-36.65356729459038
 72
     3
 10
-3.39794572209956
 20
-40.00000000000015
 11
6.600054785286829
 21
-1.249000902703301E-13
 40
0.6363583540795982
 50
39.99873849337408
 51
368.4976242363724
 73
     1
 72
     1
 10
3.027386769801049
 20
-39.03999999993002
 11
-4.717878415263636
 21
-39.03999999992999
 72
     1
 10
-4.717878415263637
 20
-39.03999999992999
 11
-4.717903459709571
 21
-40.95999999992991
 72
     1
 10
-4.717903459709571
 20
-40.95999999992991
 11
-0.2765236902375348
 21
-40.95999999992988
 97
        0
 75
     0
 76
     1
 98
        1
 10
0.0
 20
0.0
  0
DIMENSION
  5
CF
330
1F
100
AcDbEntity
  8
치수문자_일반주서
100
AcDbDimension
  2
_D
 10
9.999999999999991
 20
21.24302722564457
 30
0.0
 11
32.49999999999999
 21
21.24302722564458
 31
0.0
 70
   160
  1
<>
 71
     2
 42
-1.0
  3
SLDDIMSTYLE0
100
AcDbAlignedDimension
 13
54.99999999999999
 23
8.992393337066797
 33
0.0
 14
9.999999999999991
 24
9.0
 34
0.0
 50
0.000000000000009
100
AcDbRotatedDimension
  0
DIMENSION
  5
DA
102
{ACAD_XDICTIONARY
360
152
102
}
330
1F
100
AcDbEntity
  8
치수문자_일반주서
100
AcDbDimension
  2
_D_1
 10
-45.00000000000001
 20
29.08415911661227
 30
0.0
 11
0.0000000000000052
 21
29.08415911661227
 31
0.0
 70
   160
  1
<>
 71
     2
 42
99.9999999999996
  3
SLDDIMSTYLE0
100
AcDbAlignedDimension
 13
54.9999999999996
 23
8.992393337066776
 33
0.0
 14
-45.00000000000001
 24
6.999999999999986
 34
0.0
 50
0.0000000000000037
100
AcDbRotatedDimension
1001
ENABLE_CUSTOM_SPLIT
1070
     1
  0
DIMENSION
  5
E4
330
1F
100
AcDbEntity
  8
치수문자_일반주서
100
AcDbDimension
  2
_D_2
 10
70.56619031224629
 20
-8.99999999999979
 30
0.0
 11
70.56619031224626
 21
0.0000000000000012
 31
0.0
 70
   160
  1
%%c<>
 71
     2
 42
18.00000000000001
  3
SLDDIMSTYLE1
100
AcDbAlignedDimension
 13
9.999999999999993
 23
9.000000000000005
 33
0.0
 14
9.999999999999993
 24
-9.000000000000005
 34
0.0
 50
90.0000000000002
100
AcDbRotatedDimension
  0
DIMENSION
  5
F2
102
{ACAD_XDICTIONARY
360
15B
102
}
330
1F
100
AcDbEntity
  8
치수문자_일반주서
100
AcDbDimension
  2
_D_3
 10
-54.65000000000001
 20
-8.000000000000052
 30
0.0
 11
-54.65000000000004
 21
-0.000000000000048
 31
0.0
 70
   160
  1
%%c<>
 71
     2
 42
16.00000000000001
  3
SLDDIMSTYLE1
100
AcDbAlignedDimension
 13
-44.0
 23
7.999999999999993
 33
0.0
 14
-44.00000000000001
 24
-8.000000000000014
 34
0.0
 50
90.0000000000002
100
AcDbRotatedDimension
1001
ENABLE_CUSTOM_SPLIT
1070
     1
  0
INSERT
  5
105
330
1F
100
AcDbEntity
  8
외형선
100
AcDbBlockReference
  2
SW_DOWELSYMBOL_0
 10
0.0000000000000087
 20
-0.0000000000000035
 30
0.0
  0
LINE
  5
12B
330
1F
100
AcDbEntity
  8
0
  6
Continuous
 62
     4
370
    15
100
AcDbLine
 10
-44.00000000000001
 20
7.999999999999985
 30
0.0
 11
-44.00000000000001
 21
-8.000000000000014
 31
0.0
  0
ENDSEC
  0
SECTION
  2
OBJECTS
  0
DICTIONARY
  5
C
330
0
100
AcDbDictionary
281
     1
  3
ACAD_GROUP
350
D
  3
ACAD_IMAGE_VARS
350
129
  3
ACAD_LAYOUT
350
1A
  3
ACAD_MLINESTYLE
350
17
  3
ACAD_PLOTSETTINGS
350
19
  3
ACAD_PLOTSTYLENAME
350
E
  3
ACAD_SCALELIST
350
47
  3
APPDATA
350
127
  3
DWGPROPS
350
163
  0
DICTIONARY
  5
161
330
1F
100
AcDbDictionary
280
     1
281
     1
  3
DIM_BOUNDING_BOXES_V1
360
162
  0
DICTIONARY
  5
152
330
DA
100
AcDbDictionary
280
     1
281
     1
  3
ACAD_CUSTOM_BREAKDATA
360
15A
  0
DICTIONARY
  5
15B
330
F2
100
AcDbDictionary
280
     1
281
     1
  3
ACAD_CUSTOM_BREAKDATA
360
160
  0
DICTIONARY
  5
D
102
{ACAD_REACTORS
330
C
102
}
330
C
100
AcDbDictionary
281
     1
  0
RASTERVARIABLES
  5
129
102
{ACAD_REACTORS
330
C
102
}
330
C
100
AcDbRasterVariables
 90
        0
 70
     1
 71
     1
 72
     1
  0
DICTIONARY
  5
1A
102
{ACAD_REACTORS
330
C
102
}
330
C
100
AcDbDictionary
281
     1
  3
Layout1
350
1E
  3
Layout2
350
26
  3
Model
350
22
  0
DICTIONARY
  5
17
102
{ACAD_REACTORS
330
C
102
}
330
C
100
AcDbDictionary
281
     1
  3
Standard
350
18
  0
DICTIONARY
  5
19
102
{ACAD_REACTORS
330
C
102
}
330
C
100
AcDbDictionary
281
     1
  0
ACDBDICTIONARYWDFLT
  5
E
102
{ACAD_REACTORS
330
C
102
}
330
C
100
AcDbDictionary
281
     1
  3
Normal
350
F
100
AcDbDictionaryWithDefault
340
F
  0
DICTIONARY
  5
47
102
{ACAD_REACTORS
330
C
102
}
330
C
100
AcDbDictionary
281
     1
  3
A0
350
48
  3
A1
350
49
  3
A2
350
4A
  3
A3
350
4B
  3
A4
350
4C
  3
A5
350
4D
  3
A6
350
4E
  3
A7
350
4F
  3
A8
350
50
  3
A9
350
51
  3
B0
350
52
  3
B1
350
53
  3
B2
350
54
  3
B3
350
55
  3
B4
350
56
  3
B5
350
57
  3
B6
350
58
  3
B7
350
59
  3
B8
350
5A
  3
B9
350
5B
  3
C0
350
5C
  3
C1
350
5D
  3
C2
350
5E
  3
C3
350
5F
  3
C4
350
60
  3
C5
350
61
  3
C6
350
62
  3
C7
350
63
  3
C8
350
64
  3
C9
350
65
  3
D0
350
66
  3
D1
350
67
  3
D2
350
68
  0
DICTIONARY
  5
127
102
{ACAD_REACTORS
330
C
102
}
330
C
100
AcDbDictionary
281
     1
  0
XRECORD
  5
163
102
{ACAD_REACTORS
330
C
102
}
330
C
100
AcDbXrecord
280
     1
  1
DWGPROPS COOKIE
  2

  3

  4

  6

  7

  8
12017152
  9

300
=
301
=
302
=
303
=
304
=
305
=
306
=
307
=
308
=
309
=
 40
0.0
 41
2458250.136179861
 42
2459699.321811898
  1

 90
        0
  0
DICTIONARY
  5
162
102
{ACAD_REACTORS
330
161
102
}
330
161
100
AcDbDictionary
281
     1
  0
BREAKDATA
  5
15A
102
{ACAD_REACTORS
330
152
102
}
330
152
100
AcDbBreakData
 70
     0
330
DA
 90
        0
  0
BREAKDATA
  5
160
102
{ACAD_REACTORS
330
15B
102
}
330
15B
100
AcDbBreakData
 70
     0
330
F2
 90
        0
  0
LAYOUT
  5
1E
102
{ACAD_REACTORS
330
1A
102
}
330
1A
100
AcDbPlotSettings
  1

  2
none_device
  4

  6

 40
0.0
 41
0.0
 42
0.0
 43
0.0
 44
0.0
 45
0.0
 46
0.0
 47
0.0
 48
0.0
 49
0.0
140
0.0
141
0.0
142
1.0
143
1.0
 70
   688
 72
     1
 73
     0
 74
     5
  7

 75
    16
147
1.0
148
0.0
149
0.0
100
AcDbLayout
  1
Layout1
 70
     1
 71
     1
 10
0.0
 20
0.0
 11
420.0
 21
297.0
 12
0.0
 22
0.0
 32
0.0
 14
1.000000000000000E+20
 24
1.000000000000000E+20
 34
1.000000000000000E+20
 15
-1.000000000000000E+20
 25
-1.000000000000000E+20
 35
-1.000000000000000E+20
146
0.0
 13
0.0
 23
0.0
 33
0.0
 16
1.0
 26
0.0
 36
0.0
 17
0.0
 27
1.0
 37
0.0
 76
     0
330
1B
  0
LAYOUT
  5
26
102
{ACAD_REACTORS
330
1A
102
}
330
1A
100
AcDbPlotSettings
  1

  2
none_device
  4

  6

 40
0.0
 41
0.0
 42
0.0
 43
0.0
 44
0.0
 45
0.0
 46
0.0
 47
0.0
 48
0.0
 49
0.0
140
0.0
141
0.0
142
1.0
143
1.0
 70
   688
 72
     1
 73
     0
 74
     5
  7

 75
    16
147
1.0
148
0.0
149
0.0
100
AcDbLayout
  1
Layout2
 70
     1
 71
     2
 10
0.0
 20
0.0
 11
0.0
 21
0.0
 12
0.0
 22
0.0
 32
0.0
 14
0.0
 24
0.0
 34
0.0
 15
0.0
 25
0.0
 35
0.0
146
0.0
 13
0.0
 23
0.0
 33
0.0
 16
1.0
 26
0.0
 36
0.0
 17
0.0
 27
1.0
 37
0.0
 76
     0
330
23
  0
LAYOUT
  5
22
102
{ACAD_REACTORS
330
1A
102
}
330
1A
100
AcDbPlotSettings
  1

  2
none_device
  4
ANSI_A_(11.00_x_8.50_Inches)
  6

 40
6.35
 41
19.05
 42
6.35000508
 43
19.05000254
 44
279.4
 45
215.9
 46
132.7859019798055
 47
105.5097106404469
 48
0.0
 49
0.0
140
0.0
141
0.0
142
0.0763937336837208
143
1.0
 70
  1696
 72
     0
 73
     0
 74
     0
  7

 75
     0
147
0.0235690232323232
148
0.0
149
0.0
100
AcDbLayout
  1
Model
 70
     1
 71
     0
 10
0.0
 20
0.0
 11
420.0
 21
297.0
 12
0.0
 22
0.0
 32
0.0
 14
-59.02500000000005
 24
-49.97180738881174
 34
0.0
 15
71.1165236455796
 25
33.45915911661227
 35
0.0
146
0.0
 13
0.0
 23
0.0
 33
0.0
 16
1.0
 26
0.0
 36
0.0
 17
0.0
 27
1.0
 37
0.0
 76
     0
330
1F
331
29
  0
MLINESTYLE
  5
18
102
{ACAD_REACTORS
330
17
102
}
330
17
100
AcDbMlineStyle
  2
Standard
 70
     0
  3

 62
   256
 51
90.0
 52
90.0
 71
     2
 49
0.5
 62
   256
  6
BYLAYER
 49
-0.5
 62
   256
  6
BYLAYER
  0
ACDBPLACEHOLDER
  5
F
102
{ACAD_REACTORS
330
E
102
}
330
E
  0
SCALE
  5
48
102
{ACAD_REACTORS
330
47
102
}
330
47
100
AcDbScale
 70
     0
300
1:1
140
1.0
141
1.0
290
     1
  0
SCALE
  5
49
102
{ACAD_REACTORS
330
47
102
}
330
47
100
AcDbScale
 70
     0
300
1:2
140
1.0
141
2.0
290
     0
  0
SCALE
  5
4A
102
{ACAD_REACTORS
330
47
102
}
330
47
100
AcDbScale
 70
     0
300
1:4
140
1.0
141
4.0
290
     0
  0
SCALE
  5
4B
102
{ACAD_REACTORS
330
47
102
}
330
47
100
AcDbScale
 70
     0
300
1:5
140
1.0
141
5.0
290
     0
  0
SCALE
  5
4C
102
{ACAD_REACTORS
330
47
102
}
330
47
100
AcDbScale
 70
     0
300
1:8
140
1.0
141
8.0
290
     0
  0
SCALE
  5
4D
102
{ACAD_REACTORS
330
47
102
}
330
47
100
AcDbScale
 70
     0
300
1:10
140
1.0
141
10.0
290
     0
  0
SCALE
  5
4E
102
{ACAD_REACTORS
330
47
102
}
330
47
100
AcDbScale
 70
     0
300
1:16
140
1.0
141
16.0
290
     0
  0
SCALE
  5
4F
102
{ACAD_REACTORS
330
47
102
}
330
47
100
AcDbScale
 70
     0
300
1:20
140
1.0
141
20.0
290
     0
  0
SCALE
  5
50
102
{ACAD_REACTORS
330
47
102
}
330
47
100
AcDbScale
 70
     0
300
1:30
140
1.0
141
30.0
290
     0
  0
SCALE
  5
51
102
{ACAD_REACTORS
330
47
102
}
330
47
100
AcDbScale
 70
     0
300
1:40
140
1.0
141
40.0
290
     0
  0
SCALE
  5
52
102
{ACAD_REACTORS
330
47
102
}
330
47
100
AcDbScale
 70
     0
300
1:50
140
1.0
141
50.0
290
     0
  0
SCALE
  5
53
102
{ACAD_REACTORS
330
47
102
}
330
47
100
AcDbScale
 70
     0
300
1:100
140
1.0
141
100.0
290
     0
  0
SCALE
  5
54
102
{ACAD_REACTORS
330
47
102
}
330
47
100
AcDbScale
 70
     0
300
2:1
140
2.0
141
1.0
290
     0
  0
SCALE
  5
55
102
{ACAD_REACTORS
330
47
102
}
330
47
100
AcDbScale
 70
     0
300
4:1
140
4.0
141
1.0
290
     0
  0
SCALE
  5
56
102
{ACAD_REACTORS
330
47
102
}
330
47
100
AcDbScale
 70
     0
300
8:1
140
8.0
141
1.0
290
     0
  0
SCALE
  5
57
102
{ACAD_REACTORS
330
47
102
}
330
47
100
AcDbScale
 70
     0
300
10:1
140
10.0
141
1.0
290
     0
  0
SCALE
  5
58
102
{ACAD_REACTORS
330
47
102
}
330
47
100
AcDbScale
 70
     0
300
100:1
140
100.0
141
1.0
290
     0
  0
SCALE
  5
59
102
{ACAD_REACTORS
330
47
102
}
330
47
100
AcDbScale
 70
     0
300
1/128" = 1'-0"
140
0.0078125
141
12.0
290
     0
  0
SCALE
  5
5A
102
{ACAD_REACTORS
330
47
102
}
330
47
100
AcDbScale
 70
     0
300
1/64" = 1'-0"
140
0.015625
141
12.0
290
     0
  0
SCALE
  5
5B
102
{ACAD_REACTORS
330
47
102
}
330
47
100
AcDbScale
 70
     0
300
1/32" = 1'-0"
140
0.03125
141
12.0
290
     0
  0
SCALE
  5
5C
102
{ACAD_REACTORS
330
47
102
}
330
47
100
AcDbScale
 70
     0
300
1/16" = 1'-0"
140
0.0625
141
12.0
290
     0
  0
SCALE
  5
5D
102
{ACAD_REACTORS
330
47
102
}
330
47
100
AcDbScale
 70
     0
300
3/32" = 1'-0"
140
0.09375
141
12.0
290
     0
  0
SCALE
  5
5E
102
{ACAD_REACTORS
330
47
102
}
330
47
100
AcDbScale
 70
     0
300
1/8" = 1'-0"
140
0.125
141
12.0
290
     0
  0
SCALE
  5
5F
102
{ACAD_REACTORS
330
47
102
}
330
47
100
AcDbScale
 70
     0
300
3/16" = 1'-0"
140
0.1875
141
12.0
290
     0
  0
SCALE
  5
60
102
{ACAD_REACTORS
330
47
102
}
330
47
100
AcDbScale
 70
     0
300
1/4" = 1'-0"
140
0.25
141
12.0
290
     0
  0
SCALE
  5
61
102
{ACAD_REACTORS
330
47
102
}
330
47
100
AcDbScale
 70
     0
300
3/8" = 1'-0"
140
0.375
141
12.0
290
     0
  0
SCALE
  5
62
102
{ACAD_REACTORS
330
47
102
}
330
47
100
AcDbScale
 70
     0
300
1/2" = 1'-0"
140
0.5
141
12.0
290
     0
  0
SCALE
  5
63
102
{ACAD_REACTORS
330
47
102
}
330
47
100
AcDbScale
 70
     0
300
3/4" = 1'-0"
140
0.75
141
12.0
290
     0
  0
SCALE
  5
64
102
{ACAD_REACTORS
330
47
102
}
330
47
100
AcDbScale
 70
     0
300
1" = 1'-0"
140
1.0
141
12.0
290
     0
  0
SCALE
  5
65
102
{ACAD_REACTORS
330
47
102
}
330
47
100
AcDbScale
 70
     0
300
1-1/2" = 1'-0"
140
1.5
141
12.0
290
     0
  0
SCALE
  5
66
102
{ACAD_REACTORS
330
47
102
}
330
47
100
AcDbScale
 70
     0
300
3" = 1'-0"
140
3.0
141
12.0
290
     0
  0
SCALE
  5
67
102
{ACAD_REACTORS
330
47
102
}
330
47
100
AcDbScale
 70
     0
300
6" = 1'-0"
140
6.0
141
12.0
290
     0
  0
SCALE
  5
68
102
{ACAD_REACTORS
330
47
102
}
330
47
100
AcDbScale
 70
     0
300
1'-0" = 1'-0"
140
12.0
141
12.0
290
     0
  0
ENDSEC
  0
EOF
