  0
SECTION
  2
HEADER
  9
$ACADVER
  1
AC1015
  9
$ACADMAINTVER
 70
     6
  9
$DWGCODEPAGE
  3
ANSI_949
  9
$INSBASE
 10
0.0
 20
0.0
 30
0.0
  9
$EXTMIN
 10
-72.74463923375899
 20
-49.97180738881174
 30
0.0
  9
$EXTMAX
 10
59.1664438572092
 20
32.40915911661227
 30
0.0
  9
$LIMMIN
 10
0.0
 20
0.0
  9
$LIMMAX
 10
420.0
 20
297.0
  9
$ORTHOMODE
 70
     1
  9
$REGENMODE
 70
     1
  9
$FILLMODE
 70
     1
  9
$QTEXTMODE
 70
     0
  9
$MIRRTEXT
 70
     1
  9
$LTSCALE
 40
1.0
  9
$ATTMODE
 70
     1
  9
$TEXTSIZE
 40
3.5
  9
$TRACEWID
 40
1.0
  9
$TEXTSTYLE
  7
Standard
  9
$CLAYER
  8
0
  9
$CELTYPE
  6
ByLayer
  9
$CECOLOR
 62
   256
  9
$CELTSCALE
 40
1.0
  9
$DISPSILH
 70
     0
  9
$DIMSCALE
 40
1.0
  9
$DIMASZ
 40
3.302
  9
$DIMEXO
 40
1.0
  9
$DIMDLI
 40
3.75
  9
$DIMRND
 40
0.0
  9
$DIMDLE
 40
0.0
  9
$DIMEXE
 40
1.0
  9
$DIMTP
 40
0.0
  9
$DIMTM
 40
0.0
  9
$DIMTXT
 40
3.5
  9
$DIMCEN
 40
2.5
  9
$DIMTSZ
 40
0.0
  9
$DIMTOL
 70
     0
  9
$DIMLIM
 70
     0
  9
$DIMTIH
 70
     1
  9
$DIMTOH
 70
     1
  9
$DIMSE1
 70
     0
  9
$DIMSE2
 70
     0
  9
$DIMTAD
 70
     1
  9
$DIMZIN
 70
     0
  9
$DIMBLK
  1

  9
$DIMASO
 70
     1
  9
$DIMSHO
 70
     1
  9
$DIMPOST
  1

  9
$DIMAPOST
  1

  9
$DIMALT
 70
     0
  9
$DIMALTD
 70
     3
  9
$DIMALTF
 40
0.0393700787401575
  9
$DIMLFAC
 40
1.0
  9
$DIMTOFL
 70
     1
  9
$DIMTVP
 40
0.0
  9
$DIMTIX
 70
     0
  9
$DIMSOXD
 70
     0
  9
$DIMSAH
 70
     0
  9
$DIMBLK1
  1

  9
$DIMBLK2
  1

  9
$DIMSTYLE
  2
ISO-25
  9
$DIMCLRD
 70
     0
  9
$DIMCLRE
 70
     0
  9
$DIMCLRT
 70
     0
  9
$DIMTFAC
 40
1.0
  9
$DIMGAP
 40
1.524
  9
$DIMJUST
 70
     0
  9
$DIMSD1
 70
     0
  9
$DIMSD2
 70
     0
  9
$DIMTOLJ
 70
     0
  9
$DIMTZIN
 70
     0
  9
$DIMALTZ
 70
     0
  9
$DIMALTTZ
 70
     0
  9
$DIMUPT
 70
     0
  9
$DIMDEC
 70
     2
  9
$DIMTDEC
 70
     2
  9
$DIMALTU
 70
     2
  9
$DIMALTTD
 70
     3
  9
$DIMTXSTY
  7
Standard
  9
$DIMAUNIT
 70
     0
  9
$DIMADEC
 70
     2
  9
$DIMALTRND
 40
0.0
  9
$DIMAZIN
 70
     0
  9
$DIMDSEP
 70
    44
  9
$DIMATFIT
 70
     3
  9
$DIMFRAC
 70
     0
  9
$DIMLDRBLK
  1

  9
$DIMLUNIT
 70
     2
  9
$DIMLWD
 70
    -2
  9
$DIMLWE
 70
    -2
  9
$DIMTMOVE
 70
     0
  9
$LUNITS
 70
     2
  9
$LUPREC
 70
     2
  9
$SKETCHINC
 40
1.0
  9
$FILLETRAD
 40
10.0
  9
$AUNITS
 70
     0
  9
$AUPREC
 70
     2
  9
$MENU
  1
.
  9
$ELEVATION
 40
0.0
  9
$PELEVATION
 40
0.0
  9
$THICKNESS
 40
0.0
  9
$LIMCHECK
 70
     0
  9
$CHAMFERA
 40
0.0
  9
$CHAMFERB
 40
0.0
  9
$CHAMFERC
 40
0.0
  9
$CHAMFERD
 40
0.0
  9
$SKPOLY
 70
     0
  9
$TDCREATE
 40
2458250.510319954
  9
$TDUCREATE
 40
2458250.135319954
  9
$TDUPDATE
 40
2459699.699849271
  9
$TDUUPDATE
 40
2459699.324849271
  9
$TDINDWG
 40
0.0040951157
  9
$TDUSRTIMER
 40
0.0023691204
  9
$USRTIMER
 70
     1
  9
$ANGBASE
 50
0.0
  9
$ANGDIR
 70
     0
  9
$PDMODE
 70
     0
  9
$PDSIZE
 40
-1.0
  9
$PLINEWID
 40
0.0
  9
$SPLFRAME
 70
     0
  9
$SPLINETYPE
 70
     6
  9
$SPLINESEGS
 70
     8
  9
$HANDSEED
  5
16B
  9
$SURFTAB1
 70
     6
  9
$SURFTAB2
 70
     6
  9
$SURFTYPE
 70
     6
  9
$SURFU
 70
     6
  9
$SURFV
 70
     6
  9
$UCSBASE
  2

  9
$UCSNAME
  2

  9
$UCSORG
 10
0.0
 20
0.0
 30
0.0
  9
$UCSXDIR
 10
1.0
 20
0.0
 30
0.0
  9
$UCSYDIR
 10
0.0
 20
1.0
 30
0.0
  9
$UCSORTHOREF
  2

  9
$UCSORTHOVIEW
 70
     0
  9
$UCSORGTOP
 10
0.0
 20
0.0
 30
0.0
  9
$UCSORGBOTTOM
 10
0.0
 20
0.0
 30
0.0
  9
$UCSORGLEFT
 10
0.0
 20
0.0
 30
0.0
  9
$UCSORGRIGHT
 10
0.0
 20
0.0
 30
0.0
  9
$UCSORGFRONT
 10
0.0
 20
0.0
 30
0.0
  9
$UCSORGBACK
 10
0.0
 20
0.0
 30
0.0
  9
$PUCSBASE
  2

  9
$PUCSNAME
  2

  9
$PUCSORG
 10
0.0
 20
0.0
 30
0.0
  9
$PUCSXDIR
 10
1.0
 20
0.0
 30
0.0
  9
$PUCSYDIR
 10
0.0
 20
1.0
 30
0.0
  9
$PUCSORTHOREF
  2

  9
$PUCSORTHOVIEW
 70
     0
  9
$PUCSORGTOP
 10
0.0
 20
0.0
 30
0.0
  9
$PUCSORGBOTTOM
 10
0.0
 20
0.0
 30
0.0
  9
$PUCSORGLEFT
 10
0.0
 20
0.0
 30
0.0
  9
$PUCSORGRIGHT
 10
0.0
 20
0.0
 30
0.0
  9
$PUCSORGFRONT
 10
0.0
 20
0.0
 30
0.0
  9
$PUCSORGBACK
 10
0.0
 20
0.0
 30
0.0
  9
$USERI1
 70
     0
  9
$USERI2
 70
     0
  9
$USERI3
 70
     0
  9
$USERI4
 70
     0
  9
$USERI5
 70
     0
  9
$USERR1
 40
0.0
  9
$USERR2
 40
0.0
  9
$USERR3
 40
0.0
  9
$USERR4
 40
0.0
  9
$USERR5
 40
0.0
  9
$WORLDVIEW
 70
     1
  9
$SHADEDGE
 70
     3
  9
$SHADEDIF
 70
    70
  9
$TILEMODE
 70
     1
  9
$MAXACTVP
 70
    64
  9
$PINSBASE
 10
0.0
 20
0.0
 30
0.0
  9
$PLIMCHECK
 70
     0
  9
$PEXTMIN
 10
1.000000000000000E+20
 20
1.000000000000000E+20
 30
1.000000000000000E+20
  9
$PEXTMAX
 10
-1.000000000000000E+20
 20
-1.000000000000000E+20
 30
-1.000000000000000E+20
  9
$PLIMMIN
 10
0.0
 20
0.0
  9
$PLIMMAX
 10
0.0
 20
0.0
  9
$UNITMODE
 70
     0
  9
$VISRETAIN
 70
     1
  9
$PLINEGEN
 70
     0
  9
$PSLTSCALE
 70
     1
  9
$TREEDEPTH
 70
  3020
  9
$CMLSTYLE
  2
Standard
  9
$CMLJUST
 70
     0
  9
$CMLSCALE
 40
20.0
  9
$PROXYGRAPHICS
 70
     1
  9
$MEASUREMENT
 70
     1
  9
$CELWEIGHT
370
    -1
  9
$ENDCAPS
280
     0
  9
$JOINSTYLE
280
     0
  9
$LWDISPLAY
290
     1
  9
$INSUNITS
 70
     4
  9
$HYPERLINKBASE
  1

  9
$STYLESHEET
  1

  9
$XEDIT
290
     1
  9
$CEPSNTYPE
380
     0
  9
$PSTYLEMODE
290
     1
  9
$FINGERPRINTGUID
  2
{4B19E88E-04CD-4FED-9840-B7C97D77C431}
  9
$VERSIONGUID
  2
{FAEB1C32-E019-11D5-929B-00C0DF256EC4}
  9
$EXTNAMES
290
     1
  9
$PSVPSCALE
 40
0.0
  9
$OLESTARTUP
290
     0
  0
ENDSEC
  0
SECTION
  2
CLASSES
  0
CLASS
  1
ACDBDICTIONARYWDFLT
  2
AcDbDictionaryWithDefault
  3
ObjectDBX Classes
 90
        0
280
     0
281
     0
  0
CLASS
  1
VISUALSTYLE
  2
AcDbVisualStyle
  3
ObjectDBX Classes
 90
     4095
280
     0
281
     0
  0
CLASS
  1
MATERIAL
  2
AcDbMaterial
  3
ObjectDBX Classes
 90
     1153
280
     0
281
     0
  0
CLASS
  1
SCALE
  2
AcDbScale
  3
ObjectDBX Classes
 90
     1153
280
     0
281
     0
  0
CLASS
  1
SUN
  2
AcDbSun
  3
SCENEOE
 90
     1153
280
     0
281
     0
  0
CLASS
  1
ACDBPLACEHOLDER
  2
AcDbPlaceHolder
  3
ObjectDBX Classes
 90
        0
280
     0
281
     0
  0
CLASS
  1
LAYOUT
  2
AcDbLayout
  3
ObjectDBX Classes
 90
        0
280
     0
281
     0
  0
CLASS
  1
TABLESTYLE
  2
AcDbTableStyle
  3
ObjectDBX Classes
 90
     4095
280
     0
281
     0
  0
CLASS
  1
MLEADERSTYLE
  2
AcDbMLeaderStyle
  3
ACDB_MLEADERSTYLE_CLASS
 90
     4095
280
     0
281
     0
  0
ENDSEC
  0
SECTION
  2
TABLES
  0
TABLE
  2
VPORT
  5
8
330
0
100
AcDbSymbolTable
 70
     1
  0
VPORT
  5
29
330
8
100
AcDbSymbolTableRecord
100
AcDbViewportTableRecord
  2
*Active
 70
     0
 10
0.0
 20
0.0
 11
1.0
 21
1.0
 12
14.47231570554943
 22
4.75056275848719
 13
0.0
 23
0.0
 14
10.0
 24
10.0
 15
10.0
 25
10.0
 16
0.0
 26
0.0
 36
1.0
 17
0.0
 27
0.0
 37
0.0
 40
28.28734597278927
 41
2.315548780487805
 42
50.0
 43
0.0
 44
0.0
 50
0.0
 51
0.0
 71
    16
 72
  2000
 73
     1
 74
     3
 75
     0
 76
     0
 77
     0
 78
     0
281
     0
 65
     1
110
0.0
120
0.0
130
0.0
111
1.0
121
0.0
131
0.0
112
0.0
122
1.0
132
0.0
 79
     0
146
0.0
  0
ENDTAB
  0
TABLE
  2
LTYPE
  5
5
330
0
100
AcDbSymbolTable
 70
     6
  0
LTYPE
  5
14
330
5
100
AcDbSymbolTableRecord
100
AcDbLinetypeTableRecord
  2
ByBlock
 70
     0
  3

 72
    65
 73
     0
 40
0.0
  0
LTYPE
  5
15
330
5
100
AcDbSymbolTableRecord
100
AcDbLinetypeTableRecord
  2
ByLayer
 70
     0
  3

 72
    65
 73
     0
 40
0.0
  0
LTYPE
  5
16
330
5
100
AcDbSymbolTableRecord
100
AcDbLinetypeTableRecord
  2
Continuous
 70
     0
  3
Solid line
 72
    65
 73
     0
 40
0.0
  0
LTYPE
  5
6A
330
5
100
AcDbSymbolTableRecord
100
AcDbLinetypeTableRecord
  2
HIDDEN
 70
     0
  3
Hidden __ __ __ __ __ __ __ __ __ __ __ __ __ __
 72
    65
 73
     2
 40
1.905
 49
1.27
 74
     0
 49
-0.635
 74
     0
  0
LTYPE
  5
6B
330
5
100
AcDbSymbolTableRecord
100
AcDbLinetypeTableRecord
  2
PHANTOM
 70
     0
  3
Phantom ______  __  __  ______  __  __  ______
 72
    65
 73
     6
 40
12.7
 49
6.35
 74
     0
 49
-1.27
 74
     0
 49
1.27
 74
     0
 49
-1.27
 74
     0
 49
1.27
 74
     0
 49
-1.27
 74
     0
  0
LTYPE
  5
6C
330
5
100
AcDbSymbolTableRecord
100
AcDbLinetypeTableRecord
  2
CENTER
 70
     0
  3
Center ____ _ ____ _ ____ _ ____ _ ____ _ ____
 72
    65
 73
     4
 40
10.16
 49
6.35
 74
     0
 49
-1.27
 74
     0
 49
1.27
 74
     0
 49
-1.27
 74
     0
  0
LTYPE
  5
6D
330
5
100
AcDbSymbolTableRecord
100
AcDbLinetypeTableRecord
  2
CENTERX2
 70
     0
  3
Center (2x) ________  __  ________  __  _____
 72
    65
 73
     4
 40
20.32
 49
12.7
 74
     0
 49
-2.54
 74
     0
 49
2.54
 74
     0
 49
-2.54
 74
     0
  0
LTYPE
  5
6E
330
5
100
AcDbSymbolTableRecord
100
AcDbLinetypeTableRecord
  2
DOT2
 70
     0
  3
Dot (.5x) ........................................
 72
    65
 73
     2
 40
0.635
 49
0.0
 74
     0
 49
-0.635
 74
     0
  0
ENDTAB
  0
TABLE
  2
LAYER
  5
2
330
0
100
AcDbSymbolTable
 70
    17
  0
LAYER
  5
10
330
2
100
AcDbSymbolTableRecord
100
AcDbLayerTableRecord
  2
0
 70
     0
 62
     7
  6
Continuous
370
    -3
390
F
  0
LAYER
  5
6F
330
2
100
AcDbSymbolTableRecord
100
AcDbLayerTableRecord
  2
FORMAT
 70
     0
 62
     2
  6
Continuous
370
    -3
390
F
  0
LAYER
  5
70
330
2
100
AcDbSymbolTableRecord
100
AcDbLayerTableRecord
  2
외형선
 70
     0
 62
   100
  6
Continuous
370
    30
390
F
  0
LAYER
  5
71
330
2
100
AcDbSymbolTableRecord
100
AcDbLayerTableRecord
  2
숨은선
 70
     0
 62
     2
  6
HIDDEN
370
    15
390
F
  0
LAYER
  5
72
330
2
100
AcDbSymbolTableRecord
100
AcDbLayerTableRecord
  2
중심선
 70
     0
 62
     1
  6
CENTERX2
370
    -3
390
F
  0
LAYER
  5
73
330
2
100
AcDbSymbolTableRecord
100
AcDbLayerTableRecord
  2
파단선
 70
     0
 62
     4
  6
Continuous
370
    -3
390
F
  0
LAYER
  5
74
330
2
100
AcDbSymbolTableRecord
100
AcDbLayerTableRecord
  2
해칭선
 70
     0
 62
     4
  6
Continuous
370
    -3
390
F
  0
LAYER
  5
75
330
2
100
AcDbSymbolTableRecord
100
AcDbLayerTableRecord
  2
가는실선
 70
     0
 62
     4
  6
Continuous
370
    -3
390
F
  0
LAYER
  5
76
330
2
100
AcDbSymbolTableRecord
100
AcDbLayerTableRecord
  2
치수_보조선
 70
     0
 62
     4
  6
Continuous
370
    -3
390
F
  0
LAYER
  5
77
330
2
100
AcDbSymbolTableRecord
100
AcDbLayerTableRecord
  2
치수문자_일반주서
 70
     0
 62
     7
  6
Continuous
370
    15
390
F
  0
LAYER
  5
78
330
2
100
AcDbSymbolTableRecord
100
AcDbLayerTableRecord
  2
개별주서
 70
     0
 62
   100
  6
Continuous
370
    30
390
F
  0
LAYER
  5
79
330
2
100
AcDbSymbolTableRecord
100
AcDbLayerTableRecord
  2
중간선
 70
     0
 62
     2
  6
Continuous
370
    15
390
F
  0
LAYER
  5
7A
330
2
100
AcDbSymbolTableRecord
100
AcDbLayerTableRecord
  2
윤곽선
 70
     0
 62
     3
  6
Continuous
370
    40
390
F
  0
LAYER
  5
7B
330
2
100
AcDbSymbolTableRecord
100
AcDbLayerTableRecord
  2
중심마크
 70
     0
 62
   100
  6
Continuous
370
    30
390
F
  0
LAYER
  5
7C
330
2
100
AcDbSymbolTableRecord
100
AcDbLayerTableRecord
  2
가상선
 70
     0
 62
     4
  6
PHANTOM
370
    -3
390
F
  0
LAYER
  5
7D
330
2
100
AcDbSymbolTableRecord
100
AcDbLayerTableRecord
  2
특수지정선
 70
     0
 62
     5
  6
CENTERX2
370
    60
390
F
  0
LAYER
  5
139
330
2
100
AcDbSymbolTableRecord
100
AcDbLayerTableRecord
  2
Defpoints
 70
     0
 62
     7
  6
Continuous
290
     0
370
    -3
390
F
  0
ENDTAB
  0
TABLE
  2
STYLE
  5
3
330
0
100
AcDbSymbolTable
 70
     2
  0
STYLE
  5
11
330
3
100
AcDbSymbolTableRecord
100
AcDbTextStyleTableRecord
  2
Standard
 70
     0
 40
0.0
 41
1.0
 50
0.0
 71
     0
 42
3.5
  3
txt
  4

  0
STYLE
  5
93
330
3
100
AcDbSymbolTableRecord
100
AcDbTextStyleTableRecord
  2
SLDTEXTSTYLE0
 70
     0
 40
0.0
 41
0.75
 50
0.0
 71
     0
 42
3.5
  3
TXT
  4

  0
ENDTAB
  0
TABLE
  2
VIEW
  5
6
330
0
100
AcDbSymbolTable
 70
     0
  0
ENDTAB
  0
TABLE
  2
UCS
  5
7
330
0
100
AcDbSymbolTable
 70
     0
  0
ENDTAB
  0
TABLE
  2
APPID
  5
9
330
0
100
AcDbSymbolTable
 70
     2
  0
APPID
  5
12
330
9
100
AcDbSymbolTableRecord
100
AcDbRegAppTableRecord
  2
ACAD
 70
     0
  0
APPID
  5
137
330
9
100
AcDbSymbolTableRecord
100
AcDbRegAppTableRecord
  2
PE_URL
 70
     0
  0
ENDTAB
  0
TABLE
  2
DIMSTYLE
  5
A
330
0
100
AcDbSymbolTable
 70
     3
100
AcDbDimStyleTable
  0
DIMSTYLE
105
27
330
A
100
AcDbSymbolTableRecord
100
AcDbDimStyleTableRecord
  2
ISO-25
 70
     0
 41
2.5
 42
0.625
 43
3.75
 44
1.25
 73
     0
 74
     0
 77
     1
 78
     8
140
2.5
141
2.5
143
0.03937007874016
147
0.625
171
     3
172
     1
178
     0
271
     2
272
     2
274
     3
278
    44
283
     0
284
     8
340
11
  0
DIMSTYLE
105
DE
102
{ACAD_REACTORS
330
DD
330
E8
102
}
330
A
100
AcDbSymbolTableRecord
100
AcDbDimStyleTableRecord
  2
SLDDIMSTYLE0
 70
     0
 41
3.302
 44
0.0
 45
0.000000001
 73
     0
 74
     0
 77
     1
 78
    12
 79
     3
140
3.5
147
0.875
173
     1
178
     0
271
     2
272
     2
276
     2
284
    12
340
93
  0
DIMSTYLE
105
F3
102
{ACAD_REACTORS
330
F2
330
100
102
}
330
A
100
AcDbSymbolTableRecord
100
AcDbDimStyleTableRecord
  2
SLDDIMSTYLE1
 70
     0
 41
3.302
 44
0.0
 45
0.000000001
 73
     0
 74
     0
 77
     1
 78
    12
 79
     3
140
3.5
147
0.875
172
     1
173
     1
178
     0
271
     2
272
     2
276
     2
284
    12
289
     0
340
93
  0
ENDTAB
  0
TABLE
  2
BLOCK_RECORD
  5
1
330
0
100
AcDbSymbolTable
 70
     7
  0
BLOCK_RECORD
  5
1F
102
{ACAD_XDICTIONARY
360
168
102
}
330
1
100
AcDbSymbolTableRecord
100
AcDbBlockTableRecord
  2
*Model_Space
340
22
  0
BLOCK_RECORD
  5
1B
330
1
100
AcDbSymbolTableRecord
100
AcDbBlockTableRecord
  2
*Paper_Space
340
1E
  0
BLOCK_RECORD
  5
23
330
1
100
AcDbSymbolTableRecord
100
AcDbBlockTableRecord
  2
*Paper_Space0
340
26
  0
BLOCK_RECORD
  5
7E
330
1
100
AcDbSymbolTableRecord
100
AcDbBlockTableRecord
  2
블럭10
340
0
102
{BLKREFS
331
D6
102
}
  0
BLOCK_RECORD
  5
DF
330
1
100
AcDbSymbolTableRecord
100
AcDbBlockTableRecord
  2
_D
340
0
  0
BLOCK_RECORD
  5
E9
330
1
100
AcDbSymbolTableRecord
100
AcDbBlockTableRecord
  2
_D_1
340
0
  0
BLOCK_RECORD
  5
F4
330
1
100
AcDbSymbolTableRecord
100
AcDbBlockTableRecord
  2
_D_2
340
0
  0
BLOCK_RECORD
  5
101
330
1
100
AcDbSymbolTableRecord
100
AcDbBlockTableRecord
  2
_D_3
340
0
  0
BLOCK_RECORD
  5
10D
330
1
100
AcDbSymbolTableRecord
100
AcDbBlockTableRecord
  2
SW_DOWELSYMBOL_0
340
0
102
{BLKREFS
331
113
102
}
  0
ENDTAB
  0
ENDSEC
  0
SECTION
  2
BLOCKS
  0
BLOCK
  5
20
330
1F
100
AcDbEntity
  8
0
100
AcDbBlockBegin
  2
*Model_Space
 70
     0
 10
0.0
 20
0.0
 30
0.0
  3
*Model_Space
  1

  0
ENDBLK
  5
21
330
1F
100
AcDbEntity
  8
0
100
AcDbBlockEnd
  0
BLOCK
  5
1C
330
1B
100
AcDbEntity
 67
     1
  8
0
100
AcDbBlockBegin
  2
*Paper_Space
 70
     0
 10
0.0
 20
0.0
 30
0.0
  3
*Paper_Space
  1

  0
ENDBLK
  5
1D
330
1B
100
AcDbEntity
 67
     1
  8
0
100
AcDbBlockEnd
  0
BLOCK
  5
24
330
23
100
AcDbEntity
  8
0
100
AcDbBlockBegin
  2
*Paper_Space0
 70
     0
 10
0.0
 20
0.0
 30
0.0
  3
*Paper_Space0
  1

  0
ENDBLK
  5
25
330
23
100
AcDbEntity
  8
0
100
AcDbBlockEnd
  0
BLOCK
  5
7F
330
7E
100
AcDbEntity
  8
0
100
AcDbBlockBegin
  2
블럭10
 70
     2
 10
0.0
 20
0.0
 30
0.0
  3
블럭10
  1

  0
ELLIPSE
  5
81
330
7E
100
AcDbEntity
  8
중심선
100
AcDbEllipse
 10
20.54032771741204
 20
12.0471743016438
 30
0.0
 11
6.600054785286829
 21
-1.261213355974178E-13
 31
0.0
210
0.0
220
0.0
230
1.0
 40
0.636358354079598
 41
0.9219305317359503
 42
6.513795318482858
  0
ELLIPSE
  5
82
330
7E
100
AcDbEntity
  8
중심선
100
AcDbEllipse
 10
20.54032771746488
 20
12.04717430159265
 30
0.0
 11
3.960054785062283
 21
1.540847449632565E-10
 31
0.0
210
0.0
220
0.0
230
1.0
 40
0.3939339440162632
 41
1.131841032648279
 42
5.62031148352944
  0
LINE
  5
83
330
7E
100
AcDbEntity
  8
중심선
100
AcDbLine
 10
2.268634060543552
 20
16.24717430164393
 30
0.0
 11
5.714909304380834
 21
16.24717430164393
 31
0.0
  0
LINE
  5
84
330
7E
100
AcDbEntity
  8
중심선
100
AcDbLine
 10
5.245725140726316
 20
7.84717430164391
 30
0.0
 11
8.692000384563599
 21
7.84717430164391
 31
0.0
  0
LINE
  5
85
330
7E
100
AcDbEntity
  8
중심선
100
AcDbLine
 10
15.74043728645272
 20
16.24717430164393
 30
0.0
 11
8.692000384563599
 21
7.84717430164391
 31
0.0
  0
LINE
  5
86
330
7E
100
AcDbEntity
  8
중심선
100
AcDbLine
 10
0.1404042013395286
 20
13.71084872107135
 30
0.0
 11
3.58671253028996
 21
13.71088815037384
 31
0.0
  0
LINE
  5
87
330
7E
100
AcDbEntity
  8
중심선
100
AcDbLine
 10
2.750260043222114
 20
10.84717430164391
 30
0.0
 11
6.196535287059397
 21
10.84717430164391
 31
0.0
  0
LINE
  5
88
330
7E
100
AcDbEntity
  8
중심선
100
AcDbLine
 10
12.29416204261559
 20
16.24717430164393
 30
0.0
 11
5.245725140726316
 21
7.84717430164391
 31
0.0
  0
LINE
  5
89
330
7E
100
AcDbEntity
  8
중심선
100
AcDbLine
 10
10.72767329541681
 20
16.24717430164393
 30
0.0
 11
6.196535287059397
 21
10.84717430164391
 31
0.0
  0
LINE
  5
8A
330
7E
100
AcDbEntity
  8
중심선
100
AcDbLine
 10
7.28139805157953
 20
16.24717430164393
 30
0.0
 11
2.750260043222114
 21
10.84717430164391
 31
0.0
  0
LINE
  5
8B
330
7E
100
AcDbEntity
  8
중심선
100
AcDbLine
 10
5.714909304380834
 20
16.24717430164393
 30
0.0
 11
3.58671253028996
 21
13.71088815037384
 31
0.0
  0
LINE
  5
8C
330
7E
100
AcDbEntity
  8
중심선
100
AcDbLine
 10
2.268634060543552
 20
16.24717430164393
 30
0.0
 11
0.1404042013395286
 21
13.71084872107135
 31
0.0
  0
LINE
  5
8D
330
7E
100
AcDbEntity
  8
중심선
100
AcDbLine
 10
7.28139805157953
 20
16.24717430164393
 30
0.0
 11
10.72767329541681
 21
16.24717430164393
 31
0.0
  0
LINE
  5
8E
330
7E
100
AcDbEntity
  8
중심선
100
AcDbLine
 10
12.29416204261559
 20
16.24717430164393
 30
0.0
 11
15.74043728645272
 21
16.24717430164393
 31
0.0
  0
LINE
  5
8F
330
7E
100
AcDbEntity
  8
중심선
100
AcDbLine
 10
19.22036997980202
 20
11.08717430171403
 30
0.0
 11
23.66174974927406
 21
11.08717430171406
 31
0.0
  0
LINE
  5
90
330
7E
100
AcDbEntity
  8
중심선
100
AcDbLine
 10
19.22039502424796
 20
13.00717430171391
 30
0.0
 11
19.22036997980202
 21
11.08717430171403
 31
0.0
  0
LINE
  5
91
330
7E
100
AcDbEntity
  8
중심선
100
AcDbLine
 10
19.22039502424796
 20
13.00717430171391
 30
0.0
 11
26.96566020931264
 21
13.00717430171391
 31
0.0
  0
LINE
  5
92
330
7E
100
AcDbEntity
  8
중심선
100
AcDbLine
 10
22.22332737316547
 20
13.45928029700563
 30
0.0
 11
24.52862924686651
 21
15.39360700705356
 31
0.0
  0
ATTDEF
  5
94
330
7E
100
AcDbEntity
  8
FORMAT
 62
     2
100
AcDbText
 10
-12.95993919485777
 20
2.075366912832191
 30
0.0
 40
4.233333333333333
  1
SEME35150E [ 2 FLUTE ]
 41
0.75
  7
SLDTEXTSTYLE0
 11
-12.95993919485777
 21
-0.0412997538344756
 31
0.0
100
AcDbAttributeDefinition
  3

  2
AUTOATTR0
 70
     0
 74
     1
  0
ENDBLK
  5
80
330
7E
100
AcDbEntity
  8
0
100
AcDbBlockEnd
  0
BLOCK
  5
E0
330
DF
100
AcDbEntity
  8
0
100
AcDbBlockBegin
  2
_D
 70
     0
 10
0.0
 20
0.0
 30
0.0
  3
_D
  1

  0
LINE
  5
E2
330
DF
100
AcDbEntity
  8
치수문자_일반주서
 62
     0
370
    -2
100
AcDbLine
 10
43.04992021162958
 20
7.556161114222336
 30
0.0
 11
43.04992021162958
 21
19.74429500280011
 31
0.0
  0
LINE
  5
E3
330
DF
100
AcDbEntity
  8
치수문자_일반주서
 62
     0
370
    -2
100
AcDbLine
 10
5.049920211629566
 20
7.562499999999999
 30
0.0
 11
5.049920211629566
 21
19.74429500280011
 31
0.0
  0
LINE
  5
E4
330
DF
100
AcDbEntity
  8
치수문자_일반주서
 62
     0
370
    -2
100
AcDbLine
 10
39.74792021162958
 20
19.74429500280011
 30
0.0
 11
8.351920211629565
 21
19.74429500280011
 31
0.0
  0
SOLID
  5
E5
330
DF
100
AcDbEntity
  8
치수문자_일반주서
 62
     0
100
AcDbTrace
 10
39.74792021162958
 20
19.19396166946678
 30
0.0
 11
39.74792021162958
 21
20.29462833613345
 31
0.0
 12
43.04992021162958
 22
19.74429500280011
 32
0.0
 13
43.04992021162958
 23
19.74429500280011
 33
0.0
  0
SOLID
  5
E6
330
DF
100
AcDbEntity
  8
치수문자_일반주서
 62
     0
100
AcDbTrace
 10
8.351920211629565
 20
20.29462833613345
 30
0.0
 11
8.351920211629565
 21
19.19396166946678
 31
0.0
 12
5.049920211629566
 22
19.74429500280011
 32
0.0
 13
5.049920211629566
 23
19.74429500280011
 33
0.0
  0
MTEXT
  5
E7
330
DF
100
AcDbEntity
  8
치수문자_일반주서
 62
     0
100
AcDbMText
 10
24.04992021162956
 20
24.11929500280011
 30
0.0
 40
3.5
 41
0.0
 71
     2
 72
     1
  1
\A1;38
  7
SLDTEXTSTYLE0
 73
     1
 44
1.0
  0
POINT
  5
13E
330
DF
100
AcDbEntity
  8
Defpoints
 62
     0
100
AcDbPoint
 10
43.04992021162958
 20
7.493661114222336
 30
0.0
  0
POINT
  5
13F
330
DF
100
AcDbEntity
  8
Defpoints
 62
     0
100
AcDbPoint
 10
5.049920211629566
 20
7.499999999999999
 30
0.0
  0
POINT
  5
140
330
DF
100
AcDbEntity
  8
Defpoints
 62
     0
100
AcDbPoint
 10
5.049920211629566
 20
19.74429500280011
 30
0.0
  0
ENDBLK
  5
E1
330
DF
100
AcDbEntity
  8
0
100
AcDbBlockEnd
  0
BLOCK
  5
EA
330
E9
100
AcDbEntity
  8
0
100
AcDbBlockBegin
  2
_D_1
 70
     0
 10
0.0
 20
0.0
 30
0.0
  3
_D_1
  1

  0
LINE
  5
EC
330
E9
100
AcDbEntity
  8
치수문자_일반주서
 62
     0
370
    -2
100
AcDbLine
 10
43.04992021162958
 20
7.556161114222336
 30
0.0
 11
43.04992021162958
 21
28.03415911661227
 31
0.0
  0
LINE
  5
ED
330
E9
100
AcDbEntity
  8
치수문자_일반주서
 62
     0
370
    -2
100
AcDbLine
 10
-56.95007978837043
 20
7.062499999999991
 30
0.0
 11
-56.95007978837043
 21
28.03415911661227
 31
0.0
  0
LINE
  5
EE
330
E9
100
AcDbEntity
  8
치수문자_일반주서
 62
     0
370
    -2
100
AcDbLine
 10
39.74792021162958
 20
28.03415911661227
 30
0.0
 11
-53.64807978837043
 21
28.03415911661227
 31
0.0
  0
SOLID
  5
EF
330
E9
100
AcDbEntity
  8
치수문자_일반주서
 62
     0
100
AcDbTrace
 10
39.74792021162958
 20
27.48382578327893
 30
0.0
 11
39.74792021162958
 21
28.5844924499456
 31
0.0
 12
43.04992021162958
 22
28.03415911661227
 32
0.0
 13
43.04992021162958
 23
28.03415911661227
 33
0.0
  0
SOLID
  5
F0
330
E9
100
AcDbEntity
  8
치수문자_일반주서
 62
     0
100
AcDbTrace
 10
-53.64807978837043
 20
28.5844924499456
 30
0.0
 11
-53.64807978837043
 21
27.48382578327893
 31
0.0
 12
-56.95007978837043
 22
28.03415911661227
 32
0.0
 13
-56.95007978837043
 23
28.03415911661227
 33
0.0
  0
MTEXT
  5
F1
330
E9
100
AcDbEntity
  8
치수문자_일반주서
 62
     0
100
AcDbMText
 10
-6.950079788370415
 20
32.40915911661227
 30
0.0
 40
3.5
 41
0.0
 71
     2
 72
     1
  1
\A1;100
  7
SLDTEXTSTYLE0
 73
     1
 44
1.0
  0
POINT
  5
13A
330
E9
100
AcDbEntity
  8
Defpoints
 62
     0
100
AcDbPoint
 10
43.04992021162958
 20
7.493661114222336
 30
0.0
  0
POINT
  5
13B
330
E9
100
AcDbEntity
  8
Defpoints
 62
     0
100
AcDbPoint
 10
-56.95007978837043
 20
6.999999999999991
 30
0.0
  0
POINT
  5
13C
330
E9
100
AcDbEntity
  8
Defpoints
 62
     0
100
AcDbPoint
 10
-56.95007978837043
 20
28.03415911661227
 30
0.0
  0
ENDBLK
  5
EB
330
E9
100
AcDbEntity
  8
0
100
AcDbBlockEnd
  0
BLOCK
  5
F5
330
F4
100
AcDbEntity
  8
0
100
AcDbBlockBegin
  2
_D_2
 70
     0
 10
0.0
 20
0.0
 30
0.0
  3
_D_2
  1

  0
LINE
  5
F7
330
F4
100
AcDbEntity
  8
치수문자_일반주서
 62
     0
370
    -2
100
AcDbLine
 10
43.11273452522941
 20
7.504759517085029
 30
0.0
 11
58.61611052387583
 21
7.504759517085087
 31
0.0
  0
LINE
  5
F8
330
F4
100
AcDbEntity
  8
치수문자_일반주서
 62
     0
370
    -2
100
AcDbLine
 10
43.11242021162958
 20
-7.493661114222331
 30
0.0
 11
58.61611052387588
 21
-7.493661114222273
 31
0.0
  0
LINE
  5
F9
330
F4
100
AcDbEntity
  8
치수문자_일반주서
 62
     0
370
    -2
100
AcDbLine
 10
58.61611052387584
 20
4.202759517085087
 30
0.0
 11
58.61611052387586
 21
-4.191661114222273
 31
0.0
  0
SOLID
  5
FA
330
F4
100
AcDbEntity
  8
치수문자_일반주서
 62
     0
100
AcDbTrace
 10
59.16644385720917
 20
4.202759517085089
 30
0.0
 11
58.06577719054251
 21
4.202759517085085
 31
0.0
 12
58.61611052387583
 22
7.504759517085087
 32
0.0
 13
58.61611052387583
 23
7.504759517085087
 33
0.0
  0
SOLID
  5
FB
330
F4
100
AcDbEntity
  8
치수문자_일반주서
 62
     0
100
AcDbTrace
 10
58.06577719054253
 20
-4.191661114222275
 30
0.0
 11
59.1664438572092
 21
-4.191661114222272
 31
0.0
 12
58.61611052387588
 22
-7.493661114222273
 32
0.0
 13
58.61611052387588
 23
-7.493661114222273
 33
0.0
  0
MTEXT
  5
FC
330
F4
100
AcDbEntity
  8
치수문자_일반주서
 62
     0
100
AcDbMText
 10
54.24111052387585
 20
-0.0000000000000115
 30
0.0
 40
3.5
 41
0.0
 71
     2
 72
     1
  1
\A1;%%c15
  7
SLDTEXTSTYLE0
 11
-3.316215268652025E-15
 21
1.0
 31
0.0
 73
     1
 44
1.0
  0
POINT
  5
FD
330
F4
100
AcDbEntity
  8
Defpoints
 62
     0
100
AcDbPoint
 10
43.05023452522941
 20
7.504759517085029
 30
0.0
  0
POINT
  5
FE
330
F4
100
AcDbEntity
  8
Defpoints
 62
     0
100
AcDbPoint
 10
43.04992021162958
 20
-7.493661114222331
 30
0.0
  0
POINT
  5
FF
330
F4
100
AcDbEntity
  8
Defpoints
 62
     0
100
AcDbPoint
 10
58.61611052387588
 20
-7.493661114222273
 30
0.0
  0
ENDBLK
  5
F6
330
F4
100
AcDbEntity
  8
0
100
AcDbBlockEnd
  0
BLOCK
  5
102
330
101
100
AcDbEntity
  8
0
100
AcDbBlockBegin
  2
_D_3
 70
     0
 10
0.0
 20
0.0
 30
0.0
  3
_D_3
  1

  0
LINE
  5
104
330
101
100
AcDbEntity
  8
치수문자_일반주서
 62
     0
370
    -2
100
AcDbLine
 10
-56.01257978837043
 20
7.999999999999994
 30
0.0
 11
-68.369639233759
 21
7.999999999999947
 31
0.0
  0
LINE
  5
105
330
101
100
AcDbEntity
  8
치수문자_일반주서
 62
     0
370
    -2
100
AcDbLine
 10
-56.01257978837043
 20
-8.000000000000004
 30
0.0
 11
-68.36963923375895
 21
-8.00000000000005
 31
0.0
  0
LINE
  5
106
330
101
100
AcDbEntity
  8
치수문자_일반주서
 62
     0
370
    -2
100
AcDbLine
 10
-68.36963923375899
 20
4.697999999999947
 30
0.0
 11
-68.36963923375896
 21
-4.69800000000005
 31
0.0
  0
SOLID
  5
107
330
101
100
AcDbEntity
  8
치수문자_일반주서
 62
     0
100
AcDbTrace
 10
-67.81930590042566
 20
4.697999999999949
 30
0.0
 11
-68.91997256709232
 21
4.697999999999945
 31
0.0
 12
-68.369639233759
 22
7.999999999999947
 32
0.0
 13
-68.369639233759
 23
7.999999999999947
 33
0.0
  0
SOLID
  5
108
330
101
100
AcDbEntity
  8
치수문자_일반주서
 62
     0
100
AcDbTrace
 10
-68.91997256709229
 20
-4.698000000000052
 30
0.0
 11
-67.81930590042563
 21
-4.698000000000048
 31
0.0
 12
-68.36963923375895
 22
-8.00000000000005
 32
0.0
 13
-68.36963923375895
 23
-8.00000000000005
 33
0.0
  0
MTEXT
  5
109
330
101
100
AcDbEntity
  8
치수문자_일반주서
 62
     0
100
AcDbMText
 10
-72.74463923375897
 20
-0.0000000000000174
 30
0.0
 40
3.5
 41
0.0
 71
     2
 72
     1
  1
\A1;%%c16
  7
SLDTEXTSTYLE0
 11
-3.552713678800502E-15
 21
1.0
 31
0.0
 73
     1
 44
1.0
  0
POINT
  5
10A
330
101
100
AcDbEntity
  8
Defpoints
 62
     0
100
AcDbPoint
 10
-55.95007978837043
 20
7.999999999999994
 30
0.0
  0
POINT
  5
10B
330
101
100
AcDbEntity
  8
Defpoints
 62
     0
100
AcDbPoint
 10
-55.95007978837043
 20
-8.000000000000004
 30
0.0
  0
POINT
  5
10C
330
101
100
AcDbEntity
  8
Defpoints
 62
     0
100
AcDbPoint
 10
-68.36963923375897
 20
-8.00000000000005
 30
0.0
  0
ENDBLK
  5
103
330
101
100
AcDbEntity
  8
0
100
AcDbBlockEnd
  0
BLOCK
  5
10E
330
10D
100
AcDbEntity
  8
0
100
AcDbBlockBegin
  2
SW_DOWELSYMBOL_0
 70
     0
 10
0.0
 20
0.0
 30
0.0
  3
SW_DOWELSYMBOL_0
  1

  0
CIRCLE
  5
110
330
10D
100
AcDbEntity
  8
외형선
 62
     0
100
AcDbCircle
 10
0.0
 20
0.0
 30
0.0
 40
3.000000000000004
  0
HATCH
  5
111
330
10D
100
AcDbEntity
  8
0
  6
Continuous
 62
     0
370
    30
100
AcDbHatch
 10
0.0
 20
0.0
 30
0.0
210
0.0
220
0.0
230
1.0
  2
SOLID
 70
     1
 71
     0
 91
        1
 92
        0
 93
        3
 72
     2
 10
0.0000000000000087
 20
-0.0000000000000035
 40
3.000000000000004
 50
0.0
 51
90.0
 73
     1
 72
     1
 10
0.0000000000000087
 20
3.000000000000001
 11
0.0000000000000087
 21
-0.0000000000000036
 72
     1
 10
0.0000000000000087
 20
-0.0000000000000035
 11
3.000000000000013
 21
-0.0000000000000035
 97
        0
 75
     0
 76
     1
 98
        1
 10
0.0
 20
0.0
  0
HATCH
  5
112
330
10D
100
AcDbEntity
  8
0
  6
Continuous
 62
     0
370
    30
100
AcDbHatch
 10
0.0
 20
0.0
 30
0.0
210
0.0
220
0.0
230
1.0
  2
SOLID
 70
     1
 71
     0
 91
        1
 92
        0
 93
        3
 72
     2
 10
0.0000000000000087
 20
-0.0000000000000035
 40
3.000000000000004
 50
180.0
 51
270.0000000000007
 73
     1
 72
     1
 10
0.0000000000000087
 20
-3.000000000000008
 11
0.0000000000000087
 21
-0.0000000000000036
 72
     1
 10
0.0000000000000087
 20
-0.0000000000000035
 11
-2.999999999999996
 21
-0.0000000000000035
 97
        0
 75
     0
 76
     1
 98
        1
 10
0.0
 20
0.0
  0
ENDBLK
  5
10F
330
10D
100
AcDbEntity
  8
0
100
AcDbBlockEnd
  0
ENDSEC
  0
SECTION
  2
ENTITIES
  0
LINE
  5
95
330
1F
100
AcDbEntity
  8
0
  6
Continuous
 62
     4
370
    15
100
AcDbLine
 10
3.549920211629572
 20
7.999999999999997
 30
0.0
 11
-55.95007978837043
 21
7.999999999999994
 31
0.0
  0
LINE
  5
96
330
1F
100
AcDbEntity
  8
0
  6
Continuous
 62
     4
370
    15
100
AcDbLine
 10
-55.95007978837043
 20
-8.000000000000004
 30
0.0
 11
3.549920211629562
 21
-7.999999999999999
 31
0.0
  0
LINE
  5
97
330
1F
100
AcDbEntity
  8
0
  6
Continuous
 62
     4
370
    15
100
AcDbLine
 10
-55.95007978837043
 20
7.999999999999992
 30
0.0
 11
-56.95007978837043
 21
6.999999999999991
 31
0.0
  0
LINE
  5
98
330
1F
100
AcDbEntity
  8
0
  6
Continuous
 62
     4
370
    15
100
AcDbLine
 10
-56.95007978837043
 20
-7.0
 30
0.0
 11
-55.95007978837043
 21
-8.0
 31
0.0
  0
LINE
  5
9A
330
1F
100
AcDbEntity
  8
0
  6
Continuous
 62
     4
370
    15
100
AcDbLine
 10
4.049920211629569
 20
-7.500000000000001
 30
0.0
 11
5.049920211629566
 21
-7.500000000000001
 31
0.0
1001
PE_URL
1000

  0
LINE
  5
9B
330
1F
100
AcDbEntity
  8
0
  6
Continuous
 62
     4
370
    15
100
AcDbLine
 10
5.049920211629566
 20
7.499999999999999
 30
0.0
 11
4.049920211629569
 21
7.499999999999999
 31
0.0
1001
PE_URL
1000

  0
LINE
  5
9C
330
1F
100
AcDbEntity
  8
0
  6
Continuous
 62
     4
370
    15
100
AcDbLine
 10
4.049920211629569
 20
7.499999999999999
 30
0.0
 11
2.519894320334061
 21
7.909969201971339
 31
0.0
1001
PE_URL
1000

  0
SPLINE
  5
9D
330
1F
100
AcDbEntity
  8
0
  6
Continuous
 62
     1
370
    15
100
AcDbSpline
210
0.0
220
0.0
230
1.0
 70
     8
 71
     3
 72
    10
 73
     6
 74
     0
 42
0.000000001
 43
0.00000001
 40
0.0
 40
0.0
 40
0.0
 40
0.0
 40
0.4989467022000862
 40
0.6864152248017171
 40
1.0
 40
1.0
 40
1.0
 40
1.0
 10
23.61865096700164
 20
1.921858072708424
 30
0.0
 10
23.27278501808446
 20
2.087003221706055
 30
0.0
 10
22.79696735653783
 20
2.314198118624451
 30
0.0
 10
22.10412577008267
 20
2.666142055058795
 30
0.0
 10
21.75653018093313
 20
2.848437098266694
 30
0.0
 10
21.53898708689106
 20
2.962526657990414
 30
0.0
  0
LINE
  5
9E
330
1F
100
AcDbEntity
  8
0
  6
Continuous
 62
     1
370
    15
100
AcDbLine
 10
6.408311700807102
 20
7.500000000000003
 30
0.0
 11
5.049920211629566
 21
7.500000000000003
 31
0.0
  0
SPLINE
  5
9F
330
1F
100
AcDbEntity
  8
0
  6
Continuous
 62
     1
370
    15
100
AcDbSpline
210
0.0
220
0.0
230
1.0
 70
     8
 71
     3
 72
    19
 73
    15
 74
     0
 42
0.000000001
 43
0.00000001
 40
0.0
 40
0.0
 40
0.0
 40
0.0
 40
0.147677985208541
 40
0.260055535602883
 40
0.3456708838714191
 40
0.410238825633071
 40
0.4712468218789911
 40
0.536657300332203
 40
0.6320194576239951
 40
0.7428516977725748
 40
0.8394910332253532
 40
0.9206285178712853
 40
0.9818828810660662
 40
1.0
 40
1.0
 40
1.0
 40
1.0
 10
21.1395932611857
 20
5.959792476527707
 30
0.0
 10
20.84488030326314
 20
5.944918155656454
 30
0.0
 10
20.3259015535637
 20
5.918725020129577
 30
0.0
 10
19.61601579734609
 20
5.893345398330199
 30
0.0
 10
19.07336604061254
 20
5.878356632569466
 30
0.0
 10
18.6419254909721
 20
5.869133666962631
 30
0.0
 10
18.25294586010055
 20
5.8629283627601
 30
0.0
 10
17.80070219538501
 20
5.858167379135421
 30
0.0
 10
17.24605503286016
 20
5.856191696072584
 30
0.0
 10
16.62676323273595
 20
5.859566771660494
 30
0.0
 10
16.0387484007798
 20
5.867985166003888
 30
0.0
 10
15.55433361845298
 20
5.87886260298007
 30
0.0
 10
15.22775560033609
 20
5.887657260478882
 30
0.0
 10
15.06601270668776
 20
5.89320148182547
 30
0.0
 10
15.02909371308508
 20
5.89446699073167
 30
0.0
  0
SPLINE
  5
A0
330
1F
100
AcDbEntity
  8
0
  6
Continuous
 62
     1
370
    15
100
AcDbSpline
210
0.0
220
0.0
230
1.0
 70
     8
 71
     3
 72
    31
 73
    27
 74
     0
 42
0.000000001
 43
0.00000001
 40
0.0
 40
0.0
 40
0.0
 40
0.0
 40
0.0640819057985581
 40
0.1144471661651401
 40
0.1531175051795305
 40
0.1873118868379862
 40
0.2213531765830706
 40
0.2510511011505133
 40
0.2764790905695036
 40
0.299246238142941
 40
0.3322506384439847
 40
0.3744850561686517
 40
0.4050156342174687
 40
0.4254987135452442
 40
0.4496552619824951
 40
0.4806625154108993
 40
0.5170829820090139
 40
0.5719497077921798
 40
0.6178945793643669
 40
0.6673068278156153
 40
0.7212581321733131
 40
0.7735298310611848
 40
0.8204932567432548
 40
0.8742847558048417
 40
0.9350709608976631
 40
1.0
 40
1.0
 40
1.0
 40
1.0
 10
40.26361466797168
 20
5.129648443184516
 30
0.0
 10
39.99082937103348
 20
5.107222145642749
 30
0.0
 10
39.50364810173367
 20
5.067169869274752
 30
0.0
 10
38.83640057355237
 20
5.024350400184892
 30
0.0
 10
38.28457439714077
 20
4.995424398040816
 30
0.0
 10
37.80988149745911
 20
4.974615765536335
 30
0.0
 10
37.37835064609914
 20
4.959499379020846
 30
0.0
 10
36.98870437056395
 20
4.949055290780439
 30
0.0
 10
36.64750130981619
 20
4.942315724082046
 30
0.0
 10
36.29162158095914
 20
4.937491165783553
 30
0.0
 10
35.86225452533581
 20
4.934746813723862
 30
0.0
 10
35.39937663645991
 20
4.936284587101111
 30
0.0
 10
34.99125341723903
 20
4.941487728939671
 30
0.0
 10
34.66207693431497
 20
4.947834410432833
 30
0.0
 10
34.32894348386336
 20
4.956160781048162
 30
0.0
 10
33.92484846379273
 20
4.969113843106636
 30
0.0
 10
33.38437019561911
 20
4.991042195328391
 30
0.0
 10
32.78161226840312
 20
5.022804613235738
 30
0.0
 10
32.1357002827152
 20
5.065023906891327
 30
0.0
 10
31.48305525634662
 20
5.114986380720199
 30
0.0
 10
30.79914276029384
 20
5.175901709485771
 30
0.0
 10
30.13524639358523
 20
5.244303876043119
 30
0.0
 10
29.50150252166627
 20
5.314244743641872
 30
0.0
 10
28.76763908120537
 20
5.407748479953352
 30
0.0
 10
27.95362956196158
 20
5.517307685884226
 30
0.0
 10
27.43156299730688
 20
5.59887259928545
 30
0.0
 10
27.16192759543098
 20
5.640999005557911
 30
0.0
  0
SPLINE
  5
A1
330
1F
100
AcDbEntity
  8
0
  6
Continuous
 62
     1
370
    15
100
AcDbSpline
210
0.0
220
0.0
230
1.0
 70
     8
 71
     3
 72
    29
 73
    25
 74
     0
 42
0.000000001
 43
0.00000001
 40
0.0
 40
0.0
 40
0.0
 40
0.0
 40
0.0777080979808907
 40
0.1411892350431579
 40
0.1903161558946863
 40
0.2289237492331176
 40
0.2801511188458008
 40
0.3252520423396986
 40
0.3697320790903663
 40
0.40691989869851
 40
0.4414321893172937
 40
0.4912448540926563
 40
0.5530990148616803
 40
0.6034737582970782
 40
0.6436003927805138
 40
0.675657924064843
 40
0.7075561749455779
 40
0.7456413186484813
 40
0.7890027752472841
 40
0.8225912349923408
 40
0.8418281227788081
 40
0.8744415827814102
 40
0.9270654423311017
 40
1.0
 40
1.0
 40
1.0
 40
1.0
 10
9.855067579293658
 20
-6.24151438382571
 30
0.0
 10
10.13915205333158
 20
-6.213539666512458
 30
0.0
 10
10.6553102224186
 20
-6.16271190157375
 30
0.0
 10
11.38332960714966
 20
-6.101918328079233
 30
0.0
 10
11.96134771912399
 20
-6.05738156929039
 30
0.0
 10
12.48008317290203
 20
-6.020751839989974
 30
0.0
 10
12.98816279995943
 20
-5.988223347695211
 30
0.0
 10
13.51823089515655
 20
-5.958289356278069
 30
0.0
 10
13.99531295253697
 20
-5.934612232528033
 30
0.0
 10
14.43258332375307
 20
-5.915657172885651
 30
0.0
 10
14.8900606137083
 20
-5.898350401608228
 30
0.0
 10
15.44009415504286
 20
-5.881165147792131
 30
0.0
 10
16.05006021314679
 20
-5.867592003229556
 30
0.0
 10
16.62358995424296
 20
-5.859938573483894
 30
0.0
 10
17.08492255626377
 20
-5.857110147745125
 30
0.0
 10
17.47596933100208
 20
-5.856968761957745
 30
0.0
 10
17.85911260869214
 20
-5.858794435450013
 30
0.0
 10
18.2860879112931
 20
-5.863222345304931
 30
0.0
 10
18.71958509014431
 20
-5.870525408075206
 30
0.0
 10
19.08149243471808
 20
-5.87884050508625
 30
0.0
 10
19.40027663854843
 20
-5.887455121590533
 30
0.0
 10
19.79345417214685
 20
-5.899758147209279
 30
0.0
 10
20.38947022617877
 20
-5.922139805819945
 30
0.0
 10
20.8639669233443
 20
-5.945957322489231
 30
0.0
 10
21.13959326118569
 20
-5.959792476527704
 30
0.0
  0
SPLINE
  5
A2
330
1F
100
AcDbEntity
  8
0
  6
Continuous
 62
     1
370
    15
100
AcDbSpline
210
0.0
220
0.0
230
1.0
 70
     8
 71
     3
 72
    18
 73
    14
 74
     0
 42
0.000000001
 43
0.00000001
 40
0.0
 40
0.0
 40
0.0
 40
0.0
 40
0.1116557486069898
 40
0.2163673219802787
 40
0.3178157609705251
 40
0.4082056117024168
 40
0.4886765004483823
 40
0.5695906096452132
 40
0.659193660222035
 40
0.7820277832158052
 40
0.8945177023689687
 40
0.9996942579857923
 40
1.0
 40
1.0
 40
1.0
 40
1.0
 10
27.16192759543098
 20
-5.64099900555791
 30
0.0
 10
27.35822916332523
 20
-5.61019704004428
 30
0.0
 10
27.73862376974455
 20
-5.550508767178264
 30
0.0
 10
28.349767474143
 20
-5.463522165185859
 30
0.0
 10
28.91899765444301
 20
-5.388389008994754
 30
0.0
 10
29.44690050929071
 20
-5.321569713691595
 30
0.0
 10
29.90934266189344
 20
-5.269127379669706
 30
0.0
 10
30.35571983654848
 20
-5.221198793852252
 30
0.0
 10
30.90864229688902
 20
-5.166017674909742
 30
0.0
 10
31.51928379355841
 20
-5.111836269695184
 30
0.0
 10
32.15965418194814
 20
-5.064063649039849
 30
0.0
 10
32.55938421112526
 20
-5.035998799839502
 30
0.0
 10
32.75783239346177
 20
-5.025606064686484
 30
0.0
 10
32.75840759848049
 20
-5.025575941188513
 30
0.0
  0
LINE
  5
A3
330
1F
100
AcDbEntity
  8
0
  6
Continuous
 62
     1
370
    15
100
AcDbLine
 10
5.049920211629566
 20
-7.500000000000004
 30
0.0
 11
6.408311700807074
 21
-7.500000000000004
 31
0.0
  0
SPLINE
  5
A4
330
1F
100
AcDbEntity
  8
0
  6
Continuous
 62
     4
370
    15
100
AcDbSpline
210
0.0
220
0.0
230
1.0
 70
     8
 71
     3
 72
     8
 73
     4
 74
     0
 42
0.000000001
 43
0.00000001
 40
0.0
 40
0.0
 40
0.0
 40
0.0
 40
1.0
 40
1.0
 40
1.0
 40
1.0
 10
2.183894807845128
 20
7.998321209241405
 30
0.0
 10
2.1226547813163
 20
7.997546447794302
 30
0.0
 10
2.061353456772069
 20
7.99650327878955
 30
0.0
 10
2.000000000000004
 20
7.995191363635699
 30
0.0
1001
PE_URL
1000

  0
SPLINE
  5
A5
330
1F
100
AcDbEntity
  8
0
  6
Continuous
 62
     4
370
    15
100
AcDbSpline
210
0.0
220
0.0
230
1.0
 70
     8
 71
     3
 72
     8
 73
     4
 74
     0
 42
0.000000001
 43
0.00000001
 40
0.0
 40
0.0
 40
0.0
 40
0.0
 40
1.0
 40
1.0
 40
1.0
 40
1.0
 10
2.183894807845128
 20
-7.652569198118317
 30
0.0
 10
2.122682552746872
 20
-7.641549682734467
 30
0.0
 10
2.061409055220286
 20
-7.630270172376435
 30
0.0
 10
2.00008346857628
 20
-7.618731892139741
 30
0.0
1001
PE_URL
1000

  0
LINE
  5
A6
330
1F
100
AcDbEntity
  8
0
  6
Continuous
 62
     4
370
    15
100
AcDbLine
 10
2.183894807845128
 20
-7.652569198117873
 30
0.0
 11
2.183894807845128
 21
-7.998321209241414
 31
0.0
1001
PE_URL
1000

  0
SPLINE
  5
A7
330
1F
100
AcDbEntity
  8
0
  6
Continuous
 62
     4
370
    15
100
AcDbSpline
210
0.0
220
0.0
230
1.0
 70
     8
 71
     3
 72
     8
 73
     4
 74
     0
 42
0.000000001
 43
0.00000001
 40
0.0
 40
0.0
 40
0.0
 40
0.0
 40
1.0
 40
1.0
 40
1.0
 40
1.0
 10
2.183894807845128
 20
-7.998321209241407
 30
0.0
 10
2.1226547813163
 20
-7.997546447794304
 30
0.0
 10
2.061353456772069
 20
-7.996503278789552
 30
0.0
 10
2.000000000000004
 20
-7.995191363635701
 30
0.0
1001
PE_URL
1000

  0
LINE
  5
A8
330
1F
100
AcDbEntity
  8
0
  6
Continuous
 62
     4
370
    15
100
AcDbLine
 10
2.000000000000004
 20
-7.999999999999999
 30
0.0
 11
2.000000000000004
 21
-7.995187488948059
 31
0.0
1001
PE_URL
1000

  0
LINE
  5
A9
330
1F
100
AcDbEntity
  8
0
  6
Continuous
 62
     4
370
    15
100
AcDbLine
 10
-55.95007978837043
 20
7.999999999999992
 30
0.0
 11
-55.95007978837043
 21
-8.000000000000004
 31
0.0
  0
LINE
  5
AA
330
1F
100
AcDbEntity
  8
0
  6
Continuous
 62
     4
370
    15
100
AcDbLine
 10
1.999999999999996
 20
-7.618707926140353
 30
0.0
 11
2.000000000000004
 21
7.999999999999997
 31
0.0
1001
PE_URL
1000

  0
LINE
  5
AB
330
1F
100
AcDbEntity
  8
0
  6
Continuous
 62
     4
370
    15
100
AcDbLine
 10
-56.95007978837043
 20
6.999999999999991
 30
0.0
 11
-56.95007978837043
 21
-7.000000000000007
 31
0.0
  0
SPLINE
  5
AC
330
1F
100
AcDbEntity
  8
0
  6
Continuous
 62
     4
370
    15
100
AcDbSpline
210
0.0
220
0.0
230
1.0
 70
     8
 71
     3
 72
    10
 73
     6
 74
     0
 42
0.000000001
 43
0.00000001
 40
0.0
 40
0.0
 40
0.0
 40
0.0
 40
0.5
 40
0.5
 40
1.0
 40
1.0
 40
1.0
 40
1.0
 10
5.049920211629768
 20
-6.288577999088161
 30
0.0
 10
4.542425535884155
 20
-6.247649211020623
 30
0.0
 10
4.034874606120146
 20
-6.192277665910275
 30
0.0
 10
3.015225028426953
 20
-6.053120428457158
 30
0.0
 10
2.507483154821108
 20
-5.969531208319545
 30
0.0
 10
2.00008346857628
 20
-5.872477404414145
 30
0.0
  0
SPLINE
  5
AD
330
1F
100
AcDbEntity
  8
0
  6
Continuous
 62
     4
370
    15
100
AcDbSpline
210
0.0
220
0.0
230
1.0
 70
     8
 71
     3
 72
    10
 73
     6
 74
     0
 42
0.000000001
 43
0.00000001
 40
0.0
 40
0.0
 40
0.0
 40
0.0
 40
0.5000000000000001
 40
0.5000000000000001
 40
1.0
 40
1.0
 40
1.0
 40
1.0
 10
5.049920211629569
 20
-1.28827438666358
 30
0.0
 10
4.542416704897532
 20
-1.059003758064404
 30
0.0
 10
4.034856864289052
 20
-0.8267653481743674
 30
0.0
 10
3.01518954105926
 20
-0.3588578951028917
 30
0.0
 10
2.50743925631622
 20
-0.1238590969064745
 30
0.0
 10
2.000030492562118
 20
0.1108317829697242
 30
0.0
  0
SPLINE
  5
AE
330
1F
100
AcDbEntity
  8
0
  6
Continuous
 62
     1
370
    15
100
AcDbSpline
210
0.0
220
0.0
230
1.0
 70
    24
 71
     3
 72
    14
 73
    10
 74
     0
 42
0.000000001
 43
0.00000001
 40
0.0
 40
0.0
 40
0.0
 40
0.0
 40
0.2500000000000001
 40
0.2500000000000001
 40
0.5000000000000002
 40
0.5000000000000002
 40
0.7500000000000001
 40
0.7500000000000001
 40
1.0
 40
1.0
 40
1.0
 40
1.0
 10
5.049920211629566
 20
-1.28827438666358
 30
0.0
 10
5.049920211629566
 20
-1.835057894713723
 30
0.0
 10
5.049920211629566
 20
-2.374762867390413
 30
0.0
 10
5.049920211629569
 20
-3.398578263328519
 30
0.0
 10
5.049920211629569
 20
-3.882352706971241
 30
0.0
 10
5.049920211629569
 20
-4.756279652110594
 30
0.0
 10
5.049920211629566
 20
-5.146179790034484
 30
0.0
 10
5.049920211629566
 20
-5.807716250998761
 30
0.0
 10
5.049920211629566
 20
-6.079301867990809
 30
0.0
 10
5.049920211629566
 20
-6.288577999088141
 30
0.0
  0
SPLINE
  5
AF
330
1F
100
AcDbEntity
  8
0
  6
Continuous
 62
     4
370
    15
100
AcDbSpline
210
0.0
220
0.0
230
1.0
 70
     8
 71
     3
 72
    10
 73
     6
 74
     0
 42
0.000000001
 43
0.00000001
 40
0.0
 40
0.0
 40
0.0
 40
0.0
 40
0.5
 40
0.5
 40
1.0
 40
1.0
 40
1.0
 40
1.0
 10
5.049920211629583
 20
5.127555926877868
 30
0.0
 10
4.542414975716474
 20
5.171658504579096
 30
0.0
 10
4.034853390289669
 20
5.203987447838845
 30
0.0
 10
3.015182592335989
 20
5.244637711753886
 30
0.0
 10
2.507430660618015
 20
5.252898286598123
 30
0.0
 10
2.000020119412063
 20
5.249104160719046
 30
0.0
  0
SPLINE
  5
B0
330
1F
100
AcDbEntity
  8
0
  6
Continuous
 62
     1
370
    15
100
AcDbSpline
210
0.0
220
0.0
230
1.0
 70
    24
 71
     3
 72
    14
 73
    10
 74
     0
 42
0.000000001
 43
0.00000001
 40
0.0
 40
0.0
 40
0.0
 40
0.0
 40
0.2500000000000001
 40
0.2500000000000001
 40
0.5000000000000001
 40
0.5000000000000001
 40
0.75
 40
0.75
 40
1.0
 40
1.0
 40
1.0
 40
1.0
 10
5.049920211629566
 20
5.127555926877868
 30
0.0
 10
5.049920211629569
 20
4.850029367055571
 30
0.0
 10
5.049920211629569
 20
4.489598872378457
 30
0.0
 10
5.049920211629569
 20
3.614240343099441
 30
0.0
 10
5.049920211629569
 20
3.099437425225529
 30
0.0
 10
5.049920211629569
 20
1.959159402999151
 30
0.0
 10
5.049920211629569
 20
1.334291886449923
 30
0.0
 10
5.049920211629569
 20
0.0395516736348915
 30
0.0
 10
5.049920211629566
 20
-0.629606861699611
 30
0.0
 10
5.049920211629566
 20
-1.288274386663581
 30
0.0
  0
SPLINE
  5
B1
330
1F
100
AcDbEntity
  8
0
  6
Continuous
 62
     4
370
    15
100
AcDbSpline
210
0.0
220
0.0
230
1.0
 70
     8
 71
     3
 72
     8
 73
     4
 74
     0
 42
0.000000001
 43
0.00000001
 40
0.0
 40
0.0
 40
0.0
 40
0.0
 40
1.0
 40
1.0
 40
1.0
 40
1.0
 10
5.049920211641171
 20
-7.459056820224784
 30
0.0
 10
4.716657788732247
 20
-7.438950330384245
 30
0.0
 10
4.384288096193419
 20
-7.411487077664072
 30
0.0
 10
4.049920211629573
 20
-7.37664506582839
 30
0.0
  0
SPLINE
  5
B2
330
1F
100
AcDbEntity
  8
0
  6
Continuous
 62
     4
370
    15
100
AcDbSpline
210
0.0
220
0.0
230
1.0
 70
     8
 71
     3
 72
     8
 73
     4
 74
     0
 42
0.000000001
 43
0.00000001
 40
0.0
 40
0.0
 40
0.0
 40
0.0
 40
1.0
 40
1.0
 40
1.0
 40
1.0
 10
4.049920211629573
 20
-7.376645065828265
 30
0.0
 10
3.424848191156
 20
-7.489250955506306
 30
0.0
 10
2.802961072131948
 20
-7.581987252155391
 30
0.0
 10
2.183894807845021
 20
-7.652569198118329
 30
0.0
1001
PE_URL
1000

  0
SPLINE
  5
B3
330
1F
100
AcDbEntity
  8
0
  6
Continuous
 62
     1
370
    15
100
AcDbSpline
210
0.0
220
0.0
230
1.0
 70
    24
 71
     3
 72
     8
 73
     4
 74
     0
 42
0.000000001
 43
0.00000001
 40
0.0
 40
0.0
 40
0.0
 40
0.0
 40
1.0
 40
1.0
 40
1.0
 40
1.0
 10
5.049920211629566
 20
-6.288577999088145
 30
0.0
 10
5.049920211629566
 20
-6.683638350593712
 30
0.0
 10
5.049920211629569
 20
-7.076327271593719
 30
0.0
 10
5.049920211629569
 20
-7.459056820212063
 30
0.0
  0
LINE
  5
B4
330
1F
100
AcDbEntity
  8
0
  6
Continuous
 62
     4
370
    15
100
AcDbLine
 10
4.049920211629573
 20
-7.37664506582839
 30
0.0
 11
4.049920211629569
 21
-7.500000000000001
 31
0.0
1001
PE_URL
1000

  0
SPLINE
  5
B6
330
1F
100
AcDbEntity
  8
0
  6
Continuous
 62
     4
370
    15
100
AcDbSpline
210
0.0
220
0.0
230
1.0
 70
     8
 71
     3
 72
     8
 73
     4
 74
     0
 42
0.000000001
 43
0.00000001
 40
0.0
 40
0.0
 40
0.0
 40
0.0
 40
1.0
 40
1.0
 40
1.0
 40
1.0
 10
2.183894807845128
 20
7.998321209241412
 30
0.0
 10
2.80678711727785
 20
7.837700044639858
 30
0.0
 10
3.428624537986378
 20
7.659782881406187
 30
0.0
 10
4.049920211629388
 20
7.463867111136269
 30
0.0
1001
PE_URL
1000

  0
SPLINE
  5
B7
330
1F
100
AcDbEntity
  8
0
  6
Continuous
 62
     4
370
    15
100
AcDbSpline
210
0.0
220
0.0
230
1.0
 70
     8
 71
     3
 72
     8
 73
     4
 74
     0
 42
0.000000001
 43
0.00000001
 40
0.0
 40
0.0
 40
0.0
 40
0.0
 40
1.0
 40
1.0
 40
1.0
 40
1.0
 10
5.049920211629562
 20
7.385082667389288
 30
0.0
 10
4.716657788724524
 20
7.418684407045085
 30
0.0
 10
4.384288096189492
 20
7.444954751219161
 30
0.0
 10
4.049920211629509
 20
7.463867111136216
 30
0.0
  0
SPLINE
  5
B8
330
1F
100
AcDbEntity
  8
0
  6
Continuous
 62
     4
370
    15
100
AcDbSpline
210
0.0
220
0.0
230
1.0
 70
    24
 71
     3
 72
    10
 73
     6
 74
     0
 42
0.000000001
 43
0.00000001
 40
0.0
 40
0.0
 40
0.0
 40
0.0
 40
0.5
 40
0.5
 40
1.0
 40
1.0
 40
1.0
 40
1.0
 10
5.049920211629569
 20
7.38508266738928
 30
0.0
 10
5.049920211629569
 20
7.038868266881432
 30
0.0
 10
5.049920211629566
 20
6.649100358166464
 30
0.0
 10
5.049920211629569
 20
5.867517972272527
 30
0.0
 10
5.049920211629566
 20
5.47782622321233
 30
0.0
 10
5.049920211629566
 20
5.127555926877868
 30
0.0
  0
LINE
  5
B9
330
1F
100
AcDbEntity
  8
0
  6
Continuous
 62
     4
370
    15
100
AcDbLine
 10
4.049920211629569
 20
7.499999999999999
 30
0.0
 11
4.049920211629569
 21
7.463867111136214
 31
0.0
1001
PE_URL
1000

  0
LINE
  5
BA
330
1F
100
AcDbEntity
  8
0
  6
Continuous
 62
     4
370
    15
100
AcDbLine
 10
5.049920211629566
 20
7.499999999999999
 30
0.0
 11
5.049920211629566
 21
7.38508266738929
 31
0.0
1001
PE_URL
1000

  0
SPLINE
  5
BB
330
1F
100
AcDbEntity
  8
0
  6
Continuous
 62
     1
370
    15
100
AcDbSpline
210
0.0
220
0.0
230
1.0
 70
     8
 71
     3
 72
    23
 73
    19
 74
     0
 42
0.000000001
 43
0.00000001
 40
0.0
 40
0.0
 40
0.0
 40
0.0
 40
0.0650585529783665
 40
0.1301108445873158
 40
0.1951578119678669
 40
0.2602003964615568
 40
0.3252395428730816
 40
0.3891134305408716
 40
0.4529852739920108
 40
0.5168569497930564
 40
0.5807303347192325
 40
0.6459110813815193
 40
0.7110948285817359
 40
0.7762824363218015
 40
0.8414747617384646
 40
0.9066726584720596
 40
0.9718744794573934
 40
1.0
 40
1.0
 40
1.0
 40
1.0
 10
43.04992021162956
 20
-7.117056519239243
 30
0.0
 10
42.25526410890249
 20
-6.949238477842685
 30
0.0
 10
40.66602838279181
 20
-6.613618546204242
 30
0.0
 10
38.28233834739083
 20
-5.824137532635799
 30
0.0
 10
35.89887706691495
 20
-4.856330748522823
 30
0.0
 10
33.51561505091492
 20
-3.720945571939061
 30
0.0
 10
31.14668480733577
 20
-2.469430804071291
 30
0.0
 10
28.79214798864147
 20
-1.144188063740358
 30
0.0
 10
26.45186896963516
 20
0.2100152848272906
 30
0.0
 10
24.11159657339291
 20
1.557434880381781
 30
0.0
 10
21.75534450532905
 20
2.863283308889289
 30
0.0
 10
19.38296450375323
 20
4.083250881377381
 30
0.0
 10
16.99453476028182
 20
5.174077130577293
 30
0.0
 10
14.60592912314537
 20
6.089425895699122
 30
0.0
 10
12.21711699358223
 20
6.803487656157038
 30
0.0
 10
9.828093167898516
 20
7.273282121423645
 30
0.0
 10
7.891767686740844
 20
7.50032175337137
 30
0.0
 10
6.751843924709711
 20
7.476192821883976
 30
0.0
 10
6.408311700807095
 20
7.468921225510294
 30
0.0
  0
SPLINE
  5
BC
330
1F
100
AcDbEntity
  8
0
  6
Continuous
 62
     1
370
    15
100
AcDbSpline
210
0.0
220
0.0
230
1.0
 70
     8
 71
     3
 72
    15
 73
    11
 74
     0
 42
0.000000001
 43
0.00000001
 40
0.0
 40
0.0
 40
0.0
 40
0.0
 40
0.1318015024450931
 40
0.2636031174132047
 40
0.3954048435840262
 40
0.527206679636532
 40
0.6590086242489901
 40
0.7908106760989679
 40
0.9226128338633429
 40
1.0
 40
1.0
 40
1.0
 40
1.0
 10
43.04992021162958
 20
-5.917291982761616
 30
0.0
 10
42.19472124571897
 20
-5.73885159413698
 30
0.0
 10
40.48432258378799
 20
-5.381970664547631
 30
0.0
 10
37.9187230912629
 20
-4.575761800425568
 30
0.0
 10
35.35312113687652
 20
-3.608097624712329
 30
0.0
 10
32.78751671899244
 20
-2.495957375774538
 30
0.0
 10
30.22190987975655
 20
-1.287073093636619
 30
0.0
 10
27.65630062941398
 20
-0.031127841198107
 30
0.0
 10
25.44376370857245
 20
1.063568055273756
 30
0.0
 10
24.08642975317945
 20
1.695634725354755
 30
0.0
 10
23.58429978617112
 20
1.929460465095389
 30
0.0
  0
LINE
  5
BD
330
1F
100
AcDbEntity
  8
0
  6
Continuous
 62
     1
370
    15
100
AcDbLine
 10
43.04992021162929
 20
-7.117056519239246
 30
0.0
 11
43.04992021162958
 21
-5.917291982761616
 31
0.0
  0
SPLINE
  5
BE
330
1F
100
AcDbEntity
  8
0
  6
Continuous
 62
     1
370
    15
100
AcDbSpline
210
0.0
220
0.0
230
1.0
 70
     8
 71
     3
 72
    58
 73
    54
 74
     0
 42
0.000000001
 43
0.00000001
 40
0.0
 40
0.0
 40
0.0
 40
0.0
 40
0.0624999999999995
 40
0.0624999999999995
 40
0.0937499999999995
 40
0.0937499999999995
 40
0.1249999999999994
 40
0.1249999999999994
 40
0.1562499999999994
 40
0.1562499999999994
 40
0.1874999999999993
 40
0.1874999999999993
 40
0.2187499999999993
 40
0.2187499999999993
 40
0.2499999999999992
 40
0.2499999999999992
 40
0.2812499999999992
 40
0.2812499999999992
 40
0.3124999999999992
 40
0.3124999999999992
 40
0.3437499999999992
 40
0.3437499999999992
 40
0.3749999999999991
 40
0.3749999999999991
 40
0.4374999999999991
 40
0.4374999999999991
 40
0.499999999999999
 40
0.499999999999999
 40
0.5312499999999991
 40
0.5312499999999991
 40
0.5624999999999992
 40
0.5624999999999992
 40
0.5937499999999992
 40
0.5937499999999992
 40
0.6249999999999993
 40
0.6249999999999993
 40
0.6562499999999994
 40
0.6562499999999994
 40
0.6874999999999996
 40
0.6874999999999996
 40
0.7187499999999997
 40
0.7187499999999997
 40
0.7499999999999997
 40
0.7499999999999997
 40
0.7812499999999998
 40
0.7812499999999998
 40
0.8124999999999999
 40
0.8124999999999999
 40
0.875
 40
0.875
 40
0.9375
 40
0.9375
 40
1.0
 40
1.0
 40
1.0
 40
1.0
 10
43.04992021162958
 20
-7.493661114222325
 30
0.0
 10
42.26208424426536
 20
-7.474903713661287
 30
0.0
 10
41.46359646275295
 20
-7.414103704787346
 30
0.0
 10
40.27964669322645
 20
-7.261991988386413
 30
0.0
 10
39.88476983155794
 20
-7.201115845631639
 30
0.0
 10
39.09145662144576
 20
-7.059266224746423
 30
0.0
 10
38.69424893479636
 20
-6.978344143845432
 30
0.0
 10
37.90369943870676
 20
-6.797586266207636
 30
0.0
 10
37.50993318575031
 20
-6.697753853334386
 30
0.0
 10
36.71705596187742
 20
-6.479257420449957
 30
0.0
 10
36.31969713224952
 20
-6.360720715723227
 30
0.0
 10
35.52811335409842
 20
-6.10658356279977
 30
0.0
 10
35.13486687654552
 20
-5.971126355218937
 30
0.0
 10
34.34264313301937
 20
-5.683317231569425
 30
0.0
 10
33.94524274935505
 20
-5.531120715166379
 30
0.0
 10
33.15284100071522
 20
-5.21204600347576
 30
0.0
 10
32.75952299124457
 20
-5.045426821375758
 30
0.0
 10
31.96816962443229
 20
-4.697963487634943
 30
0.0
 10
31.5708373139563
 20
-4.517192758590422
 30
0.0
 10
30.77783465395692
 20
-4.143809659146811
 30
0.0
 10
30.38385387048952
 20
-3.951484710080284
 30
0.0
 10
29.59358698155763
 20
-3.55602282050749
 30
0.0
 10
29.1964323087832
 20
-3.352722612390412
 30
0.0
 10
28.00635336511456
 20
-2.729873602596598
 30
0.0
 10
27.21875486851256
 20
-2.298116011567026
 30
0.0
 10
25.63165225846667
 20
-1.411688432710227
 30
0.0
 10
24.84417882989982
 20
-0.9592659337073505
 30
0.0
 10
23.6539310254836
 20
-0.2746888699496607
 30
0.0
 10
23.25691086378902
 20
-0.0457428574833526
 30
0.0
 10
22.46728901086866
 20
0.4107902742050349
 30
0.0
 10
22.07273496066604
 20
0.6387545769900671
 30
0.0
 10
21.27950725611643
 20
1.093058156675291
 30
0.0
 10
20.88225296165633
 20
1.319121164092716
 30
0.0
 10
20.09143346380591
 20
1.766250183111556
 30
0.0
 10
19.69784716006634
 20
1.987329018823628
 30
0.0
 10
18.90510810218598
 20
2.424372416990895
 30
0.0
 10
18.50772916761857
 20
2.6399975184656
 30
0.0
 10
17.71592763877578
 20
3.062763044568898
 30
0.0
 10
17.32271808410055
 20
3.26970513316096
 30
0.0
 10
16.53068504056583
 20
3.674894579772604
 30
0.0
 10
16.13329107335476
 20
3.872876070449928
 30
0.0
 10
15.34072402400608
 20
4.257126528658
 30
0.0
 10
14.94729987739653
 20
4.443135716493857
 30
0.0
 10
14.15618957025426
 20
4.802955004658881
 30
0.0
 10
13.75889019171265
 20
4.976679606121964
 30
0.0
 10
12.96577483217287
 20
5.309549585409727
 30
0.0
 10
12.57154494834988
 20
5.468494108829553
 30
0.0
 10
11.38658741116213
 20
5.92219312892485
 30
0.0
 10
10.58971512927329
 20
6.19404453090863
 30
0.0
 10
9.012478659772139
 20
6.664176529125482
 30
0.0
 10
8.213963076332957
 20
6.864191740585422
 30
0.0
 10
6.636821230105403
 20
7.184184844422775
 30
0.0
 10
5.839851515212548
 20
7.305436526136052
 30
0.0
 10
5.049920211641181
 20
7.385082667388119
 30
0.0
  0
SPLINE
  5
BF
330
1F
100
AcDbEntity
  8
0
  6
Continuous
 62
     1
370
    15
100
AcDbSpline
210
0.0
220
0.0
230
1.0
 70
     8
 71
     3
 72
    15
 73
    11
 74
     0
 42
0.000000001
 43
0.00000001
 40
0.0
 40
0.0
 40
0.0
 40
0.0
 40
0.0978294853383475
 40
0.2302818784072723
 40
0.3627343781794395
 40
0.495186983266856
 40
0.6276396922808432
 40
0.75176021442944
 40
0.8758850209820478
 40
1.0
 40
1.0
 40
1.0
 40
1.0
 10
24.4200138679338
 20
-0.7130649391012762
 30
0.0
 10
23.78835727250381
 20
-0.4595111817173923
 30
0.0
 10
22.30149401444942
 20
0.137331736607715
 30
0.0
 10
19.95942328931245
 20
1.085203752255948
 30
0.0
 10
17.39380032822992
 20
2.078323073603932
 30
0.0
 10
14.82817734954068
 20
2.991190236074442
 30
0.0
 10
12.31634312623722
 20
3.771846726375532
 30
0.0
 10
9.858307986995001
 20
4.395576818643
 30
0.0
 10
7.454077893357068
 20
4.86812233798332
 30
0.0
 10
5.851284954613888
 20
5.041080346317531
 30
0.0
 10
5.04992021162958
 20
5.127555926877868
 30
0.0
  0
SPLINE
  5
C0
330
1F
100
AcDbEntity
  8
0
  6
Continuous
 62
     4
370
    15
100
AcDbSpline
210
0.0
220
0.0
230
1.0
 70
    24
 71
     3
 72
    10
 73
     6
 74
     0
 42
0.000000001
 43
0.00000001
 40
0.0
 40
0.0
 40
0.0
 40
0.0
 40
0.5
 40
0.5
 40
1.0
 40
1.0
 40
1.0
 40
1.0
 10
5.049920211629569
 20
7.38508266738928
 30
0.0
 10
5.049920211629569
 20
7.038868266881435
 30
0.0
 10
5.049920211629566
 20
6.649100358166466
 30
0.0
 10
5.049920211629569
 20
5.867517972272528
 30
0.0
 10
5.049920211629566
 20
5.47782622321233
 30
0.0
 10
5.049920211629566
 20
5.127555926877868
 30
0.0
  0
LINE
  5
C1
330
1F
100
AcDbEntity
  8
0
  6
Continuous
 62
     1
370
    15
100
AcDbLine
 10
43.04992021162958
 20
-7.493661114222331
 30
0.0
 11
43.04992021162895
 21
-7.117056519239231
 31
0.0
  0
SPLINE
  5
C2
330
1F
100
AcDbEntity
  8
0
  6
Continuous
 62
     1
370
    15
100
AcDbSpline
210
0.0
220
0.0
230
1.0
 70
     8
 71
     3
 72
     8
 73
     4
 74
     0
 42
0.000000001
 43
0.00000001
 40
0.0
 40
0.0
 40
0.0
 40
0.0
 40
1.0
 40
1.0
 40
1.0
 40
1.0
 10
38.40944485334453
 20
2.097713075901855
 30
0.0
 10
38.28330112127128
 20
2.247119196082372
 30
0.0
 10
38.16322963377461
 20
2.394316309620598
 30
0.0
 10
38.04992021162951
 20
2.539053468345014
 30
0.0
  0
LINE
  5
C3
330
1F
100
AcDbEntity
  8
0
  6
Continuous
 62
     1
370
    15
100
AcDbLine
 10
38.04992021162958
 20
2.937719435296591
 30
0.0
 11
43.04992021162958
 21
0.0000000000000043
 31
0.0
  0
LINE
  5
C4
330
1F
100
AcDbEntity
  8
0
  6
Continuous
 62
     1
370
    15
100
AcDbLine
 10
43.04992021162958
 20
0.0000000000000043
 30
0.0
 11
43.04992021162958
 21
-2.004322095222332
 31
0.0
  0
SPLINE
  5
C5
330
1F
100
AcDbEntity
  8
0
  6
Continuous
 62
     1
370
    15
100
AcDbSpline
210
0.0
220
0.0
230
1.0
 70
     8
 71
     3
 72
    12
 73
     8
 74
     0
 42
0.000000001
 43
0.00000001
 40
0.0
 40
0.0
 40
0.0
 40
0.0
 40
0.4999999999999987
 40
0.4999999999999987
 40
0.7499999999999993
 40
0.7499999999999993
 40
1.0
 40
1.0
 40
1.0
 40
1.0
 10
43.04992021162958
 20
-2.004322095222336
 30
0.0
 10
42.24663556633526
 20
-1.372806975512049
 30
0.0
 10
41.45677037852681
 20
-0.7154036505377738
 30
0.0
 10
40.29263061873856
 20
0.310553850521228
 30
0.0
 10
39.9080767993118
 20
0.6592777713108887
 30
0.0
 10
39.14682961492705
 20
1.371889643103006
 30
0.0
 10
38.77219811352838
 20
1.733943665474681
 30
0.0
 10
38.40944485334453
 20
2.097713075901858
 30
0.0
  0
SPLINE
  5
C6
330
1F
100
AcDbEntity
  8
0
  6
Continuous
 62
     1
370
    15
100
AcDbSpline
210
0.0
220
0.0
230
1.0
 70
     8
 71
     3
 72
    15
 73
    11
 74
     0
 42
0.000000001
 43
0.00000001
 40
0.0
 40
0.0
 40
0.0
 40
0.0
 40
0.1084835094834156
 40
0.2169384535866567
 40
0.3255055457668533
 40
0.4740283926305401
 40
0.6225513620767733
 40
0.7710744525928109
 40
0.9195976626651267
 40
1.0
 40
1.0
 40
1.0
 40
1.0
 10
38.40944485334452
 20
2.097713075901859
 30
0.0
 10
37.78489324615879
 20
2.363822739044841
 30
0.0
 10
36.53595448585214
 20
2.895971994554775
 30
0.0
 10
34.6621831139767
 20
3.622932464905354
 30
0.0
 10
32.55746790002703
 20
4.357419712484244
 30
0.0
 10
30.2218838667867
 20
5.040116088143715
 30
0.0
 10
27.65628332836957
 20
5.597201060663059
 30
0.0
 10
25.09066517082912
 20
5.925356581539449
 30
0.0
 10
22.91729356688103
 20
6.043852555127638
 30
0.0
 10
21.59912599950229
 20
5.960123734082885
 30
0.0
 10
21.13616433088713
 20
5.930716824323195
 30
0.0
  0
SPLINE
  5
C7
330
1F
100
AcDbEntity
  8
0
  6
Continuous
 62
     1
370
    15
100
AcDbSpline
210
0.0
220
0.0
230
1.0
 70
    24
 71
     3
 72
    10
 73
     6
 74
     0
 42
0.000000001
 43
0.00000001
 40
0.0
 40
0.0
 40
0.0
 40
0.0
 40
0.5000000000000002
 40
0.5000000000000002
 40
1.0
 40
1.0
 40
1.0
 40
1.0
 10
43.04992021162958
 20
-5.917291982761614
 30
0.0
 10
43.04992021162958
 20
-5.463685417528533
 30
0.0
 10
43.04992021162956
 20
-4.890536129298511
 30
0.0
 10
43.04992021162957
 20
-3.558019193630098
 30
0.0
 10
43.04992021162957
 20
-2.799805822884823
 30
0.0
 10
43.04992021162958
 20
-2.004322095222577
 30
0.0
  0
SPLINE
  5
C8
330
1F
100
AcDbEntity
  8
0
  6
Continuous
 62
     1
370
    15
100
AcDbSpline
210
0.0
220
0.0
230
1.0
 70
    24
 71
     3
 72
     8
 73
     4
 74
     0
 42
0.000000001
 43
0.00000001
 40
0.0
 40
0.0
 40
0.0
 40
0.0
 40
1.0
 40
1.0
 40
1.0
 40
1.0
 10
38.04992021162958
 20
2.539053468329943
 30
0.0
 10
38.04992021162958
 20
2.873789783511369
 30
0.0
 10
38.04992021162958
 20
3.186724641477626
 30
0.0
 10
38.04992021162958
 20
3.46794609662422
 30
0.0
  0
SPLINE
  5
C9
330
1F
100
AcDbEntity
  8
0
  6
Continuous
 62
     1
370
    15
100
AcDbSpline
210
0.0
220
0.0
230
1.0
 70
     8
 71
     3
 72
     9
 73
     5
 74
     0
 42
0.000000001
 43
0.00000001
 40
0.0
 40
0.0
 40
0.0
 40
0.0
 40
0.9200236942067525
 40
1.0
 40
1.0
 40
1.0
 40
1.0
 10
43.04992021162958
 20
5.250000000000005
 30
0.0
 10
42.19471994208071
 20
5.246670619507781
 30
0.0
 10
41.26517837164732
 20
5.243051820869017
 30
0.0
 10
40.3356366734429
 20
5.130654741623604
 30
0.0
 10
40.26129536233974
 20
5.121665638443606
 30
0.0
  0
SPLINE
  5
CA
330
1F
100
AcDbEntity
  8
0
  6
Continuous
 62
     1
370
    15
100
AcDbSpline
210
0.0
220
0.0
230
1.0
 70
     8
 71
     3
 72
    10
 73
     6
 74
     0
 42
0.000000001
 43
0.00000001
 40
0.0
 40
0.0
 40
0.0
 40
0.0
 40
0.5
 40
0.5
 40
1.0
 40
1.0
 40
1.0
 40
1.0
 10
43.04992021162958
 20
5.250000000000005
 30
0.0
 10
42.20338423236849
 20
5.020440576121718
 30
0.0
 10
41.36248866670017
 20
4.759945552946673
 30
0.0
 10
39.69312085462266
 20
4.170989806146816
 30
0.0
 10
38.8654352787137
 20
3.843095913639966
 30
0.0
 10
38.04992021162958
 20
3.467946096624223
 30
0.0
  0
SPLINE
  5
CB
330
1F
100
AcDbEntity
  8
0
  6
Continuous
 62
     1
370
    15
100
AcDbSpline
210
0.0
220
0.0
230
1.0
 70
     8
 71
     3
 72
     9
 73
     5
 74
     0
 42
0.000000001
 43
0.00000001
 40
0.0
 40
0.0
 40
0.0
 40
0.0
 40
0.4996791207682627
 40
1.0
 40
1.0
 40
1.0
 40
1.0
 10
9.855095850524956
 20
-6.241364088139312
 30
0.0
 10
9.054740431961
 20
-6.303576462009438
 30
0.0
 10
7.453001665423383
 20
-6.428081111662342
 30
0.0
 10
5.851290000233366
 20
-6.33509892731414
 30
0.0
 10
5.049920211629768
 20
-6.288577999088161
 30
0.0
  0
SPLINE
  5
CC
330
1F
100
AcDbEntity
  8
0
  6
Continuous
 62
     1
370
    15
100
AcDbSpline
210
0.0
220
0.0
230
1.0
 70
     8
 71
     3
 72
    16
 73
    12
 74
     0
 42
0.000000001
 43
0.00000001
 40
0.0
 40
0.0
 40
0.0
 40
0.0
 40
0.0939057363301768
 40
0.2099037058629603
 40
0.3259017675875958
 40
0.4418999203208061
 40
0.5578981628787234
 40
0.6738964940768996
 40
0.7825980209211267
 40
0.891303201767449
 40
1.0
 40
1.0
 40
1.0
 40
1.0
 10
27.16765245965079
 20
-5.622834682737223
 30
0.0
 10
26.47532382681261
 20
-5.724931960536312
 30
0.0
 10
24.92778955055913
 20
-5.953145888737649
 30
0.0
 10
22.52504857555119
 20
-6.034807880311066
 30
0.0
 10
19.95942917587582
 20
-5.911623235395194
 30
0.0
 10
17.39380673681513
 20
-5.552098487125122
 30
0.0
 10
14.82818485402125
 20
-4.978397035319724
 30
0.0
 10
12.31634748987771
 20
-4.226927457296856
 30
0.0
 10
9.858315096873982
 20
-3.33914395225095
 30
0.0
 10
7.454077290917335
 20
-2.359917754663895
 30
0.0
 10
5.8512853045049
 20
-1.645479660198044
 30
0.0
 10
5.049920211629569
 20
-1.28827438666358
 30
0.0
  0
SPLINE
  5
CD
330
1F
100
AcDbEntity
  8
0
  6
Continuous
 62
     4
370
    15
100
AcDbSpline
210
0.0
220
0.0
230
1.0
 70
    24
 71
     3
 72
    14
 73
    10
 74
     0
 42
0.000000001
 43
0.00000001
 40
0.0
 40
0.0
 40
0.0
 40
0.0
 40
0.2500000000000001
 40
0.2500000000000001
 40
0.5000000000000002
 40
0.5000000000000002
 40
0.7500000000000001
 40
0.7500000000000001
 40
1.0
 40
1.0
 40
1.0
 40
1.0
 10
5.049920211629566
 20
-1.28827438666358
 30
0.0
 10
5.049920211629566
 20
-1.835057894713723
 30
0.0
 10
5.049920211629566
 20
-2.374762867390413
 30
0.0
 10
5.049920211629569
 20
-3.398578263328519
 30
0.0
 10
5.049920211629569
 20
-3.882352706971241
 30
0.0
 10
5.049920211629569
 20
-4.756279652110594
 30
0.0
 10
5.049920211629566
 20
-5.146179790034484
 30
0.0
 10
5.049920211629566
 20
-5.807716250998761
 30
0.0
 10
5.049920211629566
 20
-6.079301867990809
 30
0.0
 10
5.049920211629566
 20
-6.288577999088141
 30
0.0
  0
SPLINE
  5
CE
330
1F
100
AcDbEntity
  8
0
  6
Continuous
 62
     4
370
    15
100
AcDbSpline
210
0.0
220
0.0
230
1.0
 70
    24
 71
     3
 72
    14
 73
    10
 74
     0
 42
0.000000001
 43
0.00000001
 40
0.0
 40
0.0
 40
0.0
 40
0.0
 40
0.2500000000000001
 40
0.2500000000000001
 40
0.5000000000000001
 40
0.5000000000000001
 40
0.75
 40
0.75
 40
1.0
 40
1.0
 40
1.0
 40
1.0
 10
5.049920211629566
 20
5.127555926877868
 30
0.0
 10
5.049920211629569
 20
4.850029367055571
 30
0.0
 10
5.049920211629569
 20
4.489598872378457
 30
0.0
 10
5.049920211629569
 20
3.614240343099441
 30
0.0
 10
5.049920211629569
 20
3.099437425225529
 30
0.0
 10
5.049920211629569
 20
1.959159402999151
 30
0.0
 10
5.049920211629569
 20
1.334291886449923
 30
0.0
 10
5.049920211629569
 20
0.0395516736348915
 30
0.0
 10
5.049920211629566
 20
-0.629606861699611
 30
0.0
 10
5.049920211629566
 20
-1.288274386663581
 30
0.0
  0
LINE
  5
CF
330
1F
100
AcDbEntity
  8
0
  6
Continuous
 62
     1
370
    15
100
AcDbLine
 10
43.04992021162958
 20
0.0000000000000043
 30
0.0
 11
43.04992021162958
 21
5.250000000000005
 31
0.0
  0
SPLINE
  5
D0
330
1F
100
AcDbEntity
  8
0
  6
Continuous
 62
     1
370
    15
100
AcDbSpline
210
0.0
220
0.0
230
1.0
 70
     8
 71
     3
 72
    12
 73
     8
 74
     0
 42
0.000000001
 43
0.00000001
 40
0.0
 40
0.0
 40
0.0
 40
0.0
 40
0.0423248428647538
 40
0.2817258564823878
 40
0.5211473292401457
 40
0.7605832127408545
 40
1.0
 40
1.0
 40
1.0
 40
1.0
 10
15.02830276192505
 20
-5.894768671847134
 30
0.0
 10
14.88752901740583
 20
-5.949241629998512
 30
0.0
 10
13.95050005142386
 20
-6.311828700654976
 30
0.0
 10
12.21711545157232
 20
-6.7908693437425
 30
0.0
 10
9.828092313270409
 20
-7.282485761888747
 30
0.0
 10
7.438963260005814
 20
-7.529219380278513
 30
0.0
 10
5.846246722361489
 20
-7.482443718451178
 30
0.0
 10
5.049920211636962
 20
-7.459056820224529
 30
0.0
  0
SPLINE
  5
D1
330
1F
100
AcDbEntity
  8
0
  6
Continuous
 62
     4
370
    15
100
AcDbSpline
210
0.0
220
0.0
230
1.0
 70
    24
 71
     3
 72
     8
 73
     4
 74
     0
 42
0.000000001
 43
0.00000001
 40
0.0
 40
0.0
 40
0.0
 40
0.0
 40
1.0
 40
1.0
 40
1.0
 40
1.0
 10
5.049920211629566
 20
-6.288577999088145
 30
0.0
 10
5.049920211629566
 20
-6.683638350593715
 30
0.0
 10
5.049920211629566
 20
-7.076327271593726
 30
0.0
 10
5.049920211629569
 20
-7.459056820212071
 30
0.0
  0
SPLINE
  5
D2
330
1F
100
AcDbEntity
  8
0
  6
Continuous
 62
     1
370
    15
100
AcDbSpline
210
0.0
220
0.0
230
1.0
 70
     8
 71
     3
 72
    12
 73
     8
 74
     0
 42
0.000000001
 43
0.00000001
 40
0.0
 40
0.0
 40
0.0
 40
0.0
 40
0.0715323419135981
 40
0.3036237980828822
 40
0.5357301972286644
 40
0.7678545865697003
 40
1.0
 40
1.0
 40
1.0
 40
1.0
 10
32.758571187005
 20
5.025647944042483
 30
0.0
 10
33.0039517166014
 20
5.13548993878297
 30
0.0
 10
34.04548574692352
 20
5.601721614412857
 30
0.0
 10
35.8832478003391
 20
6.249024086492041
 30
0.0
 10
38.27192856401277
 20
6.919623851590875
 30
0.0
 10
40.66082944667492
 20
7.363127083098882
 30
0.0
 10
42.25353258187922
 20
7.450148456949913
 30
0.0
 10
43.04992021162958
 20
7.493661114222329
 30
0.0
  0
SPLINE
  5
D3
330
1F
100
AcDbEntity
  8
0
  6
Continuous
 62
     1
370
    15
100
AcDbSpline
210
0.0
220
0.0
230
1.0
 70
    24
 71
     3
 72
    10
 73
     6
 74
     0
 42
0.000000001
 43
0.00000001
 40
0.0
 40
0.0
 40
0.0
 40
0.0
 40
0.5
 40
0.5
 40
1.0
 40
1.0
 40
1.0
 40
1.0
 10
43.04992021162958
 20
5.250000000000005
 30
0.0
 10
43.04992021162957
 20
5.568241926054858
 30
0.0
 10
43.04992021162958
 20
5.938068516503384
 30
0.0
 10
43.04992021162957
 20
6.713963707206421
 30
0.0
 10
43.04992021162958
 20
7.118050768511048
 30
0.0
 10
43.04992021162958
 20
7.493661114222336
 30
0.0
  0
LINE
  5
D4
330
1F
100
AcDbEntity
  8
중심선
100
AcDbLine
 10
-59.95007978837042
 20
-0.0000000000000044
 30
0.0
 11
50.04992021162958
 21
0.0000000000000044
 31
0.0
  0
CIRCLE
  5
D5
330
1F
100
AcDbEntity
  8
외형선
100
AcDbCircle
 10
0.0
 20
0.0
 30
0.0
 40
3.000000000000004
  0
INSERT
  5
D6
330
1F
100
AcDbEntity
  8
0
  6
Continuous
 62
     7
100
AcDbBlockReference
 66
     1
  2
블럭10
 10
-28.88835322788204
 20
-52.04717430164393
 30
0.0
  0
ATTRIB
  5
D7
330
D6
100
AcDbEntity
  8
FORMAT
 62
     2
100
AcDbText
 10
-41.8482924227398
 20
-49.97180738881174
 30
0.0
 40
4.233333333333333
  1
SEME35150E [ 2 FLUTE ]
 41
0.75
  7
SLDTEXTSTYLE0
 11
-41.8482924227398
 21
-52.08847405547841
 31
0.0
100
AcDbAttribute
  2
AUTOATTR0
 70
     0
 74
     1
  0
SEQEND
  5
D8
330
D6
100
AcDbEntity
  8
0
  6
Continuous
 62
     7
  0
HATCH
  5
D9
330
1F
100
AcDbEntity
  8
중심선
100
AcDbHatch
 10
0.0
 20
0.0
 30
0.0
210
0.0
220
0.0
230
1.0
  2
SOLID
 70
     1
 71
     0
 91
        1
 92
        0
 93
        4
 72
     1
 10
-23.17344392350118
 20
-35.8
 11
-26.61971916733847
 21
-35.8
 72
     1
 10
-26.61971916733847
 20
-35.8
 11
-28.74794902654249
 21
-38.33632558057259
 72
     1
 10
-28.74794902654249
 20
-38.33632558057259
 11
-25.30164069759206
 21
-38.3362861512701
 72
     1
 10
-25.30164069759206
 20
-38.3362861512701
 11
-23.17344392350118
 21
-35.8
 97
        0
 75
     0
 76
     1
 98
        1
 10
-4.950079788370426
 20
-0.0000000000000009
  0
HATCH
  5
DA
330
1F
100
AcDbEntity
  8
중심선
100
AcDbHatch
 10
0.0
 20
0.0
 30
0.0
210
0.0
220
0.0
230
1.0
  2
SOLID
 70
     1
 71
     0
 91
        1
 92
        0
 93
        4
 72
     1
 10
-18.16067993246524
 20
-35.8
 11
-21.60695517630252
 21
-35.8
 72
     1
 10
-21.60695517630251
 20
-35.8
 11
-26.1380931846599
 21
-41.20000000000002
 72
     1
 10
-26.1380931846599
 20
-41.20000000000002
 11
-22.69181794082262
 21
-41.20000000000002
 72
     1
 10
-22.69181794082262
 20
-41.20000000000002
 11
-18.16067993246524
 21
-35.8
 97
        0
 75
     0
 76
     1
 98
        1
 10
-4.950079788370426
 20
-0.0000000000000009
  0
HATCH
  5
DB
330
1F
100
AcDbEntity
  8
중심선
100
AcDbHatch
 10
0.0
 20
0.0
 30
0.0
210
0.0
220
0.0
230
1.0
  2
SOLID
 70
     1
 71
     0
 91
        1
 92
        0
 93
        4
 72
     1
 10
-13.14791594142934
 20
-35.80000000000003
 11
-16.59419118526645
 21
-35.8
 72
     1
 10
-16.59419118526645
 20
-35.8
 11
-23.6426280871557
 21
-44.20000000000002
 72
     1
 10
-23.6426280871557
 20
-44.20000000000002
 11
-20.19635284331842
 21
-44.20000000000002
 72
     1
 10
-20.19635284331842
 20
-44.20000000000002
 11
-13.14791594142934
 21
-35.80000000000003
 97
        0
 75
     0
 76
     1
 98
        1
 10
-4.950079788370426
 20
-0.0000000000000009
  0
HATCH
  5
DC
330
1F
100
AcDbEntity
  8
중심선
100
AcDbHatch
 10
0.0
 20
0.0
 30
0.0
210
0.0
220
0.0
230
1.0
  2
SOLID
 70
     1
 71
     0
 91
        1
 92
        0
 93
        6
 72
     3
 10
-8.34802551041714
 20
-40.00000000005127
 11
3.960054785062284
 21
1.540882976769353E-10
 40
0.3939339440162627
 50
17.09539180608436
 51
320.0019657685081
 73
     0
 72
     1
 10
-6.665025854716544
 20
-38.5878940046383
 11
-4.359723981015506
 21
-36.65356729459038
 72
     3
 10
-8.348025510469986
 20
-40.00000000000015
 11
6.600054785286829
 21
-1.278976924368180E-13
 40
0.636358354079598
 50
39.99873849337411
 51
368.4976242363724
 73
     1
 72
     1
 10
-1.922693018569376
 20
-39.03999999993002
 11
-9.667958203634063
 21
-39.03999999992999
 72
     1
 10
-9.667958203634063
 20
-39.03999999992999
 11
-9.667983248079997
 21
-40.95999999992991
 72
     1
 10
-9.667983248079997
 20
-40.95999999992991
 11
-5.22660347860796
 21
-40.95999999992988
 97
        0
 75
     0
 76
     1
 98
        1
 10
-4.950079788370426
 20
-0.0000000000000009
  0
DIMENSION
  5
DD
330
1F
100
AcDbEntity
  8
치수문자_일반주서
100
AcDbDimension
  2
_D
 10
5.049920211629566
 20
19.74429500280011
 30
0.0
 11
24.04992021162956
 21
19.74429500280011
 31
0.0
 70
   160
  1
<>
 71
     2
 42
38.00000000000001
  3
SLDDIMSTYLE0
100
AcDbAlignedDimension
 13
43.04992021162958
 23
7.493661114222336
 33
0.0
 14
5.049920211629566
 24
7.499999999999999
 34
0.0
100
AcDbRotatedDimension
  0
DIMENSION
  5
E8
330
1F
100
AcDbEntity
  8
치수문자_일반주서
100
AcDbDimension
  2
_D_1
 10
-56.95007978837043
 20
28.03415911661227
 30
0.0
 11
-6.950079788370415
 21
28.03415911661227
 31
0.0
 70
   160
  1
<>
 71
     2
 42
100.0
  3
SLDDIMSTYLE0
100
AcDbAlignedDimension
 13
43.04992021162958
 23
7.493661114222336
 33
0.0
 14
-56.95007978837043
 24
6.999999999999991
 34
0.0
 50
0.0000000000000041
100
AcDbRotatedDimension
  0
DIMENSION
  5
F2
330
1F
100
AcDbEntity
  8
치수문자_일반주서
100
AcDbDimension
  2
_D_2
 10
58.61611052387588
 20
-7.493661114222273
 30
0.0
 11
58.61611052387585
 21
0.0000000000000029
 31
0.0
 70
   160
  1
%%c<>
 71
     2
 42
14.99842063130736
 52
-270.0
  3
SLDDIMSTYLE1
100
AcDbAlignedDimension
 13
43.05023452522941
 23
7.504759517085029
 33
0.0
 14
43.04992021162958
 24
-7.493661114222331
 34
0.0
 50
90.0000000000002
100
AcDbRotatedDimension
  0
DIMENSION
  5
100
330
1F
100
AcDbEntity
  8
치수문자_일반주서
100
AcDbDimension
  2
_D_3
 10
-68.36963923375895
 20
-8.00000000000005
 30
0.0
 11
-68.36963923375897
 21
-0.000000000000002
 31
0.0
 70
   160
  1
%%c<>
 71
     2
 42
16.0
 52
-270.0
  3
SLDDIMSTYLE1
100
AcDbAlignedDimension
 13
-55.95007978837043
 23
7.999999999999994
 33
0.0
 14
-55.95007978837043
 24
-8.000000000000004
 34
0.0
 50
90.0000000000002
100
AcDbRotatedDimension
  0
INSERT
  5
113
330
1F
100
AcDbEntity
  8
외형선
100
AcDbBlockReference
  2
SW_DOWELSYMBOL_0
 10
0.0
 20
0.0
 30
0.0
  0
LINE
  5
166
330
1F
100
AcDbEntity
  8
0
  6
Continuous
 62
     4
370
    15
100
AcDbLine
 10
3.54992021162957
 20
-7.999999999999999
 30
0.0
 11
4.049920211629569
 21
-7.500000000000001
 31
0.0
1001
PE_URL
1000

  0
LINE
  5
167
330
1F
100
AcDbEntity
  8
0
  6
Continuous
 62
     4
370
    15
100
AcDbLine
 10
3.549920211629569
 20
8.0
 30
0.0
 11
4.049920211629568
 21
7.500000000000003
 31
0.0
1001
PE_URL
1000

  0
ENDSEC
  0
SECTION
  2
OBJECTS
  0
DICTIONARY
  5
C
330
0
100
AcDbDictionary
281
     1
  3
ACAD_GROUP
350
D
  3
ACAD_LAYOUT
350
1A
  3
ACAD_MLINESTYLE
350
17
  3
ACAD_PLOTSETTINGS
350
19
  3
ACAD_PLOTSTYLENAME
350
E
  3
ACAD_SCALELIST
350
47
  3
APPDATA
350
135
  3
DWGPROPS
350
16A
  0
DICTIONARY
  5
168
330
1F
100
AcDbDictionary
280
     1
281
     1
  3
DIM_BOUNDING_BOXES_V1
360
169
  0
DICTIONARY
  5
D
102
{ACAD_REACTORS
330
C
102
}
330
C
100
AcDbDictionary
281
     1
  0
DICTIONARY
  5
1A
102
{ACAD_REACTORS
330
C
102
}
330
C
100
AcDbDictionary
281
     1
  3
Layout1
350
1E
  3
Layout2
350
26
  3
Model
350
22
  0
DICTIONARY
  5
17
102
{ACAD_REACTORS
330
C
102
}
330
C
100
AcDbDictionary
281
     1
  3
Standard
350
18
  0
DICTIONARY
  5
19
102
{ACAD_REACTORS
330
C
102
}
330
C
100
AcDbDictionary
281
     1
  0
ACDBDICTIONARYWDFLT
  5
E
102
{ACAD_REACTORS
330
C
102
}
330
C
100
AcDbDictionary
281
     1
  3
Normal
350
F
100
AcDbDictionaryWithDefault
340
F
  0
DICTIONARY
  5
47
102
{ACAD_REACTORS
330
C
102
}
330
C
100
AcDbDictionary
281
     1
  3
A0
350
48
  3
A1
350
49
  3
A2
350
4A
  3
A3
350
4B
  3
A4
350
4C
  3
A5
350
4D
  3
A6
350
4E
  3
A7
350
4F
  3
A8
350
50
  3
A9
350
51
  3
B0
350
52
  3
B1
350
53
  3
B2
350
54
  3
B3
350
55
  3
B4
350
56
  3
B5
350
57
  3
B6
350
58
  3
B7
350
59
  3
B8
350
5A
  3
B9
350
5B
  3
C0
350
5C
  3
C1
350
5D
  3
C2
350
5E
  3
C3
350
5F
  3
C4
350
60
  3
C5
350
61
  3
C6
350
62
  3
C7
350
63
  3
C8
350
64
  3
C9
350
65
  3
D0
350
66
  3
D1
350
67
  3
D2
350
68
  0
DICTIONARY
  5
135
102
{ACAD_REACTORS
330
C
102
}
330
C
100
AcDbDictionary
281
     1
  0
XRECORD
  5
16A
102
{ACAD_REACTORS
330
C
102
}
330
C
100
AcDbXrecord
280
     1
  1
DWGPROPS COOKIE
  2

  3

  4

  6

  7

  8
12017152
  9

300
=
301
=
302
=
303
=
304
=
305
=
306
=
307
=
308
=
309
=
 40
0.0
 41
2458250.135319954
 42
2459699.324849271
  1

 90
        0
  0
DICTIONARY
  5
169
102
{ACAD_REACTORS
330
168
102
}
330
168
100
AcDbDictionary
281
     1
  0
LAYOUT
  5
1E
102
{ACAD_REACTORS
330
1A
102
}
330
1A
100
AcDbPlotSettings
  1

  2
none_device
  4

  6

 40
0.0
 41
0.0
 42
0.0
 43
0.0
 44
0.0
 45
0.0
 46
0.0
 47
0.0
 48
0.0
 49
0.0
140
0.0
141
0.0
142
1.0
143
1.0
 70
   688
 72
     1
 73
     0
 74
     5
  7

 75
    16
147
1.0
148
0.0
149
0.0
100
AcDbLayout
  1
Layout1
 70
     1
 71
     1
 10
0.0
 20
0.0
 11
420.0
 21
297.0
 12
0.0
 22
0.0
 32
0.0
 14
1.000000000000000E+20
 24
1.000000000000000E+20
 34
1.000000000000000E+20
 15
-1.000000000000000E+20
 25
-1.000000000000000E+20
 35
-1.000000000000000E+20
146
0.0
 13
0.0
 23
0.0
 33
0.0
 16
1.0
 26
0.0
 36
0.0
 17
0.0
 27
1.0
 37
0.0
 76
     0
330
1B
  0
LAYOUT
  5
26
102
{ACAD_REACTORS
330
1A
102
}
330
1A
100
AcDbPlotSettings
  1

  2
none_device
  4

  6

 40
0.0
 41
0.0
 42
0.0
 43
0.0
 44
0.0
 45
0.0
 46
0.0
 47
0.0
 48
0.0
 49
0.0
140
0.0
141
0.0
142
1.0
143
1.0
 70
   688
 72
     1
 73
     0
 74
     5
  7

 75
    16
147
1.0
148
0.0
149
0.0
100
AcDbLayout
  1
Layout2
 70
     1
 71
     2
 10
0.0
 20
0.0
 11
0.0
 21
0.0
 12
0.0
 22
0.0
 32
0.0
 14
0.0
 24
0.0
 34
0.0
 15
0.0
 25
0.0
 35
0.0
146
0.0
 13
0.0
 23
0.0
 33
0.0
 16
1.0
 26
0.0
 36
0.0
 17
0.0
 27
1.0
 37
0.0
 76
     0
330
23
  0
LAYOUT
  5
22
102
{ACAD_REACTORS
330
1A
102
}
330
1A
100
AcDbPlotSettings
  1

  2
none_device
  4
ANSI_A_(11.00_x_8.50_Inches)
  6

 40
6.35
 41
19.05
 42
6.35000508
 43
19.05000254
 44
279.4
 45
215.9
 46
136.9169248651321
 47
107.8583565604608
 48
0.0
 49
0.0
140
0.0
141
0.0
142
0.0821570819270314
143
1.0
 70
  1696
 72
     0
 73
     0
 74
     0
  7

 75
     0
147
0.0235690232323232
148
0.0
149
0.0
100
AcDbLayout
  1
Model
 70
     1
 71
     0
 10
0.0
 20
0.0
 11
420.0
 21
297.0
 12
0.0
 22
0.0
 32
0.0
 14
-72.74463923375899
 24
-49.97180738881174
 34
0.0
 15
59.1664438572092
 25
32.40915911661227
 35
0.0
146
0.0
 13
0.0
 23
0.0
 33
0.0
 16
1.0
 26
0.0
 36
0.0
 17
0.0
 27
1.0
 37
0.0
 76
     0
330
1F
331
29
  0
MLINESTYLE
  5
18
102
{ACAD_REACTORS
330
17
102
}
330
17
100
AcDbMlineStyle
  2
Standard
 70
     0
  3

 62
   256
 51
90.0
 52
90.0
 71
     2
 49
0.5
 62
   256
  6
BYLAYER
 49
-0.5
 62
   256
  6
BYLAYER
  0
ACDBPLACEHOLDER
  5
F
102
{ACAD_REACTORS
330
E
102
}
330
E
  0
SCALE
  5
48
102
{ACAD_REACTORS
330
47
102
}
330
47
100
AcDbScale
 70
     0
300
1:1
140
1.0
141
1.0
290
     1
  0
SCALE
  5
49
102
{ACAD_REACTORS
330
47
102
}
330
47
100
AcDbScale
 70
     0
300
1:2
140
1.0
141
2.0
290
     0
  0
SCALE
  5
4A
102
{ACAD_REACTORS
330
47
102
}
330
47
100
AcDbScale
 70
     0
300
1:4
140
1.0
141
4.0
290
     0
  0
SCALE
  5
4B
102
{ACAD_REACTORS
330
47
102
}
330
47
100
AcDbScale
 70
     0
300
1:5
140
1.0
141
5.0
290
     0
  0
SCALE
  5
4C
102
{ACAD_REACTORS
330
47
102
}
330
47
100
AcDbScale
 70
     0
300
1:8
140
1.0
141
8.0
290
     0
  0
SCALE
  5
4D
102
{ACAD_REACTORS
330
47
102
}
330
47
100
AcDbScale
 70
     0
300
1:10
140
1.0
141
10.0
290
     0
  0
SCALE
  5
4E
102
{ACAD_REACTORS
330
47
102
}
330
47
100
AcDbScale
 70
     0
300
1:16
140
1.0
141
16.0
290
     0
  0
SCALE
  5
4F
102
{ACAD_REACTORS
330
47
102
}
330
47
100
AcDbScale
 70
     0
300
1:20
140
1.0
141
20.0
290
     0
  0
SCALE
  5
50
102
{ACAD_REACTORS
330
47
102
}
330
47
100
AcDbScale
 70
     0
300
1:30
140
1.0
141
30.0
290
     0
  0
SCALE
  5
51
102
{ACAD_REACTORS
330
47
102
}
330
47
100
AcDbScale
 70
     0
300
1:40
140
1.0
141
40.0
290
     0
  0
SCALE
  5
52
102
{ACAD_REACTORS
330
47
102
}
330
47
100
AcDbScale
 70
     0
300
1:50
140
1.0
141
50.0
290
     0
  0
SCALE
  5
53
102
{ACAD_REACTORS
330
47
102
}
330
47
100
AcDbScale
 70
     0
300
1:100
140
1.0
141
100.0
290
     0
  0
SCALE
  5
54
102
{ACAD_REACTORS
330
47
102
}
330
47
100
AcDbScale
 70
     0
300
2:1
140
2.0
141
1.0
290
     0
  0
SCALE
  5
55
102
{ACAD_REACTORS
330
47
102
}
330
47
100
AcDbScale
 70
     0
300
4:1
140
4.0
141
1.0
290
     0
  0
SCALE
  5
56
102
{ACAD_REACTORS
330
47
102
}
330
47
100
AcDbScale
 70
     0
300
8:1
140
8.0
141
1.0
290
     0
  0
SCALE
  5
57
102
{ACAD_REACTORS
330
47
102
}
330
47
100
AcDbScale
 70
     0
300
10:1
140
10.0
141
1.0
290
     0
  0
SCALE
  5
58
102
{ACAD_REACTORS
330
47
102
}
330
47
100
AcDbScale
 70
     0
300
100:1
140
100.0
141
1.0
290
     0
  0
SCALE
  5
59
102
{ACAD_REACTORS
330
47
102
}
330
47
100
AcDbScale
 70
     0
300
1/128" = 1'-0"
140
0.0078125
141
12.0
290
     0
  0
SCALE
  5
5A
102
{ACAD_REACTORS
330
47
102
}
330
47
100
AcDbScale
 70
     0
300
1/64" = 1'-0"
140
0.015625
141
12.0
290
     0
  0
SCALE
  5
5B
102
{ACAD_REACTORS
330
47
102
}
330
47
100
AcDbScale
 70
     0
300
1/32" = 1'-0"
140
0.03125
141
12.0
290
     0
  0
SCALE
  5
5C
102
{ACAD_REACTORS
330
47
102
}
330
47
100
AcDbScale
 70
     0
300
1/16" = 1'-0"
140
0.0625
141
12.0
290
     0
  0
SCALE
  5
5D
102
{ACAD_REACTORS
330
47
102
}
330
47
100
AcDbScale
 70
     0
300
3/32" = 1'-0"
140
0.09375
141
12.0
290
     0
  0
SCALE
  5
5E
102
{ACAD_REACTORS
330
47
102
}
330
47
100
AcDbScale
 70
     0
300
1/8" = 1'-0"
140
0.125
141
12.0
290
     0
  0
SCALE
  5
5F
102
{ACAD_REACTORS
330
47
102
}
330
47
100
AcDbScale
 70
     0
300
3/16" = 1'-0"
140
0.1875
141
12.0
290
     0
  0
SCALE
  5
60
102
{ACAD_REACTORS
330
47
102
}
330
47
100
AcDbScale
 70
     0
300
1/4" = 1'-0"
140
0.25
141
12.0
290
     0
  0
SCALE
  5
61
102
{ACAD_REACTORS
330
47
102
}
330
47
100
AcDbScale
 70
     0
300
3/8" = 1'-0"
140
0.375
141
12.0
290
     0
  0
SCALE
  5
62
102
{ACAD_REACTORS
330
47
102
}
330
47
100
AcDbScale
 70
     0
300
1/2" = 1'-0"
140
0.5
141
12.0
290
     0
  0
SCALE
  5
63
102
{ACAD_REACTORS
330
47
102
}
330
47
100
AcDbScale
 70
     0
300
3/4" = 1'-0"
140
0.75
141
12.0
290
     0
  0
SCALE
  5
64
102
{ACAD_REACTORS
330
47
102
}
330
47
100
AcDbScale
 70
     0
300
1" = 1'-0"
140
1.0
141
12.0
290
     0
  0
SCALE
  5
65
102
{ACAD_REACTORS
330
47
102
}
330
47
100
AcDbScale
 70
     0
300
1-1/2" = 1'-0"
140
1.5
141
12.0
290
     0
  0
SCALE
  5
66
102
{ACAD_REACTORS
330
47
102
}
330
47
100
AcDbScale
 70
     0
300
3" = 1'-0"
140
3.0
141
12.0
290
     0
  0
SCALE
  5
67
102
{ACAD_REACTORS
330
47
102
}
330
47
100
AcDbScale
 70
     0
300
6" = 1'-0"
140
6.0
141
12.0
290
     0
  0
SCALE
  5
68
102
{ACAD_REACTORS
330
47
102
}
330
47
100
AcDbScale
 70
     0
300
1'-0" = 1'-0"
140
12.0
141
12.0
290
     0
  0
ENDSEC
  0
EOF
