  0
SECTION
  2
HEADER
  9
$ACADVER
  1
AC1015
  9
$ACADMAINTVER
 70
     6
  9
$DWGCODEPAGE
  3
ANSI_949
  9
$INSBASE
 10
0.0
 20
0.0
 30
0.0
  9
$EXTMIN
 10
-55.92853404160412
 20
-49.97180738881174
 30
0.0
  9
$EXTMAX
 10
50.98254904936405
 20
31.00915911661226
 30
0.0
  9
$LIMMIN
 10
0.0
 20
0.0
  9
$LIMMAX
 10
420.0
 20
297.0
  9
$ORTHOMODE
 70
     1
  9
$REGENMODE
 70
     1
  9
$FILLMODE
 70
     1
  9
$QTEXTMODE
 70
     0
  9
$MIRRTEXT
 70
     1
  9
$LTSCALE
 40
1.0
  9
$ATTMODE
 70
     1
  9
$TEXTSIZE
 40
3.5
  9
$TRACEWID
 40
1.0
  9
$TEXTSTYLE
  7
Standard
  9
$CLAYER
  8
0
  9
$CELTYPE
  6
ByLayer
  9
$CECOLOR
 62
   256
  9
$CELTSCALE
 40
1.0
  9
$DISPSILH
 70
     0
  9
$DIMSCALE
 40
1.0
  9
$DIMASZ
 40
3.302
  9
$DIMEXO
 40
1.0
  9
$DIMDLI
 40
3.75
  9
$DIMRND
 40
0.0
  9
$DIMDLE
 40
0.0
  9
$DIMEXE
 40
1.0
  9
$DIMTP
 40
0.0
  9
$DIMTM
 40
0.0
  9
$DIMTXT
 40
3.5
  9
$DIMCEN
 40
2.5
  9
$DIMTSZ
 40
0.0
  9
$DIMTOL
 70
     0
  9
$DIMLIM
 70
     0
  9
$DIMTIH
 70
     1
  9
$DIMTOH
 70
     1
  9
$DIMSE1
 70
     0
  9
$DIMSE2
 70
     0
  9
$DIMTAD
 70
     1
  9
$DIMZIN
 70
     0
  9
$DIMBLK
  1

  9
$DIMASO
 70
     1
  9
$DIMSHO
 70
     1
  9
$DIMPOST
  1

  9
$DIMAPOST
  1

  9
$DIMALT
 70
     0
  9
$DIMALTD
 70
     3
  9
$DIMALTF
 40
0.0393700787401575
  9
$DIMLFAC
 40
1.0
  9
$DIMTOFL
 70
     1
  9
$DIMTVP
 40
0.0
  9
$DIMTIX
 70
     0
  9
$DIMSOXD
 70
     0
  9
$DIMSAH
 70
     0
  9
$DIMBLK1
  1

  9
$DIMBLK2
  1

  9
$DIMSTYLE
  2
ISO-25
  9
$DIMCLRD
 70
     0
  9
$DIMCLRE
 70
     0
  9
$DIMCLRT
 70
     0
  9
$DIMTFAC
 40
1.0
  9
$DIMGAP
 40
1.524
  9
$DIMJUST
 70
     0
  9
$DIMSD1
 70
     0
  9
$DIMSD2
 70
     0
  9
$DIMTOLJ
 70
     0
  9
$DIMTZIN
 70
     0
  9
$DIMALTZ
 70
     0
  9
$DIMALTTZ
 70
     0
  9
$DIMUPT
 70
     0
  9
$DIMDEC
 70
     2
  9
$DIMTDEC
 70
     2
  9
$DIMALTU
 70
     2
  9
$DIMALTTD
 70
     3
  9
$DIMTXSTY
  7
Standard
  9
$DIMAUNIT
 70
     0
  9
$DIMADEC
 70
     2
  9
$DIMALTRND
 40
0.0
  9
$DIMAZIN
 70
     0
  9
$DIMDSEP
 70
    44
  9
$DIMATFIT
 70
     3
  9
$DIMFRAC
 70
     0
  9
$DIMLDRBLK
  1

  9
$DIMLUNIT
 70
     2
  9
$DIMLWD
 70
    -2
  9
$DIMLWE
 70
    -2
  9
$DIMTMOVE
 70
     0
  9
$LUNITS
 70
     2
  9
$LUPREC
 70
     2
  9
$SKETCHINC
 40
1.0
  9
$FILLETRAD
 40
10.0
  9
$AUNITS
 70
     0
  9
$AUPREC
 70
     2
  9
$MENU
  1
.
  9
$ELEVATION
 40
0.0
  9
$PELEVATION
 40
0.0
  9
$THICKNESS
 40
0.0
  9
$LIMCHECK
 70
     0
  9
$CHAMFERA
 40
0.0
  9
$CHAMFERB
 40
0.0
  9
$CHAMFERC
 40
0.0
  9
$CHAMFERD
 40
0.0
  9
$SKPOLY
 70
     0
  9
$TDCREATE
 40
2458250.493407697
  9
$TDUCREATE
 40
2458250.118407697
  9
$TDUPDATE
 40
2458264.434682095
  9
$TDUUPDATE
 40
2458264.059682095
  9
$TDINDWG
 40
0.0037123958
  9
$TDUSRTIMER
 40
0.0012398032
  9
$USRTIMER
 70
     1
  9
$ANGBASE
 50
0.0
  9
$ANGDIR
 70
     0
  9
$PDMODE
 70
     0
  9
$PDSIZE
 40
-1.0
  9
$PLINEWID
 40
0.0
  9
$SPLFRAME
 70
     0
  9
$SPLINETYPE
 70
     6
  9
$SPLINESEGS
 70
     8
  9
$HANDSEED
  5
190
  9
$SURFTAB1
 70
     6
  9
$SURFTAB2
 70
     6
  9
$SURFTYPE
 70
     6
  9
$SURFU
 70
     6
  9
$SURFV
 70
     6
  9
$UCSBASE
  2

  9
$UCSNAME
  2

  9
$UCSORG
 10
0.0
 20
0.0
 30
0.0
  9
$UCSXDIR
 10
1.0
 20
0.0
 30
0.0
  9
$UCSYDIR
 10
0.0
 20
1.0
 30
0.0
  9
$UCSORTHOREF
  2

  9
$UCSORTHOVIEW
 70
     0
  9
$UCSORGTOP
 10
0.0
 20
0.0
 30
0.0
  9
$UCSORGBOTTOM
 10
0.0
 20
0.0
 30
0.0
  9
$UCSORGLEFT
 10
0.0
 20
0.0
 30
0.0
  9
$UCSORGRIGHT
 10
0.0
 20
0.0
 30
0.0
  9
$UCSORGFRONT
 10
0.0
 20
0.0
 30
0.0
  9
$UCSORGBACK
 10
0.0
 20
0.0
 30
0.0
  9
$PUCSBASE
  2

  9
$PUCSNAME
  2

  9
$PUCSORG
 10
0.0
 20
0.0
 30
0.0
  9
$PUCSXDIR
 10
1.0
 20
0.0
 30
0.0
  9
$PUCSYDIR
 10
0.0
 20
1.0
 30
0.0
  9
$PUCSORTHOREF
  2

  9
$PUCSORTHOVIEW
 70
     0
  9
$PUCSORGTOP
 10
0.0
 20
0.0
 30
0.0
  9
$PUCSORGBOTTOM
 10
0.0
 20
0.0
 30
0.0
  9
$PUCSORGLEFT
 10
0.0
 20
0.0
 30
0.0
  9
$PUCSORGRIGHT
 10
0.0
 20
0.0
 30
0.0
  9
$PUCSORGFRONT
 10
0.0
 20
0.0
 30
0.0
  9
$PUCSORGBACK
 10
0.0
 20
0.0
 30
0.0
  9
$USERI1
 70
     0
  9
$USERI2
 70
     0
  9
$USERI3
 70
     0
  9
$USERI4
 70
     0
  9
$USERI5
 70
     0
  9
$USERR1
 40
0.0
  9
$USERR2
 40
0.0
  9
$USERR3
 40
0.0
  9
$USERR4
 40
0.0
  9
$USERR5
 40
0.0
  9
$WORLDVIEW
 70
     1
  9
$SHADEDGE
 70
     3
  9
$SHADEDIF
 70
    70
  9
$TILEMODE
 70
     1
  9
$MAXACTVP
 70
    64
  9
$PINSBASE
 10
0.0
 20
0.0
 30
0.0
  9
$PLIMCHECK
 70
     0
  9
$PEXTMIN
 10
1.000000000000000E+20
 20
1.000000000000000E+20
 30
1.000000000000000E+20
  9
$PEXTMAX
 10
-1.000000000000000E+20
 20
-1.000000000000000E+20
 30
-1.000000000000000E+20
  9
$PLIMMIN
 10
0.0
 20
0.0
  9
$PLIMMAX
 10
0.0
 20
0.0
  9
$UNITMODE
 70
     0
  9
$VISRETAIN
 70
     1
  9
$PLINEGEN
 70
     0
  9
$PSLTSCALE
 70
     1
  9
$TREEDEPTH
 70
  3020
  9
$CMLSTYLE
  2
Standard
  9
$CMLJUST
 70
     0
  9
$CMLSCALE
 40
20.0
  9
$PROXYGRAPHICS
 70
     1
  9
$MEASUREMENT
 70
     1
  9
$CELWEIGHT
370
    -1
  9
$ENDCAPS
280
     0
  9
$JOINSTYLE
280
     0
  9
$LWDISPLAY
290
     1
  9
$INSUNITS
 70
     4
  9
$HYPERLINKBASE
  1

  9
$STYLESHEET
  1

  9
$XEDIT
290
     1
  9
$CEPSNTYPE
380
     0
  9
$PSTYLEMODE
290
     1
  9
$FINGERPRINTGUID
  2
{6B6BB242-C0AC-4769-B313-68259788FF37}
  9
$VERSIONGUID
  2
{FAEB1C32-E019-11D5-929B-00C0DF256EC4}
  9
$EXTNAMES
290
     1
  9
$PSVPSCALE
 40
0.0
  9
$OLESTARTUP
290
     0
  0
ENDSEC
  0
SECTION
  2
CLASSES
  0
CLASS
  1
ACDBDICTIONARYWDFLT
  2
AcDbDictionaryWithDefault
  3
ObjectDBX Classes
 90
        0
280
     0
281
     0
  0
CLASS
  1
VISUALSTYLE
  2
AcDbVisualStyle
  3
ObjectDBX Classes
 90
     4095
280
     0
281
     0
  0
CLASS
  1
MATERIAL
  2
AcDbMaterial
  3
ObjectDBX Classes
 90
     1153
280
     0
281
     0
  0
CLASS
  1
SCALE
  2
AcDbScale
  3
ObjectDBX Classes
 90
     1153
280
     0
281
     0
  0
CLASS
  1
SUN
  2
AcDbSun
  3
SCENEOE
 90
     1153
280
     0
281
     0
  0
CLASS
  1
ACDBPLACEHOLDER
  2
AcDbPlaceHolder
  3
ObjectDBX Classes
 90
        0
280
     0
281
     0
  0
CLASS
  1
LAYOUT
  2
AcDbLayout
  3
ObjectDBX Classes
 90
        0
280
     0
281
     0
  0
CLASS
  1
TABLESTYLE
  2
AcDbTableStyle
  3
ObjectDBX Classes
 90
     4095
280
     0
281
     0
  0
CLASS
  1
MLEADERSTYLE
  2
AcDbMLeaderStyle
  3
ACDB_MLEADERSTYLE_CLASS
 90
     4095
280
     0
281
     0
  0
CLASS
  1
DICTIONARYVAR
  2
AcDbDictionaryVar
  3
ObjectDBX Classes
 90
        0
280
     0
281
     0
  0
ENDSEC
  0
SECTION
  2
TABLES
  0
TABLE
  2
VPORT
  5
8
330
0
100
AcDbSymbolTable
 70
     1
  0
VPORT
  5
29
330
8
100
AcDbSymbolTableRecord
100
AcDbViewportTableRecord
  2
*Active
 70
     0
 10
0.0
 20
0.0
 11
1.0
 21
1.0
 12
-13.37069104584187
 22
4.867920740019308
 13
0.0
 23
0.0
 14
10.0
 24
10.0
 15
10.0
 25
10.0
 16
0.0
 26
0.0
 36
1.0
 17
0.0
 27
0.0
 37
0.0
 40
68.01497840054766
 41
2.223011363636364
 42
50.0
 43
0.0
 44
0.0
 50
0.0
 51
0.0
 71
    16
 72
  2000
 73
     1
 74
     3
 75
     0
 76
     0
 77
     0
 78
     0
281
     0
 65
     1
110
0.0
120
0.0
130
0.0
111
1.0
121
0.0
131
0.0
112
0.0
122
1.0
132
0.0
 79
     0
146
0.0
  0
ENDTAB
  0
TABLE
  2
LTYPE
  5
5
330
0
100
AcDbSymbolTable
 70
     6
  0
LTYPE
  5
14
330
5
100
AcDbSymbolTableRecord
100
AcDbLinetypeTableRecord
  2
ByBlock
 70
     0
  3

 72
    65
 73
     0
 40
0.0
  0
LTYPE
  5
15
330
5
100
AcDbSymbolTableRecord
100
AcDbLinetypeTableRecord
  2
ByLayer
 70
     0
  3

 72
    65
 73
     0
 40
0.0
  0
LTYPE
  5
16
330
5
100
AcDbSymbolTableRecord
100
AcDbLinetypeTableRecord
  2
Continuous
 70
     0
  3
Solid line
 72
    65
 73
     0
 40
0.0
  0
LTYPE
  5
6A
330
5
100
AcDbSymbolTableRecord
100
AcDbLinetypeTableRecord
  2
HIDDEN
 70
     0
  3
Hidden __ __ __ __ __ __ __ __ __ __ __ __ __ __
 72
    65
 73
     2
 40
1.905
 49
1.27
 74
     0
 49
-0.635
 74
     0
  0
LTYPE
  5
6B
330
5
100
AcDbSymbolTableRecord
100
AcDbLinetypeTableRecord
  2
PHANTOM
 70
     0
  3
Phantom ______  __  __  ______  __  __  ______
 72
    65
 73
     6
 40
12.7
 49
6.35
 74
     0
 49
-1.27
 74
     0
 49
1.27
 74
     0
 49
-1.27
 74
     0
 49
1.27
 74
     0
 49
-1.27
 74
     0
  0
LTYPE
  5
6C
330
5
100
AcDbSymbolTableRecord
100
AcDbLinetypeTableRecord
  2
CENTER
 70
     0
  3
Center ____ _ ____ _ ____ _ ____ _ ____ _ ____
 72
    65
 73
     4
 40
10.16
 49
6.35
 74
     0
 49
-1.27
 74
     0
 49
1.27
 74
     0
 49
-1.27
 74
     0
  0
LTYPE
  5
6D
330
5
100
AcDbSymbolTableRecord
100
AcDbLinetypeTableRecord
  2
CENTERX2
 70
     0
  3
Center (2x) ________  __  ________  __  _____
 72
    65
 73
     4
 40
20.32
 49
12.7
 74
     0
 49
-2.54
 74
     0
 49
2.54
 74
     0
 49
-2.54
 74
     0
  0
LTYPE
  5
6E
330
5
100
AcDbSymbolTableRecord
100
AcDbLinetypeTableRecord
  2
DOT2
 70
     0
  3
Dot (.5x) ........................................
 72
    65
 73
     2
 40
0.635
 49
0.0
 74
     0
 49
-0.635
 74
     0
  0
ENDTAB
  0
TABLE
  2
LAYER
  5
2
330
0
100
AcDbSymbolTable
 70
    17
  0
LAYER
  5
10
330
2
100
AcDbSymbolTableRecord
100
AcDbLayerTableRecord
  2
0
 70
     0
 62
     7
  6
Continuous
370
    -3
390
F
  0
LAYER
  5
6F
330
2
100
AcDbSymbolTableRecord
100
AcDbLayerTableRecord
  2
FORMAT
 70
     0
 62
     2
  6
Continuous
370
    -3
390
F
  0
LAYER
  5
70
330
2
100
AcDbSymbolTableRecord
100
AcDbLayerTableRecord
  2
외형선
 70
     0
 62
   100
  6
Continuous
370
    30
390
F
  0
LAYER
  5
71
330
2
100
AcDbSymbolTableRecord
100
AcDbLayerTableRecord
  2
숨은선
 70
     0
 62
     2
  6
HIDDEN
370
    15
390
F
  0
LAYER
  5
72
330
2
100
AcDbSymbolTableRecord
100
AcDbLayerTableRecord
  2
중심선
 70
     0
 62
     1
  6
CENTERX2
370
    -3
390
F
  0
LAYER
  5
73
330
2
100
AcDbSymbolTableRecord
100
AcDbLayerTableRecord
  2
파단선
 70
     0
 62
     4
  6
Continuous
370
    -3
390
F
  0
LAYER
  5
74
330
2
100
AcDbSymbolTableRecord
100
AcDbLayerTableRecord
  2
해칭선
 70
     0
 62
     4
  6
Continuous
370
    -3
390
F
  0
LAYER
  5
75
330
2
100
AcDbSymbolTableRecord
100
AcDbLayerTableRecord
  2
가는실선
 70
     0
 62
     4
  6
Continuous
370
    -3
390
F
  0
LAYER
  5
76
330
2
100
AcDbSymbolTableRecord
100
AcDbLayerTableRecord
  2
치수_보조선
 70
     0
 62
     4
  6
Continuous
370
    -3
390
F
  0
LAYER
  5
77
330
2
100
AcDbSymbolTableRecord
100
AcDbLayerTableRecord
  2
치수문자_일반주서
 70
     0
 62
     7
  6
Continuous
370
    15
390
F
  0
LAYER
  5
78
330
2
100
AcDbSymbolTableRecord
100
AcDbLayerTableRecord
  2
개별주서
 70
     0
 62
   100
  6
Continuous
370
    30
390
F
  0
LAYER
  5
79
330
2
100
AcDbSymbolTableRecord
100
AcDbLayerTableRecord
  2
중간선
 70
     0
 62
     2
  6
Continuous
370
    15
390
F
  0
LAYER
  5
7A
330
2
100
AcDbSymbolTableRecord
100
AcDbLayerTableRecord
  2
윤곽선
 70
     0
 62
     3
  6
Continuous
370
    40
390
F
  0
LAYER
  5
7B
330
2
100
AcDbSymbolTableRecord
100
AcDbLayerTableRecord
  2
중심마크
 70
     0
 62
   100
  6
Continuous
370
    30
390
F
  0
LAYER
  5
7C
330
2
100
AcDbSymbolTableRecord
100
AcDbLayerTableRecord
  2
가상선
 70
     0
 62
     4
  6
PHANTOM
370
    -3
390
F
  0
LAYER
  5
7D
330
2
100
AcDbSymbolTableRecord
100
AcDbLayerTableRecord
  2
특수지정선
 70
     0
 62
     5
  6
CENTERX2
370
    60
390
F
  0
LAYER
  5
133
330
2
100
AcDbSymbolTableRecord
100
AcDbLayerTableRecord
  2
Defpoints
 70
     0
 62
     7
  6
Continuous
290
     0
370
    -3
390
F
  0
ENDTAB
  0
TABLE
  2
STYLE
  5
3
330
0
100
AcDbSymbolTable
 70
     2
  0
STYLE
  5
11
330
3
100
AcDbSymbolTableRecord
100
AcDbTextStyleTableRecord
  2
Standard
 70
     0
 40
0.0
 41
1.0
 50
0.0
 71
     0
 42
3.5
  3
txt
  4

  0
STYLE
  5
93
330
3
100
AcDbSymbolTableRecord
100
AcDbTextStyleTableRecord
  2
SLDTEXTSTYLE0
 70
     0
 40
0.0
 41
0.75
 50
0.0
 71
     0
 42
3.5
  3
TXT
  4

  0
ENDTAB
  0
TABLE
  2
VIEW
  5
6
330
0
100
AcDbSymbolTable
 70
     0
  0
ENDTAB
  0
TABLE
  2
UCS
  5
7
330
0
100
AcDbSymbolTable
 70
     0
  0
ENDTAB
  0
TABLE
  2
APPID
  5
9
330
0
100
AcDbSymbolTable
 70
     2
  0
APPID
  5
12
330
9
100
AcDbSymbolTableRecord
100
AcDbRegAppTableRecord
  2
ACAD
 70
     0
  0
APPID
  5
132
330
9
100
AcDbSymbolTableRecord
100
AcDbRegAppTableRecord
  2
PE_URL
 70
     0
  0
ENDTAB
  0
TABLE
  2
DIMSTYLE
  5
A
330
0
100
AcDbSymbolTable
 70
     3
100
AcDbDimStyleTable
  0
DIMSTYLE
105
27
330
A
100
AcDbSymbolTableRecord
100
AcDbDimStyleTableRecord
  2
ISO-25
 70
     0
 41
2.5
 42
0.625
 43
3.75
 44
1.25
 73
     0
 74
     0
 77
     1
 78
     8
140
2.5
141
2.5
143
0.03937007874016
147
0.625
171
     3
172
     1
178
     0
271
     2
272
     2
274
     3
278
    44
283
     0
284
     8
340
11
  0
DIMSTYLE
105
DA
102
{ACAD_REACTORS
330
D9
330
E4
102
}
330
A
100
AcDbSymbolTableRecord
100
AcDbDimStyleTableRecord
  2
SLDDIMSTYLE0
 70
     0
 41
3.302
 44
0.0
 45
0.000000001
 73
     0
 74
     0
 77
     1
 78
    12
 79
     3
140
3.5
147
0.875
173
     1
178
     0
271
     2
272
     2
276
     2
284
    12
340
93
  0
DIMSTYLE
105
EF
102
{ACAD_REACTORS
330
EE
330
FC
102
}
330
A
100
AcDbSymbolTableRecord
100
AcDbDimStyleTableRecord
  2
SLDDIMSTYLE1
 70
     0
 41
3.302
 44
0.0
 45
0.000000001
 73
     0
 74
     0
 77
     1
 78
    12
 79
     3
140
3.5
147
0.875
172
     1
173
     1
178
     0
271
     2
272
     2
276
     2
284
    12
289
     0
340
93
  0
ENDTAB
  0
TABLE
  2
BLOCK_RECORD
  5
1
330
0
100
AcDbSymbolTable
 70
     7
  0
BLOCK_RECORD
  5
1F
330
1
100
AcDbSymbolTableRecord
100
AcDbBlockTableRecord
  2
*Model_Space
340
22
  0
BLOCK_RECORD
  5
1B
330
1
100
AcDbSymbolTableRecord
100
AcDbBlockTableRecord
  2
*Paper_Space
340
1E
  0
BLOCK_RECORD
  5
23
330
1
100
AcDbSymbolTableRecord
100
AcDbBlockTableRecord
  2
*Paper_Space0
340
26
  0
BLOCK_RECORD
  5
7E
330
1
100
AcDbSymbolTableRecord
100
AcDbBlockTableRecord
  2
블럭10
340
0
102
{BLKREFS
331
D2
102
}
  0
BLOCK_RECORD
  5
DB
330
1
100
AcDbSymbolTableRecord
100
AcDbBlockTableRecord
  2
_D
340
0
  0
BLOCK_RECORD
  5
E5
330
1
100
AcDbSymbolTableRecord
100
AcDbBlockTableRecord
  2
_D_1
340
0
  0
BLOCK_RECORD
  5
F0
330
1
100
AcDbSymbolTableRecord
100
AcDbBlockTableRecord
  2
_D_2
340
0
  0
BLOCK_RECORD
  5
FD
330
1
100
AcDbSymbolTableRecord
100
AcDbBlockTableRecord
  2
_D_3
340
0
  0
BLOCK_RECORD
  5
109
330
1
100
AcDbSymbolTableRecord
100
AcDbBlockTableRecord
  2
SW_DOWELSYMBOL_0
340
0
102
{BLKREFS
331
10F
102
}
  0
ENDTAB
  0
ENDSEC
  0
SECTION
  2
BLOCKS
  0
BLOCK
  5
20
330
1F
100
AcDbEntity
  8
0
100
AcDbBlockBegin
  2
*Model_Space
 70
     0
 10
0.0
 20
0.0
 30
0.0
  3
*Model_Space
  1

  0
ENDBLK
  5
21
330
1F
100
AcDbEntity
  8
0
100
AcDbBlockEnd
  0
BLOCK
  5
1C
330
1B
100
AcDbEntity
 67
     1
  8
0
100
AcDbBlockBegin
  2
*Paper_Space
 70
     0
 10
0.0
 20
0.0
 30
0.0
  3
*Paper_Space
  1

  0
ENDBLK
  5
1D
330
1B
100
AcDbEntity
 67
     1
  8
0
100
AcDbBlockEnd
  0
BLOCK
  5
24
330
23
100
AcDbEntity
  8
0
100
AcDbBlockBegin
  2
*Paper_Space0
 70
     0
 10
0.0
 20
0.0
 30
0.0
  3
*Paper_Space0
  1

  0
ENDBLK
  5
25
330
23
100
AcDbEntity
  8
0
100
AcDbBlockEnd
  0
BLOCK
  5
7F
330
7E
100
AcDbEntity
  8
0
100
AcDbBlockBegin
  2
블럭10
 70
     2
 10
0.0
 20
0.0
 30
0.0
  3
블럭10
  1

  0
ELLIPSE
  5
81
330
7E
100
AcDbEntity
  8
중심선
100
AcDbEllipse
 10
20.54032771741204
 20
12.0471743016438
 30
0.0
 11
6.600054785286829
 21
-1.261213355974178E-13
 31
0.0
210
0.0
220
0.0
230
1.0
 40
0.636358354079598
 41
0.9219305317359503
 42
6.513795318482858
  0
ELLIPSE
  5
82
330
7E
100
AcDbEntity
  8
중심선
100
AcDbEllipse
 10
20.54032771746488
 20
12.04717430159265
 30
0.0
 11
3.960054785062283
 21
1.540847449632565E-10
 31
0.0
210
0.0
220
0.0
230
1.0
 40
0.3939339440162632
 41
1.131841032648279
 42
5.62031148352944
  0
LINE
  5
83
330
7E
100
AcDbEntity
  8
중심선
100
AcDbLine
 10
2.268634060543552
 20
16.24717430164393
 30
0.0
 11
5.714909304380834
 21
16.24717430164393
 31
0.0
  0
LINE
  5
84
330
7E
100
AcDbEntity
  8
중심선
100
AcDbLine
 10
5.245725140726316
 20
7.84717430164391
 30
0.0
 11
8.692000384563599
 21
7.84717430164391
 31
0.0
  0
LINE
  5
85
330
7E
100
AcDbEntity
  8
중심선
100
AcDbLine
 10
15.74043728645272
 20
16.24717430164393
 30
0.0
 11
8.692000384563599
 21
7.84717430164391
 31
0.0
  0
LINE
  5
86
330
7E
100
AcDbEntity
  8
중심선
100
AcDbLine
 10
0.1404042013395286
 20
13.71084872107135
 30
0.0
 11
3.58671253028996
 21
13.71088815037384
 31
0.0
  0
LINE
  5
87
330
7E
100
AcDbEntity
  8
중심선
100
AcDbLine
 10
2.750260043222114
 20
10.84717430164391
 30
0.0
 11
6.196535287059397
 21
10.84717430164391
 31
0.0
  0
LINE
  5
88
330
7E
100
AcDbEntity
  8
중심선
100
AcDbLine
 10
12.29416204261559
 20
16.24717430164393
 30
0.0
 11
5.245725140726316
 21
7.84717430164391
 31
0.0
  0
LINE
  5
89
330
7E
100
AcDbEntity
  8
중심선
100
AcDbLine
 10
10.72767329541681
 20
16.24717430164393
 30
0.0
 11
6.196535287059397
 21
10.84717430164391
 31
0.0
  0
LINE
  5
8A
330
7E
100
AcDbEntity
  8
중심선
100
AcDbLine
 10
7.28139805157953
 20
16.24717430164393
 30
0.0
 11
2.750260043222114
 21
10.84717430164391
 31
0.0
  0
LINE
  5
8B
330
7E
100
AcDbEntity
  8
중심선
100
AcDbLine
 10
5.714909304380834
 20
16.24717430164393
 30
0.0
 11
3.58671253028996
 21
13.71088815037384
 31
0.0
  0
LINE
  5
8C
330
7E
100
AcDbEntity
  8
중심선
100
AcDbLine
 10
2.268634060543552
 20
16.24717430164393
 30
0.0
 11
0.1404042013395286
 21
13.71084872107135
 31
0.0
  0
LINE
  5
8D
330
7E
100
AcDbEntity
  8
중심선
100
AcDbLine
 10
7.28139805157953
 20
16.24717430164393
 30
0.0
 11
10.72767329541681
 21
16.24717430164393
 31
0.0
  0
LINE
  5
8E
330
7E
100
AcDbEntity
  8
중심선
100
AcDbLine
 10
12.29416204261559
 20
16.24717430164393
 30
0.0
 11
15.74043728645272
 21
16.24717430164393
 31
0.0
  0
LINE
  5
8F
330
7E
100
AcDbEntity
  8
중심선
100
AcDbLine
 10
19.22036997980202
 20
11.08717430171403
 30
0.0
 11
23.66174974927406
 21
11.08717430171406
 31
0.0
  0
LINE
  5
90
330
7E
100
AcDbEntity
  8
중심선
100
AcDbLine
 10
19.22039502424796
 20
13.00717430171391
 30
0.0
 11
19.22036997980202
 21
11.08717430171403
 31
0.0
  0
LINE
  5
91
330
7E
100
AcDbEntity
  8
중심선
100
AcDbLine
 10
19.22039502424796
 20
13.00717430171391
 30
0.0
 11
26.96566020931264
 21
13.00717430171391
 31
0.0
  0
LINE
  5
92
330
7E
100
AcDbEntity
  8
중심선
100
AcDbLine
 10
22.22332737316547
 20
13.45928029700563
 30
0.0
 11
24.52862924686651
 21
15.39360700705356
 31
0.0
  0
ATTDEF
  5
94
330
7E
100
AcDbEntity
  8
FORMAT
 62
     2
100
AcDbText
 10
-12.95993919485777
 20
2.075366912832191
 30
0.0
 40
4.233333333333333
  1
SEME35110E [ 2 FLUTE ]
 41
0.75
  7
SLDTEXTSTYLE0
 11
-12.95993919485777
 21
-0.0412997538344756
 31
0.0
100
AcDbAttributeDefinition
  3

  2
AUTOATTR0
 70
     0
 74
     1
  0
ENDBLK
  5
80
330
7E
100
AcDbEntity
  8
0
100
AcDbBlockEnd
  0
BLOCK
  5
DC
330
DB
100
AcDbEntity
  8
0
100
AcDbBlockBegin
  2
_D
 70
     0
 10
0.0
 20
0.0
 30
0.0
  3
_D
  1

  0
LINE
  5
DE
330
DB
100
AcDbEntity
  8
치수문자_일반주서
 62
     0
370
    -2
100
AcDbLine
 10
34.86602540378443
 20
5.557851483763043
 30
0.0
 11
34.86602540378443
 21
17.74598537234082
 31
0.0
  0
LINE
  5
DF
330
DB
100
AcDbEntity
  8
치수문자_일반주서
 62
     0
370
    -2
100
AcDbLine
 10
4.86602540378443
 20
5.555969378599322
 30
0.0
 11
4.86602540378443
 21
17.74598537234082
 31
0.0
  0
LINE
  5
E0
330
DB
100
AcDbEntity
  8
치수문자_일반주서
 62
     0
370
    -2
100
AcDbLine
 10
31.56402540378443
 20
17.74598537234082
 30
0.0
 11
8.16802540378443
 21
17.74598537234082
 31
0.0
  0
SOLID
  5
E1
330
DB
100
AcDbEntity
  8
치수문자_일반주서
 62
     0
100
AcDbTrace
 10
31.56402540378443
 20
17.19565203900748
 30
0.0
 11
31.56402540378443
 21
18.29631870567415
 31
0.0
 12
34.86602540378443
 22
17.74598537234082
 32
0.0
 13
34.86602540378443
 23
17.74598537234082
 33
0.0
  0
SOLID
  5
E2
330
DB
100
AcDbEntity
  8
치수문자_일반주서
 62
     0
100
AcDbTrace
 10
8.16802540378443
 20
18.29631870567415
 30
0.0
 11
8.16802540378443
 21
17.19565203900748
 31
0.0
 12
4.86602540378443
 22
17.74598537234082
 32
0.0
 13
4.86602540378443
 23
17.74598537234082
 33
0.0
  0
MTEXT
  5
E3
330
DB
100
AcDbEntity
  8
치수문자_일반주서
 62
     0
100
AcDbMText
 10
19.86602540378443
 20
22.12098537234082
 30
0.0
 40
3.5
 41
0.0
 71
     2
 72
     1
  1
\A1;30
  7
SLDTEXTSTYLE0
 73
     1
 44
1.0
  0
POINT
  5
134
330
DB
100
AcDbEntity
  8
Defpoints
 62
     0
100
AcDbPoint
 10
34.86602540378443
 20
5.495351483763043
 30
0.0
  0
POINT
  5
135
330
DB
100
AcDbEntity
  8
Defpoints
 62
     0
100
AcDbPoint
 10
4.86602540378443
 20
5.493469378599322
 30
0.0
  0
POINT
  5
136
330
DB
100
AcDbEntity
  8
Defpoints
 62
     0
100
AcDbPoint
 10
4.86602540378443
 20
17.74598537234082
 30
0.0
  0
ENDBLK
  5
DD
330
DB
100
AcDbEntity
  8
0
100
AcDbBlockEnd
  0
BLOCK
  5
E6
330
E5
100
AcDbEntity
  8
0
100
AcDbBlockBegin
  2
_D_1
 70
     0
 10
0.0
 20
0.0
 30
0.0
  3
_D_1
  1

  0
LINE
  5
E8
330
E5
100
AcDbEntity
  8
치수문자_일반주서
 62
     0
370
    -2
100
AcDbLine
 10
34.86602540378443
 20
5.557851483763043
 30
0.0
 11
34.86602540378443
 21
26.63415911661226
 31
0.0
  0
LINE
  5
E9
330
E5
100
AcDbEntity
  8
치수문자_일반주서
 62
     0
370
    -2
100
AcDbLine
 10
-40.13397459621556
 20
5.062499999999995
 30
0.0
 11
-40.13397459621556
 21
26.63415911661226
 31
0.0
  0
LINE
  5
EA
330
E5
100
AcDbEntity
  8
치수문자_일반주서
 62
     0
370
    -2
100
AcDbLine
 10
31.56402540378443
 20
26.63415911661226
 30
0.0
 11
-36.83197459621556
 21
26.63415911661226
 31
0.0
  0
SOLID
  5
EB
330
E5
100
AcDbEntity
  8
치수문자_일반주서
 62
     0
100
AcDbTrace
 10
31.56402540378443
 20
26.08382578327893
 30
0.0
 11
31.56402540378443
 21
27.18449244994559
 31
0.0
 12
34.86602540378443
 22
26.63415911661226
 32
0.0
 13
34.86602540378443
 23
26.63415911661226
 33
0.0
  0
SOLID
  5
EC
330
E5
100
AcDbEntity
  8
치수문자_일반주서
 62
     0
100
AcDbTrace
 10
-36.83197459621556
 20
27.18449244994559
 30
0.0
 11
-36.83197459621556
 21
26.08382578327893
 31
0.0
 12
-40.13397459621556
 22
26.63415911661226
 32
0.0
 13
-40.13397459621556
 23
26.63415911661226
 33
0.0
  0
MTEXT
  5
ED
330
E5
100
AcDbEntity
  8
치수문자_일반주서
 62
     0
100
AcDbMText
 10
-2.633974596215557
 20
31.00915911661226
 30
0.0
 40
3.5
 41
0.0
 71
     2
 72
     1
  1
\A1;75
  7
SLDTEXTSTYLE0
 73
     1
 44
1.0
  0
POINT
  5
137
330
E5
100
AcDbEntity
  8
Defpoints
 62
     0
100
AcDbPoint
 10
34.86602540378443
 20
5.495351483763043
 30
0.0
  0
POINT
  5
138
330
E5
100
AcDbEntity
  8
Defpoints
 62
     0
100
AcDbPoint
 10
-40.13397459621556
 20
4.999999999999995
 30
0.0
  0
POINT
  5
139
330
E5
100
AcDbEntity
  8
Defpoints
 62
     0
100
AcDbPoint
 10
-40.13397459621556
 20
26.63415911661226
 30
0.0
  0
ENDBLK
  5
E7
330
E5
100
AcDbEntity
  8
0
100
AcDbBlockEnd
  0
BLOCK
  5
F1
330
F0
100
AcDbEntity
  8
0
100
AcDbBlockBegin
  2
_D_2
 70
     0
 10
0.0
 20
0.0
 30
0.0
  3
_D_2
  1

  0
LINE
  5
F3
330
F0
100
AcDbEntity
  8
치수문자_일반주서
 62
     0
370
    -2
100
AcDbLine
 10
34.92852540378403
 20
5.500351483763033
 30
0.0
 11
50.43221571603069
 21
5.500351483763092
 31
0.0
  0
LINE
  5
F4
330
F0
100
AcDbEntity
  8
치수문자_일반주서
 62
     0
370
    -2
100
AcDbLine
 10
34.92852540378443
 20
-5.495351483763042
 30
0.0
 11
50.43221571603073
 21
-5.495351483762984
 31
0.0
  0
LINE
  5
F5
330
F0
100
AcDbEntity
  8
치수문자_일반주서
 62
     0
370
    -2
100
AcDbLine
 10
50.4322157160307
 20
2.198351483763092
 30
0.0
 11
50.43221571603071
 21
-2.193351483762984
 31
0.0
  0
SOLID
  5
F6
330
F0
100
AcDbEntity
  8
치수문자_일반주서
 62
     0
100
AcDbTrace
 10
50.98254904936404
 20
2.198351483763094
 30
0.0
 11
49.88188238269737
 21
2.19835148376309
 31
0.0
 12
50.43221571603069
 22
5.500351483763092
 32
0.0
 13
50.43221571603069
 23
5.500351483763092
 33
0.0
  0
SOLID
  5
F7
330
F0
100
AcDbEntity
  8
치수문자_일반주서
 62
     0
100
AcDbTrace
 10
49.88188238269738
 20
-2.193351483762985
 30
0.0
 11
50.98254904936405
 21
-2.193351483762982
 31
0.0
 12
50.43221571603073
 22
-5.495351483762984
 32
0.0
 13
50.43221571603073
 23
-5.495351483762984
 33
0.0
  0
MTEXT
  5
F8
330
F0
100
AcDbEntity
  8
치수문자_일반주서
 62
     0
100
AcDbMText
 10
46.05721571603071
 20
-0.0000000000000139
 30
0.0
 40
3.5
 41
0.0
 71
     2
 72
     1
  1
\A1;%%c11
  7
SLDTEXTSTYLE0
 11
-3.231001864358133E-15
 21
1.0
 31
0.0
 73
     1
 44
1.0
  0
POINT
  5
F9
330
F0
100
AcDbEntity
  8
Defpoints
 62
     0
100
AcDbPoint
 10
34.86602540378403
 20
5.500351483763033
 30
0.0
  0
POINT
  5
FA
330
F0
100
AcDbEntity
  8
Defpoints
 62
     0
100
AcDbPoint
 10
34.86602540378443
 20
-5.495351483763042
 30
0.0
  0
POINT
  5
FB
330
F0
100
AcDbEntity
  8
Defpoints
 62
     0
100
AcDbPoint
 10
50.43221571603073
 20
-5.495351483762985
 30
0.0
  0
ENDBLK
  5
F2
330
F0
100
AcDbEntity
  8
0
100
AcDbBlockEnd
  0
BLOCK
  5
FE
330
FD
100
AcDbEntity
  8
0
100
AcDbBlockBegin
  2
_D_3
 70
     0
 10
0.0
 20
0.0
 30
0.0
  3
_D_3
  1

  0
LINE
  5
100
330
FD
100
AcDbEntity
  8
치수문자_일반주서
 62
     0
370
    -2
100
AcDbLine
 10
-39.19647459621556
 20
5.999999999999996
 30
0.0
 11
-51.55353404160412
 21
5.999999999999949
 31
0.0
  0
LINE
  5
101
330
FD
100
AcDbEntity
  8
치수문자_일반주서
 62
     0
370
    -2
100
AcDbLine
 10
-39.19647459621556
 20
-6.000000000000003
 30
0.0
 11
-51.55353404160408
 21
-6.000000000000049
 31
0.0
  0
LINE
  5
102
330
FD
100
AcDbEntity
  8
치수문자_일반주서
 62
     0
370
    -2
100
AcDbLine
 10
-51.55353404160411
 20
2.697999999999949
 30
0.0
 11
-51.5535340416041
 21
-2.698000000000049
 31
0.0
  0
SOLID
  5
103
330
FD
100
AcDbEntity
  8
치수문자_일반주서
 62
     0
100
AcDbTrace
 10
-51.00320070827078
 20
2.697999999999951
 30
0.0
 11
-52.10386737493744
 21
2.697999999999948
 31
0.0
 12
-51.55353404160412
 22
5.999999999999949
 32
0.0
 13
-51.55353404160412
 23
5.999999999999949
 33
0.0
  0
SOLID
  5
104
330
FD
100
AcDbEntity
  8
치수문자_일반주서
 62
     0
100
AcDbTrace
 10
-52.10386737493743
 20
-2.698000000000051
 30
0.0
 11
-51.00320070827076
 21
-2.698000000000047
 31
0.0
 12
-51.55353404160408
 22
-6.000000000000049
 32
0.0
 13
-51.55353404160408
 23
-6.000000000000049
 33
0.0
  0
MTEXT
  5
105
330
FD
100
AcDbEntity
  8
치수문자_일반주서
 62
     0
100
AcDbMText
 10
-55.9285340416041
 20
-0.0000000000000165
 30
0.0
 40
3.5
 41
0.0
 71
     2
 72
     1
  1
\A1;%%c12
  7
SLDTEXTSTYLE0
 11
-3.552713678800502E-15
 21
1.0
 31
0.0
 73
     1
 44
1.0
  0
POINT
  5
106
330
FD
100
AcDbEntity
  8
Defpoints
 62
     0
100
AcDbPoint
 10
-39.13397459621556
 20
5.999999999999996
 30
0.0
  0
POINT
  5
107
330
FD
100
AcDbEntity
  8
Defpoints
 62
     0
100
AcDbPoint
 10
-39.13397459621556
 20
-6.000000000000003
 30
0.0
  0
POINT
  5
108
330
FD
100
AcDbEntity
  8
Defpoints
 62
     0
100
AcDbPoint
 10
-51.55353404160408
 20
-6.000000000000049
 30
0.0
  0
ENDBLK
  5
FF
330
FD
100
AcDbEntity
  8
0
100
AcDbBlockEnd
  0
BLOCK
  5
10A
330
109
100
AcDbEntity
  8
0
100
AcDbBlockBegin
  2
SW_DOWELSYMBOL_0
 70
     0
 10
0.0
 20
0.0
 30
0.0
  3
SW_DOWELSYMBOL_0
  1

  0
CIRCLE
  5
10C
330
109
100
AcDbEntity
  8
외형선
 62
     0
100
AcDbCircle
 10
0.0
 20
0.0
 30
0.0
 40
3.000000000000004
  0
HATCH
  5
10D
330
109
100
AcDbEntity
  8
0
  6
Continuous
 62
     0
370
    30
100
AcDbHatch
 10
0.0
 20
0.0
 30
0.0
210
0.0
220
0.0
230
1.0
  2
SOLID
 70
     1
 71
     0
 91
        1
 92
        0
 93
        3
 72
     2
 10
0.0000000000000087
 20
-0.0000000000000035
 40
3.000000000000004
 50
0.0
 51
90.0
 73
     1
 72
     1
 10
0.0000000000000087
 20
3.000000000000001
 11
0.0000000000000087
 21
-0.0000000000000036
 72
     1
 10
0.0000000000000087
 20
-0.0000000000000035
 11
3.000000000000013
 21
-0.0000000000000035
 97
        0
 75
     0
 76
     1
 98
        1
 10
0.0
 20
0.0
  0
HATCH
  5
10E
330
109
100
AcDbEntity
  8
0
  6
Continuous
 62
     0
370
    30
100
AcDbHatch
 10
0.0
 20
0.0
 30
0.0
210
0.0
220
0.0
230
1.0
  2
SOLID
 70
     1
 71
     0
 91
        1
 92
        0
 93
        3
 72
     2
 10
0.0000000000000087
 20
-0.0000000000000035
 40
3.000000000000004
 50
180.0
 51
270.0000000000007
 73
     1
 72
     1
 10
0.0000000000000087
 20
-3.000000000000008
 11
0.0000000000000087
 21
-0.0000000000000036
 72
     1
 10
0.0000000000000087
 20
-0.0000000000000035
 11
-2.999999999999996
 21
-0.0000000000000035
 97
        0
 75
     0
 76
     1
 98
        1
 10
0.0
 20
0.0
  0
ENDBLK
  5
10B
330
109
100
AcDbEntity
  8
0
100
AcDbBlockEnd
  0
ENDSEC
  0
SECTION
  2
ENTITIES
  0
LINE
  5
95
330
1F
100
AcDbEntity
  8
0
  6
Continuous
 62
     4
370
    15
100
AcDbLine
 10
2.0
 20
5.999999999999999
 30
0.0
 11
-39.13397459621556
 21
5.999999999999996
 31
0.0
  0
LINE
  5
96
330
1F
100
AcDbEntity
  8
0
  6
Continuous
 62
     4
370
    15
100
AcDbLine
 10
-39.13397459621556
 20
-6.000000000000003
 30
0.0
 11
2.0
 21
-5.999999999999999
 31
0.0
  0
LINE
  5
97
330
1F
100
AcDbEntity
  8
0
  6
Continuous
 62
     4
370
    15
100
AcDbLine
 10
2.0
 20
-6.000000000000001
 30
0.0
 11
2.836005434559635
 21
-5.775993018941715
 31
0.0
1001
PE_URL
1000

  0
LINE
  5
98
330
1F
100
AcDbEntity
  8
0
  6
Continuous
 62
     4
370
    15
100
AcDbLine
 10
2.836005434559635
 20
5.775993018941715
 30
0.0
 11
2.0
 21
5.999999999999999
 31
0.0
1001
PE_URL
1000

  0
LINE
  5
99
330
1F
100
AcDbEntity
  8
0
  6
Continuous
 62
     4
370
    15
100
AcDbLine
 10
-39.13397459621556
 20
5.999999999999996
 30
0.0
 11
-40.13397459621556
 21
4.999999999999993
 31
0.0
  0
LINE
  5
9A
330
1F
100
AcDbEntity
  8
0
  6
Continuous
 62
     4
370
    15
100
AcDbLine
 10
-40.13397459621556
 20
-5.0
 30
0.0
 11
-39.13397459621556
 21
-6.000000000000001
 31
0.0
  0
SPLINE
  5
9B
330
1F
100
AcDbEntity
  8
0
  6
Continuous
 62
     4
370
    15
100
AcDbSpline
210
0.0
220
0.0
230
1.0
 70
     8
 71
     3
 72
     9
 73
     5
 74
     0
 42
0.000000001
 43
0.00000001
 40
0.0
 40
0.0
 40
0.0
 40
0.0
 40
0.4986740107378416
 40
0.9999999999999999
 40
0.9999999999999999
 40
0.9999999999999999
 40
0.9999999999999999
 10
3.112550595200309
 20
3.779566815443007
 30
0.0
 10
3.06632720975286
 20
3.774442784072308
 30
0.0
 10
2.973634620100833
 20
3.764167471422436
 30
0.0
 10
2.881959515801219
 20
3.752637564770011
 30
0.0
 10
2.836000403447505
 20
3.746857322911385
 30
0.0
1001
PE_URL
1000

  0
SPLINE
  5
9C
330
1F
100
AcDbEntity
  8
0
  6
Continuous
 62
     1
370
    15
100
AcDbSpline
210
0.0
220
0.0
230
1.0
 70
     8
 71
     3
 72
     9
 73
     5
 74
     0
 42
0.000000001
 43
0.00000001
 40
0.0
 40
0.0
 40
0.0
 40
0.0
 40
0.4970823973851474
 40
0.9999999999999999
 40
0.9999999999999999
 40
0.9999999999999999
 40
0.9999999999999999
 10
20.6159540449619
 20
1.40943101462497
 30
0.0
 10
20.36267779283151
 20
1.530350510633983
 30
0.0
 10
19.85315210159251
 20
1.773608965660952
 30
0.0
 10
19.34657788118416
 20
2.038977522464073
 30
0.0
 10
19.09181278870991
 20
2.172436040860862
 30
0.0
  0
LINE
  5
9D
330
1F
100
AcDbEntity
  8
0
  6
Continuous
 62
     1
370
    15
100
AcDbLine
 10
7.996079809055699
 20
5.500000000000003
 30
0.0
 11
5.330025246589729
 21
5.500000000000003
 31
0.0
  0
SPLINE
  5
9E
330
1F
100
AcDbEntity
  8
0
  6
Continuous
 62
     1
370
    15
100
AcDbSpline
210
0.0
220
0.0
230
1.0
 70
     8
 71
     3
 72
    18
 73
    14
 74
     0
 42
0.000000001
 43
0.00000001
 40
0.0
 40
0.0
 40
0.0
 40
0.0
 40
0.1330145179495813
 40
0.2492753271971153
 40
0.3449470642677522
 40
0.4171810425440027
 40
0.4965395022008235
 40
0.5722934281498161
 40
0.6626946079694848
 40
0.7498683766735875
 40
0.8152502614316987
 40
0.8863764085333659
 40
1.0
 40
1.0
 40
1.0
 40
1.0
 10
18.798584149642
 20
4.370511431887296
 30
0.0
 10
18.60791658357324
 20
4.360627181548358
 30
0.0
 10
18.25059679134059
 20
4.342103641597091
 30
0.0
 10
17.72369512305422
 20
4.322991545463837
 30
0.0
 10
17.29029884852497
 20
4.310876673548341
 30
0.0
 10
16.91924148462825
 20
4.30302689326814
 30
0.0
 10
16.57903364596029
 20
4.298092532684104
 30
0.0
 10
16.21055940040831
 20
4.295201251781362
 30
0.0
 10
15.83075549260041
 20
4.294965183341008
 30
0.0
 10
15.46664653173081
 20
4.297553805397332
 30
0.0
 10
15.131219729861
 20
4.30220804410079
 30
0.0
 10
14.75610259511906
 20
4.309410454584842
 30
0.0
 10
14.47907135824949
 20
4.317670998281661
 30
0.0
 10
14.30869339546862
 20
4.322751344535859
 30
0.0
  0
SPLINE
  5
9F
330
1F
100
AcDbEntity
  8
0
  6
Continuous
 62
     1
370
    15
100
AcDbSpline
210
0.0
220
0.0
230
1.0
 70
     8
 71
     3
 72
    30
 73
    26
 74
     0
 42
0.000000001
 43
0.00000001
 40
0.0
 40
0.0
 40
0.0
 40
0.0
 40
0.0752558472449393
 40
0.134901370062508
 40
0.1827151692044267
 40
0.2211427882561309
 40
0.2546652660429198
 40
0.2866539937174243
 40
0.324980163371406
 40
0.3757898296162539
 40
0.4223024933850962
 40
0.4557500111366212
 40
0.490196914485182
 40
0.5342974913190172
 40
0.5798210592400753
 40
0.624017122464434
 40
0.6618724490889626
 40
0.6960589258508926
 40
0.7438160197925958
 40
0.7876993317301904
 40
0.8219141884981549
 40
0.8462197823034004
 40
0.8798735510153601
 40
0.9310721254876648
 40
1.0
 40
1.0
 40
1.0
 40
1.0
 10
10.5270367061956
 20
-4.576760632316369
 30
0.0
 10
10.7296950230595
 20
-4.556937889708147
 30
0.0
 10
11.09297423125872
 20
-4.521404237053329
 30
0.0
 10
11.60045958265269
 20
-4.478020090225497
 30
0.0
 10
12.00829943215292
 20
-4.446436455741093
 30
0.0
 10
12.3401340538963
 20
-4.422697870665504
 30
0.0
 10
12.62643677950354
 20
-4.403770080893511
 30
0.0
 10
12.91304785879752
 20
-4.386204216123553
 30
0.0
 10
13.24722967862468
 20
-4.367480138661303
 30
0.0
 10
13.62125851664279
 20
-4.348993459029665
 30
0.0
 10
13.98187525262346
 20
-4.333972633971616
 30
0.0
 10
14.29747963201983
 20
-4.322822755662159
 30
0.0
 10
14.60644325611455
 20
-4.313561783326188
 30
0.0
 10
14.94867821982954
 20
-4.305420084547345
 30
0.0
 10
15.31780091027732
 20
-4.299250497843371
 30
0.0
 10
15.66962414383235
 20
-4.295876668031958
 30
0.0
 10
15.99023926859548
 20
-4.294925417603418
 30
0.0
 10
16.32068205604405
 20
-4.295851776330693
 30
0.0
 10
16.66764999594155
 20
-4.299088827726545
 30
0.0
 10
17.01478922328687
 20
-4.304851882552527
 30
0.0
 10
17.2972363374015
 20
-4.311301028620153
 30
0.0
 10
17.55109736565958
 20
-4.318272831624895
 30
0.0
 10
17.85186266056403
 20
-4.327984536264239
 30
0.0
 10
18.27609519440613
 20
-4.344228227683821
 30
0.0
 10
18.60808835735109
 20
-4.360928760792508
 30
0.0
 10
18.798584149642
 20
-4.370511431887296
 30
0.0
  0
SPLINE
  5
A0
330
1F
100
AcDbEntity
  8
0
  6
Continuous
 62
     1
370
    15
100
AcDbSpline
210
0.0
220
0.0
230
1.0
 70
     8
 71
     3
 72
    18
 73
    14
 74
     0
 42
0.000000001
 43
0.00000001
 40
0.0
 40
0.0
 40
0.0
 40
0.0
 40
0.1738046317246574
 40
0.3188506938554808
 40
0.4388628656484566
 40
0.5340094340974655
 40
0.6107294934419254
 40
0.6736127462473044
 40
0.7432199599879533
 40
0.8435951235485567
 40
0.9268381317241886
 40
0.9936033001318691
 40
1.0
 40
1.0
 40
1.0
 40
1.0
 10
23.2144571920765
 20
-4.136735381808324
 30
0.0
 10
23.44065250605288
 20
-4.101721099625867
 30
0.0
 10
23.85561574433114
 20
-4.037486170683263
 30
0.0
 10
24.46674808341101
 20
-3.955148582578643
 30
0.0
 10
24.9668773724473
 20
-3.893933952226369
 30
0.0
 10
25.36758876622597
 20
-3.848943816107857
 30
0.0
 10
25.68699308488602
 20
-3.815804655236791
 30
0.0
 10
25.97244199634075
 20
-3.788139695847517
 30
0.0
 10
26.29011655315521
 20
-3.759439186489182
 30
0.0
 10
26.63526043339233
 20
-3.731190684695993
 30
0.0
 10
26.97666557562853
 20
-3.70688915602434
 30
0.0
 10
27.18994344629797
 20
-3.692927574084429
 30
0.0
 10
27.28976132855871
 20
-3.687237637263125
 30
0.0
 10
27.29848862119546
 20
-3.686740153820285
 30
0.0
  0
SPLINE
  5
A1
330
1F
100
AcDbEntity
  8
0
  6
Continuous
 62
     1
370
    15
100
AcDbSpline
210
0.0
220
0.0
230
1.0
 70
     8
 71
     3
 72
    31
 73
    27
 74
     0
 42
0.000000001
 43
0.00000001
 40
0.0
 40
0.0
 40
0.0
 40
0.0
 40
0.0526245224169711
 40
0.0992324923358513
 40
0.1400841456184388
 40
0.1712887975531535
 40
0.1994981551698336
 40
0.2383946177561246
 40
0.2831590213808051
 40
0.3184459999721119
 40
0.346364485967346
 40
0.3825975766766612
 40
0.4274640371228799
 40
0.4804119192578938
 40
0.5322436917146682
 40
0.5673619365395562
 40
0.6000808130332749
 40
0.6439485914741984
 40
0.6857365770249417
 40
0.7147063021380304
 40
0.7412959004597838
 40
0.7736643896158624
 40
0.8137600531615418
 40
0.8646895398969164
 40
0.9262426422776749
 40
1.0
 40
1.0
 40
1.0
 40
1.0
 10
32.83197136125293
 20
3.762602534050554
 30
0.0
 10
32.67611621954353
 20
3.749212899286009
 30
0.0
 10
32.3822248273778
 20
3.723964464371492
 30
0.0
 10
31.92145733303871
 20
3.69302188085472
 30
0.0
 10
31.52801002550558
 20
3.671419818573606
 30
0.0
 10
31.19707846970105
 20
3.655361841675464
 30
0.0
 10
30.88972549947263
 20
3.643140917381671
 30
0.0
 10
30.52999639194322
 20
3.631576841385541
 30
0.0
 10
30.14752271532652
 20
3.623537839602788
 30
0.0
 10
29.80070818671095
 20
3.619822943993322
 30
0.0
 10
29.48189681325427
 20
3.618998903253134
 30
0.0
 10
29.1315275260001
 20
3.620975941017514
 30
0.0
 10
28.70070893858354
 20
3.627904198406947
 30
0.0
 10
28.22020442896397
 20
3.641766939453458
 30
0.0
 10
27.77067389474496
 20
3.660702021172946
 30
0.0
 10
27.38593285665591
 20
3.681104180192854
 30
0.0
 10
27.02688340569863
 20
3.703199572251202
 30
0.0
 10
26.6465576241966
 20
3.730242635992235
 30
0.0
 10
26.27839453979151
 20
3.760458559508642
 30
0.0
 10
25.96544764994859
 20
3.788803398161504
 30
0.0
 10
25.68275415836729
 20
3.816233441717193
 30
0.0
 10
25.36517283060833
 20
3.849211753969516
 30
0.0
 10
24.96595047864626
 20
3.894047359761137
 30
0.0
 10
24.46675005059148
 20
3.95514835691253
 30
0.0
 10
23.85561509118683
 20
4.037486245609048
 30
0.0
 10
23.44065227562908
 20
4.101721126059051
 30
0.0
 10
23.21445719207651
 20
4.136735381808328
 30
0.0
  0
LINE
  5
A2
330
1F
100
AcDbEntity
  8
0
  6
Continuous
 62
     1
370
    15
100
AcDbLine
 10
5.329876159954248
 20
-5.500000000000003
 30
0.0
 11
7.996079809055699
 21
-5.500000000000003
 31
0.0
  0
LINE
  5
A3
330
1F
100
AcDbEntity
  8
0
  6
Continuous
 62
     4
370
    15
100
AcDbLine
 10
2.0
 20
5.999999999999999
 30
0.0
 11
2.0
 21
-5.999999999999999
 31
0.0
  0
LINE
  5
A4
330
1F
100
AcDbEntity
  8
0
  6
Continuous
 62
     4
370
    15
100
AcDbLine
 10
-39.13397459621556
 20
5.999999999999996
 30
0.0
 11
-39.13397459621556
 21
-6.000000000000003
 31
0.0
  0
SPLINE
  5
A5
330
1F
100
AcDbEntity
  8
0
  6
Continuous
 62
     4
370
    15
100
AcDbSpline
210
0.0
220
0.0
230
1.0
 70
     8
 71
     3
 72
     8
 73
     4
 74
     0
 42
0.000000001
 43
0.00000001
 40
0.0
 40
0.0
 40
0.0
 40
0.0
 40
1.0
 40
1.0
 40
1.0
 40
1.0
 10
2.836005434559635
 20
5.604976374572114
 30
0.0
 10
3.179526443237375
 20
5.556560954004387
 30
0.0
 10
3.52285285603989
 20
5.500008669307472
 30
0.0
 10
3.866025403784434
 20
5.435179781671324
 30
0.0
1001
PE_URL
1000

  0
LINE
  5
A6
330
1F
100
AcDbEntity
  8
0
  6
Continuous
 62
     4
370
    15
100
AcDbLine
 10
2.836005434559635
 20
-5.013615181427033
 30
0.0
 11
2.836005434559635
 21
5.775993018941715
 31
0.0
1001
PE_URL
1000

  0
SPLINE
  5
A7
330
1F
100
AcDbEntity
  8
0
  6
Continuous
 62
     4
370
    15
100
AcDbSpline
210
0.0
220
0.0
230
1.0
 70
     8
 71
     3
 72
     8
 73
     4
 74
     0
 42
0.000000001
 43
0.00000001
 40
0.0
 40
0.0
 40
0.0
 40
0.0
 40
1.0
 40
1.0
 40
1.0
 40
1.0
 10
3.866025403784437
 20
-4.991261588677491
 30
0.0
 10
3.521311626571327
 20
-5.008342661740194
 30
0.0
 10
3.177970075639156
 20
-5.016114380032363
 30
0.0
 10
2.835984571360609
 20
-5.013675189538098
 30
0.0
1001
PE_URL
1000

  0
LINE
  5
A8
330
1F
100
AcDbEntity
  8
0
  6
Continuous
 62
     4
370
    15
100
AcDbLine
 10
3.866025403784441
 20
-4.991261588677453
 30
0.0
 11
3.866025403784437
 21
-5.435179781671327
 31
0.0
1001
PE_URL
1000

  0
SPLINE
  5
A9
330
1F
100
AcDbEntity
  8
0
  6
Continuous
 62
     4
370
    15
100
AcDbSpline
210
0.0
220
0.0
230
1.0
 70
     8
 71
     3
 72
     8
 73
     4
 74
     0
 42
0.000000001
 43
0.00000001
 40
0.0
 40
0.0
 40
0.0
 40
0.0
 40
1.0
 40
1.0
 40
1.0
 40
1.0
 10
2.836005434559635
 20
-5.604976374572114
 30
0.0
 10
3.179526443237375
 20
-5.556560954004387
 30
0.0
 10
3.52285285603989
 20
-5.500008669307472
 30
0.0
 10
3.866025403784434
 20
-5.435179781671326
 30
0.0
1001
PE_URL
1000

  0
LINE
  5
AA
330
1F
100
AcDbEntity
  8
0
  6
Continuous
 62
     4
370
    15
100
AcDbLine
 10
2.836005434559635
 20
-5.775993018941715
 30
0.0
 11
2.836005434559635
 21
-5.604951766791654
 31
0.0
1001
PE_URL
1000

  0
LINE
  5
AB
330
1F
100
AcDbEntity
  8
0
  6
Continuous
 62
     4
370
    15
100
AcDbLine
 10
-40.13397459621556
 20
4.999999999999995
 30
0.0
 11
-40.13397459621556
 21
-5.0
 31
0.0
  0
SPLINE
  5
AC
330
1F
100
AcDbEntity
  8
0
  6
Continuous
 62
     4
370
    15
100
AcDbSpline
210
0.0
220
0.0
230
1.0
 70
     8
 71
     3
 72
     8
 73
     4
 74
     0
 42
0.000000001
 43
0.00000001
 40
0.0
 40
0.0
 40
0.0
 40
0.0
 40
1.0
 40
1.0
 40
1.0
 40
1.0
 10
4.866025403784255
 20
-4.32596796372861
 30
0.0
 10
4.192971042390868
 20
-4.200315276894964
 30
0.0
 10
3.508618995449847
 20
-4.040991221702327
 30
0.0
 10
2.835984571360609
 20
-3.853373108018948
 30
0.0
  0
SPLINE
  5
AD
330
1F
100
AcDbEntity
  8
0
  6
Continuous
 62
     4
370
    15
100
AcDbSpline
210
0.0
220
0.0
230
1.0
 70
     8
 71
     3
 72
     8
 73
     4
 74
     0
 42
0.000000001
 43
0.00000001
 40
0.0
 40
0.0
 40
0.0
 40
0.0
 40
1.0
 40
1.0
 40
1.0
 40
1.0
 10
4.866025403784437
 20
0.0335252532131611
 30
0.0
 10
4.192975457996516
 20
0.3454370112573544
 30
0.0
 10
3.508627974275807
 20
0.6588079621264288
 30
0.0
 10
2.835997809913628
 20
0.9631016117889009
 30
0.0
  0
SPLINE
  5
AE
330
1F
100
AcDbEntity
  8
0
  6
Continuous
 62
     1
370
    15
100
AcDbSpline
210
0.0
220
0.0
230
1.0
 70
    24
 71
     3
 72
    14
 73
    10
 74
     0
 42
0.000000001
 43
0.00000001
 40
0.0
 40
0.0
 40
0.0
 40
0.0
 40
0.25
 40
0.25
 40
0.4999999999999999
 40
0.4999999999999999
 40
0.75
 40
0.75
 40
1.0
 40
1.0
 40
1.0
 40
1.0
 10
4.86602540378443
 20
0.0335252532131642
 30
0.0
 10
4.86602540378443
 20
-0.3881631333926891
 30
0.0
 10
4.86602540378443
 20
-0.8149921783548276
 30
0.0
 10
4.86602540378443
 20
-1.648540359383998
 30
0.0
 10
4.86602540378443
 20
-2.05501308006285
 30
0.0
 10
4.86602540378443
 20
-2.816942531700756
 30
0.0
 10
4.86602540378443
 20
-3.172179240563385
 30
0.0
 10
4.86602540378443
 20
-3.807997833597689
 30
0.0
 10
4.86602540378443
 20
-4.088489002920426
 30
0.0
 10
4.86602540378443
 20
-4.325967963728641
 30
0.0
  0
LINE
  5
AF
330
1F
100
AcDbEntity
  8
0
  6
Continuous
 62
     4
370
    15
100
AcDbLine
 10
4.86602540378443
 20
3.849888242721413
 30
0.0
 11
3.111830587730434
 21
3.769309083744355
 31
0.0
  0
SPLINE
  5
B0
330
1F
100
AcDbEntity
  8
0
  6
Continuous
 62
     1
370
    15
100
AcDbSpline
210
0.0
220
0.0
230
1.0
 70
    24
 71
     3
 72
    14
 73
    10
 74
     0
 42
0.000000001
 43
0.00000001
 40
0.0
 40
0.0
 40
0.0
 40
0.0
 40
0.25
 40
0.25
 40
0.5000000000000001
 40
0.5000000000000001
 40
0.75
 40
0.75
 40
1.0
 40
1.0
 40
1.0
 40
1.0
 10
4.86602540378442
 20
3.849888242721413
 30
0.0
 10
4.86602540378442
 20
3.74979268358697
 30
0.0
 10
4.86602540378442
 20
3.588036045210806
 30
0.0
 10
4.86602540378442
 20
3.138849163693727
 30
0.0
 10
4.86602540378442
 20
2.85139290846737
 30
0.0
 10
4.86602540378442
 20
2.173115175250276
 30
0.0
 10
4.86602540378442
 20
1.782655111993384
 30
0.0
 10
4.86602540378442
 20
0.9409904406839931
 30
0.0
 10
4.86602540378442
 20
0.4903110767789325
 30
0.0
 10
4.86602540378442
 20
0.033525253213171
 30
0.0
  0
SPLINE
  5
B1
330
1F
100
AcDbEntity
  8
0
  6
Continuous
 62
     4
370
    15
100
AcDbSpline
210
0.0
220
0.0
230
1.0
 70
     8
 71
     3
 72
     8
 73
     4
 74
     0
 42
0.000000001
 43
0.00000001
 40
0.0
 40
0.0
 40
0.0
 40
0.0
 40
1.0
 40
1.0
 40
1.0
 40
1.0
 10
4.866025403784437
 20
-5.20580368520399
 30
0.0
 10
4.534516386535822
 20
-5.143835613656024
 30
0.0
 10
4.20026862449255
 20
-5.072150474385503
 30
0.0
 10
3.866025403784441
 20
-4.991261588677453
 30
0.0
1001
PE_URL
1000

  0
SPLINE
  5
B2
330
1F
100
AcDbEntity
  8
0
  6
Continuous
 62
     1
370
    15
100
AcDbSpline
210
0.0
220
0.0
230
1.0
 70
    24
 71
     3
 72
     8
 73
     4
 74
     0
 42
0.000000001
 43
0.00000001
 40
0.0
 40
0.0
 40
0.0
 40
0.0
 40
1.0
 40
1.0
 40
1.0
 40
1.0
 10
4.86602540378443
 20
-4.325967963728643
 30
0.0
 10
4.86602540378443
 20
-4.617600573557778
 30
0.0
 10
4.86602540378443
 20
-4.912756754116445
 30
0.0
 10
4.86602540378443
 20
-5.205803685190808
 30
0.0
  0
SPLINE
  5
B3
330
1F
100
AcDbEntity
  8
0
  6
Continuous
 62
     4
370
    15
100
AcDbSpline
210
0.0
220
0.0
230
1.0
 70
     8
 71
     3
 72
     8
 73
     4
 74
     0
 42
0.000000001
 43
0.00000001
 40
0.0
 40
0.0
 40
0.0
 40
0.0
 40
1.0
 40
1.0
 40
1.0
 40
1.0
 10
3.866025403784434
 20
-5.435179781671327
 30
0.0
 10
4.200268624492546
 20
-5.464657640771641
 30
0.0
 10
4.534516386535815
 20
-5.484113504522963
 30
0.0
 10
4.866025403784434
 20
-5.493469378605386
 30
0.0
1001
PE_URL
1000

  0
LINE
  5
B4
330
1F
100
AcDbEntity
  8
0
  6
Continuous
 62
     4
370
    15
100
AcDbLine
 10
4.866025403784434
 20
-5.20580368520399
 30
0.0
 11
4.866025403784434
 21
-5.493469378605337
 31
0.0
1001
PE_URL
1000

  0
SPLINE
  5
B5
330
1F
100
AcDbEntity
  8
0
  6
Continuous
 62
     4
370
    15
100
AcDbSpline
210
0.0
220
0.0
230
1.0
 70
     8
 71
     3
 72
     8
 73
     4
 74
     0
 42
0.000000001
 43
0.00000001
 40
0.0
 40
0.0
 40
0.0
 40
0.0
 40
1.0
 40
1.0
 40
1.0
 40
1.0
 10
3.866025403784434
 20
5.435179781671326
 30
0.0
 10
4.200268624492542
 20
5.464657640771641
 30
0.0
 10
4.534516386535815
 20
5.484113504522961
 30
0.0
 10
4.86602540378443
 20
5.493469378605385
 30
0.0
  0
SPLINE
  5
B6
330
1F
100
AcDbEntity
  8
0
  6
Continuous
 62
     4
370
    15
100
AcDbSpline
210
0.0
220
0.0
230
1.0
 70
    24
 71
     3
 72
    10
 73
     6
 74
     0
 42
0.000000001
 43
0.00000001
 40
0.0
 40
0.0
 40
0.0
 40
0.0
 40
0.5
 40
0.5
 40
1.0
 40
1.0
 40
1.0
 40
1.0
 10
4.86602540378443
 20
5.493469378599322
 30
0.0
 10
4.86602540378443
 20
5.217492776616554
 30
0.0
 10
4.86602540378443
 20
4.921043488662099
 30
0.0
 10
4.86602540378443
 20
4.352689116668446
 30
0.0
 10
4.86602540378443
 20
4.082232242126648
 30
0.0
 10
4.86602540378443
 20
3.849888242721414
 30
0.0
  0
SPLINE
  5
B7
330
1F
100
AcDbEntity
  8
0
  6
Continuous
 62
     1
370
    15
100
AcDbSpline
210
0.0
220
0.0
230
1.0
 70
     8
 71
     3
 72
    25
 73
    21
 74
     0
 42
0.000000001
 43
0.00000001
 40
0.0
 40
0.0
 40
0.0
 40
0.0
 40
0.0583942047371614
 40
0.1167052415035167
 40
0.1750280479666426
 40
0.2334465284934987
 40
0.2918113573291976
 40
0.3501164472013429
 40
0.405130876151737
 40
0.4602227988541479
 40
0.5152007188266243
 40
0.5701901736994294
 40
0.6252883522576603
 40
0.6866835180221554
 40
0.748044449980582
 40
0.8094308076382057
 40
0.8708948176346176
 40
0.9323188731156136
 40
0.9936858875303499
 40
1.0
 40
1.0
 40
1.0
 40
1.0
 10
34.86602540378443
 20
-5.219174780775447
 30
0.0
 10
34.34290368913445
 20
-5.110348907368541
 30
0.0
 10
33.29740531615795
 20
-4.892852155850977
 30
0.0
 10
31.73010495733145
 20
-4.396133456716949
 30
0.0
 10
30.16254736378813
 20
-3.79049937566726
 30
0.0
 10
28.59360652129978
 20
-3.080665790998358
 30
0.0
 10
27.02538835341765
 20
-2.287653123757199
 30
0.0
 10
25.48802425149351
 20
-1.448548253235768
 30
0.0
 10
23.97985171557026
 20
-0.5896561402943169
 30
0.0
 10
22.5005856054674
 20
0.2649679255804601
 30
0.0
 10
21.02271593133647
 20
1.115094529988695
 30
0.0
 10
19.54466139881423
 20
1.938191351071279
 30
0.0
 10
18.00807476141403
 20
2.743161820732094
 30
0.0
 10
16.41524776892113
 20
3.505267809069526
 30
0.0
 10
14.76615902939709
 20
4.189678722852994
 30
0.0
 10
13.11641331052994
 20
4.747649481480715
 30
0.0
 10
11.46538832293644
 20
5.16765392720268
 30
0.0
 10
9.814931994180153
 20
5.416358933824227
 30
0.0
 10
8.658771107458117
 20
5.521435117297379
 30
0.0
 10
8.05262814145248
 20
5.494879703605356
 30
0.0
 10
7.996079809055699
 20
5.492402294075576
 30
0.0
  0
SPLINE
  5
B8
330
1F
100
AcDbEntity
  8
0
  6
Continuous
 62
     1
370
    15
100
AcDbSpline
210
0.0
220
0.0
230
1.0
 70
     8
 71
     3
 72
    16
 73
    12
 74
     0
 42
0.000000001
 43
0.00000001
 40
0.0
 40
0.0
 40
0.0
 40
0.0
 40
0.1121245894770093
 40
0.2240947812717202
 40
0.3360660061945484
 40
0.4481936254556979
 40
0.5603151579673133
 40
0.6722843440020487
 40
0.7842566294184081
 40
0.8963871971307955
 40
1.0
 40
1.0
 40
1.0
 40
1.0
 10
34.86602540378443
 20
-4.339347454025186
 30
0.0
 10
34.33174701020434
 20
-4.230046685345449
 30
0.0
 10
33.26392593450633
 20
-4.011595657213579
 30
0.0
 10
31.66304888157576
 20
-3.537653070128791
 30
0.0
 10
30.06215731699909
 20
-2.972628826268493
 30
0.0
 10
28.46004008176993
 20
-2.321946147102636
 30
0.0
 10
26.85795898056787
 20
-1.606512735720242
 30
0.0
 10
25.25709428988631
 20
-0.8448018436164993
 30
0.0
 10
23.65619559251037
 20
-0.0601572140855604
 30
0.0
 10
22.09456471028518
 20
0.7088377081967818
 30
0.0
 10
21.06661750237212
 20
1.194867810906646
 30
0.0
 10
20.57293609224895
 20
1.428288384084959
 30
0.0
  0
LINE
  5
B9
330
1F
100
AcDbEntity
  8
0
  6
Continuous
 62
     1
370
    15
100
AcDbLine
 10
34.8660254037843
 20
-5.219174780775448
 30
0.0
 11
34.86602540378443
 21
-4.339347454025186
 31
0.0
  0
SPLINE
  5
BA
330
1F
100
AcDbEntity
  8
0
  6
Continuous
 62
     1
370
    15
100
AcDbSpline
210
0.0
220
0.0
230
1.0
 70
     8
 71
     3
 72
    58
 73
    54
 74
     0
 42
0.000000001
 43
0.00000001
 40
0.0
 40
0.0
 40
0.0
 40
0.0
 40
0.0625
 40
0.0625
 40
0.09375
 40
0.09375
 40
0.1250000000000001
 40
0.1250000000000001
 40
0.1562500000000001
 40
0.1562500000000001
 40
0.1875000000000001
 40
0.1875000000000001
 40
0.2500000000000001
 40
0.2500000000000001
 40
0.2812500000000001
 40
0.2812500000000001
 40
0.3125000000000001
 40
0.3125000000000001
 40
0.3437500000000001
 40
0.3437500000000001
 40
0.3750000000000002
 40
0.3750000000000002
 40
0.4062500000000002
 40
0.4062500000000002
 40
0.4375000000000002
 40
0.4375000000000002
 40
0.5000000000000002
 40
0.5000000000000002
 40
0.5625000000000004
 40
0.5625000000000004
 40
0.5937500000000004
 40
0.5937500000000004
 40
0.6250000000000006
 40
0.6250000000000006
 40
0.6562500000000007
 40
0.6562500000000007
 40
0.6875000000000007
 40
0.6875000000000007
 40
0.7500000000000009
 40
0.7500000000000009
 40
0.7812500000000008
 40
0.7812500000000008
 40
0.8125000000000007
 40
0.8125000000000007
 40
0.8437500000000007
 40
0.8437500000000007
 40
0.8750000000000006
 40
0.8750000000000006
 40
0.9062500000000004
 40
0.9062500000000004
 40
0.9375000000000004
 40
0.9375000000000004
 40
1.0
 40
1.0
 40
1.0
 40
1.0
 10
4.866025403784427
 20
5.493469378605388
 30
0.0
 10
5.487876210105066
 20
5.511019301953708
 30
0.0
 10
6.117668173679339
 20
5.493007761706731
 30
0.0
 10
7.053958062950507
 20
5.413162650477984
 30
0.0
 10
7.364036719707064
 20
5.377854821423843
 30
0.0
 10
7.98988650275828
 20
5.289782503758407
 30
0.0
 10
8.303946039696314
 20
5.237054854364987
 30
0.0
 10
8.92977605390041
 20
5.114982414263131
 30
0.0
 10
9.239838596219233
 20
5.045791734876677
 30
0.0
 10
9.864062612726972
 20
4.891088911332224
 30
0.0
 10
10.17794478772701
 20
4.805558745541594
 30
0.0
 10
11.11807708305735
 20
4.526198329443919
 30
0.0
 10
11.73858067902333
 20
4.310133605887956
 30
0.0
 10
12.67902711642658
 20
3.945359859280685
 30
0.0
 10
12.99263887384537
 20
3.8171583327257
 30
0.0
 10
13.61558478704242
 20
3.549473127713593
 30
0.0
 10
13.92660147572989
 20
3.409768972127271
 30
0.0
 10
14.55305897702553
 20
3.119130893854031
 30
0.0
 10
14.86705854224023
 20
2.968403038351179
 30
0.0
 10
15.4920438364102
 20
2.658340050144656
 30
0.0
 10
15.80186046470038
 20
2.499223400865481
 30
0.0
 10
16.42709688554977
 20
2.172495022326544
 30
0.0
 10
16.74112418454131
 20
2.00510541659904
 30
0.0
 10
17.36744016013831
 20
1.664693060926185
 30
0.0
 10
17.67813678035347
 20
1.491972560124747
 30
0.0
 10
18.61309531289303
 20
0.966922059007585
 30
0.0
 10
19.24456523735555
 20
0.6068162641828105
 30
0.0
 10
20.48750803103708
 20
-0.1127928468481464
 30
0.0
 10
21.11810086222755
 20
-0.4759397646878452
 30
0.0
 10
22.05396721575153
 20
-1.010664947928087
 30
0.0
 10
22.36421202371827
 20
-1.187243110554803
 30
0.0
 10
22.99023086836922
 20
-1.537038652367345
 30
0.0
 10
23.30428656549228
 20
-1.709924017969019
 30
0.0
 10
23.92993234358152
 20
-2.049163777925433
 30
0.0
 10
24.23987304892778
 20
-2.215235318382166
 30
0.0
 10
24.86436437998317
 20
-2.540526725188966
 30
0.0
 10
25.17829258307768
 20
-2.699618406949264
 30
0.0
 10
26.11829675527821
 20
-3.162725112027784
 30
0.0
 10
26.73888710440304
 20
-3.452024813880628
 30
0.0
 10
27.67935413719791
 20
-3.851290348753071
 30
0.0
 10
27.99288390401557
 20
-3.978354599718876
 30
0.0
 10
28.61549206198128
 20
-4.218681473811765
 30
0.0
 10
28.92683861828628
 20
-4.332255684034844
 30
0.0
 10
29.5534089432571
 20
-4.545499036702927
 30
0.0
 10
29.86737627738115
 20
-4.645002977563861
 30
0.0
 10
30.4921213738036
 20
-4.828374746081446
 30
0.0
 10
30.80198010582473
 20
-4.912194312723461
 30
0.0
 10
31.42742801466122
 20
-5.064234822732601
 30
0.0
 10
31.74147296553893
 20
-5.132286523228671
 30
0.0
 10
32.36764721147989
 20
-5.251446081042071
 30
0.0
 10
32.67809801224593
 20
-5.302484300958374
 30
0.0
 10
33.61352056946181
 20
-5.429990371276525
 30
0.0
 10
34.24494674687634
 20
-5.480549742522943
 30
0.0
 10
34.86602540378443
 20
-5.49535148376304
 30
0.0
  0
SPLINE
  5
BB
330
1F
100
AcDbEntity
  8
0
  6
Continuous
 62
     1
370
    15
100
AcDbSpline
210
0.0
220
0.0
230
1.0
 70
     8
 71
     3
 72
    16
 73
    12
 74
     0
 42
0.000000001
 43
0.00000001
 40
0.0
 40
0.0
 40
0.0
 40
0.0
 40
0.0210626432601456
 40
0.1436223683002391
 40
0.2661823959196183
 40
0.3887450364987604
 40
0.5113125978219389
 40
0.6338873827871875
 40
0.7559103691466444
 40
0.8779469862138457
 40
1.0
 40
1.0
 40
1.0
 40
1.0
 10
21.19657504419448
 20
-0.5194455093734185
 30
0.0
 10
21.08192160340066
 20
-0.474246693794537
 30
0.0
 10
20.30012045445667
 20
-0.1660441164813697
 30
0.0
 10
18.85117401401257
 20
0.4287733377098808
 30
0.0
 10
16.84971684994901
 20
1.221244434430306
 30
0.0
 10
14.84821292857356
 20
1.962813856243417
 30
0.0
 10
12.84662077742951
 20
2.617072433924235
 30
0.0
 10
10.84795215708884
 20
3.15645130181044
 30
0.0
 10
8.852164962527933
 20
3.553567345713748
 30
0.0
 10
6.85919468675643
 20
3.807217022503644
 30
0.0
 10
5.530444917693384
 20
3.835663865676672
 30
0.0
 10
4.866025403784434
 20
3.849888242721414
 30
0.0
  0
SPLINE
  5
BC
330
1F
100
AcDbEntity
  8
0
  6
Continuous
 62
     4
370
    15
100
AcDbSpline
210
0.0
220
0.0
230
1.0
 70
    24
 71
     3
 72
    10
 73
     6
 74
     0
 42
0.000000001
 43
0.00000001
 40
0.0
 40
0.0
 40
0.0
 40
0.0
 40
0.5
 40
0.5
 40
1.0
 40
1.0
 40
1.0
 40
1.0
 10
4.866025403784437
 20
5.493469378599324
 30
0.0
 10
4.866025403784437
 20
5.217492776616557
 30
0.0
 10
4.866025403784437
 20
4.921043488662101
 30
0.0
 10
4.866025403784437
 20
4.352689116668444
 30
0.0
 10
4.866025403784437
 20
4.082232242126648
 30
0.0
 10
4.866025403784437
 20
3.849888242721413
 30
0.0
  0
LINE
  5
BD
330
1F
100
AcDbEntity
  8
0
  6
Continuous
 62
     1
370
    15
100
AcDbLine
 10
34.86602540378443
 20
-5.495351483763042
 30
0.0
 11
34.86602540378398
 21
-5.219174780775441
 31
0.0
  0
SPLINE
  5
BE
330
1F
100
AcDbEntity
  8
0
  6
Continuous
 62
     1
370
    15
100
AcDbSpline
210
0.0
220
0.0
230
1.0
 70
     8
 71
     3
 72
     8
 73
     4
 74
     0
 42
0.000000001
 43
0.00000001
 40
0.0
 40
0.0
 40
0.0
 40
0.0
 40
1.0
 40
1.0
 40
1.0
 40
1.0
 10
31.46288729141265
 20
1.538449863274065
 30
0.0
 10
31.21637987593953
 20
1.830483793625126
 30
0.0
 10
31.00233809455754
 20
2.109670644947118
 30
0.0
 10
30.833403425089
 20
2.369342392403555
 30
0.0
  0
LINE
  5
BF
330
1F
100
AcDbEntity
  8
0
  6
Continuous
 62
     1
370
    15
100
AcDbLine
 10
30.833403425089
 20
2.369342392403555
 30
0.0
 11
34.86602540378443
 21
0.0000000000000033
 31
0.0
  0
LINE
  5
C0
330
1F
100
AcDbEntity
  8
0
  6
Continuous
 62
     1
370
    15
100
AcDbLine
 10
34.86602540378443
 20
0.0000000000000033
 30
0.0
 11
34.86602540378443
 21
-1.469836203163043
 31
0.0
  0
SPLINE
  5
C1
330
1F
100
AcDbEntity
  8
0
  6
Continuous
 62
     1
370
    15
100
AcDbSpline
210
0.0
220
0.0
230
1.0
 70
     8
 71
     3
 72
    12
 73
     8
 74
     0
 42
0.000000001
 43
0.00000001
 40
0.0
 40
0.0
 40
0.0
 40
0.0
 40
0.5000000000000009
 40
0.5000000000000009
 40
0.7500000000000004
 40
0.7500000000000004
 40
1.0
 40
1.0
 40
1.0
 40
1.0
 10
34.86602540378443
 20
-1.469836203163043
 30
0.0
 10
34.2769318256836
 20
-1.006709240082497
 30
0.0
 10
33.69767779393455
 20
-0.5245927947863248
 30
0.0
 10
32.84393544331265
 20
0.2277982625323514
 30
0.0
 10
32.5619216962548
 20
0.4835494423177527
 30
0.0
 10
32.00365390148276
 20
1.006167528604298
 30
0.0
 10
31.72892326075389
 20
1.271678248149558
 30
0.0
 10
31.46288729141266
 20
1.538449863274062
 30
0.0
  0
SPLINE
  5
C2
330
1F
100
AcDbEntity
  8
0
  6
Continuous
 62
     1
370
    15
100
AcDbSpline
210
0.0
220
0.0
230
1.0
 70
     8
 71
     3
 72
    14
 73
    10
 74
     0
 42
0.000000001
 43
0.00000001
 40
0.0
 40
0.0
 40
0.0
 40
0.0
 40
0.1469343288911472
 40
0.293875689717599
 40
0.440848344396308
 40
0.587876428422865
 40
0.734967831363726
 40
0.8820077847229965
 40
1.0
 40
1.0
 40
1.0
 40
1.0
 10
31.46288729141266
 20
1.538449863274062
 30
0.0
 10
30.84255304964461
 20
1.801289095354424
 30
0.0
 10
29.6018548783542
 20
2.326980138389598
 30
0.0
 10
27.74065733013759
 20
3.011377543038043
 30
0.0
 10
25.87900625684784
 20
3.585014484311761
 30
0.0
 10
24.01663994912551
 20
4.022390275792352
 30
0.0
 10
22.15381529208037
 20
4.301820792186402
 30
0.0
 10
20.41372838313647
 20
4.427215037771343
 30
0.0
 10
19.29476643581191
 20
4.378760400399764
 30
0.0
 10
18.79660502523731
 20
4.357188415257982
 30
0.0
  0
SPLINE
  5
C3
330
1F
100
AcDbEntity
  8
0
  6
Continuous
 62
     1
370
    15
100
AcDbSpline
210
0.0
220
0.0
230
1.0
 70
    24
 71
     3
 72
    10
 73
     6
 74
     0
 42
0.000000001
 43
0.00000001
 40
0.0
 40
0.0
 40
0.0
 40
0.0
 40
0.5
 40
0.5
 40
1.0
 40
1.0
 40
1.0
 40
1.0
 10
34.86602540378443
 20
-4.339347454025185
 30
0.0
 10
34.86602540378443
 20
-4.006702639520924
 30
0.0
 10
34.86602540378443
 20
-3.586393161485575
 30
0.0
 10
34.86602540378443
 20
-2.609214075328737
 30
0.0
 10
34.86602540378443
 20
-2.053190936782201
 30
0.0
 10
34.86602540378443
 20
-1.469836203163219
 30
0.0
  0
SPLINE
  5
C4
330
1F
100
AcDbEntity
  8
0
  6
Continuous
 62
     1
370
    15
100
AcDbSpline
210
0.0
220
0.0
230
1.0
 70
     8
 71
     3
 72
    10
 73
     6
 74
     0
 42
0.000000001
 43
0.00000001
 40
0.0
 40
0.0
 40
0.0
 40
0.0
 40
0.2962911544264771
 40
0.6481228722853037
 40
1.0
 40
1.0
 40
1.0
 40
1.0
 10
10.53054393431904
 20
-4.563038652123931
 30
0.0
 10
9.971106589747562
 20
-4.610254199732323
 30
0.0
 10
8.747363885281167
 20
-4.713535974686794
 30
0.0
 10
6.859196230474144
 20
-4.638692983711326
 30
0.0
 10
5.530444260502881
 20
-4.430214121389512
 30
0.0
 10
4.866025403784274
 20
-4.325967963728614
 30
0.0
  0
SPLINE
  5
C5
330
1F
100
AcDbEntity
  8
0
  6
Continuous
 62
     1
370
    15
100
AcDbSpline
210
0.0
220
0.0
230
1.0
 70
     8
 71
     3
 72
    17
 73
    13
 74
     0
 42
0.000000001
 43
0.00000001
 40
0.0
 40
0.0
 40
0.0
 40
0.0
 40
0.0581952091772134
 40
0.1596596080555421
 40
0.2610829262671349
 40
0.3624817968036464
 40
0.4687132051642944
 40
0.5749462991039971
 40
0.6811863147093862
 40
0.7874384751291282
 40
0.8937079808395921
 40
1.0
 40
1.0
 40
1.0
 40
1.0
 10
23.22192422239538
 20
-4.11616345885365
 30
0.0
 10
22.8658208664727
 20
-4.174844163490812
 30
0.0
 10
21.88884487415785
 20
-4.335835737114388
 30
0.0
 10
20.29133905685931
 20
-4.419850484449166
 30
0.0
 10
18.42957138136664
 20
-4.376568924139362
 30
0.0
 10
16.53873767161939
 20
-4.155954551078774
 30
0.0
 10
14.61833919201487
 20
-3.766637358111071
 30
0.0
 10
12.66835628667746
 20
-3.213418834150143
 30
0.0
 10
10.71821896530347
 20
-2.52610094849457
 30
0.0
 10
8.7678308802703
 20
-1.733214162086888
 30
0.0
 10
6.817086387379925
 20
-0.8677645333227002
 30
0.0
 10
5.516424984825671
 20
-0.2669258882367569
 30
0.0
 10
4.866025403784437
 20
0.0335252532131611
 30
0.0
  0
SPLINE
  5
C6
330
1F
100
AcDbEntity
  8
0
  6
Continuous
 62
     4
370
    15
100
AcDbSpline
210
0.0
220
0.0
230
1.0
 70
    24
 71
     3
 72
    14
 73
    10
 74
     0
 42
0.000000001
 43
0.00000001
 40
0.0
 40
0.0
 40
0.0
 40
0.0
 40
0.25
 40
0.25
 40
0.4999999999999999
 40
0.4999999999999999
 40
0.75
 40
0.75
 40
1.0
 40
1.0
 40
1.0
 40
1.0
 10
4.86602540378443
 20
0.0335252532131642
 30
0.0
 10
4.86602540378443
 20
-0.3881631333926891
 30
0.0
 10
4.86602540378443
 20
-0.8149921783548276
 30
0.0
 10
4.86602540378443
 20
-1.648540359383998
 30
0.0
 10
4.86602540378443
 20
-2.05501308006285
 30
0.0
 10
4.86602540378443
 20
-2.816942531700756
 30
0.0
 10
4.86602540378443
 20
-3.172179240563385
 30
0.0
 10
4.86602540378443
 20
-3.807997833597689
 30
0.0
 10
4.86602540378443
 20
-4.088489002920426
 30
0.0
 10
4.86602540378443
 20
-4.325967963728641
 30
0.0
  0
SPLINE
  5
C7
330
1F
100
AcDbEntity
  8
0
  6
Continuous
 62
     4
370
    15
100
AcDbSpline
210
0.0
220
0.0
230
1.0
 70
    24
 71
     3
 72
    14
 73
    10
 74
     0
 42
0.000000001
 43
0.00000001
 40
0.0
 40
0.0
 40
0.0
 40
0.0
 40
0.25
 40
0.25
 40
0.5
 40
0.5
 40
0.75
 40
0.75
 40
1.0
 40
1.0
 40
1.0
 40
1.0
 10
4.866025403784423
 20
3.849888242721412
 30
0.0
 10
4.866025403784423
 20
3.749792683586969
 30
0.0
 10
4.866025403784427
 20
3.588036045210804
 30
0.0
 10
4.866025403784427
 20
3.138849163693725
 30
0.0
 10
4.866025403784427
 20
2.851392908467366
 30
0.0
 10
4.866025403784427
 20
2.173115175250274
 30
0.0
 10
4.866025403784427
 20
1.782655111993382
 30
0.0
 10
4.866025403784427
 20
0.9409904406839904
 30
0.0
 10
4.866025403784427
 20
0.4903110767789293
 30
0.0
 10
4.866025403784423
 20
0.0335252532131679
 30
0.0
  0
SPLINE
  5
C8
330
1F
100
AcDbEntity
  8
0
  6
Continuous
 62
     1
370
    15
100
AcDbSpline
210
0.0
220
0.0
230
1.0
 70
     8
 71
     3
 72
     9
 73
     5
 74
     0
 42
0.000000001
 43
0.00000001
 40
0.0
 40
0.0
 40
0.0
 40
0.0
 40
0.9843551151884524
 40
1.0
 40
1.0
 40
1.0
 40
1.0
 10
34.86602540378443
 20
3.850000000000004
 30
0.0
 10
34.19850040593067
 20
3.848949318837139
 30
0.0
 10
33.52036607457611
 20
3.847881938633945
 30
0.0
 10
32.84224520217364
 20
3.762639453021551
 30
0.0
 10
32.8316360792366
 20
3.761305844153096
 30
0.0
  0
SPLINE
  5
C9
330
1F
100
AcDbEntity
  8
0
  6
Continuous
 62
     1
370
    15
100
AcDbSpline
210
0.0
220
0.0
230
1.0
 70
     8
 71
     3
 72
    10
 73
     6
 74
     0
 42
0.000000001
 43
0.00000001
 40
0.0
 40
0.0
 40
0.0
 40
0.0
 40
0.5
 40
0.5
 40
1.0
 40
1.0
 40
1.0
 40
1.0
 10
34.86602540378443
 20
3.850000000000004
 30
0.0
 10
34.18158875881612
 20
3.664338061699499
 30
0.0
 10
33.50231447774675
 20
3.451385996350806
 30
0.0
 10
32.15542497123612
 20
2.963847870921356
 30
0.0
 10
31.48771316184306
 20
2.689676583085714
 30
0.0
 10
30.833403425089
 20
2.369342392403553
 30
0.0
  0
LINE
  5
CA
330
1F
100
AcDbEntity
  8
0
  6
Continuous
 62
     1
370
    15
100
AcDbLine
 10
34.86602540378443
 20
0.0000000000000033
 30
0.0
 11
34.86602540378443
 21
3.850000000000004
 31
0.0
  0
SPLINE
  5
CB
330
1F
100
AcDbEntity
  8
0
  6
Continuous
 62
     1
370
    15
100
AcDbSpline
210
0.0
220
0.0
230
1.0
 70
     8
 71
     3
 72
    13
 73
     9
 74
     0
 42
0.000000001
 43
0.00000001
 40
0.0
 40
0.0
 40
0.0
 40
0.0
 40
0.1262150320087884
 40
0.3011221381665465
 40
0.4759155464274421
 40
0.6505466338792627
 40
0.8251849610457127
 40
1.0
 40
1.0
 40
1.0
 40
1.0
 10
14.30871485861158
 20
-4.322744110347959
 30
0.0
 10
13.91149801364782
 20
-4.462642418077474
 30
0.0
 10
12.96382336849996
 20
-4.796409932761934
 30
0.0
 10
11.46537924024537
 20
-5.161793893423655
 30
0.0
 10
9.814944548554575
 20
-5.428239199117011
 30
0.0
 10
8.165698257170854
 20
-5.524616853939935
 30
0.0
 10
6.516404096239508
 20
-5.467990232243367
 30
0.0
 10
5.416337062119343
 20
-5.293228658729059
 30
0.0
 10
4.866025403780361
 20
-5.205803685203232
 30
0.0
  0
SPLINE
  5
CC
330
1F
100
AcDbEntity
  8
0
  6
Continuous
 62
     4
370
    15
100
AcDbSpline
210
0.0
220
0.0
230
1.0
 70
    24
 71
     3
 72
     8
 73
     4
 74
     0
 42
0.000000001
 43
0.00000001
 40
0.0
 40
0.0
 40
0.0
 40
0.0
 40
1.0
 40
1.0
 40
1.0
 40
1.0
 10
4.866025403784437
 20
-4.325967963728645
 30
0.0
 10
4.866025403784437
 20
-4.617600573557779
 30
0.0
 10
4.866025403784437
 20
-4.912756754116445
 30
0.0
 10
4.866025403784437
 20
-5.205803685190809
 30
0.0
  0
LINE
  5
CD
330
1F
100
AcDbEntity
  8
0
  6
Continuous
 62
     1
370
    15
100
AcDbLine
 10
4.866025403784437
 20
-5.493469378605388
 30
0.0
 11
5.329876159954248
 21
-5.49435094908718
 31
0.0
  0
SPLINE
  5
CE
330
1F
100
AcDbEntity
  8
0
  6
Continuous
 62
     1
370
    15
100
AcDbSpline
210
0.0
220
0.0
230
1.0
 70
     8
 71
     3
 72
    15
 73
    11
 74
     0
 42
0.000000001
 43
0.00000001
 40
0.0
 40
0.0
 40
0.0
 40
0.0
 40
0.0125397765068377
 40
0.1168899985318251
 40
0.3264457453223852
 40
0.4317000530358658
 40
0.5726506365731512
 40
0.7140458434919955
 40
0.8567919605363126
 40
1.0
 40
1.0
 40
1.0
 40
1.0
 10
27.29598626085996
 20
3.687070582780467
 30
0.0
 10
27.32763353124101
 20
3.701037691700553
 30
0.0
 10
27.62263475286235
 20
3.831232623027476
 30
0.0
 10
28.44647298469902
 20
4.160195066189607
 30
0.0
 10
29.50441265732693
 20
4.539895143929781
 30
0.0
 10
30.65410873959463
 20
4.877785851480898
 30
0.0
 10
31.63213580925417
 20
5.117476260767331
 30
0.0
 10
32.70484736643811
 20
5.314078934878226
 30
0.0
 10
33.78309612376404
 20
5.449127328162414
 30
0.0
 10
34.50466044544153
 20
5.479926847666089
 30
0.0
 10
34.86602540378403
 20
5.495351483763033
 30
0.0
  0
SPLINE
  5
CF
330
1F
100
AcDbEntity
  8
0
  6
Continuous
 62
     1
370
    15
100
AcDbSpline
210
0.0
220
0.0
230
1.0
 70
    24
 71
     3
 72
    10
 73
     6
 74
     0
 42
0.000000001
 43
0.00000001
 40
0.0
 40
0.0
 40
0.0
 40
0.0
 40
0.5
 40
0.5
 40
1.0
 40
1.0
 40
1.0
 40
1.0
 10
34.86602540378443
 20
3.850000000000004
 30
0.0
 10
34.86602540378443
 20
4.083377412440228
 30
0.0
 10
34.86602540378443
 20
4.354583578769147
 30
0.0
 10
34.86602540378443
 20
4.923573385284708
 30
0.0
 10
34.86602540378443
 20
5.219903896908102
 30
0.0
 10
34.86602540378443
 20
5.495351483763043
 30
0.0
  0
LINE
  5
D0
330
1F
100
AcDbEntity
  8
중심선
100
AcDbLine
 10
-43.13397459621555
 20
-0.0000000000000044
 30
0.0
 11
37.86602540378445
 21
-0.0000000000000044
 31
0.0
  0
CIRCLE
  5
D1
330
1F
100
AcDbEntity
  8
외형선
100
AcDbCircle
 10
0.0
 20
0.0
 30
0.0
 40
3.000000000000004
  0
INSERT
  5
D2
330
1F
100
AcDbEntity
  8
0
  6
Continuous
 62
     7
100
AcDbBlockReference
 66
     1
  2
블럭10
 10
-29.07224803572717
 20
-52.04717430164393
 30
0.0
  0
ATTRIB
  5
D3
330
D2
100
AcDbEntity
  8
FORMAT
 62
     2
100
AcDbText
 10
-42.03218723058494
 20
-49.97180738881174
 30
0.0
 40
4.233333333333333
  1
SEME35110E [ 2 FLUTE ]
 41
0.75
  7
SLDTEXTSTYLE0
 11
-42.03218723058494
 21
-52.08847405547841
 31
0.0
100
AcDbAttribute
  2
AUTOATTR0
 70
     0
 74
     1
  0
SEQEND
  5
D4
330
D2
100
AcDbEntity
  8
0
  6
Continuous
 62
     7
  0
HATCH
  5
D5
330
1F
100
AcDbEntity
  8
중심선
100
AcDbHatch
 10
0.0
 20
0.0
 30
0.0
210
0.0
220
0.0
230
1.0
  2
SOLID
 70
     1
 71
     0
 91
        1
 92
        0
 93
        4
 72
     1
 10
-23.35733873134632
 20
-35.8
 11
-26.8036139751836
 21
-35.8
 72
     1
 10
-26.8036139751836
 20
-35.8
 11
-28.93184383438762
 21
-38.33632558057259
 72
     1
 10
-28.93184383438762
 20
-38.33632558057259
 11
-25.48553550543719
 21
-38.3362861512701
 72
     1
 10
-25.48553550543719
 20
-38.3362861512701
 11
-23.35733873134632
 21
-35.8
 97
        0
 75
     0
 76
     1
 98
        1
 10
-5.133974596215557
 20
-0.0000000000000009
  0
HATCH
  5
D6
330
1F
100
AcDbEntity
  8
중심선
100
AcDbHatch
 10
0.0
 20
0.0
 30
0.0
210
0.0
220
0.0
230
1.0
  2
SOLID
 70
     1
 71
     0
 91
        1
 92
        0
 93
        4
 72
     1
 10
-18.34457474031036
 20
-35.8
 11
-21.79084998414764
 21
-35.8
 72
     1
 10
-21.79084998414765
 20
-35.8
 11
-26.32198799250504
 21
-41.20000000000002
 72
     1
 10
-26.32198799250504
 20
-41.20000000000002
 11
-22.87571274866776
 21
-41.20000000000002
 72
     1
 10
-22.87571274866775
 20
-41.20000000000002
 11
-18.34457474031036
 21
-35.8
 97
        0
 75
     0
 76
     1
 98
        1
 10
-5.133974596215557
 20
-0.0000000000000009
  0
HATCH
  5
D7
330
1F
100
AcDbEntity
  8
중심선
100
AcDbHatch
 10
0.0
 20
0.0
 30
0.0
210
0.0
220
0.0
230
1.0
  2
SOLID
 70
     1
 71
     0
 91
        1
 92
        0
 93
        4
 72
     1
 10
-13.33181074927447
 20
-35.80000000000003
 11
-16.77808599311159
 21
-35.8
 72
     1
 10
-16.77808599311159
 20
-35.8
 11
-23.82652289500083
 21
-44.20000000000002
 72
     1
 10
-23.82652289500083
 20
-44.20000000000002
 11
-20.38024765116355
 21
-44.20000000000002
 72
     1
 10
-20.38024765116355
 20
-44.20000000000002
 11
-13.33181074927447
 21
-35.80000000000003
 97
        0
 75
     0
 76
     1
 98
        1
 10
-5.133974596215557
 20
-0.0000000000000009
  0
HATCH
  5
D8
330
1F
100
AcDbEntity
  8
중심선
100
AcDbHatch
 10
0.0
 20
0.0
 30
0.0
210
0.0
220
0.0
230
1.0
  2
SOLID
 70
     1
 71
     0
 91
        1
 92
        0
 93
        6
 72
     3
 10
-8.53192031826227
 20
-40.00000000005127
 11
3.960054785062284
 21
1.540882976769353E-10
 40
0.3939339440162627
 50
17.09539180608439
 51
320.0019657685078
 73
     0
 72
     1
 10
-6.848920662561675
 20
-38.5878940046383
 11
-4.543618788860637
 21
-36.65356729459038
 72
     3
 10
-8.53192031831512
 20
-40.00000000000015
 11
6.600054785286829
 21
-1.278976924368180E-13
 40
0.636358354079598
 50
39.99873849337411
 51
368.4976242363724
 73
     1
 72
     1
 10
-2.106587826414508
 20
-39.03999999993002
 11
-9.85185301147919
 21
-39.03999999992999
 72
     1
 10
-9.85185301147919
 20
-39.03999999992999
 11
-9.85187805592513
 21
-40.95999999992991
 72
     1
 10
-9.85187805592513
 20
-40.95999999992991
 11
-5.410498286453092
 21
-40.95999999992988
 97
        0
 75
     0
 76
     1
 98
        1
 10
-5.133974596215557
 20
-0.0000000000000009
  0
DIMENSION
  5
D9
330
1F
100
AcDbEntity
  8
치수문자_일반주서
100
AcDbDimension
  2
_D
 10
4.86602540378443
 20
17.74598537234082
 30
0.0
 11
19.86602540378443
 21
17.74598537234082
 31
0.0
 70
   160
  1
<>
 71
     2
 42
30.0
  3
SLDDIMSTYLE0
100
AcDbAlignedDimension
 13
34.86602540378443
 23
5.495351483763043
 33
0.0
 14
4.86602540378443
 24
5.493469378599322
 34
0.0
100
AcDbRotatedDimension
  0
DIMENSION
  5
E4
330
1F
100
AcDbEntity
  8
치수문자_일반주서
100
AcDbDimension
  2
_D_1
 10
-40.13397459621556
 20
26.63415911661226
 30
0.0
 11
-2.633974596215557
 21
26.63415911661226
 31
0.0
 70
   160
  1
<>
 71
     2
 42
74.99999999999999
  3
SLDDIMSTYLE0
100
AcDbAlignedDimension
 13
34.86602540378443
 23
5.495351483763043
 33
0.0
 14
-40.13397459621556
 24
4.999999999999995
 34
0.0
 50
0.0000000000000054
100
AcDbRotatedDimension
  0
DIMENSION
  5
EE
330
1F
100
AcDbEntity
  8
치수문자_일반주서
100
AcDbDimension
  2
_D_2
 10
50.43221571603073
 20
-5.495351483762984
 30
0.0
 11
50.43221571603071
 21
0.0000000000000003
 31
0.0
 70
   160
  1
%%c<>
 71
     2
 42
10.99570296752607
 52
-270.0
  3
SLDDIMSTYLE1
100
AcDbAlignedDimension
 13
34.86602540378403
 23
5.500351483763033
 33
0.0
 14
34.86602540378443
 24
-5.495351483763042
 34
0.0
 50
90.0000000000002
100
AcDbRotatedDimension
  0
DIMENSION
  5
FC
330
1F
100
AcDbEntity
  8
치수문자_일반주서
100
AcDbDimension
  2
_D_3
 10
-51.55353404160408
 20
-6.000000000000049
 30
0.0
 11
-51.5535340416041
 21
-0.0000000000000011
 31
0.0
 70
   160
  1
%%c<>
 71
     2
 42
12.0
 52
-270.0
  3
SLDDIMSTYLE1
100
AcDbAlignedDimension
 13
-39.13397459621556
 23
5.999999999999996
 33
0.0
 14
-39.13397459621556
 24
-6.000000000000003
 34
0.0
 50
90.0000000000002
100
AcDbRotatedDimension
  0
INSERT
  5
10F
330
1F
100
AcDbEntity
  8
외형선
100
AcDbBlockReference
  2
SW_DOWELSYMBOL_0
 10
0.0
 20
0.0
 30
0.0
  0
ENDSEC
  0
SECTION
  2
OBJECTS
  0
DICTIONARY
  5
C
330
0
100
AcDbDictionary
281
     1
  3
ACAD_DETAILVIEWSTYLE
350
18C
  3
ACAD_GROUP
350
D
  3
ACAD_LAYOUT
350
1A
  3
ACAD_MLINESTYLE
350
17
  3
ACAD_PLOTSETTINGS
350
19
  3
ACAD_PLOTSTYLENAME
350
E
  3
ACAD_SCALELIST
350
47
  3
ACAD_SECTIONVIEWSTYLE
350
18D
  3
AcDbVariableDictionary
350
187
  3
APPDATA
350
131
  3
DWGPROPS
350
18F
  0
DICTIONARY
  5
18C
102
{ACAD_REACTORS
330
C
102
}
330
C
100
AcDbDictionary
281
     1
  0
DICTIONARY
  5
D
102
{ACAD_REACTORS
330
C
102
}
330
C
100
AcDbDictionary
281
     1
  0
DICTIONARY
  5
1A
102
{ACAD_REACTORS
330
C
102
}
330
C
100
AcDbDictionary
281
     1
  3
Layout1
350
1E
  3
Layout2
350
26
  3
Model
350
22
  0
DICTIONARY
  5
17
102
{ACAD_REACTORS
330
C
102
}
330
C
100
AcDbDictionary
281
     1
  3
Standard
350
18
  0
DICTIONARY
  5
19
102
{ACAD_REACTORS
330
C
102
}
330
C
100
AcDbDictionary
281
     1
  0
ACDBDICTIONARYWDFLT
  5
E
102
{ACAD_REACTORS
330
C
102
}
330
C
100
AcDbDictionary
281
     1
  3
Normal
350
F
100
AcDbDictionaryWithDefault
340
F
  0
DICTIONARY
  5
47
102
{ACAD_REACTORS
330
C
102
}
330
C
100
AcDbDictionary
281
     1
  3
A0
350
48
  3
A1
350
49
  3
A2
350
4A
  3
A3
350
4B
  3
A4
350
4C
  3
A5
350
4D
  3
A6
350
4E
  3
A7
350
4F
  3
A8
350
50
  3
A9
350
51
  3
B0
350
52
  3
B1
350
53
  3
B2
350
54
  3
B3
350
55
  3
B4
350
56
  3
B5
350
57
  3
B6
350
58
  3
B7
350
59
  3
B8
350
5A
  3
B9
350
5B
  3
C0
350
5C
  3
C1
350
5D
  3
C2
350
5E
  3
C3
350
5F
  3
C4
350
60
  3
C5
350
61
  3
C6
350
62
  3
C7
350
63
  3
C8
350
64
  3
C9
350
65
  3
D0
350
66
  3
D1
350
67
  3
D2
350
68
  0
DICTIONARY
  5
18D
102
{ACAD_REACTORS
330
C
102
}
330
C
100
AcDbDictionary
281
     1
  0
DICTIONARY
  5
187
102
{ACAD_REACTORS
330
C
102
}
330
C
100
AcDbDictionary
281
     1
  0
DICTIONARY
  5
131
102
{ACAD_REACTORS
330
C
102
}
330
C
100
AcDbDictionary
281
     1
  0
XRECORD
  5
18F
102
{ACAD_REACTORS
330
C
102
}
330
C
100
AcDbXrecord
280
     1
  1
DWGPROPS COOKIE
  2

  3

  4

  6

  7

  8
12011908
  9

300
=
301
=
302
=
303
=
304
=
305
=
306
=
307
=
308
=
309
=
 40
0.0
 41
2458250.118407697
 42
2458264.059682095
  1

 90
        0
  0
LAYOUT
  5
1E
102
{ACAD_REACTORS
330
1A
102
}
330
1A
100
AcDbPlotSettings
  1

  2
none_device
  4

  6

 40
0.0
 41
0.0
 42
0.0
 43
0.0
 44
0.0
 45
0.0
 46
0.0
 47
0.0
 48
0.0
 49
0.0
140
0.0
141
0.0
142
1.0
143
1.0
 70
   688
 72
     1
 73
     0
 74
     5
  7

 75
    16
147
1.0
148
0.0
149
0.0
100
AcDbLayout
  1
Layout1
 70
     1
 71
     1
 10
0.0
 20
0.0
 11
420.0
 21
297.0
 12
0.0
 22
0.0
 32
0.0
 14
1.000000000000000E+20
 24
1.000000000000000E+20
 34
1.000000000000000E+20
 15
-1.000000000000000E+20
 25
-1.000000000000000E+20
 35
-1.000000000000000E+20
146
0.0
 13
0.0
 23
0.0
 33
0.0
 16
1.0
 26
0.0
 36
0.0
 17
0.0
 27
1.0
 37
0.0
 76
     0
330
1B
  0
LAYOUT
  5
26
102
{ACAD_REACTORS
330
1A
102
}
330
1A
100
AcDbPlotSettings
  1

  2
none_device
  4

  6

 40
0.0
 41
0.0
 42
0.0
 43
0.0
 44
0.0
 45
0.0
 46
0.0
 47
0.0
 48
0.0
 49
0.0
140
0.0
141
0.0
142
1.0
143
1.0
 70
   688
 72
     1
 73
     0
 74
     5
  7

 75
    16
147
1.0
148
0.0
149
0.0
100
AcDbLayout
  1
Layout2
 70
     1
 71
     2
 10
0.0
 20
0.0
 11
0.0
 21
0.0
 12
0.0
 22
0.0
 32
0.0
 14
0.0
 24
0.0
 34
0.0
 15
0.0
 25
0.0
 35
0.0
146
0.0
 13
0.0
 23
0.0
 33
0.0
 16
1.0
 26
0.0
 36
0.0
 17
0.0
 27
1.0
 37
0.0
 76
     0
330
23
  0
LAYOUT
  5
22
102
{ACAD_REACTORS
330
1A
102
}
330
1A
100
AcDbPlotSettings
  1

  2
none_device
  4
ANSI_A_(11.00_x_8.50_Inches)
  6

 40
6.35
 41
19.05
 42
6.35000508
 43
19.05000254
 44
279.4
 45
215.9
 46
126.1726802264651
 47
114.0699906762995
 48
0.0
 49
0.0
140
0.0
141
0.0
142
0.101254327240549
143
1.0
 70
  1696
 72
     0
 73
     0
 74
     0
  7

 75
     0
147
0.0235690232323232
148
0.0
149
0.0
100
AcDbLayout
  1
Model
 70
     1
 71
     0
 10
0.0
 20
0.0
 11
420.0
 21
297.0
 12
0.0
 22
0.0
 32
0.0
 14
-55.92853404160412
 24
-49.97180738881174
 34
0.0
 15
50.98254904936405
 25
31.00915911661226
 35
0.0
146
0.0
 13
0.0
 23
0.0
 33
0.0
 16
1.0
 26
0.0
 36
0.0
 17
0.0
 27
1.0
 37
0.0
 76
     0
330
1F
331
29
  0
MLINESTYLE
  5
18
102
{ACAD_REACTORS
330
17
102
}
330
17
100
AcDbMlineStyle
  2
Standard
 70
     0
  3

 62
   256
 51
90.0
 52
90.0
 71
     2
 49
0.5
 62
   256
  6
BYLAYER
 49
-0.5
 62
   256
  6
BYLAYER
  0
ACDBPLACEHOLDER
  5
F
102
{ACAD_REACTORS
330
E
102
}
330
E
  0
SCALE
  5
48
102
{ACAD_REACTORS
330
47
102
}
330
47
100
AcDbScale
 70
     0
300
1:1
140
1.0
141
1.0
290
     1
  0
SCALE
  5
49
102
{ACAD_REACTORS
330
47
102
}
330
47
100
AcDbScale
 70
     0
300
1:2
140
1.0
141
2.0
290
     0
  0
SCALE
  5
4A
102
{ACAD_REACTORS
330
47
102
}
330
47
100
AcDbScale
 70
     0
300
1:4
140
1.0
141
4.0
290
     0
  0
SCALE
  5
4B
102
{ACAD_REACTORS
330
47
102
}
330
47
100
AcDbScale
 70
     0
300
1:5
140
1.0
141
5.0
290
     0
  0
SCALE
  5
4C
102
{ACAD_REACTORS
330
47
102
}
330
47
100
AcDbScale
 70
     0
300
1:8
140
1.0
141
8.0
290
     0
  0
SCALE
  5
4D
102
{ACAD_REACTORS
330
47
102
}
330
47
100
AcDbScale
 70
     0
300
1:10
140
1.0
141
10.0
290
     0
  0
SCALE
  5
4E
102
{ACAD_REACTORS
330
47
102
}
330
47
100
AcDbScale
 70
     0
300
1:16
140
1.0
141
16.0
290
     0
  0
SCALE
  5
4F
102
{ACAD_REACTORS
330
47
102
}
330
47
100
AcDbScale
 70
     0
300
1:20
140
1.0
141
20.0
290
     0
  0
SCALE
  5
50
102
{ACAD_REACTORS
330
47
102
}
330
47
100
AcDbScale
 70
     0
300
1:30
140
1.0
141
30.0
290
     0
  0
SCALE
  5
51
102
{ACAD_REACTORS
330
47
102
}
330
47
100
AcDbScale
 70
     0
300
1:40
140
1.0
141
40.0
290
     0
  0
SCALE
  5
52
102
{ACAD_REACTORS
330
47
102
}
330
47
100
AcDbScale
 70
     0
300
1:50
140
1.0
141
50.0
290
     0
  0
SCALE
  5
53
102
{ACAD_REACTORS
330
47
102
}
330
47
100
AcDbScale
 70
     0
300
1:100
140
1.0
141
100.0
290
     0
  0
SCALE
  5
54
102
{ACAD_REACTORS
330
47
102
}
330
47
100
AcDbScale
 70
     0
300
2:1
140
2.0
141
1.0
290
     0
  0
SCALE
  5
55
102
{ACAD_REACTORS
330
47
102
}
330
47
100
AcDbScale
 70
     0
300
4:1
140
4.0
141
1.0
290
     0
  0
SCALE
  5
56
102
{ACAD_REACTORS
330
47
102
}
330
47
100
AcDbScale
 70
     0
300
8:1
140
8.0
141
1.0
290
     0
  0
SCALE
  5
57
102
{ACAD_REACTORS
330
47
102
}
330
47
100
AcDbScale
 70
     0
300
10:1
140
10.0
141
1.0
290
     0
  0
SCALE
  5
58
102
{ACAD_REACTORS
330
47
102
}
330
47
100
AcDbScale
 70
     0
300
100:1
140
100.0
141
1.0
290
     0
  0
SCALE
  5
59
102
{ACAD_REACTORS
330
47
102
}
330
47
100
AcDbScale
 70
     0
300
1/128" = 1'-0"
140
0.0078125
141
12.0
290
     0
  0
SCALE
  5
5A
102
{ACAD_REACTORS
330
47
102
}
330
47
100
AcDbScale
 70
     0
300
1/64" = 1'-0"
140
0.015625
141
12.0
290
     0
  0
SCALE
  5
5B
102
{ACAD_REACTORS
330
47
102
}
330
47
100
AcDbScale
 70
     0
300
1/32" = 1'-0"
140
0.03125
141
12.0
290
     0
  0
SCALE
  5
5C
102
{ACAD_REACTORS
330
47
102
}
330
47
100
AcDbScale
 70
     0
300
1/16" = 1'-0"
140
0.0625
141
12.0
290
     0
  0
SCALE
  5
5D
102
{ACAD_REACTORS
330
47
102
}
330
47
100
AcDbScale
 70
     0
300
3/32" = 1'-0"
140
0.09375
141
12.0
290
     0
  0
SCALE
  5
5E
102
{ACAD_REACTORS
330
47
102
}
330
47
100
AcDbScale
 70
     0
300
1/8" = 1'-0"
140
0.125
141
12.0
290
     0
  0
SCALE
  5
5F
102
{ACAD_REACTORS
330
47
102
}
330
47
100
AcDbScale
 70
     0
300
3/16" = 1'-0"
140
0.1875
141
12.0
290
     0
  0
SCALE
  5
60
102
{ACAD_REACTORS
330
47
102
}
330
47
100
AcDbScale
 70
     0
300
1/4" = 1'-0"
140
0.25
141
12.0
290
     0
  0
SCALE
  5
61
102
{ACAD_REACTORS
330
47
102
}
330
47
100
AcDbScale
 70
     0
300
3/8" = 1'-0"
140
0.375
141
12.0
290
     0
  0
SCALE
  5
62
102
{ACAD_REACTORS
330
47
102
}
330
47
100
AcDbScale
 70
     0
300
1/2" = 1'-0"
140
0.5
141
12.0
290
     0
  0
SCALE
  5
63
102
{ACAD_REACTORS
330
47
102
}
330
47
100
AcDbScale
 70
     0
300
3/4" = 1'-0"
140
0.75
141
12.0
290
     0
  0
SCALE
  5
64
102
{ACAD_REACTORS
330
47
102
}
330
47
100
AcDbScale
 70
     0
300
1" = 1'-0"
140
1.0
141
12.0
290
     0
  0
SCALE
  5
65
102
{ACAD_REACTORS
330
47
102
}
330
47
100
AcDbScale
 70
     0
300
1-1/2" = 1'-0"
140
1.5
141
12.0
290
     0
  0
SCALE
  5
66
102
{ACAD_REACTORS
330
47
102
}
330
47
100
AcDbScale
 70
     0
300
3" = 1'-0"
140
3.0
141
12.0
290
     0
  0
SCALE
  5
67
102
{ACAD_REACTORS
330
47
102
}
330
47
100
AcDbScale
 70
     0
300
6" = 1'-0"
140
6.0
141
12.0
290
     0
  0
SCALE
  5
68
102
{ACAD_REACTORS
330
47
102
}
330
47
100
AcDbScale
 70
     0
300
1'-0" = 1'-0"
140
12.0
141
12.0
290
     0
  0
ENDSEC
  0
EOF
