  0
SECTION
  2
HEADER
  9
$ACADVER
  1
AC1015
  9
$ACADMAINTVER
 70
     6
  9
$DWGCODEPAGE
  3
ANSI_949
  9
$INSBASE
 10
0.0
 20
0.0
 30
0.0
  9
$EXTMIN
 10
-54.64455944538855
 20
-49.97180738881174
 30
0.0
  9
$EXTMAX
 10
52.26652364557961
 20
30.65915911661226
 30
0.0
  9
$LIMMIN
 10
0.0
 20
0.0
  9
$LIMMAX
 10
420.0
 20
297.0
  9
$ORTHOMODE
 70
     1
  9
$REGENMODE
 70
     1
  9
$FILLMODE
 70
     1
  9
$QTEXTMODE
 70
     0
  9
$MIRRTEXT
 70
     1
  9
$LTSCALE
 40
1.0
  9
$ATTMODE
 70
     1
  9
$TEXTSIZE
 40
3.5
  9
$TRACEWID
 40
1.0
  9
$TEXTSTYLE
  7
Standard
  9
$CLAYER
  8
0
  9
$CELTYPE
  6
ByLayer
  9
$CECOLOR
 62
   256
  9
$CELTSCALE
 40
1.0
  9
$DISPSILH
 70
     0
  9
$DIMSCALE
 40
1.0
  9
$DIMASZ
 40
3.302
  9
$DIMEXO
 40
1.0
  9
$DIMDLI
 40
3.75
  9
$DIMRND
 40
0.0
  9
$DIMDLE
 40
0.0
  9
$DIMEXE
 40
1.0
  9
$DIMTP
 40
0.0
  9
$DIMTM
 40
0.0
  9
$DIMTXT
 40
3.5
  9
$DIMCEN
 40
2.5
  9
$DIMTSZ
 40
0.0
  9
$DIMTOL
 70
     0
  9
$DIMLIM
 70
     0
  9
$DIMTIH
 70
     1
  9
$DIMTOH
 70
     1
  9
$DIMSE1
 70
     0
  9
$DIMSE2
 70
     0
  9
$DIMTAD
 70
     1
  9
$DIMZIN
 70
     0
  9
$DIMBLK
  1

  9
$DIMASO
 70
     1
  9
$DIMSHO
 70
     1
  9
$DIMPOST
  1

  9
$DIMAPOST
  1

  9
$DIMALT
 70
     0
  9
$DIMALTD
 70
     3
  9
$DIMALTF
 40
0.0393700787401575
  9
$DIMLFAC
 40
1.0
  9
$DIMTOFL
 70
     1
  9
$DIMTVP
 40
0.0
  9
$DIMTIX
 70
     0
  9
$DIMSOXD
 70
     0
  9
$DIMSAH
 70
     0
  9
$DIMBLK1
  1

  9
$DIMBLK2
  1

  9
$DIMSTYLE
  2
ISO-25
  9
$DIMCLRD
 70
     0
  9
$DIMCLRE
 70
     0
  9
$DIMCLRT
 70
     0
  9
$DIMTFAC
 40
1.0
  9
$DIMGAP
 40
1.524
  9
$DIMJUST
 70
     0
  9
$DIMSD1
 70
     0
  9
$DIMSD2
 70
     0
  9
$DIMTOLJ
 70
     0
  9
$DIMTZIN
 70
     0
  9
$DIMALTZ
 70
     0
  9
$DIMALTTZ
 70
     0
  9
$DIMUPT
 70
     0
  9
$DIMDEC
 70
     2
  9
$DIMTDEC
 70
     2
  9
$DIMALTU
 70
     2
  9
$DIMALTTD
 70
     3
  9
$DIMTXSTY
  7
Standard
  9
$DIMAUNIT
 70
     0
  9
$DIMADEC
 70
     2
  9
$DIMALTRND
 40
0.0
  9
$DIMAZIN
 70
     0
  9
$DIMDSEP
 70
    44
  9
$DIMATFIT
 70
     3
  9
$DIMFRAC
 70
     0
  9
$DIMLDRBLK
  1

  9
$DIMLUNIT
 70
     2
  9
$DIMLWD
 70
    -2
  9
$DIMLWE
 70
    -2
  9
$DIMTMOVE
 70
     0
  9
$LUNITS
 70
     2
  9
$LUPREC
 70
     2
  9
$SKETCHINC
 40
1.0
  9
$FILLETRAD
 40
10.0
  9
$AUNITS
 70
     0
  9
$AUPREC
 70
     2
  9
$MENU
  1
.
  9
$ELEVATION
 40
0.0
  9
$PELEVATION
 40
0.0
  9
$THICKNESS
 40
0.0
  9
$LIMCHECK
 70
     0
  9
$CHAMFERA
 40
0.0
  9
$CHAMFERB
 40
0.0
  9
$CHAMFERC
 40
0.0
  9
$CHAMFERD
 40
0.0
  9
$SKPOLY
 70
     0
  9
$TDCREATE
 40
2458250.492947673
  9
$TDUCREATE
 40
2458250.117947673
  9
$TDUPDATE
 40
2459702.685290856
  9
$TDUUPDATE
 40
2459702.310290856
  9
$TDINDWG
 40
0.0028308681
  9
$TDUSRTIMER
 40
0.0016464236
  9
$USRTIMER
 70
     1
  9
$ANGBASE
 50
0.0
  9
$ANGDIR
 70
     0
  9
$PDMODE
 70
     0
  9
$PDSIZE
 40
-1.0
  9
$PLINEWID
 40
0.0
  9
$SPLFRAME
 70
     0
  9
$SPLINETYPE
 70
     6
  9
$SPLINESEGS
 70
     8
  9
$HANDSEED
  5
176
  9
$SURFTAB1
 70
     6
  9
$SURFTAB2
 70
     6
  9
$SURFTYPE
 70
     6
  9
$SURFU
 70
     6
  9
$SURFV
 70
     6
  9
$UCSBASE
  2

  9
$UCSNAME
  2

  9
$UCSORG
 10
0.0
 20
0.0
 30
0.0
  9
$UCSXDIR
 10
1.0
 20
0.0
 30
0.0
  9
$UCSYDIR
 10
0.0
 20
1.0
 30
0.0
  9
$UCSORTHOREF
  2

  9
$UCSORTHOVIEW
 70
     0
  9
$UCSORGTOP
 10
0.0
 20
0.0
 30
0.0
  9
$UCSORGBOTTOM
 10
0.0
 20
0.0
 30
0.0
  9
$UCSORGLEFT
 10
0.0
 20
0.0
 30
0.0
  9
$UCSORGRIGHT
 10
0.0
 20
0.0
 30
0.0
  9
$UCSORGFRONT
 10
0.0
 20
0.0
 30
0.0
  9
$UCSORGBACK
 10
0.0
 20
0.0
 30
0.0
  9
$PUCSBASE
  2

  9
$PUCSNAME
  2

  9
$PUCSORG
 10
0.0
 20
0.0
 30
0.0
  9
$PUCSXDIR
 10
1.0
 20
0.0
 30
0.0
  9
$PUCSYDIR
 10
0.0
 20
1.0
 30
0.0
  9
$PUCSORTHOREF
  2

  9
$PUCSORTHOVIEW
 70
     0
  9
$PUCSORGTOP
 10
0.0
 20
0.0
 30
0.0
  9
$PUCSORGBOTTOM
 10
0.0
 20
0.0
 30
0.0
  9
$PUCSORGLEFT
 10
0.0
 20
0.0
 30
0.0
  9
$PUCSORGRIGHT
 10
0.0
 20
0.0
 30
0.0
  9
$PUCSORGFRONT
 10
0.0
 20
0.0
 30
0.0
  9
$PUCSORGBACK
 10
0.0
 20
0.0
 30
0.0
  9
$USERI1
 70
     0
  9
$USERI2
 70
     0
  9
$USERI3
 70
     0
  9
$USERI4
 70
     0
  9
$USERI5
 70
     0
  9
$USERR1
 40
0.0
  9
$USERR2
 40
0.0
  9
$USERR3
 40
0.0
  9
$USERR4
 40
0.0
  9
$USERR5
 40
0.0
  9
$WORLDVIEW
 70
     1
  9
$SHADEDGE
 70
     3
  9
$SHADEDIF
 70
    70
  9
$TILEMODE
 70
     1
  9
$MAXACTVP
 70
    64
  9
$PINSBASE
 10
0.0
 20
0.0
 30
0.0
  9
$PLIMCHECK
 70
     0
  9
$PEXTMIN
 10
1.000000000000000E+20
 20
1.000000000000000E+20
 30
1.000000000000000E+20
  9
$PEXTMAX
 10
-1.000000000000000E+20
 20
-1.000000000000000E+20
 30
-1.000000000000000E+20
  9
$PLIMMIN
 10
0.0
 20
0.0
  9
$PLIMMAX
 10
0.0
 20
0.0
  9
$UNITMODE
 70
     0
  9
$VISRETAIN
 70
     1
  9
$PLINEGEN
 70
     0
  9
$PSLTSCALE
 70
     1
  9
$TREEDEPTH
 70
  3020
  9
$CMLSTYLE
  2
Standard
  9
$CMLJUST
 70
     0
  9
$CMLSCALE
 40
20.0
  9
$PROXYGRAPHICS
 70
     1
  9
$MEASUREMENT
 70
     1
  9
$CELWEIGHT
370
    -1
  9
$ENDCAPS
280
     0
  9
$JOINSTYLE
280
     0
  9
$LWDISPLAY
290
     1
  9
$INSUNITS
 70
     4
  9
$HYPERLINKBASE
  1

  9
$STYLESHEET
  1

  9
$XEDIT
290
     1
  9
$CEPSNTYPE
380
     0
  9
$PSTYLEMODE
290
     1
  9
$FINGERPRINTGUID
  2
{98D54105-C6C4-4E06-98AC-DBD3715BB99C}
  9
$VERSIONGUID
  2
{FAEB1C32-E019-11D5-929B-00C0DF256EC4}
  9
$EXTNAMES
290
     1
  9
$PSVPSCALE
 40
0.0
  9
$OLESTARTUP
290
     0
  0
ENDSEC
  0
SECTION
  2
CLASSES
  0
CLASS
  1
ACDBDICTIONARYWDFLT
  2
AcDbDictionaryWithDefault
  3
ObjectDBX Classes
 90
        0
280
     0
281
     0
  0
CLASS
  1
VISUALSTYLE
  2
AcDbVisualStyle
  3
ObjectDBX Classes
 90
     4095
280
     0
281
     0
  0
CLASS
  1
MATERIAL
  2
AcDbMaterial
  3
ObjectDBX Classes
 90
     1153
280
     0
281
     0
  0
CLASS
  1
SCALE
  2
AcDbScale
  3
ObjectDBX Classes
 90
     1153
280
     0
281
     0
  0
CLASS
  1
SUN
  2
AcDbSun
  3
SCENEOE
 90
     1153
280
     0
281
     0
  0
CLASS
  1
ACDBPLACEHOLDER
  2
AcDbPlaceHolder
  3
ObjectDBX Classes
 90
        0
280
     0
281
     0
  0
CLASS
  1
LAYOUT
  2
AcDbLayout
  3
ObjectDBX Classes
 90
        0
280
     0
281
     0
  0
CLASS
  1
TABLESTYLE
  2
AcDbTableStyle
  3
ObjectDBX Classes
 90
     4095
280
     0
281
     0
  0
CLASS
  1
MLEADERSTYLE
  2
AcDbMLeaderStyle
  3
ACDB_MLEADERSTYLE_CLASS
 90
     4095
280
     0
281
     0
  0
CLASS
  1
DIMASSOC
  2
AcDbDimAssoc
  3
"AcDbDimAssoc|Product Desc:     AcDim ARX App For Dimension|Company:          Autodesk, Inc.|WEB Address:      www.autodesk.com"
 90
        0
280
     0
281
     0
  0
CLASS
  1
BREAKDATA
  2
AcDbBreakData
  3
ObjectDBX Classes
 90
     1024
280
     0
281
     0
  0
ENDSEC
  0
SECTION
  2
TABLES
  0
TABLE
  2
VPORT
  5
8
330
0
100
AcDbSymbolTable
 70
     1
  0
VPORT
  5
29
330
8
100
AcDbSymbolTableRecord
100
AcDbViewportTableRecord
  2
*Active
 70
     0
 10
0.0
 20
0.0
 11
1.0
 21
1.0
 12
-19.49877059170177
 22
34.47655542027371
 13
0.0
 23
0.0
 14
10.0
 24
10.0
 15
10.0
 25
10.0
 16
0.0
 26
0.0
 36
1.0
 17
0.0
 27
0.0
 37
0.0
 40
122.7150918139526
 41
1.531481481481481
 42
50.0
 43
0.0
 44
0.0
 50
0.0
 51
0.0
 71
    16
 72
  2000
 73
     1
 74
     3
 75
     0
 76
     0
 77
     0
 78
     0
281
     0
 65
     1
110
0.0
120
0.0
130
0.0
111
1.0
121
0.0
131
0.0
112
0.0
122
1.0
132
0.0
 79
     0
146
0.0
  0
ENDTAB
  0
TABLE
  2
LTYPE
  5
5
330
0
100
AcDbSymbolTable
 70
     6
  0
LTYPE
  5
14
330
5
100
AcDbSymbolTableRecord
100
AcDbLinetypeTableRecord
  2
ByBlock
 70
     0
  3

 72
    65
 73
     0
 40
0.0
  0
LTYPE
  5
15
330
5
100
AcDbSymbolTableRecord
100
AcDbLinetypeTableRecord
  2
ByLayer
 70
     0
  3

 72
    65
 73
     0
 40
0.0
  0
LTYPE
  5
16
330
5
100
AcDbSymbolTableRecord
100
AcDbLinetypeTableRecord
  2
Continuous
 70
     0
  3
Solid line
 72
    65
 73
     0
 40
0.0
  0
LTYPE
  5
6A
330
5
100
AcDbSymbolTableRecord
100
AcDbLinetypeTableRecord
  2
HIDDEN
 70
     0
  3
Hidden __ __ __ __ __ __ __ __ __ __ __ __ __ __
 72
    65
 73
     2
 40
1.905
 49
1.27
 74
     0
 49
-0.635
 74
     0
  0
LTYPE
  5
6B
330
5
100
AcDbSymbolTableRecord
100
AcDbLinetypeTableRecord
  2
PHANTOM
 70
     0
  3
Phantom ______  __  __  ______  __  __  ______
 72
    65
 73
     6
 40
12.7
 49
6.35
 74
     0
 49
-1.27
 74
     0
 49
1.27
 74
     0
 49
-1.27
 74
     0
 49
1.27
 74
     0
 49
-1.27
 74
     0
  0
LTYPE
  5
6C
330
5
100
AcDbSymbolTableRecord
100
AcDbLinetypeTableRecord
  2
CENTER
 70
     0
  3
Center ____ _ ____ _ ____ _ ____ _ ____ _ ____
 72
    65
 73
     4
 40
10.16
 49
6.35
 74
     0
 49
-1.27
 74
     0
 49
1.27
 74
     0
 49
-1.27
 74
     0
  0
LTYPE
  5
6D
330
5
100
AcDbSymbolTableRecord
100
AcDbLinetypeTableRecord
  2
CENTERX2
 70
     0
  3
Center (2x) ________  __  ________  __  _____
 72
    65
 73
     4
 40
20.32
 49
12.7
 74
     0
 49
-2.54
 74
     0
 49
2.54
 74
     0
 49
-2.54
 74
     0
  0
LTYPE
  5
6E
330
5
100
AcDbSymbolTableRecord
100
AcDbLinetypeTableRecord
  2
DOT2
 70
     0
  3
Dot (.5x) ........................................
 72
    65
 73
     2
 40
0.635
 49
0.0
 74
     0
 49
-0.635
 74
     0
  0
ENDTAB
  0
TABLE
  2
LAYER
  5
2
330
0
100
AcDbSymbolTable
 70
    17
  0
LAYER
  5
10
330
2
100
AcDbSymbolTableRecord
100
AcDbLayerTableRecord
  2
0
 70
     0
 62
     7
  6
Continuous
370
    -3
390
F
  0
LAYER
  5
6F
330
2
100
AcDbSymbolTableRecord
100
AcDbLayerTableRecord
  2
FORMAT
 70
     0
 62
     2
  6
Continuous
370
    -3
390
F
  0
LAYER
  5
70
330
2
100
AcDbSymbolTableRecord
100
AcDbLayerTableRecord
  2
외형선
 70
     0
 62
   100
  6
Continuous
370
    30
390
F
  0
LAYER
  5
71
330
2
100
AcDbSymbolTableRecord
100
AcDbLayerTableRecord
  2
숨은선
 70
     0
 62
     2
  6
HIDDEN
370
    15
390
F
  0
LAYER
  5
72
330
2
100
AcDbSymbolTableRecord
100
AcDbLayerTableRecord
  2
중심선
 70
     0
 62
     1
  6
CENTERX2
370
    -3
390
F
  0
LAYER
  5
73
330
2
100
AcDbSymbolTableRecord
100
AcDbLayerTableRecord
  2
파단선
 70
     0
 62
     4
  6
Continuous
370
    -3
390
F
  0
LAYER
  5
74
330
2
100
AcDbSymbolTableRecord
100
AcDbLayerTableRecord
  2
해칭선
 70
     0
 62
     4
  6
Continuous
370
    -3
390
F
  0
LAYER
  5
75
330
2
100
AcDbSymbolTableRecord
100
AcDbLayerTableRecord
  2
가는실선
 70
     0
 62
     4
  6
Continuous
370
    -3
390
F
  0
LAYER
  5
76
330
2
100
AcDbSymbolTableRecord
100
AcDbLayerTableRecord
  2
치수_보조선
 70
     0
 62
     4
  6
Continuous
370
    -3
390
F
  0
LAYER
  5
77
330
2
100
AcDbSymbolTableRecord
100
AcDbLayerTableRecord
  2
치수문자_일반주서
 70
     0
 62
     7
  6
Continuous
370
    15
390
F
  0
LAYER
  5
78
330
2
100
AcDbSymbolTableRecord
100
AcDbLayerTableRecord
  2
개별주서
 70
     0
 62
   100
  6
Continuous
370
    30
390
F
  0
LAYER
  5
79
330
2
100
AcDbSymbolTableRecord
100
AcDbLayerTableRecord
  2
중간선
 70
     0
 62
     2
  6
Continuous
370
    15
390
F
  0
LAYER
  5
7A
330
2
100
AcDbSymbolTableRecord
100
AcDbLayerTableRecord
  2
윤곽선
 70
     0
 62
     3
  6
Continuous
370
    40
390
F
  0
LAYER
  5
7B
330
2
100
AcDbSymbolTableRecord
100
AcDbLayerTableRecord
  2
중심마크
 70
     0
 62
   100
  6
Continuous
370
    30
390
F
  0
LAYER
  5
7C
330
2
100
AcDbSymbolTableRecord
100
AcDbLayerTableRecord
  2
가상선
 70
     0
 62
     4
  6
PHANTOM
370
    -3
390
F
  0
LAYER
  5
7D
330
2
100
AcDbSymbolTableRecord
100
AcDbLayerTableRecord
  2
특수지정선
 70
     0
 62
     5
  6
CENTERX2
370
    60
390
F
  0
LAYER
  5
129
330
2
100
AcDbSymbolTableRecord
100
AcDbLayerTableRecord
  2
Defpoints
 70
     0
 62
     7
  6
Continuous
290
     0
370
    -3
390
F
  0
ENDTAB
  0
TABLE
  2
STYLE
  5
3
330
0
100
AcDbSymbolTable
 70
     2
  0
STYLE
  5
11
330
3
100
AcDbSymbolTableRecord
100
AcDbTextStyleTableRecord
  2
Standard
 70
     0
 40
0.0
 41
1.0
 50
0.0
 71
     0
 42
3.5
  3
txt
  4

  0
STYLE
  5
93
330
3
100
AcDbSymbolTableRecord
100
AcDbTextStyleTableRecord
  2
SLDTEXTSTYLE0
 70
     0
 40
0.0
 41
0.75
 50
0.0
 71
     0
 42
3.5
  3
TXT
  4

  0
ENDTAB
  0
TABLE
  2
VIEW
  5
6
330
0
100
AcDbSymbolTable
 70
     0
  0
ENDTAB
  0
TABLE
  2
UCS
  5
7
330
0
100
AcDbSymbolTable
 70
     0
  0
ENDTAB
  0
TABLE
  2
APPID
  5
9
330
0
100
AcDbSymbolTable
 70
     3
  0
APPID
  5
12
330
9
100
AcDbSymbolTableRecord
100
AcDbRegAppTableRecord
  2
ACAD
 70
     0
  0
APPID
  5
128
330
9
100
AcDbSymbolTableRecord
100
AcDbRegAppTableRecord
  2
PE_URL
 70
     0
  0
APPID
  5
170
330
9
100
AcDbSymbolTableRecord
100
AcDbRegAppTableRecord
  2
ENABLE_CUSTOM_SPLIT
 70
     0
  0
ENDTAB
  0
TABLE
  2
DIMSTYLE
  5
A
330
0
100
AcDbSymbolTable
 70
     3
100
AcDbDimStyleTable
  0
DIMSTYLE
105
27
330
A
100
AcDbSymbolTableRecord
100
AcDbDimStyleTableRecord
  2
ISO-25
 70
     0
 41
2.5
 42
0.625
 43
3.75
 44
1.25
 73
     0
 74
     0
 77
     1
 78
     8
140
2.5
141
2.5
143
0.03937007874016
147
0.625
171
     3
172
     1
178
     0
271
     2
272
     2
274
     3
278
    44
283
     0
284
     8
340
11
  0
DIMSTYLE
105
D0
102
{ACAD_REACTORS
330
CF
330
DA
330
15F
102
}
330
A
100
AcDbSymbolTableRecord
100
AcDbDimStyleTableRecord
  2
SLDDIMSTYLE0
 70
     0
 41
3.302
 44
0.0
 45
0.000000001
 73
     0
 74
     0
 77
     1
 78
    12
 79
     3
140
3.5
147
0.875
173
     1
178
     0
271
     2
272
     2
276
     2
284
    12
340
93
  0
DIMSTYLE
105
E5
102
{ACAD_REACTORS
330
E4
330
F2
102
}
330
A
100
AcDbSymbolTableRecord
100
AcDbDimStyleTableRecord
  2
SLDDIMSTYLE1
 70
     0
 41
3.302
 44
0.0
 45
0.000000001
 73
     0
 74
     0
 77
     1
 78
    12
 79
     3
140
3.5
147
0.875
172
     1
173
     1
178
     0
271
     2
272
     2
276
     2
284
    12
289
     0
340
93
  0
ENDTAB
  0
TABLE
  2
BLOCK_RECORD
  5
1
330
0
100
AcDbSymbolTable
 70
     8
  0
BLOCK_RECORD
  5
1F
102
{ACAD_XDICTIONARY
360
173
102
}
330
1
100
AcDbSymbolTableRecord
100
AcDbBlockTableRecord
  2
*Model_Space
340
22
  0
BLOCK_RECORD
  5
1B
330
1
100
AcDbSymbolTableRecord
100
AcDbBlockTableRecord
  2
*Paper_Space
340
1E
  0
BLOCK_RECORD
  5
23
330
1
100
AcDbSymbolTableRecord
100
AcDbBlockTableRecord
  2
*Paper_Space0
340
26
  0
BLOCK_RECORD
  5
7E
330
1
100
AcDbSymbolTableRecord
100
AcDbBlockTableRecord
  2
블럭10
340
0
102
{BLKREFS
331
C8
102
}
  0
BLOCK_RECORD
  5
D1
330
1
100
AcDbSymbolTableRecord
100
AcDbBlockTableRecord
  2
_D
340
0
  0
BLOCK_RECORD
  5
DB
330
1
100
AcDbSymbolTableRecord
100
AcDbBlockTableRecord
  2
_D_1
340
0
  0
BLOCK_RECORD
  5
E6
330
1
100
AcDbSymbolTableRecord
100
AcDbBlockTableRecord
  2
_D_2
340
0
  0
BLOCK_RECORD
  5
F3
330
1
100
AcDbSymbolTableRecord
100
AcDbBlockTableRecord
  2
_D_3
340
0
  0
BLOCK_RECORD
  5
FF
330
1
100
AcDbSymbolTableRecord
100
AcDbBlockTableRecord
  2
SW_DOWELSYMBOL_0
340
0
102
{BLKREFS
331
105
102
}
  0
BLOCK_RECORD
  5
162
330
1
100
AcDbSymbolTableRecord
100
AcDbBlockTableRecord
  2
*D7
340
0
  0
ENDTAB
  0
ENDSEC
  0
SECTION
  2
BLOCKS
  0
BLOCK
  5
20
330
1F
100
AcDbEntity
  8
0
100
AcDbBlockBegin
  2
*Model_Space
 70
     0
 10
0.0
 20
0.0
 30
0.0
  3
*Model_Space
  1

  0
ENDBLK
  5
21
330
1F
100
AcDbEntity
  8
0
100
AcDbBlockEnd
  0
BLOCK
  5
1C
330
1B
100
AcDbEntity
 67
     1
  8
0
100
AcDbBlockBegin
  2
*Paper_Space
 70
     0
 10
0.0
 20
0.0
 30
0.0
  3
*Paper_Space
  1

  0
ENDBLK
  5
1D
330
1B
100
AcDbEntity
 67
     1
  8
0
100
AcDbBlockEnd
  0
BLOCK
  5
24
330
23
100
AcDbEntity
  8
0
100
AcDbBlockBegin
  2
*Paper_Space0
 70
     0
 10
0.0
 20
0.0
 30
0.0
  3
*Paper_Space0
  1

  0
ENDBLK
  5
25
330
23
100
AcDbEntity
  8
0
100
AcDbBlockEnd
  0
BLOCK
  5
7F
330
7E
100
AcDbEntity
  8
0
100
AcDbBlockBegin
  2
블럭10
 70
     2
 10
0.0
 20
0.0
 30
0.0
  3
블럭10
  1

  0
ELLIPSE
  5
81
330
7E
100
AcDbEntity
  8
중심선
100
AcDbEllipse
 10
20.54032771741204
 20
12.0471743016438
 30
0.0
 11
6.600054785286829
 21
-1.261213355974178E-13
 31
0.0
210
0.0
220
0.0
230
1.0
 40
0.636358354079598
 41
0.9219305317359503
 42
6.513795318482858
  0
ELLIPSE
  5
82
330
7E
100
AcDbEntity
  8
중심선
100
AcDbEllipse
 10
20.54032771746488
 20
12.04717430159265
 30
0.0
 11
3.960054785062283
 21
1.540847449632565E-10
 31
0.0
210
0.0
220
0.0
230
1.0
 40
0.3939339440162632
 41
1.131841032648279
 42
5.62031148352944
  0
LINE
  5
83
330
7E
100
AcDbEntity
  8
중심선
100
AcDbLine
 10
2.268634060543552
 20
16.24717430164393
 30
0.0
 11
5.714909304380834
 21
16.24717430164393
 31
0.0
  0
LINE
  5
84
330
7E
100
AcDbEntity
  8
중심선
100
AcDbLine
 10
5.245725140726316
 20
7.84717430164391
 30
0.0
 11
8.692000384563599
 21
7.84717430164391
 31
0.0
  0
LINE
  5
85
330
7E
100
AcDbEntity
  8
중심선
100
AcDbLine
 10
15.74043728645272
 20
16.24717430164393
 30
0.0
 11
8.692000384563599
 21
7.84717430164391
 31
0.0
  0
LINE
  5
86
330
7E
100
AcDbEntity
  8
중심선
100
AcDbLine
 10
0.1404042013395286
 20
13.71084872107135
 30
0.0
 11
3.58671253028996
 21
13.71088815037384
 31
0.0
  0
LINE
  5
87
330
7E
100
AcDbEntity
  8
중심선
100
AcDbLine
 10
2.750260043222114
 20
10.84717430164391
 30
0.0
 11
6.196535287059397
 21
10.84717430164391
 31
0.0
  0
LINE
  5
88
330
7E
100
AcDbEntity
  8
중심선
100
AcDbLine
 10
12.29416204261559
 20
16.24717430164393
 30
0.0
 11
5.245725140726316
 21
7.84717430164391
 31
0.0
  0
LINE
  5
89
330
7E
100
AcDbEntity
  8
중심선
100
AcDbLine
 10
10.72767329541681
 20
16.24717430164393
 30
0.0
 11
6.196535287059397
 21
10.84717430164391
 31
0.0
  0
LINE
  5
8A
330
7E
100
AcDbEntity
  8
중심선
100
AcDbLine
 10
7.28139805157953
 20
16.24717430164393
 30
0.0
 11
2.750260043222114
 21
10.84717430164391
 31
0.0
  0
LINE
  5
8B
330
7E
100
AcDbEntity
  8
중심선
100
AcDbLine
 10
5.714909304380834
 20
16.24717430164393
 30
0.0
 11
3.58671253028996
 21
13.71088815037384
 31
0.0
  0
LINE
  5
8C
330
7E
100
AcDbEntity
  8
중심선
100
AcDbLine
 10
2.268634060543552
 20
16.24717430164393
 30
0.0
 11
0.1404042013395286
 21
13.71084872107135
 31
0.0
  0
LINE
  5
8D
330
7E
100
AcDbEntity
  8
중심선
100
AcDbLine
 10
7.28139805157953
 20
16.24717430164393
 30
0.0
 11
10.72767329541681
 21
16.24717430164393
 31
0.0
  0
LINE
  5
8E
330
7E
100
AcDbEntity
  8
중심선
100
AcDbLine
 10
12.29416204261559
 20
16.24717430164393
 30
0.0
 11
15.74043728645272
 21
16.24717430164393
 31
0.0
  0
LINE
  5
8F
330
7E
100
AcDbEntity
  8
중심선
100
AcDbLine
 10
19.22036997980202
 20
11.08717430171403
 30
0.0
 11
23.66174974927406
 21
11.08717430171406
 31
0.0
  0
LINE
  5
90
330
7E
100
AcDbEntity
  8
중심선
100
AcDbLine
 10
19.22039502424796
 20
13.00717430171391
 30
0.0
 11
19.22036997980202
 21
11.08717430171403
 31
0.0
  0
LINE
  5
91
330
7E
100
AcDbEntity
  8
중심선
100
AcDbLine
 10
19.22039502424796
 20
13.00717430171391
 30
0.0
 11
26.96566020931264
 21
13.00717430171391
 31
0.0
  0
LINE
  5
92
330
7E
100
AcDbEntity
  8
중심선
100
AcDbLine
 10
22.22332737316547
 20
13.45928029700563
 30
0.0
 11
24.52862924686651
 21
15.39360700705356
 31
0.0
  0
ATTDEF
  5
94
330
7E
100
AcDbEntity
  8
FORMAT
 62
     2
100
AcDbText
 10
-12.95993919485777
 20
2.075366912832191
 30
0.0
 40
4.233333333333333
  1
SEME35100E [ 2 FLUTE ]
 41
0.75
  7
SLDTEXTSTYLE0
 11
-12.95993919485777
 21
-0.0412997538344756
 31
0.0
100
AcDbAttributeDefinition
  3

  2
AUTOATTR0
 70
     0
 74
     1
  0
ENDBLK
  5
80
330
7E
100
AcDbEntity
  8
0
100
AcDbBlockEnd
  0
BLOCK
  5
D2
330
D1
100
AcDbEntity
  8
0
100
AcDbBlockBegin
  2
_D
 70
     0
 10
0.0
 20
0.0
 30
0.0
  3
_D
  1

  0
LINE
  5
D4
330
D1
100
AcDbEntity
  8
치수문자_일반주서
 62
     0
370
    -2
100
AcDbLine
 10
36.15
 20
5.058274076148223
 30
0.0
 11
36.15
 21
10.39788703807411
 31
0.0
  0
LINE
  5
D5
330
D1
100
AcDbEntity
  8
치수문자_일반주서
 62
     0
370
    -2
100
AcDbLine
 10
11.15
 20
5.062500000000001
 30
0.0
 11
11.15
 21
10.39788703807411
 31
0.0
  0
LINE
  5
D6
330
D1
100
AcDbEntity
  8
치수문자_일반주서
 62
     0
370
    -2
100
AcDbLine
 10
32.848
 20
10.39788703807411
 30
0.0
 11
14.452
 21
10.39788703807411
 31
0.0
  0
SOLID
  5
D7
330
D1
100
AcDbEntity
  8
치수문자_일반주서
 62
     0
100
AcDbTrace
 10
32.848
 20
9.847553704740779
 30
0.0
 11
32.848
 21
10.94822037140744
 31
0.0
 12
36.15
 22
10.39788703807411
 32
0.0
 13
36.15
 23
10.39788703807411
 33
0.0
  0
SOLID
  5
D8
330
D1
100
AcDbEntity
  8
치수문자_일반주서
 62
     0
100
AcDbTrace
 10
14.452
 20
10.94822037140744
 30
0.0
 11
14.452
 21
9.847553704740779
 31
0.0
 12
11.15
 22
10.39788703807411
 32
0.0
 13
11.15
 23
10.39788703807411
 33
0.0
  0
MTEXT
  5
D9
330
D1
100
AcDbEntity
  8
치수문자_일반주서
 62
     0
100
AcDbMText
 10
23.93600890567673
 20
14.77288703807411
 30
0.0
 40
3.5
 41
0.0
 71
     2
 72
     1
  1
\A1;25
  7
SLDTEXTSTYLE0
 73
     1
 44
1.0
  0
POINT
  5
15C
330
D1
100
AcDbEntity
  8
Defpoints
 62
     0
100
AcDbPoint
 10
36.15
 20
4.995774076148223
 30
0.0
  0
POINT
  5
15D
330
D1
100
AcDbEntity
  8
Defpoints
 62
     0
100
AcDbPoint
 10
11.15
 20
5.000000000000001
 30
0.0
  0
POINT
  5
15E
330
D1
100
AcDbEntity
  8
Defpoints
 62
     0
100
AcDbPoint
 10
11.15
 20
10.39788703807411
 30
0.0
  0
ENDBLK
  5
D3
330
D1
100
AcDbEntity
  8
0
100
AcDbBlockEnd
  0
BLOCK
  5
DC
330
DB
100
AcDbEntity
  8
0
100
AcDbBlockBegin
  2
_D_1
 70
     0
 10
0.0
 20
0.0
 30
0.0
  3
_D_1
  1

  0
LINE
  5
DE
330
DB
100
AcDbEntity
  8
치수문자_일반주서
 62
     0
370
    -2
100
AcDbLine
 10
36.15000000000001
 20
5.058274076148223
 30
0.0
 11
36.15000000000001
 21
26.28415911661226
 31
0.0
  0
LINE
  5
DF
330
DB
100
AcDbEntity
  8
치수문자_일반주서
 62
     0
370
    -2
100
AcDbLine
 10
-38.84999999999999
 20
4.062499999999995
 30
0.0
 11
-38.84999999999998
 21
26.28415911661226
 31
0.0
  0
LINE
  5
E0
330
DB
100
AcDbEntity
  8
치수문자_일반주서
 62
     0
370
    -2
100
AcDbLine
 10
32.84800000000001
 20
26.28415911661226
 30
0.0
 11
-35.54799999999998
 21
26.28415911661226
 31
0.0
  0
SOLID
  5
E1
330
DB
100
AcDbEntity
  8
치수문자_일반주서
 62
     0
100
AcDbTrace
 10
32.84800000000001
 20
25.73382578327892
 30
0.0
 11
32.84800000000001
 21
26.83449244994559
 31
0.0
 12
36.15000000000001
 22
26.28415911661226
 32
0.0
 13
36.15000000000001
 23
26.28415911661226
 33
0.0
  0
SOLID
  5
E2
330
DB
100
AcDbEntity
  8
치수문자_일반주서
 62
     0
100
AcDbTrace
 10
-35.54799999999998
 20
26.83449244994559
 30
0.0
 11
-35.54799999999998
 21
25.73382578327892
 31
0.0
 12
-38.84999999999998
 22
26.28415911661226
 32
0.0
 13
-38.84999999999998
 23
26.28415911661226
 33
0.0
  0
MTEXT
  5
E3
330
DB
100
AcDbEntity
  8
치수문자_일반주서
 62
     0
100
AcDbMText
 10
-1.349999999999985
 20
30.65915911661226
 30
0.0
 40
3.5
 41
0.0
 71
     2
 72
     1
  1
\A1;75
  7
SLDTEXTSTYLE0
 73
     1
 44
1.0
  0
POINT
  5
12A
330
DB
100
AcDbEntity
  8
Defpoints
 62
     0
100
AcDbPoint
 10
36.15000000000001
 20
4.995774076148223
 30
0.0
  0
POINT
  5
12B
330
DB
100
AcDbEntity
  8
Defpoints
 62
     0
100
AcDbPoint
 10
-38.84999999999999
 20
3.999999999999995
 30
0.0
  0
POINT
  5
12C
330
DB
100
AcDbEntity
  8
Defpoints
 62
     0
100
AcDbPoint
 10
-38.84999999999999
 20
26.28415911661226
 30
0.0
  0
ENDBLK
  5
DD
330
DB
100
AcDbEntity
  8
0
100
AcDbBlockEnd
  0
BLOCK
  5
E7
330
E6
100
AcDbEntity
  8
0
100
AcDbBlockBegin
  2
_D_2
 70
     0
 10
0.0
 20
0.0
 30
0.0
  3
_D_2
  1

  0
LINE
  5
E9
330
E6
100
AcDbEntity
  8
치수문자_일반주서
 62
     0
370
    -2
100
AcDbLine
 10
36.21250000000001
 20
5.000774076148223
 30
0.0
 11
51.71619031224626
 21
5.000774076148281
 31
0.0
  0
LINE
  5
EA
330
E6
100
AcDbEntity
  8
치수문자_일반주서
 62
     0
370
    -2
100
AcDbLine
 10
36.2125
 20
-4.995774076148219
 30
0.0
 11
51.7161903122463
 21
-4.995774076148161
 31
0.0
  0
LINE
  5
EB
330
E6
100
AcDbEntity
  8
치수문자_일반주서
 62
     0
370
    -2
100
AcDbLine
 10
51.71619031224628
 20
1.698774076148281
 30
0.0
 11
51.71619031224628
 21
-1.693774076148161
 31
0.0
  0
SOLID
  5
EC
330
E6
100
AcDbEntity
  8
치수문자_일반주서
 62
     0
100
AcDbTrace
 10
52.26652364557961
 20
1.698774076148283
 30
0.0
 11
51.16585697891294
 21
1.698774076148279
 31
0.0
 12
51.71619031224626
 22
5.000774076148281
 32
0.0
 13
51.71619031224626
 23
5.000774076148281
 33
0.0
  0
SOLID
  5
ED
330
E6
100
AcDbEntity
  8
치수문자_일반주서
 62
     0
100
AcDbTrace
 10
51.16585697891295
 20
-1.693774076148163
 30
0.0
 11
52.26652364557962
 21
-1.693774076148159
 31
0.0
 12
51.7161903122463
 22
-4.995774076148161
 32
0.0
 13
51.7161903122463
 23
-4.995774076148161
 33
0.0
  0
MTEXT
  5
EE
330
E6
100
AcDbEntity
  8
치수문자_일반주서
 62
     0
100
AcDbMText
 10
47.34119031224628
 20
-0.0000000000000142
 30
0.0
 40
3.5
 41
0.0
 71
     2
 72
     1
  1
\A1;%%c10
  7
SLDTEXTSTYLE0
 11
-3.553940444916838E-15
 21
1.0
 31
0.0
 73
     1
 44
1.0
  0
POINT
  5
EF
330
E6
100
AcDbEntity
  8
Defpoints
 62
     0
100
AcDbPoint
 10
36.15000000000001
 20
5.000774076148223
 30
0.0
  0
POINT
  5
F0
330
E6
100
AcDbEntity
  8
Defpoints
 62
     0
100
AcDbPoint
 10
36.15
 20
-4.995774076148219
 30
0.0
  0
POINT
  5
F1
330
E6
100
AcDbEntity
  8
Defpoints
 62
     0
100
AcDbPoint
 10
51.7161903122463
 20
-4.995774076148161
 30
0.0
  0
ENDBLK
  5
E8
330
E6
100
AcDbEntity
  8
0
100
AcDbBlockEnd
  0
BLOCK
  5
F4
330
F3
100
AcDbEntity
  8
0
100
AcDbBlockBegin
  2
_D_3
 70
     0
 10
0.0
 20
0.0
 30
0.0
  3
_D_3
  1

  0
LINE
  5
F6
330
F3
100
AcDbEntity
  8
치수문자_일반주서
 62
     0
370
    -2
100
AcDbLine
 10
-37.91249999999999
 20
4.999999999999997
 30
0.0
 11
-50.26955944538855
 21
4.999999999999951
 31
0.0
  0
LINE
  5
F7
330
F3
100
AcDbEntity
  8
치수문자_일반주서
 62
     0
370
    -2
100
AcDbLine
 10
-37.91249999999999
 20
-5.000000000000003
 30
0.0
 11
-50.26955944538852
 21
-5.000000000000049
 31
0.0
  0
LINE
  5
F8
330
F3
100
AcDbEntity
  8
치수문자_일반주서
 62
     0
370
    -2
100
AcDbLine
 10
-50.26955944538854
 20
1.697999999999951
 30
0.0
 11
-50.26955944538853
 21
-1.698000000000049
 31
0.0
  0
SOLID
  5
F9
330
F3
100
AcDbEntity
  8
치수문자_일반주서
 62
     0
100
AcDbTrace
 10
-49.7192261120552
 20
1.697999999999953
 30
0.0
 11
-50.81989277872187
 21
1.697999999999949
 31
0.0
 12
-50.26955944538855
 22
4.999999999999951
 32
0.0
 13
-50.26955944538855
 23
4.999999999999951
 33
0.0
  0
SOLID
  5
FA
330
F3
100
AcDbEntity
  8
치수문자_일반주서
 62
     0
100
AcDbTrace
 10
-50.81989277872187
 20
-1.698000000000051
 30
0.0
 11
-49.7192261120552
 21
-1.698000000000047
 31
0.0
 12
-50.26955944538852
 22
-5.000000000000049
 32
0.0
 13
-50.26955944538852
 23
-5.000000000000049
 33
0.0
  0
MTEXT
  5
FB
330
F3
100
AcDbEntity
  8
치수문자_일반주서
 62
     0
100
AcDbMText
 10
-54.64455944538854
 20
-0.0000000000000155
 30
0.0
 40
3.5
 41
0.0
 71
     2
 72
     1
  1
\A1;%%c10
  7
SLDTEXTSTYLE0
 11
-3.552713678800501E-15
 21
1.0
 31
0.0
 73
     1
 44
1.0
  0
POINT
  5
FC
330
F3
100
AcDbEntity
  8
Defpoints
 62
     0
100
AcDbPoint
 10
-37.84999999999999
 20
4.999999999999997
 30
0.0
  0
POINT
  5
FD
330
F3
100
AcDbEntity
  8
Defpoints
 62
     0
100
AcDbPoint
 10
-37.84999999999999
 20
-5.000000000000003
 30
0.0
  0
POINT
  5
FE
330
F3
100
AcDbEntity
  8
Defpoints
 62
     0
100
AcDbPoint
 10
-50.26955944538854
 20
-5.000000000000049
 30
0.0
  0
ENDBLK
  5
F5
330
F3
100
AcDbEntity
  8
0
100
AcDbBlockEnd
  0
BLOCK
  5
100
330
FF
100
AcDbEntity
  8
0
100
AcDbBlockBegin
  2
SW_DOWELSYMBOL_0
 70
     0
 10
0.0
 20
0.0
 30
0.0
  3
SW_DOWELSYMBOL_0
  1

  0
CIRCLE
  5
102
330
FF
100
AcDbEntity
  8
외형선
 62
     0
100
AcDbCircle
 10
0.0
 20
0.0
 30
0.0
 40
3.000000000000004
  0
HATCH
  5
103
330
FF
100
AcDbEntity
  8
0
  6
Continuous
 62
     0
370
    30
100
AcDbHatch
 10
0.0
 20
0.0
 30
0.0
210
0.0
220
0.0
230
1.0
  2
SOLID
 70
     1
 71
     0
 91
        1
 92
        0
 93
        3
 72
     2
 10
0.0000000000000087
 20
-0.0000000000000035
 40
3.000000000000004
 50
0.0
 51
90.0
 73
     1
 72
     1
 10
0.0000000000000087
 20
3.000000000000001
 11
0.0000000000000087
 21
-0.0000000000000036
 72
     1
 10
0.0000000000000087
 20
-0.0000000000000035
 11
3.000000000000013
 21
-0.0000000000000035
 97
        0
 75
     0
 76
     1
 98
        1
 10
0.0
 20
0.0
  0
HATCH
  5
104
330
FF
100
AcDbEntity
  8
0
  6
Continuous
 62
     0
370
    30
100
AcDbHatch
 10
0.0
 20
0.0
 30
0.0
210
0.0
220
0.0
230
1.0
  2
SOLID
 70
     1
 71
     0
 91
        1
 92
        0
 93
        3
 72
     2
 10
0.0000000000000087
 20
-0.0000000000000035
 40
3.000000000000004
 50
180.0
 51
270.0000000000007
 73
     1
 72
     1
 10
0.0000000000000087
 20
-3.000000000000008
 11
0.0000000000000087
 21
-0.0000000000000036
 72
     1
 10
0.0000000000000087
 20
-0.0000000000000035
 11
-2.999999999999996
 21
-0.0000000000000035
 97
        0
 75
     0
 76
     1
 98
        1
 10
0.0
 20
0.0
  0
ENDBLK
  5
101
330
FF
100
AcDbEntity
  8
0
100
AcDbBlockEnd
  0
BLOCK
  5
163
330
162
100
AcDbEntity
  8
0
100
AcDbBlockBegin
  2
*D7
 70
     1
 10
0.0
 20
0.0
 30
0.0
  3
*D7
  1

  0
LINE
  5
165
330
162
100
AcDbEntity
  8
치수문자_일반주서
 62
     0
370
    -2
100
AcDbLine
 10
36.14999999999973
 20
5.058274076148212
 30
0.0
 11
36.14999999999973
 21
18.4
 31
0.0
  0
LINE
  5
166
330
162
100
AcDbEntity
  8
치수문자_일반주서
 62
     0
370
    -2
100
AcDbLine
 10
0.1499999999999977
 20
4.912499999999996
 30
0.0
 11
0.1499999999999977
 21
18.4
 31
0.0
  0
LINE
  5
167
330
162
100
AcDbEntity
  8
치수문자_일반주서
 62
     0
370
    -2
100
AcDbLine
 10
32.84799999999973
 20
18.4
 30
0.0
 11
3.451999999999998
 21
18.4
 31
0.0
  0
SOLID
  5
168
330
162
100
AcDbEntity
  8
치수문자_일반주서
 62
     0
100
AcDbTrace
 10
32.84799999999973
 20
17.84966666666666
 30
0.0
 11
32.84799999999973
 21
18.95033333333333
 31
0.0
 12
36.14999999999973
 22
18.4
 32
0.0
 13
36.14999999999973
 23
18.4
 33
0.0
  0
SOLID
  5
169
330
162
100
AcDbEntity
  8
치수문자_일반주서
 62
     0
100
AcDbTrace
 10
3.451999999999998
 20
18.95033333333333
 30
0.0
 11
3.451999999999998
 21
17.84966666666666
 31
0.0
 12
0.1499999999999977
 22
18.4
 32
0.0
 13
0.1499999999999977
 23
18.4
 33
0.0
  0
MTEXT
  5
16A
330
162
100
AcDbEntity
  8
치수문자_일반주서
 62
     0
100
AcDbMText
 10
18.14999999999986
 20
21.025
 30
0.0
 40
3.5
 41
0.0
 71
     5
 72
     1
  1
\A1;36
  7
SLDTEXTSTYLE0
 73
     1
 44
1.0
  0
POINT
  5
16B
330
162
100
AcDbEntity
  8
Defpoints
 62
     0
100
AcDbPoint
 10
36.14999999999973
 20
4.995774076148212
 30
0.0
  0
POINT
  5
16C
330
162
100
AcDbEntity
  8
Defpoints
 62
     0
100
AcDbPoint
 10
0.1499999999999977
 20
4.849999999999996
 30
0.0
  0
POINT
  5
16D
330
162
100
AcDbEntity
  8
Defpoints
 62
     0
100
AcDbPoint
 10
0.1499999999999977
 20
18.4
 30
0.0
  0
ENDBLK
  5
164
330
162
100
AcDbEntity
  8
0
100
AcDbBlockEnd
  0
ENDSEC
  0
SECTION
  2
ENTITIES
  0
LINE
  5
95
330
1F
100
AcDbEntity
  8
0
  6
Continuous
 62
     4
370
    15
100
AcDbLine
 10
-0.0000000000000062
 20
5.0
 30
0.0
 11
-37.84999999999999
 21
4.999999999999997
 31
0.0
  0
LINE
  5
96
330
1F
100
AcDbEntity
  8
0
  6
Continuous
 62
     4
370
    15
100
AcDbLine
 10
-37.84999999999999
 20
-5.000000000000003
 30
0.0
 11
0.0000000000000062
 21
-5.0
 31
0.0
  0
LINE
  5
97
330
1F
100
AcDbEntity
  8
0
  6
Continuous
 62
     4
370
    15
100
AcDbLine
 10
-37.84999999999999
 20
4.999999999999994
 30
0.0
 11
-38.84999999999999
 21
3.999999999999993
 31
0.0
  0
LINE
  5
98
330
1F
100
AcDbEntity
  8
0
  6
Continuous
 62
     4
370
    15
100
AcDbLine
 10
-38.84999999999999
 20
-3.999999999999998
 30
0.0
 11
-37.84999999999999
 21
-4.999999999999999
 31
0.0
  0
SPLINE
  5
99
330
1F
100
AcDbEntity
  8
0
  6
Continuous
 62
     1
370
    15
100
AcDbSpline
210
0.0
220
0.0
230
1.0
 70
     8
 71
     3
 72
     9
 73
     5
 74
     0
 42
0.000000001
 43
0.00000001
 40
0.0
 40
0.0
 40
0.0
 40
0.0
 40
0.525667464702358
 40
1.0
 40
1.0
 40
1.0
 40
1.0
 10
23.19546368447885
 20
1.281266340390794
 30
0.0
 10
22.95274214043055
 20
1.397273938764571
 30
0.0
 10
22.49100242788106
 20
1.617960220803088
 30
0.0
 10
22.02893096960976
 20
1.860109649647805
 30
0.0
 10
21.80975544331926
 20
1.974969002152596
 30
0.0
  0
LINE
  5
9A
330
1F
100
AcDbEntity
  8
0
  6
Continuous
 62
     1
370
    15
100
AcDbLine
 10
11.72180902334118
 20
4.980959522615588
 30
0.0
 11
11.15
 21
5.000000000000003
 31
0.0
1001
PE_URL
1000

  0
SPLINE
  5
9B
330
1F
100
AcDbEntity
  8
0
  6
Continuous
 62
     1
370
    15
100
AcDbSpline
210
0.0
220
0.0
230
1.0
 70
     8
 71
     3
 72
    20
 73
    16
 74
     0
 42
0.000000001
 43
0.00000001
 40
0.0
 40
0.0
 40
0.0
 40
0.0
 40
0.126101504087235
 40
0.2430831334262117
 40
0.3430486113897636
 40
0.4210486917871504
 40
0.4835850614064359
 40
0.5362722826138401
 40
0.5872215389132498
 40
0.659277993374033
 40
0.7431126703635209
 40
0.8103589129360182
 40
0.8659254071014357
 40
0.949278593283161
 40
1.0
 40
1.0
 40
1.0
 40
1.0
 10
21.54326052299277
 20
3.973193558569628
 30
0.0
 10
21.38259690050619
 20
3.964706057359942
 30
0.0
 10
21.07288912132994
 20
3.94834488542989
 30
0.0
 10
20.59643006138264
 20
3.930900002759925
 30
0.0
 10
20.19181161722636
 20
3.919418916367495
 30
0.0
 10
19.86324816031926
 20
3.912408116878532
 30
0.0
 10
19.60222914973735
 20
3.908441671957707
 30
0.0
 10
19.37820350805828
 20
3.906129252675882
 30
0.0
 10
19.14139980311312
 20
3.904725703921412
 30
0.0
 10
18.86047676935855
 20
3.904565224360714
 30
0.0
 10
18.557296017873
 20
3.906465742915106
 30
0.0
 10
18.27677339299234
 20
3.910031283930729
 30
0.0
 10
17.99748355895765
 20
3.915134538755483
 30
0.0
 10
17.74059095649276
 20
3.920985733405675
 30
0.0
 10
17.5589676768328
 20
3.92694632208118
 30
0.0
 10
17.49025825144713
 20
3.929201256710821
 30
0.0
  0
SPLINE
  5
9C
330
1F
100
AcDbEntity
  8
0
  6
Continuous
 62
     1
370
    15
100
AcDbSpline
210
0.0
220
0.0
230
1.0
 70
     8
 71
     3
 72
    30
 73
    26
 74
     0
 42
0.000000001
 43
0.00000001
 40
0.0
 40
0.0
 40
0.0
 40
0.0
 40
0.0755305921026796
 40
0.1328542842377216
 40
0.1782333641791429
 40
0.2159841949501755
 40
0.247722186402412
 40
0.2767448072521723
 40
0.3062450143374806
 40
0.3475142235180347
 40
0.3889974459981559
 40
0.4177270759476397
 40
0.4520159631103097
 40
0.4997215007588608
 40
0.5542219762804897
 40
0.5972976026987035
 40
0.6427489562556264
 40
0.6895695872586189
 40
0.7270159953686252
 40
0.756567721228636
 40
0.7865383395992405
 40
0.8229845886056406
 40
0.8695304504667539
 40
0.9273895928315633
 40
1.0
 40
1.0
 40
1.0
 40
1.0
 10
34.2916664654698
 20
3.419756201756909
 30
0.0
 10
34.07909115839872
 20
3.402294939479258
 30
0.0
 10
33.70518252771899
 20
3.371581510162686
 30
0.0
 10
33.17954391604928
 20
3.340275964834264
 30
0.0
 10
32.76147198520417
 20
3.32054936221775
 30
0.0
 10
32.42359837623432
 20
3.308038923637672
 30
0.0
 10
32.13743151347114
 20
3.299975471442925
 30
0.0
 10
31.87427195253947
 20
3.294635168247275
 30
0.0
 10
31.58320352137401
 20
3.290932046615558
 30
0.0
 10
31.25604089226682
 20
3.289744560114456
 30
0.0
 10
30.93109039741515
 20
3.292016372192604
 30
0.0
 10
30.62690359991016
 20
3.296879811337554
 30
0.0
 10
30.30141775340386
 20
3.30475381680091
 30
0.0
 10
29.89853829373997
 20
3.318699299065747
 30
0.0
 10
29.47089290368059
 20
3.339098400596679
 30
0.0
 10
29.06424709234127
 20
3.363734957310869
 30
0.0
 10
28.67327595142844
 20
3.391361319064475
 30
0.0
 10
28.29484017428019
 20
3.422610150187138
 30
0.0
 10
27.96307941938462
 20
3.453319875533646
 30
0.0
 10
27.68019650786636
 20
3.481701912957189
 30
0.0
 10
27.40127029778339
 20
3.511594210807488
 30
0.0
 10
27.06857313240388
 20
3.549830487168929
 30
0.0
 10
26.65023109868993
 20
3.601673047005289
 30
0.0
 10
26.12767288778626
 20
3.672740472658316
 30
0.0
 10
25.76144852851234
 20
3.72923345172918
 30
0.0
 10
25.5576331559828
 20
3.760673571106983
 30
0.0
  0
SPLINE
  5
9D
330
1F
100
AcDbEntity
  8
0
  6
Continuous
 62
     1
370
    15
100
AcDbSpline
210
0.0
220
0.0
230
1.0
 70
     8
 71
     3
 72
    29
 73
    25
 74
     0
 42
0.000000001
 43
0.00000001
 40
0.0
 40
0.0
 40
0.0
 40
0.0
 40
0.0691847072986858
 40
0.1318418992753359
 40
0.1855651646710694
 40
0.2282100705746652
 40
0.2626138909421317
 40
0.291207920341037
 40
0.3185156093997579
 40
0.3572541902581931
 40
0.4026484086784467
 40
0.4391318657705022
 40
0.4690372322776191
 40
0.5131607806472662
 40
0.5638201566405556
 40
0.6068733490303351
 40
0.6441794156644259
 40
0.6801555663701081
 40
0.7294968789200194
 40
0.7847367804166062
 40
0.8299682268830442
 40
0.86731031448228
 40
0.9222808321419224
 40
1.0
 40
1.0
 40
1.0
 40
1.0
 10
14.02364966964113
 20
-4.16069118112034
 30
0.0
 10
14.18836949466763
 20
-4.14429597075352
 30
0.0
 10
14.50226797639478
 20
-4.113052423470039
 30
0.0
 10
14.97804668031132
 20
-4.072515993046155
 30
0.0
 10
15.38158816490277
 20
-4.041281455099108
 30
0.0
 10
15.71223982984596
 20
-4.01783636879028
 30
0.0
 10
15.97679096399735
 20
-4.000619481976119
 30
0.0
 10
16.20323856024847
 20
-3.986930883011363
 30
0.0
 10
16.44051310225458
 20
-3.973578991548905
 30
0.0
 10
16.72033925491339
 20
-3.959202147120413
 30
0.0
 10
17.02323964499178
 20
-3.945624521839419
 30
0.0
 10
17.3039392168479
 20
-3.934886043957243
 30
0.0
 10
17.58132719420365
 20
-3.92572611183214
 30
0.0
 10
17.8942754203384
 20
-3.917219476517964
 30
0.0
 10
18.2401945434634
 20
-3.910401852172928
 30
0.0
 10
18.56902241339708
 20
-3.906363693461016
 30
0.0
 10
18.86090499447534
 20
-3.904661927287935
 30
0.0
 10
19.16856442697772
 20
-3.904686254668703
 30
0.0
 10
19.52121523552245
 20
-3.907114315992888
 30
0.0
 10
19.89724712024519
 20
-3.91283387696339
 30
0.0
 10
20.24396977919459
 20
-3.920868521700528
 30
0.0
 10
20.59135808210873
 20
-3.931263943682457
 30
0.0
 10
21.0169603704569
 20
-3.946902260944393
 30
0.0
 10
21.34885991083977
 20
-3.963482285775925
 30
0.0
 10
21.54326052299277
 20
-3.973193558569625
 30
0.0
  0
SPLINE
  5
9E
330
1F
100
AcDbEntity
  8
0
  6
Continuous
 62
     1
370
    15
100
AcDbSpline
210
0.0
220
0.0
230
1.0
 70
     8
 71
     3
 72
    17
 73
    13
 74
     0
 42
0.000000001
 43
0.00000001
 40
0.0
 40
0.0
 40
0.0
 40
0.0
 40
0.1696115659469286
 40
0.3047654663799165
 40
0.4134925321888089
 40
0.4986277849429662
 40
0.5686365304172066
 40
0.6376667795924201
 40
0.7251383166117973
 40
0.8345072191248947
 40
0.9406776091808843
 40
1.0
 40
1.0
 40
1.0
 40
1.0
 10
25.5576331559828
 20
-3.76067357110698
 30
0.0
 10
25.7614485219259
 20
-3.729233444984983
 30
0.0
 10
26.12767286936502
 20
-3.672740453795858
 30
0.0
 10
26.65023115076718
 20
-3.601673100329881
 30
0.0
 10
27.06857299202138
 20
-3.549830343424026
 30
0.0
 10
27.40127067023174
 20
-3.511594592176588
 30
0.0
 10
27.68019538775071
 20
-3.481700766012873
 30
0.0
 10
27.96308403053932
 20
-3.453324597133347
 30
0.0
 10
28.29481532268375
 20
-3.422584703352715
 30
0.0
 10
28.67339233354861
 20
-3.391480488734218
 30
0.0
 10
29.01283707559007
 20
-3.366996222506736
 30
0.0
 10
29.21564757508331
 20
-3.355098375848795
 30
0.0
 10
29.28834684117538
 20
-3.350833484621419
 30
0.0
  0
LINE
  5
A0
330
1F
100
AcDbEntity
  8
0
  6
Continuous
 62
     4
370
    15
100
AcDbLine
 10
11.15
 20
5.000000000000001
 30
0.0
 11
11.15
 21
4.886153281885018
 31
0.0
1001
PE_URL
1000

  0
LINE
  5
A3
330
1F
100
AcDbEntity
  8
0
  6
Continuous
 62
     4
370
    15
100
AcDbLine
 10
11.15
 20
-4.98910963540942
 30
0.0
 11
11.15
 21
-4.999999999999999
 31
0.0
1001
PE_URL
1000

  0
LINE
  5
A4
330
1F
100
AcDbEntity
  8
0
  6
Continuous
 62
     4
370
    15
100
AcDbLine
 10
-37.84999999999999
 20
4.999999999999994
 30
0.0
 11
-37.84999999999999
 21
-5.000000000000003
 31
0.0
  0
LINE
  5
A6
330
1F
100
AcDbEntity
  8
0
  6
Continuous
 62
     4
370
    15
100
AcDbLine
 10
-38.84999999999999
 20
3.999999999999995
 30
0.0
 11
-38.84999999999999
 21
-3.999999999999998
 31
0.0
  0
SPLINE
  5
A9
330
1F
100
AcDbEntity
  8
0
  6
Continuous
 62
     4
370
    15
100
AcDbSpline
210
0.0
220
0.0
230
1.0
 70
    24
 71
     3
 72
    14
 73
    10
 74
     0
 42
0.000000001
 43
0.00000001
 40
0.0
 40
0.0
 40
0.0
 40
0.0
 40
0.25
 40
0.25
 40
0.5
 40
0.5
 40
0.75
 40
0.75
 40
1.0
 40
1.0
 40
1.0
 40
1.0
 10
11.15
 20
-1.00867954573185
 30
0.0
 10
11.15
 20
-1.368087456507688
 30
0.0
 10
11.15
 20
-1.72117188181053
 30
0.0
 10
11.15
 20
-2.387209537993512
 30
0.0
 10
11.15
 20
-2.699939923777363
 30
0.0
 10
11.15
 20
-3.260522432309063
 30
0.0
 10
11.15
 20
-3.508212675845543
 30
0.0
 10
11.15
 20
-3.923247959403816
 30
0.0
 10
11.15
 20
-4.090567804085054
 30
0.0
 10
11.15
 20
-4.216136139287395
 30
0.0
1001
PE_URL
1000

  0
SPLINE
  5
AB
330
1F
100
AcDbEntity
  8
0
  6
Continuous
 62
     4
370
    15
100
AcDbSpline
210
0.0
220
0.0
230
1.0
 70
    24
 71
     3
 72
    14
 73
    10
 74
     0
 42
0.000000001
 43
0.00000001
 40
0.0
 40
0.0
 40
0.0
 40
0.0
 40
0.25
 40
0.25
 40
0.5
 40
0.5
 40
0.75
 40
0.75
 40
1.0
 40
1.0
 40
1.0
 40
1.0
 10
11.14999999999998
 20
3.386890427458609
 30
0.0
 10
11.14999999999998
 20
3.186510421603201
 30
0.0
 10
11.14999999999998
 20
2.93127788359621
 30
0.0
 10
11.14999999999998
 20
2.320287617220868
 30
0.0
 10
11.14999999999998
 20
1.96463143812763
 30
0.0
 10
11.14999999999998
 20
1.183411924729901
 30
0.0
 10
11.14999999999998
 20
0.7582648568435443
 30
0.0
 10
11.14999999999998
 20
-0.1175081487887955
 30
0.0
 10
11.14999999999998
 20
-0.5676606356153651
 30
0.0
 10
11.14999999999998
 20
-1.00867954573184
 30
0.0
1001
PE_URL
1000

  0
SPLINE
  5
AC
330
1F
100
AcDbEntity
  8
0
  6
Continuous
 62
     4
370
    15
100
AcDbSpline
210
0.0
220
0.0
230
1.0
 70
    24
 71
     3
 72
     8
 73
     4
 74
     0
 42
0.000000001
 43
0.00000001
 40
0.0
 40
0.0
 40
0.0
 40
0.0
 40
1.0
 40
1.0
 40
1.0
 40
1.0
 10
11.15
 20
-4.216136139287396
 30
0.0
 10
11.15
 20
-4.477870431234843
 30
0.0
 10
11.15
 20
-4.737202326635239
 30
0.0
 10
11.15
 20
-4.989109635397117
 30
0.0
1001
PE_URL
1000

  0
SPLINE
  5
AD
330
1F
100
AcDbEntity
  8
0
  6
Continuous
 62
     4
370
    15
100
AcDbSpline
210
0.0
220
0.0
230
1.0
 70
    24
 71
     3
 72
    10
 73
     6
 74
     0
 42
0.000000001
 43
0.00000001
 40
0.0
 40
0.0
 40
0.0
 40
0.0
 40
0.5
 40
0.5
 40
1.0
 40
1.0
 40
1.0
 40
1.0
 10
11.15
 20
4.886153281885014
 30
0.0
 10
11.15
 20
4.659995917212863
 30
0.0
 10
11.15
 20
4.403142916713865
 30
0.0
 10
11.15
 20
3.883974388573375
 30
0.0
 10
11.15
 20
3.623083926865791
 30
0.0
 10
11.15
 20
3.386890427458606
 30
0.0
1001
PE_URL
1000

  0
SPLINE
  5
AE
330
1F
100
AcDbEntity
  8
0
  6
Continuous
 62
     1
370
    15
100
AcDbSpline
210
0.0
220
0.0
230
1.0
 70
     8
 71
     3
 72
    23
 73
    19
 74
     0
 42
0.000000001
 43
0.00000001
 40
0.0
 40
0.0
 40
0.0
 40
0.0
 40
0.0642254430780486
 40
0.1283935125669221
 40
0.1925402646024364
 40
0.2567019431678826
 40
0.3209146606785492
 40
0.3840066503602598
 40
0.4470310771856923
 40
0.5100297501151645
 40
0.5730476348442302
 40
0.637408587532787
 40
0.7017786875982785
 40
0.7660902704765236
 40
0.8303780094384017
 40
0.8946771617044994
 40
0.9590228856828951
 40
1.0
 40
1.0
 40
1.0
 40
1.0
 10
36.15
 20
-4.744704346159496
 30
0.0
 10
35.62694249441675
 20
-4.634501947071892
 30
0.0
 10
34.58129473867122
 20
-4.414195594417162
 30
0.0
 10
33.01363321110642
 20
-3.897685740355659
 30
0.0
 10
31.44655907113527
 20
-3.264973078115756
 30
0.0
 10
29.87907143412992
 20
-2.5224623497002
 30
0.0
 10
28.31986672405172
 20
-1.703242876930605
 30
0.0
 10
26.76970865663926
 20
-0.8347519229214854
 30
0.0
 10
25.2299680421674
 20
0.0553717963556359
 30
0.0
 10
23.69090132490258
 20
0.9435418072027066
 30
0.0
 10
22.14089735577011
 20
1.807913481475155
 30
0.0
 10
20.57930533360175
 20
2.619663309777873
 30
0.0
 10
19.00711161107705
 20
3.350931009678833
 30
0.0
 10
17.43593954122695
 20
3.971987064838535
 30
0.0
 10
15.86542231709715
 20
4.464290895316917
 30
0.0
 10
14.29459285138933
 20
4.803330658518479
 30
0.0
 10
12.91331317628389
 20
4.984765113299207
 30
0.0
 10
12.0555371005725
 20
4.982025429485017
 30
0.0
 10
11.72180902334118
 20
4.980959522615588
 30
0.0
  0
SPLINE
  5
AF
330
1F
100
AcDbEntity
  8
0
  6
Continuous
 62
     1
370
    15
100
AcDbSpline
210
0.0
220
0.0
230
1.0
 70
     8
 71
     3
 72
    15
 73
    11
 74
     0
 42
0.000000001
 43
0.00000001
 40
0.0
 40
0.0
 40
0.0
 40
0.0
 40
0.127655305680931
 40
0.255235501838172
 40
0.3827717561430626
 40
0.510295465393965
 40
0.6378380919159582
 40
0.7654309992425103
 40
0.8931009400175025
 40
1.0
 40
1.0
 40
1.0
 40
1.0
 10
36.15
 20
-3.944861321841077
 30
0.0
 10
35.59714142988393
 20
-3.830020361407527
 30
0.0
 10
34.49174957925604
 20
-3.600406010390284
 30
0.0
 10
32.83421440407229
 20
-3.085792455249148
 30
0.0
 10
31.17731897486195
 20
-2.468886618032246
 30
0.0
 10
29.52061613766245
 20
-1.759176715480538
 30
0.0
 10
27.86362391106472
 20
-0.9856107108419276
 30
0.0
 10
26.20592550308728
 20
-0.1769464952500262
 30
0.0
 10
24.63738859012287
 20
0.5981334616962214
 30
0.0
 10
23.62155641610546
 20
1.077296390440349
 30
0.0
 10
23.15861585639055
 20
1.295663124730887
 30
0.0
  0
LINE
  5
B0
330
1F
100
AcDbEntity
  8
0
  6
Continuous
 62
     1
370
    15
100
AcDbLine
 10
36.15
 20
-4.744704346159497
 30
0.0
 11
36.15
 21
-3.944861321841077
 31
0.0
  0
SPLINE
  5
B1
330
1F
100
AcDbEntity
  8
0
  6
Continuous
 62
     1
370
    15
100
AcDbSpline
210
0.0
220
0.0
230
1.0
 70
     8
 71
     3
 72
    50
 73
    46
 74
     0
 42
0.000000001
 43
0.00000001
 40
0.0
 40
0.0
 40
0.0
 40
0.0
 40
0.0624999999999994
 40
0.0624999999999994
 40
0.1249999999999991
 40
0.1249999999999991
 40
0.1562499999999989
 40
0.1562499999999989
 40
0.1874999999999987
 40
0.1874999999999987
 40
0.2499999999999983
 40
0.2499999999999983
 40
0.2812499999999981
 40
0.2812499999999981
 40
0.3124999999999979
 40
0.3124999999999979
 40
0.3749999999999976
 40
0.3749999999999976
 40
0.4374999999999971
 40
0.4374999999999971
 40
0.468749999999997
 40
0.468749999999997
 40
0.4999999999999969
 40
0.4999999999999969
 40
0.5624999999999969
 40
0.5624999999999969
 40
0.5937499999999969
 40
0.5937499999999969
 40
0.624999999999997
 40
0.624999999999997
 40
0.6874999999999973
 40
0.6874999999999973
 40
0.7499999999999978
 40
0.7499999999999978
 40
0.7812499999999982
 40
0.7812499999999982
 40
0.8124999999999986
 40
0.8124999999999986
 40
0.8749999999999991
 40
0.8749999999999991
 40
0.9062499999999993
 40
0.9062499999999993
 40
0.9374999999999996
 40
0.9374999999999996
 40
1.0
 40
1.0
 40
1.0
 40
1.0
 10
11.15
 20
4.886153281885021
 30
0.0
 10
11.66984436965505
 20
4.822392256561016
 30
0.0
 10
12.19544908841826
 20
4.731709800263247
 30
0.0
 10
13.23272586202602
 20
4.501012653211447
 30
0.0
 10
13.75577871551679
 20
4.360232057448011
 30
0.0
 10
14.53769371783133
 20
4.114976713361361
 30
0.0
 10
14.79606044214981
 20
4.027782539697971
 30
0.0
 10
15.31604550450232
 20
3.842374537937826
 30
0.0
 10
15.57743946782405
 20
3.744162126865412
 30
0.0
 10
16.36105175292693
 20
3.434723873025554
 30
0.0
 10
16.87793692921785
 20
3.209403639216604
 30
0.0
 10
17.66096995605112
 20
2.846093232517482
 30
0.0
 10
17.92256784799961
 20
2.720860816793197
 30
0.0
 10
18.44374654711523
 20
2.463678022101289
 30
0.0
 10
18.70205016491613
 20
2.331955096945411
 30
0.0
 10
19.48223299497566
 20
1.926970046542759
 30
0.0
 10
20.00779897844314
 20
1.644048107152537
 30
0.0
 10
21.04437191566884
 20
1.066109049663923
 30
0.0
 10
21.56817846269727
 20
0.7687490724584632
 30
0.0
 10
22.34979371051623
 20
0.3196280580188726
 30
0.0
 10
22.60804684121693
 20
0.1697238656998746
 30
0.0
 10
23.12830168052201
 20
-0.1308576241762325
 30
0.0
 10
23.38975220332728
 20
-0.2814291908064783
 30
0.0
 10
24.17329574890393
 20
-0.7312292169567474
 30
0.0
 10
24.69009513971283
 20
-1.027689860081813
 30
0.0
 10
25.47329110709832
 20
-1.463141007631637
 30
0.0
 10
25.73486399530249
 20
-1.606590747162846
 30
0.0
 10
26.2558350643496
 20
-1.888348362912753
 30
0.0
 10
26.51405032862487
 20
-2.026454517954073
 30
0.0
 10
27.29462620387383
 20
-2.433035310600058
 30
0.0
 10
27.82013742154664
 20
-2.693147091796781
 30
0.0
 10
28.85597591391193
 20
-3.179021683566309
 30
0.0
 10
29.38057834518239
 20
-3.407012191372016
 30
0.0
 10
30.16187046507547
 20
-3.71864180901388
 30
0.0
 10
30.42006048454316
 20
-3.817332513088947
 30
0.0
 10
30.94056960061182
 20
-4.004636098969223
 30
0.0
 10
31.20206880053012
 20
-4.093124012706078
 30
0.0
 10
31.98552004008157
 20
-4.341420998183352
 30
0.0
 10
32.50227653600079
 20
-4.483714049045111
 30
0.0
 10
33.28561191228338
 20
-4.660333198046865
 30
0.0
 10
33.54715190203856
 20
-4.712973590156711
 30
0.0
 10
34.06789976930243
 20
-4.805182930253173
 30
0.0
 10
34.3260771662091
 20
-4.844723681991061
 30
0.0
 10
35.10702281704197
 20
-4.943835488041987
 30
0.0
 10
35.63246324403065
 20
-4.983439977948431
 30
0.0
 10
36.15000000000001
 20
-4.995774076148216
 30
0.0
  0
SPLINE
  5
B2
330
1F
100
AcDbEntity
  8
0
  6
Continuous
 62
     1
370
    15
100
AcDbSpline
210
0.0
220
0.0
230
1.0
 70
     8
 71
     3
 72
    15
 73
    11
 74
     0
 42
0.000000001
 43
0.00000001
 40
0.0
 40
0.0
 40
0.0
 40
0.0
 40
0.066546268416221
 40
0.1983258893567835
 40
0.3300650815342861
 40
0.4617976419507069
 40
0.5935574026946737
 40
0.7290014886696395
 40
0.8645075270443703
 40
1.0
 40
1.0
 40
1.0
 40
1.0
 10
23.72613726627279
 20
-0.4733007335653858
 30
0.0
 10
23.44715880159501
 20
-0.3620492551430809
 30
0.0
 10
22.61572747666251
 20
-0.0304897413569946
 30
0.0
 10
21.23212668642381
 20
0.5326890697017673
 30
0.0
 10
19.57530127785204
 20
1.184413319533328
 30
0.0
 10
17.918572888551
 20
1.793621340427356
 30
0.0
 10
16.24628068637242
 20
2.342761829782405
 30
0.0
 10
14.55807510399875
 20
2.806397971601357
 30
0.0
 10
12.85411211857273
 20
3.17531418506203
 30
0.0
 10
11.71801841631162
 20
3.316367366900876
 30
0.0
 10
11.15000000000001
 20
3.386890427458605
 30
0.0
  0
SPLINE
  5
B3
330
1F
100
AcDbEntity
  8
0
  6
Continuous
 62
     4
370
    15
100
AcDbSpline
210
0.0
220
0.0
230
1.0
 70
    24
 71
     3
 72
    10
 73
     6
 74
     0
 42
0.000000001
 43
0.00000001
 40
0.0
 40
0.0
 40
0.0
 40
0.0
 40
0.4999999999999996
 40
0.4999999999999996
 40
1.0
 40
1.0
 40
1.0
 40
1.0
 10
11.15
 20
4.886153281885012
 30
0.0
 10
11.15
 20
4.659995917212863
 30
0.0
 10
11.15
 20
4.403142916713863
 30
0.0
 10
11.15
 20
3.883974388573373
 30
0.0
 10
11.15
 20
3.623083926865792
 30
0.0
 10
11.15
 20
3.386890427458606
 30
0.0
1001
PE_URL
1000

  0
LINE
  5
B4
330
1F
100
AcDbEntity
  8
0
  6
Continuous
 62
     1
370
    15
100
AcDbLine
 10
36.15
 20
-4.995774076148219
 30
0.0
 11
36.15
 21
-4.744704346159501
 31
0.0
  0
SPLINE
  5
B5
330
1F
100
AcDbEntity
  8
0
  6
Continuous
 62
     1
370
    15
100
AcDbSpline
210
0.0
220
0.0
230
1.0
 70
     8
 71
     3
 72
     8
 73
     4
 74
     0
 42
0.000000001
 43
0.00000001
 40
0.0
 40
0.0
 40
0.0
 40
0.0
 40
1.0
 40
1.0
 40
1.0
 40
1.0
 10
33.05623807966202
 20
1.398590784794597
 30
0.0
 10
32.83214042923191
 20
1.664076176022837
 30
0.0
 10
32.63755699161192
 20
1.917882404497378
 30
0.0
 10
32.48398001936779
 20
2.153947629457778
 30
0.0
  0
LINE
  5
B6
330
1F
100
AcDbEntity
  8
0
  6
Continuous
 62
     1
370
    15
100
AcDbLine
 10
32.48398001936779
 20
2.153947629457775
 30
0.0
 11
36.15
 21
0.0000000000000036
 31
0.0
  0
LINE
  5
B7
330
1F
100
AcDbEntity
  8
0
  6
Continuous
 62
     1
370
    15
100
AcDbLine
 10
36.15
 20
0.0000000000000036
 30
0.0
 11
36.15
 21
-1.33621473014822
 31
0.0
  0
SPLINE
  5
B8
330
1F
100
AcDbEntity
  8
0
  6
Continuous
 62
     1
370
    15
100
AcDbSpline
210
0.0
220
0.0
230
1.0
 70
     8
 71
     3
 72
    12
 73
     8
 74
     0
 42
0.000000001
 43
0.00000001
 40
0.0
 40
0.0
 40
0.0
 40
0.0
 40
0.5000000000000009
 40
0.5000000000000009
 40
0.7500000000000004
 40
0.7500000000000004
 40
1.0
 40
1.0
 40
1.0
 40
1.0
 10
36.15
 20
-1.33621473014822
 30
0.0
 10
35.6144603835447
 20
-0.9151902182568203
 30
0.0
 10
35.0878658092274
 20
-0.47690254071484
 30
0.0
 10
34.31173639957112
 20
0.2070893295748652
 30
0.0
 10
34.05536026588216
 20
0.439590402107045
 30
0.0
 10
33.54784408881665
 20
0.9146977532766324
 30
0.0
 10
33.29808896088134
 20
1.156071134681412
 30
0.0
 10
33.05623807966202
 20
1.398590784794596
 30
0.0
  0
SPLINE
  5
B9
330
1F
100
AcDbEntity
  8
0
  6
Continuous
 62
     1
370
    15
100
AcDbSpline
210
0.0
220
0.0
230
1.0
 70
     8
 71
     3
 72
    14
 73
    10
 74
     0
 42
0.000000001
 43
0.00000001
 40
0.0
 40
0.0
 40
0.0
 40
0.0
 40
0.1535270658797888
 40
0.3070539839813259
 40
0.4509550443350004
 40
0.5949136316172402
 40
0.738960348136381
 40
0.8829700370710463
 40
1.0
 40
1.0
 40
1.0
 40
1.0
 10
33.05623807966202
 20
1.3985907847946
 30
0.0
 10
32.46698423349864
 20
1.64799524862593
 30
0.0
 10
31.28847710836117
 20
2.146803936223065
 30
0.0
 10
29.55762221552727
 20
2.776862358647395
 30
0.0
 10
27.86364445812398
 20
3.289694924039516
 30
0.0
 10
26.20593113679061
 20
3.67134717656742
 30
0.0
 10
24.5476065698365
 20
3.914847265915959
 30
0.0
 10
22.99273382717275
 20
4.024014959616609
 30
0.0
 10
21.99086160374501
 20
3.981231976350624
 30
0.0
 10
21.54169969163615
 20
3.962051400105356
 30
0.0
  0
SPLINE
  5
BA
330
1F
100
AcDbEntity
  8
0
  6
Continuous
 62
     1
370
    15
100
AcDbSpline
210
0.0
220
0.0
230
1.0
 70
    24
 71
     3
 72
    10
 73
     6
 74
     0
 42
0.000000001
 43
0.00000001
 40
0.0
 40
0.0
 40
0.0
 40
0.0
 40
0.5
 40
0.5
 40
1.0
 40
1.0
 40
1.0
 40
1.0
 10
36.15
 20
-3.944861321841076
 30
0.0
 10
36.15
 20
-3.642456945019021
 30
0.0
 10
36.15
 20
-3.260357419532339
 30
0.0
 10
36.15
 20
-2.372012795753396
 30
0.0
 10
36.15
 20
-1.866537215256545
 30
0.0
 10
36.15
 20
-1.33621473014838
 30
0.0
  0
SPLINE
  5
BB
330
1F
100
AcDbEntity
  8
0
  6
Continuous
 62
     1
370
    15
100
AcDbSpline
210
0.0
220
0.0
230
1.0
 70
     8
 71
     3
 72
     9
 73
     5
 74
     0
 42
0.000000001
 43
0.00000001
 40
0.0
 40
0.0
 40
0.0
 40
0.0
 40
0.8915677230061966
 40
1.0
 40
1.0
 40
1.0
 40
1.0
 10
36.15
 20
3.500000000000003
 30
0.0
 10
35.59713822936875
 20
3.497351016252396
 30
0.0
 10
34.97703752768889
 20
3.494379863664374
 30
0.0
 10
34.35699557038121
 20
3.420976948379765
 30
0.0
 10
34.28976300911866
 20
3.413017703137472
 30
0.0
  0
SPLINE
  5
BC
330
1F
100
AcDbEntity
  8
0
  6
Continuous
 62
     1
370
    15
100
AcDbSpline
210
0.0
220
0.0
230
1.0
 70
     8
 71
     3
 72
    10
 73
     6
 74
     0
 42
0.000000001
 43
0.00000001
 40
0.0
 40
0.0
 40
0.0
 40
0.0
 40
0.5
 40
0.5
 40
1.0
 40
1.0
 40
1.0
 40
1.0
 10
36.15
 20
3.500000000000003
 30
0.0
 10
35.52778486821062
 20
3.331216419726818
 30
0.0
 10
34.9102627945112
 20
3.137623633046189
 30
0.0
 10
33.68581778859246
 20
2.694407155383054
 30
0.0
 10
33.0788070527806
 20
2.445160530077922
 30
0.0
 10
32.48398001936781
 20
2.153947629457775
 30
0.0
  0
SPLINE
  5
BD
330
1F
100
AcDbEntity
  8
0
  6
Continuous
 62
     1
370
    15
100
AcDbSpline
210
0.0
220
0.0
230
1.0
 70
     8
 71
     3
 72
     9
 73
     5
 74
     0
 42
0.000000001
 43
0.00000001
 40
0.0
 40
0.0
 40
0.0
 40
0.0
 40
0.4077540187969445
 40
1.0
 40
1.0
 40
1.0
 40
1.0
 10
14.02728249865688
 20
-4.142989715149301
 30
0.0
 10
13.63620356232855
 20
-4.182802644147759
 30
0.0
 10
12.67709851786524
 20
-4.280442218899038
 30
0.0
 10
11.71801396943927
 20
-4.240055193043239
 30
0.0
 10
11.15000000000003
 20
-4.216136139287398
 30
0.0
  0
SPLINE
  5
BE
330
1F
100
AcDbEntity
  8
0
  6
Continuous
 62
     1
370
    15
100
AcDbSpline
210
0.0
220
0.0
230
1.0
 70
     8
 71
     3
 72
    16
 73
    12
 74
     0
 42
0.000000001
 43
0.00000001
 40
0.0
 40
0.0
 40
0.0
 40
0.0
 40
0.070535591817163
 40
0.1855748901190434
 40
0.3005512948303257
 40
0.4154933447958804
 40
0.530429758879998
 40
0.6453892855186407
 40
0.7635616013785737
 40
0.8817865640733823
 40
1.0
 40
1.0
 40
1.0
 40
1.0
 10
25.56427432618108
 20
-3.743230259011412
 30
0.0
 10
25.22534146952404
 20
-3.798095882635824
 30
0.0
 10
24.33362955485116
 20
-3.942444031040181
 30
0.0
 10
22.88948157716275
 20
-4.017631379716623
 30
0.0
 10
21.23211201808972
 20
-3.979264198128291
 30
0.0
 10
19.57529464797179
 20
-3.789709823630975
 30
0.0
 10
17.91857017039317
 20
-3.463315670002371
 30
0.0
 10
16.24628565191631
 20
-3.006066038938657
 30
0.0
 10
14.55808148346184
 20
-2.430436509658738
 30
0.0
 10
12.85410590776203
 20
-1.758783017824596
 30
0.0
 10
11.71801684050532
 20
-1.25870590989706
 30
0.0
 10
11.15
 20
-1.00867954573185
 30
0.0
  0
SPLINE
  5
BF
330
1F
100
AcDbEntity
  8
0
  6
Continuous
 62
     4
370
    15
100
AcDbSpline
210
0.0
220
0.0
230
1.0
 70
    24
 71
     3
 72
    14
 73
    10
 74
     0
 42
0.000000001
 43
0.00000001
 40
0.0
 40
0.0
 40
0.0
 40
0.0
 40
0.2500000000000001
 40
0.2500000000000001
 40
0.5000000000000001
 40
0.5000000000000001
 40
0.7500000000000001
 40
0.7500000000000001
 40
1.0
 40
1.0
 40
1.0
 40
1.0
 10
11.15
 20
-1.008679545731848
 30
0.0
 10
11.15
 20
-1.368087456507687
 30
0.0
 10
11.15
 20
-1.721171881810529
 30
0.0
 10
11.15
 20
-2.387209537993512
 30
0.0
 10
11.15
 20
-2.699939923777362
 30
0.0
 10
11.15
 20
-3.260522432309062
 30
0.0
 10
11.15
 20
-3.508212675845545
 30
0.0
 10
11.15
 20
-3.923247959403815
 30
0.0
 10
11.15
 20
-4.090567804085054
 30
0.0
 10
11.15
 20
-4.216136139287395
 30
0.0
1001
PE_URL
1000

  0
SPLINE
  5
C0
330
1F
100
AcDbEntity
  8
0
  6
Continuous
 62
     4
370
    15
100
AcDbSpline
210
0.0
220
0.0
230
1.0
 70
    24
 71
     3
 72
    14
 73
    10
 74
     0
 42
0.000000001
 43
0.00000001
 40
0.0
 40
0.0
 40
0.0
 40
0.0
 40
0.25
 40
0.25
 40
0.5
 40
0.5
 40
0.75
 40
0.75
 40
1.0
 40
1.0
 40
1.0
 40
1.0
 10
11.14999999999998
 20
3.386890427458609
 30
0.0
 10
11.14999999999998
 20
3.186510421603201
 30
0.0
 10
11.14999999999998
 20
2.93127788359621
 30
0.0
 10
11.14999999999998
 20
2.320287617220868
 30
0.0
 10
11.14999999999998
 20
1.96463143812763
 30
0.0
 10
11.14999999999998
 20
1.183411924729901
 30
0.0
 10
11.14999999999998
 20
0.7582648568435443
 30
0.0
 10
11.14999999999998
 20
-0.1175081487887955
 30
0.0
 10
11.14999999999998
 20
-0.5676606356153651
 30
0.0
 10
11.14999999999998
 20
-1.00867954573184
 30
0.0
  0
LINE
  5
C1
330
1F
100
AcDbEntity
  8
0
  6
Continuous
 62
     1
370
    15
100
AcDbLine
 10
36.15
 20
0.0000000000000036
 30
0.0
 11
36.15
 21
3.500000000000003
 31
0.0
  0
SPLINE
  5
C2
330
1F
100
AcDbEntity
  8
0
  6
Continuous
 62
     1
370
    15
100
AcDbSpline
210
0.0
220
0.0
230
1.0
 70
     8
 71
     3
 72
    12
 73
     8
 74
     0
 42
0.000000001
 43
0.00000001
 40
0.0
 40
0.0
 40
0.0
 40
0.0
 40
0.0087225100729697
 40
0.2563853733642953
 40
0.5040922054068676
 40
0.751978450877293
 40
1.0
 40
1.0
 40
1.0
 40
1.0
 10
17.49106542100829
 20
-3.928883810883228
 30
0.0
 10
17.47262967715541
 20
-3.936156919980819
 30
0.0
 10
16.93073806207795
 20
-4.149939280322619
 30
0.0
 10
15.86543596214482
 20
-4.454786023404404
 30
0.0
 10
14.29459106321487
 20
-4.807953982089971
 30
0.0
 10
12.72272348376664
 20
-5.000809060052621
 30
0.0
 10
11.67433650867304
 20
-4.993010152909212
 30
0.0
 10
11.14999999999582
 20
-4.989109635409262
 30
0.0
  0
SPLINE
  5
C3
330
1F
100
AcDbEntity
  8
0
  6
Continuous
 62
     4
370
    15
100
AcDbSpline
210
0.0
220
0.0
230
1.0
 70
    24
 71
     3
 72
     8
 73
     4
 74
     0
 42
0.000000001
 43
0.00000001
 40
0.0
 40
0.0
 40
0.0
 40
0.0
 40
1.0
 40
1.0
 40
1.0
 40
1.0
 10
11.15
 20
-4.216136139287396
 30
0.0
 10
11.15
 20
-4.477870431234841
 30
0.0
 10
11.15
 20
-4.737202326635235
 30
0.0
 10
11.15
 20
-4.989109635397114
 30
0.0
1001
PE_URL
1000

  0
SPLINE
  5
C4
102
{ACAD_REACTORS
102
}
330
1F
100
AcDbEntity
  8
0
  6
Continuous
 62
     1
370
    15
100
AcDbSpline
210
0.0
220
0.0
230
1.0
 70
     8
 71
     3
 72
    14
 73
    10
 74
     0
 42
0.000000001
 43
0.00000001
 40
0.0
 40
0.0
 40
0.0
 40
0.0
 40
0.0287053970791421
 40
0.2384062064880244
 40
0.3437347448000236
 40
0.5060828030812271
 40
0.6691071214595633
 40
0.8341969426227646
 40
1.0
 40
1.0
 40
1.0
 40
1.0
 10
29.27069880002082
 20
3.351897391980113
 30
0.0
 10
29.33654138248336
 20
3.380664654900039
 30
0.0
 10
29.88338211306066
 20
3.619584674186802
 30
0.0
 10
30.67112022543246
 20
3.917780993760627
 30
0.0
 10
31.76656322964595
 20
4.277579058517093
 30
0.0
 10
32.75323826861315
 20
4.55119643289047
 30
0.0
 10
33.87892550960627
 20
4.783863044735963
 30
0.0
 10
35.01078320123968
 20
4.943839130632038
 30
0.0
 10
35.76971577661275
 20
4.978437568783012
 30
0.0
 10
36.14999999999973
 20
4.995774076148212
 30
0.0
  0
SPLINE
  5
C5
330
1F
100
AcDbEntity
  8
0
  6
Continuous
 62
     1
370
    15
100
AcDbSpline
210
0.0
220
0.0
230
1.0
 70
    24
 71
     3
 72
    10
 73
     6
 74
     0
 42
0.000000001
 43
0.00000001
 40
0.0
 40
0.0
 40
0.0
 40
0.0
 40
0.5
 40
0.5
 40
1.0
 40
1.0
 40
1.0
 40
1.0
 10
36.15
 20
3.500000000000003
 30
0.0
 10
36.15
 20
3.712161284036572
 30
0.0
 10
36.15
 20
3.958712344335589
 30
0.0
 10
36.15
 20
4.475975804804279
 30
0.0
 10
36.15
 20
4.745367179007365
 30
0.0
 10
36.15000000000001
 20
4.995774076148223
 30
0.0
  0
LINE
  5
C6
330
1F
100
AcDbEntity
  8
중심선
100
AcDbLine
 10
-41.84999999999999
 20
-0.0000000000000035
 30
0.0
 11
39.15000000000001
 21
-0.0000000000000035
 31
0.0
  0
CIRCLE
  5
C7
330
1F
100
AcDbEntity
  8
외형선
100
AcDbCircle
 10
-0.0000000000000009
 20
0.0
 30
0.0
 40
3.000000000000004
  0
INSERT
  5
C8
330
1F
100
AcDbEntity
  8
0
  6
Continuous
 62
     7
100
AcDbBlockReference
 66
     1
  2
블럭10
 10
-23.93827343951161
 20
-52.04717430164393
 30
0.0
  0
ATTRIB
  5
C9
330
C8
100
AcDbEntity
  8
FORMAT
 62
     2
100
AcDbText
 10
-36.89821263436938
 20
-49.97180738881174
 30
0.0
 40
4.233333333333333
  1
SEME35100E [ 2 FLUTE ]
 41
0.75
  7
SLDTEXTSTYLE0
 11
-36.89821263436938
 21
-52.08847405547841
 31
0.0
100
AcDbAttribute
  2
AUTOATTR0
 70
     0
 74
     1
  0
SEQEND
  5
CA
330
C8
100
AcDbEntity
  8
0
  6
Continuous
 62
     7
  0
HATCH
  5
CB
330
1F
100
AcDbEntity
  8
중심선
100
AcDbHatch
 10
0.0
 20
0.0
 30
0.0
210
0.0
220
0.0
230
1.0
  2
SOLID
 70
     1
 71
     0
 91
        1
 92
        0
 93
        4
 72
     1
 10
-18.22336413513076
 20
-35.8
 11
-21.66963937896804
 21
-35.8
 72
     1
 10
-21.66963937896804
 20
-35.8
 11
-23.79786923817207
 21
-38.33632558057259
 72
     1
 10
-23.79786923817207
 20
-38.33632558057259
 11
-20.35156090922163
 21
-38.3362861512701
 72
     1
 10
-20.35156090922163
 20
-38.3362861512701
 11
-18.22336413513076
 21
-35.8
 97
        0
 75
     0
 76
     1
 98
        1
 10
0.0
 20
0.0
  0
HATCH
  5
CC
330
1F
100
AcDbEntity
  8
중심선
100
AcDbHatch
 10
0.0
 20
0.0
 30
0.0
210
0.0
220
0.0
230
1.0
  2
SOLID
 70
     1
 71
     0
 91
        1
 92
        0
 93
        4
 72
     1
 10
-13.21060014409481
 20
-35.8
 11
-16.65687538793209
 21
-35.8
 72
     1
 10
-16.65687538793209
 20
-35.8
 11
-21.18801339628948
 21
-41.20000000000002
 72
     1
 10
-21.18801339628948
 20
-41.20000000000002
 11
-17.7417381524522
 21
-41.20000000000002
 72
     1
 10
-17.7417381524522
 20
-41.20000000000002
 11
-13.21060014409481
 21
-35.8
 97
        0
 75
     0
 76
     1
 98
        1
 10
0.0
 20
0.0
  0
HATCH
  5
CD
330
1F
100
AcDbEntity
  8
중심선
100
AcDbHatch
 10
0.0
 20
0.0
 30
0.0
210
0.0
220
0.0
230
1.0
  2
SOLID
 70
     1
 71
     0
 91
        1
 92
        0
 93
        4
 72
     1
 10
-8.197836153058912
 20
-35.80000000000003
 11
-11.64411139689603
 21
-35.8
 72
     1
 10
-11.64411139689603
 20
-35.8
 11
-18.69254829878528
 21
-44.20000000000002
 72
     1
 10
-18.69254829878528
 20
-44.20000000000002
 11
-15.246273054948
 21
-44.20000000000002
 72
     1
 10
-15.246273054948
 20
-44.20000000000002
 11
-8.197836153058912
 21
-35.80000000000003
 97
        0
 75
     0
 76
     1
 98
        1
 10
0.0
 20
0.0
  0
HATCH
  5
CE
330
1F
100
AcDbEntity
  8
중심선
100
AcDbHatch
 10
0.0
 20
0.0
 30
0.0
210
0.0
220
0.0
230
1.0
  2
SOLID
 70
     1
 71
     0
 91
        1
 92
        0
 93
        6
 72
     3
 10
-3.397945722046714
 20
-40.00000000005127
 11
3.960054785062284
 21
1.540850780301639E-10
 40
0.3939339440162633
 50
17.09539180608433
 51
320.0019657685079
 73
     0
 72
     1
 10
-1.714946066346118
 20
-38.5878940046383
 11
0.5903558073549198
 21
-36.65356729459038
 72
     3
 10
-3.39794572209956
 20
-40.00000000000015
 11
6.600054785286829
 21
-1.249000902703301E-13
 40
0.6363583540795982
 50
39.99873849337408
 51
368.4976242363724
 73
     1
 72
     1
 10
3.027386769801049
 20
-39.03999999993002
 11
-4.717878415263636
 21
-39.03999999992999
 72
     1
 10
-4.717878415263637
 20
-39.03999999992999
 11
-4.717903459709571
 21
-40.95999999992991
 72
     1
 10
-4.717903459709571
 20
-40.95999999992991
 11
-0.2765236902375348
 21
-40.95999999992988
 97
        0
 75
     0
 76
     1
 98
        1
 10
0.0
 20
0.0
  0
DIMENSION
  5
CF
102
{ACAD_XDICTIONARY
360
171
102
}
330
1F
100
AcDbEntity
  8
치수문자_일반주서
100
AcDbDimension
  2
_D
 10
11.15
 20
10.39788703807411
 30
0.0
 11
23.93600890567673
 21
10.39788703807411
 31
0.0
 70
   160
  1
<>
 71
     2
 42
25.0
  3
SLDDIMSTYLE0
100
AcDbAlignedDimension
 13
36.15
 23
4.995774076148223
 33
0.0
 14
11.15
 24
5.000000000000001
 34
0.0
100
AcDbRotatedDimension
1001
ENABLE_CUSTOM_SPLIT
1070
     1
  0
DIMENSION
  5
DA
330
1F
100
AcDbEntity
  8
치수문자_일반주서
100
AcDbDimension
  2
_D_1
 10
-38.84999999999998
 20
26.28415911661226
 30
0.0
 11
-1.349999999999985
 21
26.28415911661226
 31
0.0
 70
   160
  1
<>
 71
     2
 42
75.0
  3
SLDDIMSTYLE0
100
AcDbAlignedDimension
 13
36.15000000000001
 23
4.995774076148223
 33
0.0
 14
-38.84999999999999
 24
3.999999999999995
 34
0.0
 50
0.0000000000000054
100
AcDbRotatedDimension
  0
DIMENSION
  5
E4
330
1F
100
AcDbEntity
  8
치수문자_일반주서
100
AcDbDimension
  2
_D_2
 10
51.7161903122463
 20
-4.995774076148161
 30
0.0
 11
51.71619031224628
 21
0.0000000000000012
 31
0.0
 70
   160
  1
%%c<>
 71
     2
 42
9.996548152296441
 52
-270.0
  3
SLDDIMSTYLE1
100
AcDbAlignedDimension
 13
36.15000000000001
 23
5.000774076148223
 33
0.0
 14
36.15
 24
-4.995774076148219
 34
0.0
 50
90.0000000000002
100
AcDbRotatedDimension
  0
DIMENSION
  5
F2
330
1F
100
AcDbEntity
  8
치수문자_일반주서
100
AcDbDimension
  2
_D_3
 10
-50.26955944538852
 20
-5.000000000000049
 30
0.0
 11
-50.26955944538854
 21
-0.0000000000000001
 31
0.0
 70
   160
  1
%%c<>
 71
     2
 42
10.0
 52
-270.0
  3
SLDDIMSTYLE1
100
AcDbAlignedDimension
 13
-37.84999999999999
 23
4.999999999999997
 33
0.0
 14
-37.84999999999999
 24
-5.000000000000003
 34
0.0
 50
90.0000000000002
100
AcDbRotatedDimension
  0
INSERT
  5
105
330
1F
100
AcDbEntity
  8
외형선
100
AcDbBlockReference
  2
SW_DOWELSYMBOL_0
 10
-0.0000000000000009
 20
0.0
 30
0.0
  0
LINE
  5
154
330
1F
100
AcDbEntity
  8
0
  6
Continuous
 62
     4
370
    15
100
AcDbLine
 10
0.1499999999999977
 20
4.849999999999996
 30
0.0
 11
0.1499999999999977
 21
-4.850000000000009
 31
0.0
1001
PE_URL
1000

  0
LINE
  5
156
330
1F
100
AcDbEntity
  8
0
  6
Continuous
 62
     4
370
    15
100
AcDbLine
 10
11.14999999999998
 20
4.849999999999996
 30
0.0
 11
11.14999999999998
 21
-4.850000000000003
 31
0.0
1001
PE_URL
1000

  0
LINE
  5
157
330
1F
100
AcDbEntity
  8
0
  6
Continuous
 62
     4
370
    15
100
AcDbLine
 10
11.14999999999998
 20
4.849999999999996
 30
0.0
 11
0.1499999999999977
 21
4.849999999999996
 31
0.0
1001
PE_URL
1000

  0
LINE
  5
158
102
{ACAD_REACTORS
102
}
330
1F
100
AcDbEntity
  8
0
  6
Continuous
 62
     4
370
    15
100
AcDbLine
 10
0.1499999999999977
 20
4.849999999999996
 30
0.0
 11
-0.0000000000000062
 21
5.0
 31
0.0
1001
PE_URL
1000

  0
LINE
  5
159
330
1F
100
AcDbEntity
  8
0
  6
Continuous
 62
     4
370
    15
100
AcDbLine
 10
0.1500000000000073
 20
-4.85
 30
0.0
 11
0.0000000000000038
 21
-5.000000000000004
 31
0.0
1001
PE_URL
1000

  0
LINE
  5
15A
330
1F
100
AcDbEntity
  8
0
  6
Continuous
 62
     4
370
    15
100
AcDbLine
 10
0.0000000000000062
 20
-5.0
 30
0.0
 11
-0.0000000000000062
 21
5.0
 31
0.0
1001
PE_URL
1000

  0
LINE
  5
15B
330
1F
100
AcDbEntity
  8
0
  6
Continuous
 62
     4
370
    15
100
AcDbLine
 10
11.14999999999958
 20
-4.85000000000092
 30
0.0
 11
0.1499999999995956
 21
-4.850000000000009
 31
0.0
1001
PE_URL
1000

  0
DIMENSION
  5
15F
102
{ACAD_REACTORS
102
}
102
{ACAD_XDICTIONARY
360
160
102
}
330
1F
100
AcDbEntity
  8
치수문자_일반주서
100
AcDbDimension
  2
*D7
 10
0.1499999999999977
 20
18.4
 30
0.0
 11
18.14999999999986
 21
21.025
 31
0.0
 70
    32
 71
     5
 42
35.99999999999973
  3
SLDDIMSTYLE0
100
AcDbAlignedDimension
 13
36.14999999999973
 23
4.995774076148212
 33
0.0
 14
0.1499999999999977
 24
4.849999999999996
 34
0.0
100
AcDbRotatedDimension
1001
ENABLE_CUSTOM_SPLIT
1070
     1
1001
PE_URL
1000

  0
ENDSEC
  0
SECTION
  2
OBJECTS
  0
DICTIONARY
  5
C
330
0
100
AcDbDictionary
281
     1
  3
ACAD_GROUP
350
D
  3
ACAD_LAYOUT
350
1A
  3
ACAD_MLINESTYLE
350
17
  3
ACAD_PLOTSETTINGS
350
19
  3
ACAD_PLOTSTYLENAME
350
E
  3
ACAD_SCALELIST
350
47
  3
APPDATA
350
127
  3
DWGPROPS
350
175
  0
DICTIONARY
  5
173
330
1F
100
AcDbDictionary
280
     1
281
     1
  3
DIM_BOUNDING_BOXES_V1
360
174
  0
DICTIONARY
  5
171
330
CF
100
AcDbDictionary
280
     1
281
     1
  3
ACAD_CUSTOM_BREAKDATA
360
172
  0
DICTIONARY
  5
160
330
15F
100
AcDbDictionary
280
     1
281
     1
  3
ACAD_CUSTOM_BREAKDATA
360
16F
  0
DICTIONARY
  5
D
102
{ACAD_REACTORS
330
C
102
}
330
C
100
AcDbDictionary
281
     1
  0
DICTIONARY
  5
1A
102
{ACAD_REACTORS
330
C
102
}
330
C
100
AcDbDictionary
281
     1
  3
Layout1
350
1E
  3
Layout2
350
26
  3
Model
350
22
  0
DICTIONARY
  5
17
102
{ACAD_REACTORS
330
C
102
}
330
C
100
AcDbDictionary
281
     1
  3
Standard
350
18
  0
DICTIONARY
  5
19
102
{ACAD_REACTORS
330
C
102
}
330
C
100
AcDbDictionary
281
     1
  0
ACDBDICTIONARYWDFLT
  5
E
102
{ACAD_REACTORS
330
C
102
}
330
C
100
AcDbDictionary
281
     1
  3
Normal
350
F
100
AcDbDictionaryWithDefault
340
F
  0
DICTIONARY
  5
47
102
{ACAD_REACTORS
330
C
102
}
330
C
100
AcDbDictionary
281
     1
  3
A0
350
48
  3
A1
350
49
  3
A2
350
4A
  3
A3
350
4B
  3
A4
350
4C
  3
A5
350
4D
  3
A6
350
4E
  3
A7
350
4F
  3
A8
350
50
  3
A9
350
51
  3
B0
350
52
  3
B1
350
53
  3
B2
350
54
  3
B3
350
55
  3
B4
350
56
  3
B5
350
57
  3
B6
350
58
  3
B7
350
59
  3
B8
350
5A
  3
B9
350
5B
  3
C0
350
5C
  3
C1
350
5D
  3
C2
350
5E
  3
C3
350
5F
  3
C4
350
60
  3
C5
350
61
  3
C6
350
62
  3
C7
350
63
  3
C8
350
64
  3
C9
350
65
  3
D0
350
66
  3
D1
350
67
  3
D2
350
68
  0
DICTIONARY
  5
127
102
{ACAD_REACTORS
330
C
102
}
330
C
100
AcDbDictionary
281
     1
  0
XRECORD
  5
175
102
{ACAD_REACTORS
330
C
102
}
330
C
100
AcDbXrecord
280
     1
  1
DWGPROPS COOKIE
  2

  3

  4

  6

  7

  8
12016016
  9

300
=
301
=
302
=
303
=
304
=
305
=
306
=
307
=
308
=
309
=
 40
0.0
 41
2458250.117947673
 42
2459702.310290856
  1

 90
        0
  0
DICTIONARY
  5
174
102
{ACAD_REACTORS
330
173
102
}
330
173
100
AcDbDictionary
281
     1
  0
BREAKDATA
  5
172
102
{ACAD_REACTORS
330
171
102
}
330
171
100
AcDbBreakData
 70
     0
330
CF
 90
        0
  0
BREAKDATA
  5
16F
102
{ACAD_REACTORS
330
160
102
}
330
160
100
AcDbBreakData
 70
     0
330
15F
 90
        0
  0
LAYOUT
  5
1E
102
{ACAD_REACTORS
330
1A
102
}
330
1A
100
AcDbPlotSettings
  1

  2
none_device
  4

  6

 40
0.0
 41
0.0
 42
0.0
 43
0.0
 44
0.0
 45
0.0
 46
0.0
 47
0.0
 48
0.0
 49
0.0
140
0.0
141
0.0
142
1.0
143
1.0
 70
   688
 72
     1
 73
     0
 74
     5
  7

 75
    16
147
1.0
148
0.0
149
0.0
100
AcDbLayout
  1
Layout1
 70
     1
 71
     1
 10
0.0
 20
0.0
 11
420.0
 21
297.0
 12
0.0
 22
0.0
 32
0.0
 14
1.000000000000000E+20
 24
1.000000000000000E+20
 34
1.000000000000000E+20
 15
-1.000000000000000E+20
 25
-1.000000000000000E+20
 35
-1.000000000000000E+20
146
0.0
 13
0.0
 23
0.0
 33
0.0
 16
1.0
 26
0.0
 36
0.0
 17
0.0
 27
1.0
 37
0.0
 76
     0
330
1B
  0
LAYOUT
  5
26
102
{ACAD_REACTORS
330
1A
102
}
330
1A
100
AcDbPlotSettings
  1

  2
none_device
  4

  6

 40
0.0
 41
0.0
 42
0.0
 43
0.0
 44
0.0
 45
0.0
 46
0.0
 47
0.0
 48
0.0
 49
0.0
140
0.0
141
0.0
142
1.0
143
1.0
 70
   688
 72
     1
 73
     0
 74
     5
  7

 75
    16
147
1.0
148
0.0
149
0.0
100
AcDbLayout
  1
Layout2
 70
     1
 71
     2
 10
0.0
 20
0.0
 11
0.0
 21
0.0
 12
0.0
 22
0.0
 32
0.0
 14
0.0
 24
0.0
 34
0.0
 15
0.0
 25
0.0
 35
0.0
146
0.0
 13
0.0
 23
0.0
 33
0.0
 16
1.0
 26
0.0
 36
0.0
 17
0.0
 27
1.0
 37
0.0
 76
     0
330
23
  0
LAYOUT
  5
22
102
{ACAD_REACTORS
330
1A
102
}
330
1A
100
AcDbPlotSettings
  1

  2
none_device
  4
ANSI_A_(11.00_x_8.50_Inches)
  6

 40
6.35
 41
19.05
 42
6.35000508
 43
19.05000254
 44
279.4
 45
215.9
 46
139.0319797860148
 47
114.5200661608838
 48
0.0
 49
0.0
140
0.0
141
0.0
142
0.101254327240549
143
1.0
 70
  1696
 72
     0
 73
     0
 74
     0
  7

 75
     0
147
0.0235690232323232
148
0.0
149
0.0
100
AcDbLayout
  1
Model
 70
     1
 71
     0
 10
0.0
 20
0.0
 11
420.0
 21
297.0
 12
0.0
 22
0.0
 32
0.0
 14
-54.64455944538855
 24
-49.97180738881174
 34
0.0
 15
52.26652364557961
 25
30.65915911661226
 35
0.0
146
0.0
 13
0.0
 23
0.0
 33
0.0
 16
1.0
 26
0.0
 36
0.0
 17
0.0
 27
1.0
 37
0.0
 76
     0
330
1F
331
29
  0
MLINESTYLE
  5
18
102
{ACAD_REACTORS
330
17
102
}
330
17
100
AcDbMlineStyle
  2
Standard
 70
     0
  3

 62
   256
 51
90.0
 52
90.0
 71
     2
 49
0.5
 62
   256
  6
BYLAYER
 49
-0.5
 62
   256
  6
BYLAYER
  0
ACDBPLACEHOLDER
  5
F
102
{ACAD_REACTORS
330
E
102
}
330
E
  0
SCALE
  5
48
102
{ACAD_REACTORS
330
47
102
}
330
47
100
AcDbScale
 70
     0
300
1:1
140
1.0
141
1.0
290
     1
  0
SCALE
  5
49
102
{ACAD_REACTORS
330
47
102
}
330
47
100
AcDbScale
 70
     0
300
1:2
140
1.0
141
2.0
290
     0
  0
SCALE
  5
4A
102
{ACAD_REACTORS
330
47
102
}
330
47
100
AcDbScale
 70
     0
300
1:4
140
1.0
141
4.0
290
     0
  0
SCALE
  5
4B
102
{ACAD_REACTORS
330
47
102
}
330
47
100
AcDbScale
 70
     0
300
1:5
140
1.0
141
5.0
290
     0
  0
SCALE
  5
4C
102
{ACAD_REACTORS
330
47
102
}
330
47
100
AcDbScale
 70
     0
300
1:8
140
1.0
141
8.0
290
     0
  0
SCALE
  5
4D
102
{ACAD_REACTORS
330
47
102
}
330
47
100
AcDbScale
 70
     0
300
1:10
140
1.0
141
10.0
290
     0
  0
SCALE
  5
4E
102
{ACAD_REACTORS
330
47
102
}
330
47
100
AcDbScale
 70
     0
300
1:16
140
1.0
141
16.0
290
     0
  0
SCALE
  5
4F
102
{ACAD_REACTORS
330
47
102
}
330
47
100
AcDbScale
 70
     0
300
1:20
140
1.0
141
20.0
290
     0
  0
SCALE
  5
50
102
{ACAD_REACTORS
330
47
102
}
330
47
100
AcDbScale
 70
     0
300
1:30
140
1.0
141
30.0
290
     0
  0
SCALE
  5
51
102
{ACAD_REACTORS
330
47
102
}
330
47
100
AcDbScale
 70
     0
300
1:40
140
1.0
141
40.0
290
     0
  0
SCALE
  5
52
102
{ACAD_REACTORS
330
47
102
}
330
47
100
AcDbScale
 70
     0
300
1:50
140
1.0
141
50.0
290
     0
  0
SCALE
  5
53
102
{ACAD_REACTORS
330
47
102
}
330
47
100
AcDbScale
 70
     0
300
1:100
140
1.0
141
100.0
290
     0
  0
SCALE
  5
54
102
{ACAD_REACTORS
330
47
102
}
330
47
100
AcDbScale
 70
     0
300
2:1
140
2.0
141
1.0
290
     0
  0
SCALE
  5
55
102
{ACAD_REACTORS
330
47
102
}
330
47
100
AcDbScale
 70
     0
300
4:1
140
4.0
141
1.0
290
     0
  0
SCALE
  5
56
102
{ACAD_REACTORS
330
47
102
}
330
47
100
AcDbScale
 70
     0
300
8:1
140
8.0
141
1.0
290
     0
  0
SCALE
  5
57
102
{ACAD_REACTORS
330
47
102
}
330
47
100
AcDbScale
 70
     0
300
10:1
140
10.0
141
1.0
290
     0
  0
SCALE
  5
58
102
{ACAD_REACTORS
330
47
102
}
330
47
100
AcDbScale
 70
     0
300
100:1
140
100.0
141
1.0
290
     0
  0
SCALE
  5
59
102
{ACAD_REACTORS
330
47
102
}
330
47
100
AcDbScale
 70
     0
300
1/128" = 1'-0"
140
0.0078125
141
12.0
290
     0
  0
SCALE
  5
5A
102
{ACAD_REACTORS
330
47
102
}
330
47
100
AcDbScale
 70
     0
300
1/64" = 1'-0"
140
0.015625
141
12.0
290
     0
  0
SCALE
  5
5B
102
{ACAD_REACTORS
330
47
102
}
330
47
100
AcDbScale
 70
     0
300
1/32" = 1'-0"
140
0.03125
141
12.0
290
     0
  0
SCALE
  5
5C
102
{ACAD_REACTORS
330
47
102
}
330
47
100
AcDbScale
 70
     0
300
1/16" = 1'-0"
140
0.0625
141
12.0
290
     0
  0
SCALE
  5
5D
102
{ACAD_REACTORS
330
47
102
}
330
47
100
AcDbScale
 70
     0
300
3/32" = 1'-0"
140
0.09375
141
12.0
290
     0
  0
SCALE
  5
5E
102
{ACAD_REACTORS
330
47
102
}
330
47
100
AcDbScale
 70
     0
300
1/8" = 1'-0"
140
0.125
141
12.0
290
     0
  0
SCALE
  5
5F
102
{ACAD_REACTORS
330
47
102
}
330
47
100
AcDbScale
 70
     0
300
3/16" = 1'-0"
140
0.1875
141
12.0
290
     0
  0
SCALE
  5
60
102
{ACAD_REACTORS
330
47
102
}
330
47
100
AcDbScale
 70
     0
300
1/4" = 1'-0"
140
0.25
141
12.0
290
     0
  0
SCALE
  5
61
102
{ACAD_REACTORS
330
47
102
}
330
47
100
AcDbScale
 70
     0
300
3/8" = 1'-0"
140
0.375
141
12.0
290
     0
  0
SCALE
  5
62
102
{ACAD_REACTORS
330
47
102
}
330
47
100
AcDbScale
 70
     0
300
1/2" = 1'-0"
140
0.5
141
12.0
290
     0
  0
SCALE
  5
63
102
{ACAD_REACTORS
330
47
102
}
330
47
100
AcDbScale
 70
     0
300
3/4" = 1'-0"
140
0.75
141
12.0
290
     0
  0
SCALE
  5
64
102
{ACAD_REACTORS
330
47
102
}
330
47
100
AcDbScale
 70
     0
300
1" = 1'-0"
140
1.0
141
12.0
290
     0
  0
SCALE
  5
65
102
{ACAD_REACTORS
330
47
102
}
330
47
100
AcDbScale
 70
     0
300
1-1/2" = 1'-0"
140
1.5
141
12.0
290
     0
  0
SCALE
  5
66
102
{ACAD_REACTORS
330
47
102
}
330
47
100
AcDbScale
 70
     0
300
3" = 1'-0"
140
3.0
141
12.0
290
     0
  0
SCALE
  5
67
102
{ACAD_REACTORS
330
47
102
}
330
47
100
AcDbScale
 70
     0
300
6" = 1'-0"
140
6.0
141
12.0
290
     0
  0
SCALE
  5
68
102
{ACAD_REACTORS
330
47
102
}
330
47
100
AcDbScale
 70
     0
300
1'-0" = 1'-0"
140
12.0
141
12.0
290
     0
  0
ENDSEC
  0
EOF
