  0
SECTION
  2
HEADER
  9
$ACADVER
  1
AC1015
  9
$ACADMAINTVER
 70
     6
  9
$DWGCODEPAGE
  3
ANSI_949
  9
$INSBASE
 10
0.0
 20
0.0
 30
0.0
  9
$EXTMIN
 10
-57.86154674349634
 20
-49.97180738881174
 30
0.0
  9
$EXTMAX
 10
44.04953634747185
 20
30.48415911661223
 30
0.0
  9
$LIMMIN
 10
0.0
 20
0.0
  9
$LIMMAX
 10
420.0
 20
297.0
  9
$ORTHOMODE
 70
     1
  9
$REGENMODE
 70
     1
  9
$FILLMODE
 70
     1
  9
$QTEXTMODE
 70
     0
  9
$MIRRTEXT
 70
     1
  9
$LTSCALE
 40
1.0
  9
$ATTMODE
 70
     1
  9
$TEXTSIZE
 40
3.5
  9
$TRACEWID
 40
1.0
  9
$TEXTSTYLE
  7
Standard
  9
$CLAYER
  8
0
  9
$CELTYPE
  6
ByLayer
  9
$CECOLOR
 62
   256
  9
$CELTSCALE
 40
1.0
  9
$DISPSILH
 70
     0
  9
$DIMSCALE
 40
1.0
  9
$DIMASZ
 40
3.302
  9
$DIMEXO
 40
1.0
  9
$DIMDLI
 40
3.75
  9
$DIMRND
 40
0.0
  9
$DIMDLE
 40
0.0
  9
$DIMEXE
 40
1.0
  9
$DIMTP
 40
0.0
  9
$DIMTM
 40
0.0
  9
$DIMTXT
 40
3.5
  9
$DIMCEN
 40
2.5
  9
$DIMTSZ
 40
0.0
  9
$DIMTOL
 70
     0
  9
$DIMLIM
 70
     0
  9
$DIMTIH
 70
     1
  9
$DIMTOH
 70
     1
  9
$DIMSE1
 70
     0
  9
$DIMSE2
 70
     0
  9
$DIMTAD
 70
     1
  9
$DIMZIN
 70
     0
  9
$DIMBLK
  1

  9
$DIMASO
 70
     1
  9
$DIMSHO
 70
     1
  9
$DIMPOST
  1

  9
$DIMAPOST
  1

  9
$DIMALT
 70
     0
  9
$DIMALTD
 70
     3
  9
$DIMALTF
 40
0.0393700787401575
  9
$DIMLFAC
 40
1.0
  9
$DIMTOFL
 70
     1
  9
$DIMTVP
 40
0.0
  9
$DIMTIX
 70
     0
  9
$DIMSOXD
 70
     0
  9
$DIMSAH
 70
     0
  9
$DIMBLK1
  1

  9
$DIMBLK2
  1

  9
$DIMSTYLE
  2
ISO-25
  9
$DIMCLRD
 70
     0
  9
$DIMCLRE
 70
     0
  9
$DIMCLRT
 70
     0
  9
$DIMTFAC
 40
1.0
  9
$DIMGAP
 40
1.524
  9
$DIMJUST
 70
     0
  9
$DIMSD1
 70
     0
  9
$DIMSD2
 70
     0
  9
$DIMTOLJ
 70
     0
  9
$DIMTZIN
 70
     0
  9
$DIMALTZ
 70
     0
  9
$DIMALTTZ
 70
     0
  9
$DIMUPT
 70
     0
  9
$DIMDEC
 70
     2
  9
$DIMTDEC
 70
     2
  9
$DIMALTU
 70
     2
  9
$DIMALTTD
 70
     3
  9
$DIMTXSTY
  7
Standard
  9
$DIMAUNIT
 70
     0
  9
$DIMADEC
 70
     2
  9
$DIMALTRND
 40
0.0
  9
$DIMAZIN
 70
     0
  9
$DIMDSEP
 70
    44
  9
$DIMATFIT
 70
     3
  9
$DIMFRAC
 70
     0
  9
$DIMLDRBLK
  1

  9
$DIMLUNIT
 70
     2
  9
$DIMLWD
 70
    -2
  9
$DIMLWE
 70
    -2
  9
$DIMTMOVE
 70
     0
  9
$LUNITS
 70
     2
  9
$LUPREC
 70
     2
  9
$SKETCHINC
 40
1.0
  9
$FILLETRAD
 40
10.0
  9
$AUNITS
 70
     0
  9
$AUPREC
 70
     2
  9
$MENU
  1
.
  9
$ELEVATION
 40
0.0
  9
$PELEVATION
 40
0.0
  9
$THICKNESS
 40
0.0
  9
$LIMCHECK
 70
     0
  9
$CHAMFERA
 40
0.0
  9
$CHAMFERB
 40
0.0
  9
$CHAMFERC
 40
0.0
  9
$CHAMFERD
 40
0.0
  9
$SKPOLY
 70
     0
  9
$TDCREATE
 40
2458250.492806261
  9
$TDUCREATE
 40
2458250.117806261
  9
$TDUPDATE
 40
2458264.417816806
  9
$TDUUPDATE
 40
2458264.042816806
  9
$TDINDWG
 40
0.0018790625
  9
$TDUSRTIMER
 40
0.0005709375
  9
$USRTIMER
 70
     1
  9
$ANGBASE
 50
0.0
  9
$ANGDIR
 70
     0
  9
$PDMODE
 70
     0
  9
$PDSIZE
 40
-1.0
  9
$PLINEWID
 40
0.0
  9
$SPLFRAME
 70
     0
  9
$SPLINETYPE
 70
     6
  9
$SPLINESEGS
 70
     8
  9
$HANDSEED
  5
161
  9
$SURFTAB1
 70
     6
  9
$SURFTAB2
 70
     6
  9
$SURFTYPE
 70
     6
  9
$SURFU
 70
     6
  9
$SURFV
 70
     6
  9
$UCSBASE
  2

  9
$UCSNAME
  2

  9
$UCSORG
 10
0.0
 20
0.0
 30
0.0
  9
$UCSXDIR
 10
1.0
 20
0.0
 30
0.0
  9
$UCSYDIR
 10
0.0
 20
1.0
 30
0.0
  9
$UCSORTHOREF
  2

  9
$UCSORTHOVIEW
 70
     0
  9
$UCSORGTOP
 10
0.0
 20
0.0
 30
0.0
  9
$UCSORGBOTTOM
 10
0.0
 20
0.0
 30
0.0
  9
$UCSORGLEFT
 10
0.0
 20
0.0
 30
0.0
  9
$UCSORGRIGHT
 10
0.0
 20
0.0
 30
0.0
  9
$UCSORGFRONT
 10
0.0
 20
0.0
 30
0.0
  9
$UCSORGBACK
 10
0.0
 20
0.0
 30
0.0
  9
$PUCSBASE
  2

  9
$PUCSNAME
  2

  9
$PUCSORG
 10
0.0
 20
0.0
 30
0.0
  9
$PUCSXDIR
 10
1.0
 20
0.0
 30
0.0
  9
$PUCSYDIR
 10
0.0
 20
1.0
 30
0.0
  9
$PUCSORTHOREF
  2

  9
$PUCSORTHOVIEW
 70
     0
  9
$PUCSORGTOP
 10
0.0
 20
0.0
 30
0.0
  9
$PUCSORGBOTTOM
 10
0.0
 20
0.0
 30
0.0
  9
$PUCSORGLEFT
 10
0.0
 20
0.0
 30
0.0
  9
$PUCSORGRIGHT
 10
0.0
 20
0.0
 30
0.0
  9
$PUCSORGFRONT
 10
0.0
 20
0.0
 30
0.0
  9
$PUCSORGBACK
 10
0.0
 20
0.0
 30
0.0
  9
$USERI1
 70
     0
  9
$USERI2
 70
     0
  9
$USERI3
 70
     0
  9
$USERI4
 70
     0
  9
$USERI5
 70
     0
  9
$USERR1
 40
0.0
  9
$USERR2
 40
0.0
  9
$USERR3
 40
0.0
  9
$USERR4
 40
0.0
  9
$USERR5
 40
0.0
  9
$WORLDVIEW
 70
     1
  9
$SHADEDGE
 70
     3
  9
$SHADEDIF
 70
    70
  9
$TILEMODE
 70
     1
  9
$MAXACTVP
 70
    64
  9
$PINSBASE
 10
0.0
 20
0.0
 30
0.0
  9
$PLIMCHECK
 70
     0
  9
$PEXTMIN
 10
1.000000000000000E+20
 20
1.000000000000000E+20
 30
1.000000000000000E+20
  9
$PEXTMAX
 10
-1.000000000000000E+20
 20
-1.000000000000000E+20
 30
-1.000000000000000E+20
  9
$PLIMMIN
 10
0.0
 20
0.0
  9
$PLIMMAX
 10
0.0
 20
0.0
  9
$UNITMODE
 70
     0
  9
$VISRETAIN
 70
     1
  9
$PLINEGEN
 70
     0
  9
$PSLTSCALE
 70
     1
  9
$TREEDEPTH
 70
  3020
  9
$CMLSTYLE
  2
Standard
  9
$CMLJUST
 70
     0
  9
$CMLSCALE
 40
20.0
  9
$PROXYGRAPHICS
 70
     1
  9
$MEASUREMENT
 70
     1
  9
$CELWEIGHT
370
    -1
  9
$ENDCAPS
280
     0
  9
$JOINSTYLE
280
     0
  9
$LWDISPLAY
290
     1
  9
$INSUNITS
 70
     4
  9
$HYPERLINKBASE
  1

  9
$STYLESHEET
  1

  9
$XEDIT
290
     1
  9
$CEPSNTYPE
380
     0
  9
$PSTYLEMODE
290
     1
  9
$FINGERPRINTGUID
  2
{F296E827-26D2-4BBF-A18F-101F077E1E54}
  9
$VERSIONGUID
  2
{FAEB1C32-E019-11D5-929B-00C0DF256EC4}
  9
$EXTNAMES
290
     1
  9
$PSVPSCALE
 40
0.0
  9
$OLESTARTUP
290
     0
  0
ENDSEC
  0
SECTION
  2
CLASSES
  0
CLASS
  1
ACDBDICTIONARYWDFLT
  2
AcDbDictionaryWithDefault
  3
ObjectDBX Classes
 90
        0
280
     0
281
     0
  0
CLASS
  1
VISUALSTYLE
  2
AcDbVisualStyle
  3
ObjectDBX Classes
 90
     4095
280
     0
281
     0
  0
CLASS
  1
MATERIAL
  2
AcDbMaterial
  3
ObjectDBX Classes
 90
     1153
280
     0
281
     0
  0
CLASS
  1
SCALE
  2
AcDbScale
  3
ObjectDBX Classes
 90
     1153
280
     0
281
     0
  0
CLASS
  1
SUN
  2
AcDbSun
  3
SCENEOE
 90
     1153
280
     0
281
     0
  0
CLASS
  1
ACDBPLACEHOLDER
  2
AcDbPlaceHolder
  3
ObjectDBX Classes
 90
        0
280
     0
281
     0
  0
CLASS
  1
LAYOUT
  2
AcDbLayout
  3
ObjectDBX Classes
 90
        0
280
     0
281
     0
  0
CLASS
  1
TABLESTYLE
  2
AcDbTableStyle
  3
ObjectDBX Classes
 90
     4095
280
     0
281
     0
  0
CLASS
  1
MLEADERSTYLE
  2
AcDbMLeaderStyle
  3
ACDB_MLEADERSTYLE_CLASS
 90
     4095
280
     0
281
     0
  0
ENDSEC
  0
SECTION
  2
TABLES
  0
TABLE
  2
VPORT
  5
8
330
0
100
AcDbSymbolTable
 70
     1
  0
VPORT
  5
29
330
8
100
AcDbSymbolTableRecord
100
AcDbViewportTableRecord
  2
*Active
 70
     0
 10
0.0
 20
0.0
 11
1.0
 21
1.0
 12
-26.68513576348245
 22
-15.45206265184175
 13
0.0
 23
0.0
 14
10.0
 24
10.0
 15
10.0
 25
10.0
 16
0.0
 26
0.0
 36
1.0
 17
0.0
 27
0.0
 37
0.0
 40
131.8166079177348
 41
2.223011363636364
 42
50.0
 43
0.0
 44
0.0
 50
0.0
 51
0.0
 71
    16
 72
  2000
 73
     1
 74
     3
 75
     0
 76
     0
 77
     0
 78
     0
281
     0
 65
     1
110
0.0
120
0.0
130
0.0
111
1.0
121
0.0
131
0.0
112
0.0
122
1.0
132
0.0
 79
     0
146
0.0
  0
ENDTAB
  0
TABLE
  2
LTYPE
  5
5
330
0
100
AcDbSymbolTable
 70
     6
  0
LTYPE
  5
14
330
5
100
AcDbSymbolTableRecord
100
AcDbLinetypeTableRecord
  2
ByBlock
 70
     0
  3

 72
    65
 73
     0
 40
0.0
  0
LTYPE
  5
15
330
5
100
AcDbSymbolTableRecord
100
AcDbLinetypeTableRecord
  2
ByLayer
 70
     0
  3

 72
    65
 73
     0
 40
0.0
  0
LTYPE
  5
16
330
5
100
AcDbSymbolTableRecord
100
AcDbLinetypeTableRecord
  2
Continuous
 70
     0
  3
Solid line
 72
    65
 73
     0
 40
0.0
  0
LTYPE
  5
6A
330
5
100
AcDbSymbolTableRecord
100
AcDbLinetypeTableRecord
  2
HIDDEN
 70
     0
  3
Hidden __ __ __ __ __ __ __ __ __ __ __ __ __ __
 72
    65
 73
     2
 40
1.905
 49
1.27
 74
     0
 49
-0.635
 74
     0
  0
LTYPE
  5
6B
330
5
100
AcDbSymbolTableRecord
100
AcDbLinetypeTableRecord
  2
PHANTOM
 70
     0
  3
Phantom ______  __  __  ______  __  __  ______
 72
    65
 73
     6
 40
12.7
 49
6.35
 74
     0
 49
-1.27
 74
     0
 49
1.27
 74
     0
 49
-1.27
 74
     0
 49
1.27
 74
     0
 49
-1.27
 74
     0
  0
LTYPE
  5
6C
330
5
100
AcDbSymbolTableRecord
100
AcDbLinetypeTableRecord
  2
CENTER
 70
     0
  3
Center ____ _ ____ _ ____ _ ____ _ ____ _ ____
 72
    65
 73
     4
 40
10.16
 49
6.35
 74
     0
 49
-1.27
 74
     0
 49
1.27
 74
     0
 49
-1.27
 74
     0
  0
LTYPE
  5
6D
330
5
100
AcDbSymbolTableRecord
100
AcDbLinetypeTableRecord
  2
CENTERX2
 70
     0
  3
Center (2x) ________  __  ________  __  _____
 72
    65
 73
     4
 40
20.32
 49
12.7
 74
     0
 49
-2.54
 74
     0
 49
2.54
 74
     0
 49
-2.54
 74
     0
  0
LTYPE
  5
6E
330
5
100
AcDbSymbolTableRecord
100
AcDbLinetypeTableRecord
  2
DOT2
 70
     0
  3
Dot (.5x) ........................................
 72
    65
 73
     2
 40
0.635
 49
0.0
 74
     0
 49
-0.635
 74
     0
  0
ENDTAB
  0
TABLE
  2
LAYER
  5
2
330
0
100
AcDbSymbolTable
 70
    17
  0
LAYER
  5
10
330
2
100
AcDbSymbolTableRecord
100
AcDbLayerTableRecord
  2
0
 70
     0
 62
     7
  6
Continuous
370
    -3
390
F
  0
LAYER
  5
6F
330
2
100
AcDbSymbolTableRecord
100
AcDbLayerTableRecord
  2
FORMAT
 70
     0
 62
     2
  6
Continuous
370
    -3
390
F
  0
LAYER
  5
70
330
2
100
AcDbSymbolTableRecord
100
AcDbLayerTableRecord
  2
외형선
 70
     0
 62
   100
  6
Continuous
370
    30
390
F
  0
LAYER
  5
71
330
2
100
AcDbSymbolTableRecord
100
AcDbLayerTableRecord
  2
숨은선
 70
     0
 62
     2
  6
HIDDEN
370
    15
390
F
  0
LAYER
  5
72
330
2
100
AcDbSymbolTableRecord
100
AcDbLayerTableRecord
  2
중심선
 70
     0
 62
     1
  6
CENTERX2
370
    -3
390
F
  0
LAYER
  5
73
330
2
100
AcDbSymbolTableRecord
100
AcDbLayerTableRecord
  2
파단선
 70
     0
 62
     4
  6
Continuous
370
    -3
390
F
  0
LAYER
  5
74
330
2
100
AcDbSymbolTableRecord
100
AcDbLayerTableRecord
  2
해칭선
 70
     0
 62
     4
  6
Continuous
370
    -3
390
F
  0
LAYER
  5
75
330
2
100
AcDbSymbolTableRecord
100
AcDbLayerTableRecord
  2
가는실선
 70
     0
 62
     4
  6
Continuous
370
    -3
390
F
  0
LAYER
  5
76
330
2
100
AcDbSymbolTableRecord
100
AcDbLayerTableRecord
  2
치수_보조선
 70
     0
 62
     4
  6
Continuous
370
    -3
390
F
  0
LAYER
  5
77
330
2
100
AcDbSymbolTableRecord
100
AcDbLayerTableRecord
  2
치수문자_일반주서
 70
     0
 62
     7
  6
Continuous
370
    15
390
F
  0
LAYER
  5
78
330
2
100
AcDbSymbolTableRecord
100
AcDbLayerTableRecord
  2
개별주서
 70
     0
 62
   100
  6
Continuous
370
    30
390
F
  0
LAYER
  5
79
330
2
100
AcDbSymbolTableRecord
100
AcDbLayerTableRecord
  2
중간선
 70
     0
 62
     2
  6
Continuous
370
    15
390
F
  0
LAYER
  5
7A
330
2
100
AcDbSymbolTableRecord
100
AcDbLayerTableRecord
  2
윤곽선
 70
     0
 62
     3
  6
Continuous
370
    40
390
F
  0
LAYER
  5
7B
330
2
100
AcDbSymbolTableRecord
100
AcDbLayerTableRecord
  2
중심마크
 70
     0
 62
   100
  6
Continuous
370
    30
390
F
  0
LAYER
  5
7C
330
2
100
AcDbSymbolTableRecord
100
AcDbLayerTableRecord
  2
가상선
 70
     0
 62
     4
  6
PHANTOM
370
    -3
390
F
  0
LAYER
  5
7D
330
2
100
AcDbSymbolTableRecord
100
AcDbLayerTableRecord
  2
특수지정선
 70
     0
 62
     5
  6
CENTERX2
370
    60
390
F
  0
LAYER
  5
131
330
2
100
AcDbSymbolTableRecord
100
AcDbLayerTableRecord
  2
Defpoints
 70
     0
 62
     7
  6
Continuous
290
     0
370
    -3
390
F
  0
ENDTAB
  0
TABLE
  2
STYLE
  5
3
330
0
100
AcDbSymbolTable
 70
     2
  0
STYLE
  5
11
330
3
100
AcDbSymbolTableRecord
100
AcDbTextStyleTableRecord
  2
Standard
 70
     0
 40
0.0
 41
1.0
 50
0.0
 71
     0
 42
3.5
  3
txt
  4

  0
STYLE
  5
93
330
3
100
AcDbSymbolTableRecord
100
AcDbTextStyleTableRecord
  2
SLDTEXTSTYLE0
 70
     0
 40
0.0
 41
0.75
 50
0.0
 71
     0
 42
3.5
  3
TXT
  4

  0
ENDTAB
  0
TABLE
  2
VIEW
  5
6
330
0
100
AcDbSymbolTable
 70
     0
  0
ENDTAB
  0
TABLE
  2
UCS
  5
7
330
0
100
AcDbSymbolTable
 70
     0
  0
ENDTAB
  0
TABLE
  2
APPID
  5
9
330
0
100
AcDbSymbolTable
 70
     2
  0
APPID
  5
12
330
9
100
AcDbSymbolTableRecord
100
AcDbRegAppTableRecord
  2
ACAD
 70
     0
  0
APPID
  5
136
330
9
100
AcDbSymbolTableRecord
100
AcDbRegAppTableRecord
  2
PE_URL
 70
     0
  0
ENDTAB
  0
TABLE
  2
DIMSTYLE
  5
A
330
0
100
AcDbSymbolTable
 70
     3
100
AcDbDimStyleTable
  0
DIMSTYLE
105
27
330
A
100
AcDbSymbolTableRecord
100
AcDbDimStyleTableRecord
  2
ISO-25
 70
     0
 41
2.5
 42
0.625
 43
3.75
 44
1.25
 73
     0
 74
     0
 77
     1
 78
     8
140
2.5
141
2.5
143
0.03937007874016
147
0.625
171
     3
172
     1
178
     0
271
     2
272
     2
274
     3
278
    44
283
     0
284
     8
340
11
  0
DIMSTYLE
105
D9
102
{ACAD_REACTORS
330
D8
330
E3
102
}
330
A
100
AcDbSymbolTableRecord
100
AcDbDimStyleTableRecord
  2
SLDDIMSTYLE0
 70
     0
 41
3.302
 44
0.0
 45
0.000000001
 73
     0
 74
     0
 77
     1
 78
    12
 79
     3
140
3.5
147
0.875
173
     1
178
     0
271
     2
272
     2
276
     2
284
    12
340
93
  0
DIMSTYLE
105
EE
102
{ACAD_REACTORS
330
ED
330
FB
102
}
330
A
100
AcDbSymbolTableRecord
100
AcDbDimStyleTableRecord
  2
SLDDIMSTYLE1
 70
     0
 41
3.302
 44
0.0
 45
0.000000001
 73
     0
 74
     0
 77
     1
 78
    12
 79
     3
140
3.5
147
0.875
172
     1
173
     1
178
     0
271
     2
272
     2
276
     2
284
    12
289
     0
340
93
  0
ENDTAB
  0
TABLE
  2
BLOCK_RECORD
  5
1
330
0
100
AcDbSymbolTable
 70
     7
  0
BLOCK_RECORD
  5
1F
330
1
100
AcDbSymbolTableRecord
100
AcDbBlockTableRecord
  2
*Model_Space
340
22
  0
BLOCK_RECORD
  5
1B
330
1
100
AcDbSymbolTableRecord
100
AcDbBlockTableRecord
  2
*Paper_Space
340
1E
  0
BLOCK_RECORD
  5
23
330
1
100
AcDbSymbolTableRecord
100
AcDbBlockTableRecord
  2
*Paper_Space0
340
26
  0
BLOCK_RECORD
  5
7E
330
1
100
AcDbSymbolTableRecord
100
AcDbBlockTableRecord
  2
블럭10
340
0
102
{BLKREFS
331
D1
102
}
  0
BLOCK_RECORD
  5
DA
330
1
100
AcDbSymbolTableRecord
100
AcDbBlockTableRecord
  2
_D
340
0
  0
BLOCK_RECORD
  5
E4
330
1
100
AcDbSymbolTableRecord
100
AcDbBlockTableRecord
  2
_D_1
340
0
  0
BLOCK_RECORD
  5
EF
330
1
100
AcDbSymbolTableRecord
100
AcDbBlockTableRecord
  2
_D_2
340
0
  0
BLOCK_RECORD
  5
FC
330
1
100
AcDbSymbolTableRecord
100
AcDbBlockTableRecord
  2
_D_3
340
0
  0
BLOCK_RECORD
  5
108
330
1
100
AcDbSymbolTableRecord
100
AcDbBlockTableRecord
  2
SW_DOWELSYMBOL_0
340
0
102
{BLKREFS
331
10E
102
}
  0
ENDTAB
  0
ENDSEC
  0
SECTION
  2
BLOCKS
  0
BLOCK
  5
20
330
1F
100
AcDbEntity
  8
0
100
AcDbBlockBegin
  2
*Model_Space
 70
     0
 10
0.0
 20
0.0
 30
0.0
  3
*Model_Space
  1

  0
ENDBLK
  5
21
330
1F
100
AcDbEntity
  8
0
100
AcDbBlockEnd
  0
BLOCK
  5
1C
330
1B
100
AcDbEntity
 67
     1
  8
0
100
AcDbBlockBegin
  2
*Paper_Space
 70
     0
 10
0.0
 20
0.0
 30
0.0
  3
*Paper_Space
  1

  0
ENDBLK
  5
1D
330
1B
100
AcDbEntity
 67
     1
  8
0
100
AcDbBlockEnd
  0
BLOCK
  5
24
330
23
100
AcDbEntity
  8
0
100
AcDbBlockBegin
  2
*Paper_Space0
 70
     0
 10
0.0
 20
0.0
 30
0.0
  3
*Paper_Space0
  1

  0
ENDBLK
  5
25
330
23
100
AcDbEntity
  8
0
100
AcDbBlockEnd
  0
BLOCK
  5
7F
330
7E
100
AcDbEntity
  8
0
100
AcDbBlockBegin
  2
블럭10
 70
     2
 10
0.0
 20
0.0
 30
0.0
  3
블럭10
  1

  0
ELLIPSE
  5
81
330
7E
100
AcDbEntity
  8
중심선
100
AcDbEllipse
 10
20.54032771741204
 20
12.0471743016438
 30
0.0
 11
6.600054785286829
 21
-1.261213355974178E-13
 31
0.0
210
0.0
220
0.0
230
1.0
 40
0.636358354079598
 41
0.9219305317359503
 42
6.513795318482858
  0
ELLIPSE
  5
82
330
7E
100
AcDbEntity
  8
중심선
100
AcDbEllipse
 10
20.54032771746488
 20
12.04717430159265
 30
0.0
 11
3.960054785062283
 21
1.540847449632565E-10
 31
0.0
210
0.0
220
0.0
230
1.0
 40
0.3939339440162632
 41
1.131841032648279
 42
5.62031148352944
  0
LINE
  5
83
330
7E
100
AcDbEntity
  8
중심선
100
AcDbLine
 10
2.268634060543552
 20
16.24717430164393
 30
0.0
 11
5.714909304380834
 21
16.24717430164393
 31
0.0
  0
LINE
  5
84
330
7E
100
AcDbEntity
  8
중심선
100
AcDbLine
 10
5.245725140726316
 20
7.84717430164391
 30
0.0
 11
8.692000384563599
 21
7.84717430164391
 31
0.0
  0
LINE
  5
85
330
7E
100
AcDbEntity
  8
중심선
100
AcDbLine
 10
15.74043728645272
 20
16.24717430164393
 30
0.0
 11
8.692000384563599
 21
7.84717430164391
 31
0.0
  0
LINE
  5
86
330
7E
100
AcDbEntity
  8
중심선
100
AcDbLine
 10
0.1404042013395286
 20
13.71084872107135
 30
0.0
 11
3.58671253028996
 21
13.71088815037384
 31
0.0
  0
LINE
  5
87
330
7E
100
AcDbEntity
  8
중심선
100
AcDbLine
 10
2.750260043222114
 20
10.84717430164391
 30
0.0
 11
6.196535287059397
 21
10.84717430164391
 31
0.0
  0
LINE
  5
88
330
7E
100
AcDbEntity
  8
중심선
100
AcDbLine
 10
12.29416204261559
 20
16.24717430164393
 30
0.0
 11
5.245725140726316
 21
7.84717430164391
 31
0.0
  0
LINE
  5
89
330
7E
100
AcDbEntity
  8
중심선
100
AcDbLine
 10
10.72767329541681
 20
16.24717430164393
 30
0.0
 11
6.196535287059397
 21
10.84717430164391
 31
0.0
  0
LINE
  5
8A
330
7E
100
AcDbEntity
  8
중심선
100
AcDbLine
 10
7.28139805157953
 20
16.24717430164393
 30
0.0
 11
2.750260043222114
 21
10.84717430164391
 31
0.0
  0
LINE
  5
8B
330
7E
100
AcDbEntity
  8
중심선
100
AcDbLine
 10
5.714909304380834
 20
16.24717430164393
 30
0.0
 11
3.58671253028996
 21
13.71088815037384
 31
0.0
  0
LINE
  5
8C
330
7E
100
AcDbEntity
  8
중심선
100
AcDbLine
 10
2.268634060543552
 20
16.24717430164393
 30
0.0
 11
0.1404042013395286
 21
13.71084872107135
 31
0.0
  0
LINE
  5
8D
330
7E
100
AcDbEntity
  8
중심선
100
AcDbLine
 10
7.28139805157953
 20
16.24717430164393
 30
0.0
 11
10.72767329541681
 21
16.24717430164393
 31
0.0
  0
LINE
  5
8E
330
7E
100
AcDbEntity
  8
중심선
100
AcDbLine
 10
12.29416204261559
 20
16.24717430164393
 30
0.0
 11
15.74043728645272
 21
16.24717430164393
 31
0.0
  0
LINE
  5
8F
330
7E
100
AcDbEntity
  8
중심선
100
AcDbLine
 10
19.22036997980202
 20
11.08717430171403
 30
0.0
 11
23.66174974927406
 21
11.08717430171406
 31
0.0
  0
LINE
  5
90
330
7E
100
AcDbEntity
  8
중심선
100
AcDbLine
 10
19.22039502424796
 20
13.00717430171391
 30
0.0
 11
19.22036997980202
 21
11.08717430171403
 31
0.0
  0
LINE
  5
91
330
7E
100
AcDbEntity
  8
중심선
100
AcDbLine
 10
19.22039502424796
 20
13.00717430171391
 30
0.0
 11
26.96566020931264
 21
13.00717430171391
 31
0.0
  0
LINE
  5
92
330
7E
100
AcDbEntity
  8
중심선
100
AcDbLine
 10
22.22332737316547
 20
13.45928029700563
 30
0.0
 11
24.52862924686651
 21
15.39360700705356
 31
0.0
  0
ATTDEF
  5
94
330
7E
100
AcDbEntity
  8
FORMAT
 62
     2
100
AcDbText
 10
-12.95993919485777
 20
2.075366912832191
 30
0.0
 40
4.233333333333333
  1
SEME35095E [ 2 FLUTE ]
 41
0.75
  7
SLDTEXTSTYLE0
 11
-12.95993919485777
 21
-0.0412997538344756
 31
0.0
100
AcDbAttributeDefinition
  3

  2
AUTOATTR0
 70
     0
 74
     1
  0
ENDBLK
  5
80
330
7E
100
AcDbEntity
  8
0
100
AcDbBlockEnd
  0
BLOCK
  5
DB
330
DA
100
AcDbEntity
  8
0
100
AcDbBlockBegin
  2
_D
 70
     0
 10
0.0
 20
0.0
 30
0.0
  3
_D
  1

  0
LINE
  5
DD
330
DA
100
AcDbEntity
  8
치수문자_일반주서
 62
     0
370
    -2
100
AcDbLine
 10
27.93301270189222
 20
4.808485372340813
 30
0.0
 11
27.93301270189222
 21
16.9966192609186
 31
0.0
  0
LINE
  5
DE
330
DA
100
AcDbEntity
  8
치수문자_일반주서
 62
     0
370
    -2
100
AcDbLine
 10
3.933012701892212
 20
4.732893182003859
 30
0.0
 11
3.933012701892212
 21
16.9966192609186
 31
0.0
  0
LINE
  5
DF
330
DA
100
AcDbEntity
  8
치수문자_일반주서
 62
     0
370
    -2
100
AcDbLine
 10
24.63101270189222
 20
16.9966192609186
 30
0.0
 11
7.235012701892211
 21
16.9966192609186
 31
0.0
  0
SOLID
  5
E0
330
DA
100
AcDbEntity
  8
치수문자_일반주서
 62
     0
100
AcDbTrace
 10
24.63101270189222
 20
16.44628592758527
 30
0.0
 11
24.63101270189222
 21
17.54695259425193
 31
0.0
 12
27.93301270189222
 22
16.9966192609186
 32
0.0
 13
27.93301270189222
 23
16.9966192609186
 33
0.0
  0
SOLID
  5
E1
330
DA
100
AcDbEntity
  8
치수문자_일반주서
 62
     0
100
AcDbTrace
 10
7.235012701892211
 20
17.54695259425193
 30
0.0
 11
7.235012701892211
 21
16.44628592758527
 31
0.0
 12
3.933012701892212
 22
16.9966192609186
 32
0.0
 13
3.933012701892212
 23
16.9966192609186
 33
0.0
  0
MTEXT
  5
E2
330
DA
100
AcDbEntity
  8
치수문자_일반주서
 62
     0
100
AcDbMText
 10
15.93301270189221
 20
21.3716192609186
 30
0.0
 40
3.5
 41
0.0
 71
     2
 72
     1
  1
\A1;24
  7
SLDTEXTSTYLE0
 73
     1
 44
1.0
  0
POINT
  5
137
330
DA
100
AcDbEntity
  8
Defpoints
 62
     0
100
AcDbPoint
 10
27.93301270189222
 20
4.745985372340813
 30
0.0
  0
POINT
  5
138
330
DA
100
AcDbEntity
  8
Defpoints
 62
     0
100
AcDbPoint
 10
3.933012701892212
 20
4.670393182003859
 30
0.0
  0
POINT
  5
139
330
DA
100
AcDbEntity
  8
Defpoints
 62
     0
100
AcDbPoint
 10
3.933012701892212
 20
16.9966192609186
 30
0.0
  0
ENDBLK
  5
DC
330
DA
100
AcDbEntity
  8
0
100
AcDbBlockEnd
  0
BLOCK
  5
E5
330
E4
100
AcDbEntity
  8
0
100
AcDbBlockBegin
  2
_D_1
 70
     0
 10
0.0
 20
0.0
 30
0.0
  3
_D_1
  1

  0
LINE
  5
E7
330
E4
100
AcDbEntity
  8
치수문자_일반주서
 62
     0
370
    -2
100
AcDbLine
 10
27.93301270189222
 20
4.808485372340813
 30
0.0
 11
27.93301270189222
 21
26.10915911661223
 31
0.0
  0
LINE
  5
E8
330
E4
100
AcDbEntity
  8
치수문자_일반주서
 62
     0
370
    -2
100
AcDbLine
 10
-42.06698729810779
 20
4.062499999999994
 30
0.0
 11
-42.06698729810779
 21
26.10915911661223
 31
0.0
  0
LINE
  5
E9
330
E4
100
AcDbEntity
  8
치수문자_일반주서
 62
     0
370
    -2
100
AcDbLine
 10
24.63101270189222
 20
26.10915911661223
 30
0.0
 11
-38.76498729810779
 21
26.10915911661223
 31
0.0
  0
SOLID
  5
EA
330
E4
100
AcDbEntity
  8
치수문자_일반주서
 62
     0
100
AcDbTrace
 10
24.63101270189222
 20
25.55882578327889
 30
0.0
 11
24.63101270189222
 21
26.65949244994556
 31
0.0
 12
27.93301270189222
 22
26.10915911661223
 32
0.0
 13
27.93301270189222
 23
26.10915911661223
 33
0.0
  0
SOLID
  5
EB
330
E4
100
AcDbEntity
  8
치수문자_일반주서
 62
     0
100
AcDbTrace
 10
-38.76498729810779
 20
26.65949244994556
 30
0.0
 11
-38.76498729810779
 21
25.55882578327889
 31
0.0
 12
-42.06698729810779
 22
26.10915911661223
 32
0.0
 13
-42.06698729810779
 23
26.10915911661223
 33
0.0
  0
MTEXT
  5
EC
330
E4
100
AcDbEntity
  8
치수문자_일반주서
 62
     0
100
AcDbMText
 10
-7.066987298107794
 20
30.48415911661223
 30
0.0
 40
3.5
 41
0.0
 71
     2
 72
     1
  1
\A1;70
  7
SLDTEXTSTYLE0
 73
     1
 44
1.0
  0
POINT
  5
132
330
E4
100
AcDbEntity
  8
Defpoints
 62
     0
100
AcDbPoint
 10
27.93301270189222
 20
4.745985372340813
 30
0.0
  0
POINT
  5
133
330
E4
100
AcDbEntity
  8
Defpoints
 62
     0
100
AcDbPoint
 10
-42.06698729810779
 20
3.999999999999994
 30
0.0
  0
POINT
  5
134
330
E4
100
AcDbEntity
  8
Defpoints
 62
     0
100
AcDbPoint
 10
-42.06698729810779
 20
26.10915911661223
 30
0.0
  0
ENDBLK
  5
E6
330
E4
100
AcDbEntity
  8
0
100
AcDbBlockEnd
  0
BLOCK
  5
F0
330
EF
100
AcDbEntity
  8
0
100
AcDbBlockBegin
  2
_D_2
 70
     0
 10
0.0
 20
0.0
 30
0.0
  3
_D_2
  1

  0
LINE
  5
F2
330
EF
100
AcDbEntity
  8
치수문자_일반주서
 62
     0
370
    -2
100
AcDbLine
 10
27.99551270189222
 20
4.750985372340813
 30
0.0
 11
43.49920301413848
 21
4.750985372340872
 31
0.0
  0
LINE
  5
F3
330
EF
100
AcDbEntity
  8
치수문자_일반주서
 62
     0
370
    -2
100
AcDbLine
 10
27.99551270189222
 20
-4.74598537234081
 30
0.0
 11
43.49920301413852
 21
-4.745985372340751
 31
0.0
  0
LINE
  5
F4
330
EF
100
AcDbEntity
  8
치수문자_일반주서
 62
     0
370
    -2
100
AcDbLine
 10
43.49920301413849
 20
1.448985372340872
 30
0.0
 11
43.4992030141385
 21
-1.443985372340751
 31
0.0
  0
SOLID
  5
F5
330
EF
100
AcDbEntity
  8
치수문자_일반주서
 62
     0
100
AcDbTrace
 10
44.04953634747183
 20
1.448985372340874
 30
0.0
 11
42.94886968080516
 21
1.44898537234087
 31
0.0
 12
43.49920301413848
 22
4.750985372340872
 32
0.0
 13
43.49920301413848
 23
4.750985372340872
 33
0.0
  0
SOLID
  5
F6
330
EF
100
AcDbEntity
  8
치수문자_일반주서
 62
     0
100
AcDbTrace
 10
42.94886968080517
 20
-1.443985372340753
 30
0.0
 11
44.04953634747184
 21
-1.443985372340749
 31
0.0
 12
43.49920301413852
 22
-4.745985372340751
 32
0.0
 13
43.49920301413852
 23
-4.745985372340751
 33
0.0
  0
MTEXT
  5
F7
330
EF
100
AcDbEntity
  8
치수문자_일반주서
 62
     0
100
AcDbMText
 10
39.1242030141385
 20
-0.000000000000016
 30
0.0
 40
3.5
 41
0.0
 71
     2
 72
     1
  1
\A1;%%c9.5
  7
SLDTEXTSTYLE0
 11
-3.740891463512244E-15
 21
1.0
 31
0.0
 73
     1
 44
1.0
  0
POINT
  5
F8
330
EF
100
AcDbEntity
  8
Defpoints
 62
     0
100
AcDbPoint
 10
27.93301270189222
 20
4.750985372340813
 30
0.0
  0
POINT
  5
F9
330
EF
100
AcDbEntity
  8
Defpoints
 62
     0
100
AcDbPoint
 10
27.93301270189222
 20
-4.74598537234081
 30
0.0
  0
POINT
  5
FA
330
EF
100
AcDbEntity
  8
Defpoints
 62
     0
100
AcDbPoint
 10
43.49920301413852
 20
-4.745985372340752
 30
0.0
  0
ENDBLK
  5
F1
330
EF
100
AcDbEntity
  8
0
100
AcDbBlockEnd
  0
BLOCK
  5
FD
330
FC
100
AcDbEntity
  8
0
100
AcDbBlockBegin
  2
_D_3
 70
     0
 10
0.0
 20
0.0
 30
0.0
  3
_D_3
  1

  0
LINE
  5
FF
330
FC
100
AcDbEntity
  8
치수문자_일반주서
 62
     0
370
    -2
100
AcDbLine
 10
-41.12948729810779
 20
4.999999999999995
 30
0.0
 11
-53.48654674349635
 21
4.999999999999948
 31
0.0
  0
LINE
  5
100
330
FC
100
AcDbEntity
  8
치수문자_일반주서
 62
     0
370
    -2
100
AcDbLine
 10
-41.12948729810779
 20
-5.0
 30
0.0
 11
-53.48654674349631
 21
-5.000000000000046
 31
0.0
  0
LINE
  5
101
330
FC
100
AcDbEntity
  8
치수문자_일반주서
 62
     0
370
    -2
100
AcDbLine
 10
-53.48654674349633
 20
1.697999999999948
 30
0.0
 11
-53.48654674349633
 21
-1.698000000000046
 31
0.0
  0
SOLID
  5
102
330
FC
100
AcDbEntity
  8
치수문자_일반주서
 62
     0
100
AcDbTrace
 10
-52.936213410163
 20
1.69799999999995
 30
0.0
 11
-54.03688007682967
 21
1.697999999999946
 31
0.0
 12
-53.48654674349635
 22
4.999999999999948
 32
0.0
 13
-53.48654674349635
 23
4.999999999999948
 33
0.0
  0
SOLID
  5
103
330
FC
100
AcDbEntity
  8
치수문자_일반주서
 62
     0
100
AcDbTrace
 10
-54.03688007682966
 20
-1.698000000000048
 30
0.0
 11
-52.93621341016299
 21
-1.698000000000044
 31
0.0
 12
-53.48654674349631
 22
-5.000000000000046
 32
0.0
 13
-53.48654674349631
 23
-5.000000000000046
 33
0.0
  0
MTEXT
  5
104
330
FC
100
AcDbEntity
  8
치수문자_일반주서
 62
     0
100
AcDbMText
 10
-57.86154674349633
 20
-0.0000000000000182
 30
0.0
 40
3.5
 41
0.0
 71
     2
 72
     1
  1
\A1;%%c10
  7
SLDTEXTSTYLE0
 11
-3.552713678800503E-15
 21
1.0
 31
0.0
 73
     1
 44
1.0
  0
POINT
  5
105
330
FC
100
AcDbEntity
  8
Defpoints
 62
     0
100
AcDbPoint
 10
-41.06698729810779
 20
4.999999999999995
 30
0.0
  0
POINT
  5
106
330
FC
100
AcDbEntity
  8
Defpoints
 62
     0
100
AcDbPoint
 10
-41.06698729810779
 20
-5.0
 30
0.0
  0
POINT
  5
107
330
FC
100
AcDbEntity
  8
Defpoints
 62
     0
100
AcDbPoint
 10
-53.48654674349631
 20
-5.000000000000046
 30
0.0
  0
ENDBLK
  5
FE
330
FC
100
AcDbEntity
  8
0
100
AcDbBlockEnd
  0
BLOCK
  5
109
330
108
100
AcDbEntity
  8
0
100
AcDbBlockBegin
  2
SW_DOWELSYMBOL_0
 70
     0
 10
0.0
 20
0.0
 30
0.0
  3
SW_DOWELSYMBOL_0
  1

  0
CIRCLE
  5
10B
330
108
100
AcDbEntity
  8
외형선
 62
     0
100
AcDbCircle
 10
0.0
 20
0.0
 30
0.0
 40
3.000000000000004
  0
HATCH
  5
10C
330
108
100
AcDbEntity
  8
0
  6
Continuous
 62
     0
370
    30
100
AcDbHatch
 10
0.0
 20
0.0
 30
0.0
210
0.0
220
0.0
230
1.0
  2
SOLID
 70
     1
 71
     0
 91
        1
 92
        0
 93
        3
 72
     2
 10
0.0000000000000087
 20
-0.0000000000000035
 40
3.000000000000004
 50
0.0
 51
90.0
 73
     1
 72
     1
 10
0.0000000000000087
 20
3.000000000000001
 11
0.0000000000000087
 21
-0.0000000000000036
 72
     1
 10
0.0000000000000087
 20
-0.0000000000000035
 11
3.000000000000013
 21
-0.0000000000000035
 97
        0
 75
     0
 76
     1
 98
        1
 10
0.0
 20
0.0
  0
HATCH
  5
10D
330
108
100
AcDbEntity
  8
0
  6
Continuous
 62
     0
370
    30
100
AcDbHatch
 10
0.0
 20
0.0
 30
0.0
210
0.0
220
0.0
230
1.0
  2
SOLID
 70
     1
 71
     0
 91
        1
 92
        0
 93
        3
 72
     2
 10
0.0000000000000087
 20
-0.0000000000000035
 40
3.000000000000004
 50
180.0
 51
270.0000000000007
 73
     1
 72
     1
 10
0.0000000000000087
 20
-3.000000000000008
 11
0.0000000000000087
 21
-0.0000000000000036
 72
     1
 10
0.0000000000000087
 20
-0.0000000000000035
 11
-2.999999999999996
 21
-0.0000000000000035
 97
        0
 75
     0
 76
     1
 98
        1
 10
0.0
 20
0.0
  0
ENDBLK
  5
10A
330
108
100
AcDbEntity
  8
0
100
AcDbBlockEnd
  0
ENDSEC
  0
SECTION
  2
ENTITIES
  0
LINE
  5
95
330
1F
100
AcDbEntity
  8
0
  6
Continuous
 62
     4
370
    15
100
AcDbLine
 10
2.0
 20
4.999999999999996
 30
0.0
 11
-41.06698729810779
 21
4.999999999999995
 31
0.0
  0
LINE
  5
96
330
1F
100
AcDbEntity
  8
0
  6
Continuous
 62
     4
370
    15
100
AcDbLine
 10
-41.06698729810779
 20
-5.0
 30
0.0
 11
2.0
 21
-4.999999999999998
 31
0.0
  0
LINE
  5
97
330
1F
100
AcDbEntity
  8
0
  6
Continuous
 62
     4
370
    15
100
AcDbLine
 10
2.0
 20
-5.0
 30
0.0
 11
2.933012701892215
 21
-4.75
 31
0.0
1001
PE_URL
1000

  0
LINE
  5
98
330
1F
100
AcDbEntity
  8
0
  6
Continuous
 62
     4
370
    15
100
AcDbLine
 10
2.933012701892215
 20
4.75
 30
0.0
 11
2.0
 21
4.999999999999998
 31
0.0
1001
PE_URL
1000

  0
LINE
  5
99
330
1F
100
AcDbEntity
  8
0
  6
Continuous
 62
     4
370
    15
100
AcDbLine
 10
-41.06698729810779
 20
4.999999999999993
 30
0.0
 11
-42.06698729810779
 21
3.999999999999992
 31
0.0
  0
LINE
  5
9A
330
1F
100
AcDbEntity
  8
0
  6
Continuous
 62
     4
370
    15
100
AcDbLine
 10
-42.06698729810779
 20
-3.999999999999999
 30
0.0
 11
-41.06698729810779
 21
-5.0
 31
0.0
  0
LINE
  5
9B
330
1F
100
AcDbEntity
  8
0
  6
Continuous
 62
     4
370
    15
100
AcDbLine
 10
2.933012701892215
 20
-4.75
 30
0.0
 11
3.933012701892212
 21
-4.75
 31
0.0
1001
PE_URL
1000

  0
LINE
  5
9C
330
1F
100
AcDbEntity
  8
0
  6
Continuous
 62
     4
370
    15
100
AcDbLine
 10
3.933012701892212
 20
4.75
 30
0.0
 11
2.933012701892215
 21
4.75
 31
0.0
1001
PE_URL
1000

  0
SPLINE
  5
9D
330
1F
100
AcDbEntity
  8
0
  6
Continuous
 62
     1
370
    15
100
AcDbSpline
210
0.0
220
0.0
230
1.0
 70
     8
 71
     3
 72
    10
 73
     6
 74
     0
 42
0.000000001
 43
0.00000001
 40
0.0
 40
0.0
 40
0.0
 40
0.0
 40
0.4989064969079898
 40
0.6863132578208219
 40
1.0
 40
1.0
 40
1.0
 40
1.0
 10
15.62625664057004
 20
1.217178053851354
 30
0.0
 10
15.40731683952017
 20
1.321755832268336
 30
0.0
 10
15.10613557798833
 20
1.465616688452495
 30
0.0
 10
14.66759171944435
 20
1.688577034093509
 30
0.0
 10
14.4474931234759
 20
1.804001413958903
 30
0.0
 10
14.30971043201906
 20
1.876257584642838
 30
0.0
  0
LINE
  5
9E
330
1F
100
AcDbEntity
  8
0
  6
Continuous
 62
     1
370
    15
100
AcDbLine
 10
12.99346542731104
 20
1.34129043557522
 30
0.0
 11
12.94941888354954
 21
1.365609782133151
 31
0.0
  0
LINE
  5
9F
330
1F
100
AcDbEntity
  8
0
  6
Continuous
 62
     1
370
    15
100
AcDbLine
 10
4.727222462792243
 20
4.750000000000002
 30
0.0
 11
3.933012701892215
 21
4.750000000000002
 31
0.0
  0
SPLINE
  5
A0
330
1F
100
AcDbEntity
  8
0
  6
Continuous
 62
     1
370
    15
100
AcDbSpline
210
0.0
220
0.0
230
1.0
 70
     8
 71
     3
 72
    19
 73
    15
 74
     0
 42
0.000000001
 43
0.00000001
 40
0.0
 40
0.0
 40
0.0
 40
0.0
 40
0.1383251625862727
 40
0.2490415228567257
 40
0.3359118192775221
 40
0.389788208424567
 40
0.4432386733412903
 40
0.5048575127300322
 40
0.6050008454272556
 40
0.7267274677626723
 40
0.8321351203910521
 40
0.9101522351267181
 40
0.9708604057525022
 40
1.0
 40
1.0
 40
1.0
 40
1.0
 10
14.05662657322152
 20
3.774534752930075
 30
0.0
 10
13.88081808333488
 20
3.765628763786977
 30
0.0
 10
13.56429133408778
 20
3.749594362978959
 30
0.0
 10
13.12092374686591
 20
3.733806099470105
 30
0.0
 10
12.78481139684724
 20
3.722708148257472
 30
0.0
 10
12.54214030335874
 20
3.71818598043251
 30
0.0
 10
12.34232771447576
 20
3.714946964064263
 30
0.0
 10
12.06378903873318
 20
3.711124839410042
 30
0.0
 10
11.69713037598887
 20
3.708855583718963
 30
0.0
 10
11.27252383374749
 20
3.71026718149496
 30
0.0
 10
10.87685438633443
 20
3.715493379332053
 30
0.0
 10
10.56063719304465
 20
3.722273963925166
 30
0.0
 10
10.34321090032387
 20
3.727960455054218
 30
0.0
 10
10.22683690446985
 20
3.731850077279625
 30
0.0
 10
10.18909427364392
 20
3.733111566795631
 30
0.0
  0
SPLINE
  5
A1
330
1F
100
AcDbEntity
  8
0
  6
Continuous
 62
     1
370
    15
100
AcDbSpline
210
0.0
220
0.0
230
1.0
 70
     8
 71
     3
 72
    28
 73
    24
 74
     0
 42
0.000000001
 43
0.00000001
 40
0.0
 40
0.0
 40
0.0
 40
0.0
 40
0.0634812204376189
 40
0.1138070126232403
 40
0.1528097352603776
 40
0.1871639991635977
 40
0.2312150310527234
 40
0.2677989103725105
 40
0.2992697938085135
 40
0.3464426044196607
 40
0.3967520472641108
 40
0.4272435758508074
 40
0.4647406893156302
 40
0.5146800409260518
 40
0.5696678467654609
 40
0.6159544060802483
 40
0.666572683351035
 40
0.7199390451859491
 40
0.7710164788566768
 40
0.8179634011356401
 40
0.8715554598654086
 40
0.9326009838922658
 40
1.0
 40
1.0
 40
1.0
 40
1.0
 10
26.16758314326032
 20
3.248767295390126
 30
0.0
 10
25.99674585264813
 20
3.234672727607165
 30
0.0
 10
25.69047446159432
 20
3.209404457045626
 30
0.0
 10
25.26869421163978
 20
3.182278921891021
 30
0.0
 10
24.917904221886
 20
3.163901519939847
 30
0.0
 10
24.58743196687966
 20
3.149459950736484
 30
0.0
 10
24.26748896938791
 20
3.138617914912566
 30
0.0
 10
23.95725313631995
 20
3.131329959774693
 30
0.0
 10
23.6373869745962
 20
3.126642553112748
 30
0.0
 10
23.27973678754104
 20
3.125026378463788
 30
0.0
 10
22.9249623343228
 20
3.127865085214213
 30
0.0
 10
22.59699904843582
 20
3.133895828707514
 30
0.0
 10
22.2675626099263
 20
3.142887757437179
 30
0.0
 10
21.86836618934166
 20
3.158192844873799
 30
0.0
 10
21.44717389661339
 20
3.180046636023192
 30
0.0
 10
21.03486918077023
 20
3.206719548989234
 30
0.0
 10
20.61900192190057
 20
3.238468952845535
 30
0.0
 10
20.18771728337279
 20
3.277003254681374
 30
0.0
 10
19.77227743350679
 20
3.319409044485589
 30
0.0
 10
19.37543422744383
 20
3.362785628359357
 30
0.0
 10
18.9104824530367
 20
3.421764988246289
 30
0.0
 10
18.38894398448501
 20
3.492188298872948
 30
0.0
 10
18.04878524388068
 20
3.544949741792671
 30
0.0
 10
17.87029292016529
 20
3.572635382128083
 30
0.0
  0
SPLINE
  5
A2
330
1F
100
AcDbEntity
  8
0
  6
Continuous
 62
     1
370
    15
100
AcDbSpline
210
0.0
220
0.0
230
1.0
 70
     8
 71
     3
 72
    25
 73
    21
 74
     0
 42
0.000000001
 43
0.00000001
 40
0.0
 40
0.0
 40
0.0
 40
0.0
 40
0.0707482164284146
 40
0.1220748695211896
 40
0.1683274530356323
 40
0.2104583614123314
 40
0.2662114540089309
 40
0.310826800779704
 40
0.3503403611870703
 40
0.4089926060148489
 40
0.4625020245821174
 40
0.5062481290940982
 40
0.5623804949858104
 40
0.6429794201281619
 40
0.7172221046373596
 40
0.7733999503806834
 40
0.8114774211063535
 40
0.8593269892004266
 40
0.9214652391110199
 40
1.0
 40
1.0
 40
1.0
 40
1.0
 10
6.912938384227422
 20
-3.952660768224626
 30
0.0
 10
7.082311129276318
 20
-3.936187622108267
 30
0.0
 10
7.374560980878028
 20
-3.907763482754977
 30
0.0
 10
7.777023524698725
 20
-3.872867808354645
 30
0.0
 10
8.10880704263933
 20
-3.846387386641745
 30
0.0
 10
8.451851667487212
 20
-3.821275453205812
 30
0.0
 10
8.792625864519046
 20
-3.798799117951547
 30
0.0
 10
9.126615490416304
 20
-3.77927370096403
 30
0.0
 10
9.467432852787097
 20
-3.761479122289821
 30
0.0
 10
9.829451599260874
 20
-3.745328286806275
 30
0.0
 10
10.20163679600572
 20
-3.732072106921467
 30
0.0
 10
10.56777751712362
 20
-3.721836951084476
 30
0.0
 10
10.99864936805923
 20
-3.713175219083185
 30
0.0
 10
11.50309001921505
 20
-3.708591299358313
 30
0.0
 10
12.00703626033238
 20
-3.710065847747631
 30
0.0
 10
12.4079129101022
 20
-3.716073446236326
 30
0.0
 10
12.71595709349802
 20
-3.720873772581028
 30
0.0
 10
13.08515355350226
 20
-3.732442632812925
 30
0.0
 10
13.54209326095694
 20
-3.74863059058308
 30
0.0
 10
13.8722866187717
 20
-3.765254164106605
 30
0.0
 10
14.05662657322152
 20
-3.774534752930074
 30
0.0
  0
SPLINE
  5
A3
330
1F
100
AcDbEntity
  8
0
  6
Continuous
 62
     1
370
    15
100
AcDbSpline
210
0.0
220
0.0
230
1.0
 70
     8
 71
     3
 72
    16
 73
    12
 74
     0
 42
0.000000001
 43
0.00000001
 40
0.0
 40
0.0
 40
0.0
 40
0.0
 40
0.1345263818771267
 40
0.2572185553472456
 40
0.3702529995014374
 40
0.468393349157268
 40
0.5609504773302142
 40
0.6618079922582173
 40
0.783773141519387
 40
0.8990250729444107
 40
1.0
 40
1.0
 40
1.0
 40
1.0
 10
17.87029292016529
 20
-3.572635382128082
 30
0.0
 10
18.0220942913489
 20
-3.548988684160559
 30
0.0
 10
18.31234315443985
 20
-3.503775474639363
 30
0.0
 10
18.76660705605282
 20
-3.441021327493931
 30
0.0
 10
19.17354834031375
 20
-3.387759659261687
 30
0.0
 10
19.54077169642087
 20
-3.344365083994185
 30
0.0
 10
19.86318348441599
 20
-3.309971976233686
 30
0.0
 10
20.23978170514838
 20
-3.272185595269232
 30
0.0
 10
20.64204786690273
 20
-3.236678415892756
 30
0.0
 10
21.04337718457705
 20
-3.205948117483207
 30
0.0
 10
21.29659497766027
 20
-3.190256585802431
 30
0.0
 10
21.41484415523895
 20
-3.182928859367378
 30
0.0
  0
LINE
  5
A4
330
1F
100
AcDbEntity
  8
0
  6
Continuous
 62
     1
370
    15
100
AcDbLine
 10
3.933012701892215
 20
-4.750000000000004
 30
0.0
 11
4.72722246279225
 21
-4.750000000000004
 31
0.0
  0
LINE
  5
A5
330
1F
100
AcDbEntity
  8
0
  6
Continuous
 62
     4
370
    15
100
AcDbLine
 10
2.0
 20
4.999999999999998
 30
0.0
 11
2.0
 21
-4.999999999999998
 31
0.0
  0
LINE
  5
A6
330
1F
100
AcDbEntity
  8
0
  6
Continuous
 62
     4
370
    15
100
AcDbLine
 10
-41.06698729810779
 20
4.999999999999993
 30
0.0
 11
-41.06698729810779
 21
-5.0
 31
0.0
  0
LINE
  5
A7
330
1F
100
AcDbEntity
  8
0
  6
Continuous
 62
     4
370
    15
100
AcDbLine
 10
2.933012701892215
 20
4.75
 30
0.0
 11
2.933012701892215
 21
4.740929440135963
 31
0.0
1001
PE_URL
1000

  0
SPLINE
  5
A8
330
1F
100
AcDbEntity
  8
0
  6
Continuous
 62
     4
370
    15
100
AcDbSpline
210
0.0
220
0.0
230
1.0
 70
     8
 71
     3
 72
     8
 73
     4
 74
     0
 42
0.000000001
 43
0.00000001
 40
0.0
 40
0.0
 40
0.0
 40
0.0
 40
0.0005967534040385
 40
0.0005967534040385
 40
0.0005967534040385
 40
0.0005967534040385
 10
2.412910139125772
 20
4.889187786082892
 30
0.0
 10
2.586322241352791
 20
4.842002647333163
 30
0.0
 10
2.759715966561121
 20
4.792582088275398
 30
0.0
 10
2.933012701892256
 20
4.740929440135793
 30
0.0
1001
PE_URL
1000

  0
LINE
  5
A9
330
1F
100
AcDbEntity
  8
0
  6
Continuous
 62
     4
370
    15
100
AcDbLine
 10
2.412910139125769
 20
-4.71425844884277
 30
0.0
 11
2.412910139125772
 21
4.889188271242638
 31
0.0
1001
PE_URL
1000

  0
SPLINE
  5
AA
330
1F
100
AcDbEntity
  8
0
  6
Continuous
 62
     4
370
    15
100
AcDbSpline
210
0.0
220
0.0
230
1.0
 70
     8
 71
     3
 72
     8
 73
     4
 74
     0
 42
0.000000001
 43
0.00000001
 40
0.0
 40
0.0
 40
0.0
 40
0.0
 40
0.000590774903284
 40
0.000590774903284
 40
0.000590774903284
 40
0.000590774903284
 10
2.933012701892215
 20
-4.637567889691558
 30
0.0
 10
2.759244057206315
 20
-4.665702531004376
 30
0.0
 10
2.585801861412243
 20
-4.691343888373418
 30
0.0
 10
2.412802780922719
 20
-4.714329093615286
 30
0.0
1001
PE_URL
1000

  0
LINE
  5
AB
330
1F
100
AcDbEntity
  8
0
  6
Continuous
 62
     4
370
    15
100
AcDbLine
 10
2.933012701892215
 20
-4.637567889691558
 30
0.0
 11
2.933012701892215
 21
-4.75
 31
0.0
1001
PE_URL
1000

  0
LINE
  5
AC
330
1F
100
AcDbEntity
  8
0
  6
Continuous
 62
     4
370
    15
100
AcDbLine
 10
-42.06698729810779
 20
3.999999999999994
 30
0.0
 11
-42.06698729810779
 21
-4.000000000000006
 31
0.0
  0
SPLINE
  5
AD
330
1F
100
AcDbEntity
  8
0
  6
Continuous
 62
     4
370
    15
100
AcDbSpline
210
0.0
220
0.0
230
1.0
 70
     8
 71
     3
 72
     8
 73
     4
 74
     0
 42
0.000000001
 43
0.00000001
 40
0.0
 40
0.0
 40
0.0
 40
0.0
 40
1.0
 40
1.0
 40
1.0
 40
1.0
 10
3.933012701892292
 20
-3.987975162995204
 30
0.0
 10
3.429819382366491
 20
-3.949253623230633
 30
0.0
 10
2.91877612426515
 20
-3.88757410856277
 30
0.0
 10
2.41280278092273
 20
-3.804377820615497
 30
0.0
  0
SPLINE
  5
AE
330
1F
100
AcDbEntity
  8
0
  6
Continuous
 62
     4
370
    15
100
AcDbSpline
210
0.0
220
0.0
230
1.0
 70
     8
 71
     3
 72
     8
 73
     4
 74
     0
 42
0.000000001
 43
0.00000001
 40
0.0
 40
0.0
 40
0.0
 40
0.0
 40
1.0
 40
1.0
 40
1.0
 40
1.0
 10
3.933012701892212
 20
-0.8457840775288671
 30
0.0
 10
3.429841973049617
 20
-0.6182550326663625
 30
0.0
 10
2.918822011427119
 20
-0.3847277399643818
 30
0.0
 10
2.412870927427491
 20
-0.1511008992128823
 30
0.0
  0
SPLINE
  5
AF
330
1F
100
AcDbEntity
  8
0
  6
Continuous
 62
     1
370
    15
100
AcDbSpline
210
0.0
220
0.0
230
1.0
 70
    24
 71
     3
 72
    14
 73
    10
 74
     0
 42
0.000000001
 43
0.00000001
 40
0.0
 40
0.0
 40
0.0
 40
0.0
 40
0.25
 40
0.25
 40
0.5
 40
0.5
 40
0.75
 40
0.75
 40
1.0
 40
1.0
 40
1.0
 40
1.0
 10
3.933012701892212
 20
-0.8457840775288672
 30
0.0
 10
3.933012701892212
 20
-1.191106382928217
 30
0.0
 10
3.933012701892212
 20
-1.531626199110003
 30
0.0
 10
3.933012701892212
 20
-2.176841869587014
 30
0.0
 10
3.933012701892212
 20
-2.48132513749075
 30
0.0
 10
3.933012701892212
 20
-3.030500881448064
 30
0.0
 10
3.933012701892212
 20
-3.27503477221762
 30
0.0
 10
3.933012701892212
 20
-3.688894308188923
 30
0.0
 10
3.933012701892212
 20
-3.858189546486151
 30
0.0
 10
3.933012701892212
 20
-3.987975162995197
 30
0.0
  0
SPLINE
  5
B0
330
1F
100
AcDbEntity
  8
0
  6
Continuous
 62
     4
370
    15
100
AcDbSpline
210
0.0
220
0.0
230
1.0
 70
     8
 71
     3
 72
     8
 73
     4
 74
     0
 42
0.000000001
 43
0.00000001
 40
0.0
 40
0.0
 40
0.0
 40
0.0
 40
1.0
 40
1.0
 40
1.0
 40
1.0
 10
3.933012701892215
 20
3.241594455799621
 30
0.0
 10
3.429846395259892
 20
3.287046137533771
 30
0.0
 10
2.918830994006125
 20
3.314234854985721
 30
0.0
 10
2.412884267366506
 20
3.322370121094874
 30
0.0
  0
SPLINE
  5
B1
330
1F
100
AcDbEntity
  8
0
  6
Continuous
 62
     1
370
    15
100
AcDbSpline
210
0.0
220
0.0
230
1.0
 70
    24
 71
     3
 72
    14
 73
    10
 74
     0
 42
0.000000001
 43
0.00000001
 40
0.0
 40
0.0
 40
0.0
 40
0.0
 40
0.25
 40
0.25
 40
0.5
 40
0.5
 40
0.75
 40
0.75
 40
1.0
 40
1.0
 40
1.0
 40
1.0
 10
3.933012701892205
 20
3.241594455799622
 30
0.0
 10
3.933012701892205
 20
3.062752995072908
 30
0.0
 10
3.933012701892205
 20
2.831482088636833
 30
0.0
 10
3.933012701892205
 20
2.271571333040845
 30
0.0
 10
3.933012701892205
 20
1.943014338925069
 30
0.0
 10
3.933012701892205
 20
1.216569329892141
 30
0.0
 10
3.933012701892205
 20
0.8190683952471735
 30
0.0
 10
3.933012701892205
 20
-0.0035410499977235
 30
0.0
 10
3.933012701892205
 20
-0.4281977310693431
 30
0.0
 10
3.933012701892205
 20
-0.8457840775288638
 30
0.0
  0
SPLINE
  5
B2
330
1F
100
AcDbEntity
  8
0
  6
Continuous
 62
     4
370
    15
100
AcDbSpline
210
0.0
220
0.0
230
1.0
 70
     8
 71
     3
 72
     8
 73
     4
 74
     0
 42
0.000000001
 43
0.00000001
 40
0.0
 40
0.0
 40
0.0
 40
0.0
 40
1.0
 40
1.0
 40
1.0
 40
1.0
 10
3.933012701892215
 20
-4.727909550520257
 30
0.0
 10
3.601850339324601
 20
-4.709413867426955
 30
0.0
 10
3.267296875308132
 20
-4.679225119864694
 30
0.0
 10
2.933012701892215
 20
-4.637567889691558
 30
0.0
1001
PE_URL
1000

  0
SPLINE
  5
B3
330
1F
100
AcDbEntity
  8
0
  6
Continuous
 62
     1
370
    15
100
AcDbSpline
210
0.0
220
0.0
230
1.0
 70
    24
 71
     3
 72
     8
 73
     4
 74
     0
 42
0.000000001
 43
0.00000001
 40
0.0
 40
0.0
 40
0.0
 40
0.0
 40
1.0
 40
1.0
 40
1.0
 40
1.0
 10
3.933012701892274
 20
-3.987975162995203
 30
0.0
 10
3.933012701892277
 20
-4.237884982196123
 30
0.0
 10
3.933012701892277
 20
-4.486129459672204
 30
0.0
 10
3.933012701892277
 20
-4.727909550510061
 30
0.0
  0
SPLINE
  5
B4
330
1F
100
AcDbEntity
  8
0
  6
Continuous
 62
     4
370
    15
100
AcDbSpline
210
0.0
220
0.0
230
1.0
 70
     8
 71
     3
 72
     8
 73
     4
 74
     0
 42
0.000000001
 43
0.00000001
 40
0.0
 40
0.0
 40
0.0
 40
0.0
 40
1.0
 40
1.0
 40
1.0
 40
1.0
 10
2.933012701892215
 20
4.740929440135963
 30
0.0
 10
3.267296875308132
 20
4.729032368333175
 30
0.0
 10
3.601850339324601
 20
4.705397487583915
 30
0.0
 10
3.933012701892212
 20
4.670393182003861
 30
0.0
  0
SPLINE
  5
B5
330
1F
100
AcDbEntity
  8
0
  6
Continuous
 62
     4
370
    15
100
AcDbSpline
210
0.0
220
0.0
230
1.0
 70
    24
 71
     3
 72
    10
 73
     6
 74
     0
 42
0.000000001
 43
0.00000001
 40
0.0
 40
0.0
 40
0.0
 40
0.0
 40
0.5
 40
0.5
 40
1.0
 40
1.0
 40
1.0
 40
1.0
 10
3.933012701892212
 20
4.670393182003854
 30
0.0
 10
3.933012701892215
 20
4.452021717061231
 30
0.0
 10
3.933012701892212
 20
4.205733080633837
 30
0.0
 10
3.933012701892215
 20
3.711045033611971
 30
0.0
 10
3.933012701892212
 20
3.463992152783832
 30
0.0
 10
3.933012701892212
 20
3.24159445579962
 30
0.0
  0
LINE
  5
B6
330
1F
100
AcDbEntity
  8
0
  6
Continuous
 62
     4
370
    15
100
AcDbLine
 10
3.933012701892212
 20
4.75
 30
0.0
 11
3.933012701892212
 21
4.670393182003861
 31
0.0
1001
PE_URL
1000

  0
SPLINE
  5
B7
330
1F
100
AcDbEntity
  8
0
  6
Continuous
 62
     1
370
    15
100
AcDbSpline
210
0.0
220
0.0
230
1.0
 70
     8
 71
     3
 72
    23
 73
    19
 74
     0
 42
0.000000001
 43
0.00000001
 40
0.0
 40
0.0
 40
0.0
 40
0.0
 40
0.0649057932193637
 40
0.1297577149010729
 40
0.1945872377705902
 40
0.2594260151197349
 40
0.3243056255908745
 40
0.3880731244354891
 40
0.4517803624146972
 40
0.5154520585236041
 40
0.579127930679486
 40
0.6441434185690252
 40
0.7092078874393708
 40
0.7742266032001064
 40
0.8392065029609426
 40
0.9041782668210436
 40
0.969172639265951
 40
0.9999999999999999
 40
0.9999999999999999
 40
0.9999999999999999
 40
0.9999999999999999
 10
27.93301270189221
 20
-4.507469128851523
 30
0.0
 10
27.4308648770797
 20
-4.401516042240022
 30
0.0
 10
26.42698600805486
 20
-4.189697809636984
 30
0.0
 10
24.9219046840381
 20
-3.691625119502839
 30
0.0
 10
23.41741862532035
 20
-3.08119054901612
 30
0.0
 10
21.91267991530438
 20
-2.364982211903884
 30
0.0
 10
20.41597543384937
 20
-1.575182655717344
 30
0.0
 10
18.9276571926276
 20
-0.7391348041923208
 30
0.0
 10
17.44916132681253
 20
0.1162240769734295
 30
0.0
 10
15.97150481879676
 20
0.9676719211268365
 30
0.0
 10
14.4837217033547
 20
1.793552328511462
 30
0.0
 10
12.98494731387196
 20
2.566095622934288
 30
0.0
 10
11.47540869685428
 20
3.257574973562144
 30
0.0
 10
9.96651441618927
 20
3.83958795995623
 30
0.0
 10
8.458509207142322
 20
4.295089402542264
 30
0.0
 10
6.950716454888957
 20
4.597870433672445
 30
0.0
 10
5.707039030285346
 20
4.747249604305558
 30
0.0
 10
4.965717329562116
 20
4.734271027601153
 30
0.0
 10
4.727222462792243
 20
4.730095615065732
 30
0.0
  0
SPLINE
  5
B8
330
1F
100
AcDbEntity
  8
0
  6
Continuous
 62
     1
370
    15
100
AcDbSpline
210
0.0
220
0.0
230
1.0
 70
     8
 71
     3
 72
    15
 73
    11
 74
     0
 42
0.000000001
 43
0.00000001
 40
0.0
 40
0.0
 40
0.0
 40
0.0
 40
0.1293575459794161
 40
0.2586488007637682
 40
0.3878984196699725
 40
0.5171312439574496
 40
0.6463721900343015
 40
0.7756461379566971
 40
0.9049778202702856
 40
1.0
 40
1.0
 40
1.0
 40
1.0
 10
27.93301270189221
 20
-3.747618255749023
 30
0.0
 10
27.40102365718544
 20
-3.636933385212284
 30
0.0
 10
26.33731819345654
 20
-3.415620366244099
 30
0.0
 10
24.74223337918838
 20
-2.917969562444308
 30
0.0
 10
23.14772589783586
 20
-2.321114573330251
 30
0.0
 10
21.55345955211994
 20
-1.634749743005872
 30
0.0
 10
19.9590765051355
 20
-0.8874554874202898
 30
0.0
 10
18.36422991267855
 20
-0.1081370946895931
 30
0.0
 10
16.90998490923003
 20
0.6109531864012813
 30
0.0
 10
15.98730879202655
 20
1.043803698353162
 30
0.0
 10
15.59652124309503
 20
1.227131940480111
 30
0.0
  0
LINE
  5
B9
330
1F
100
AcDbEntity
  8
0
  6
Continuous
 62
     1
370
    15
100
AcDbLine
 10
27.93301270189207
 20
-4.507469128851523
 30
0.0
 11
27.93301270189221
 21
-3.747618255749023
 31
0.0
  0
SPLINE
  5
BA
330
1F
100
AcDbEntity
  8
0
  6
Continuous
 62
     1
370
    15
100
AcDbSpline
210
0.0
220
0.0
230
1.0
 70
     8
 71
     3
 72
    54
 73
    50
 74
     0
 42
0.000000001
 43
0.00000001
 40
0.0
 40
0.0
 40
0.0
 40
0.0
 40
0.0625
 40
0.0625
 40
0.09375
 40
0.09375
 40
0.1249999999999999
 40
0.1249999999999999
 40
0.1874999999999999
 40
0.1874999999999999
 40
0.2187499999999999
 40
0.2187499999999999
 40
0.2499999999999998
 40
0.2499999999999998
 40
0.3124999999999997
 40
0.3124999999999997
 40
0.3749999999999997
 40
0.3749999999999997
 40
0.4062499999999997
 40
0.4062499999999997
 40
0.4374999999999996
 40
0.4374999999999996
 40
0.4687499999999996
 40
0.4687499999999996
 40
0.4999999999999994
 40
0.4999999999999994
 40
0.5312499999999993
 40
0.5312499999999993
 40
0.5624999999999992
 40
0.5624999999999992
 40
0.5937499999999991
 40
0.5937499999999991
 40
0.624999999999999
 40
0.624999999999999
 40
0.6874999999999991
 40
0.6874999999999991
 40
0.7499999999999992
 40
0.7499999999999992
 40
0.7812499999999993
 40
0.7812499999999993
 40
0.8124999999999993
 40
0.8124999999999993
 40
0.8749999999999994
 40
0.8749999999999994
 40
0.9062499999999997
 40
0.9062499999999997
 40
0.9374999999999999
 40
0.9374999999999999
 40
1.0
 40
1.0
 40
1.0
 40
1.0
 10
3.933012701892208
 20
4.670393182003864
 30
0.0
 10
4.429873377618438
 20
4.617874342637625
 30
0.0
 10
4.934398417236837
 20
4.539106752603264
 30
0.0
 10
5.683984641643114
 20
4.384286932847494
 30
0.0
 10
5.931856947327255
 20
4.326693936149294
 30
0.0
 10
6.431937114880483
 20
4.199365372820022
 30
0.0
 10
6.683058758517651
 20
4.129692063762374
 30
0.0
 10
7.434977733530264
 20
3.903905496903734
 30
0.0
 10
7.931154757463187
 20
3.731433293067005
 30
0.0
 10
8.683409520565661
 20
3.442288557688168
 30
0.0
 10
8.934399944557038
 20
3.340955640793899
 30
0.0
 10
9.433736795292221
 20
3.129689283653011
 30
0.0
 10
9.681727379112859
 20
3.019827451770718
 30
0.0
 10
10.43231799479041
 20
2.677188273069113
 30
0.0
 10
10.93445695859023
 20
2.432313946453668
 30
0.0
 10
11.93037862643498
 20
1.919809906937127
 30
0.0
 10
12.43505432081651
 20
1.650295824149621
 30
0.0
 10
13.18342399741422
 20
1.236099183810855
 30
0.0
 10
13.43165018163043
 20
1.096363590287628
 30
0.0
 10
13.93232080883964
 20
0.8134555015499126
 30
0.0
 10
14.18349806211969
 20
0.6705167889688267
 30
0.0
 10
14.68440705952466
 20
0.3834499292023508
 30
0.0
 10
14.93298286230705
 20
0.2395464422494729
 30
0.0
 10
15.43143969255868
 20
-0.0487737082951946
 30
0.0
 10
15.68222642701815
 20
-0.1933659404947223
 30
0.0
 10
16.18380327211252
 20
-0.4816139318337639
 30
0.0
 10
16.4345890526997
 20
-0.6252672025756266
 30
0.0
 10
16.93304210681402
 20
-0.9098548288975712
 30
0.0
 10
17.18162115617474
 20
-1.05096701630024
 30
0.0
 10
17.68253190612304
 20
-1.33059359574822
 30
0.0
 10
17.93370908599016
 20
-1.468886005308204
 30
0.0
 10
18.43437767003869
 20
-1.740707946346123
 30
0.0
 10
18.68260153365762
 20
-1.874016956542615
 30
0.0
 10
19.4309764446376
 20
-2.266289551524689
 30
0.0
 10
19.93565184087313
 20
-2.517613808222523
 30
0.0
 10
20.93156538518705
 20
-2.987503169462918
 30
0.0
 10
21.43371295955057
 20
-3.207810565980103
 30
0.0
 10
22.18430007531263
 20
-3.509435785039063
 30
0.0
 10
22.43228926508344
 20
-3.604970988374729
 30
0.0
 10
22.9316293180056
 20
-3.786247379737399
 30
0.0
 10
23.1826204033261
 20
-3.871920470375546
 30
0.0
 10
23.93487429015795
 20
-4.112375906118684
 30
0.0
 10
24.43105052519617
 20
-4.250213023770014
 30
0.0
 10
25.18297125534345
 20
-4.421287065930613
 30
0.0
 10
25.43409253200671
 20
-4.472280413101161
 30
0.0
 10
25.93417007673844
 20
-4.561598791616851
 30
0.0
 10
26.18204191526052
 20
-4.599891015158847
 30
0.0
 10
26.93163251067136
 20
-4.695841053729479
 30
0.0
 10
27.43615665615124
 20
-4.734144143309939
 30
0.0
 10
27.93301270189221
 20
-4.745985372340808
 30
0.0
  0
SPLINE
  5
BB
330
1F
100
AcDbEntity
  8
0
  6
Continuous
 62
     1
370
    15
100
AcDbSpline
210
0.0
220
0.0
230
1.0
 70
     8
 71
     3
 72
    15
 73
    11
 74
     0
 42
0.000000001
 43
0.00000001
 40
0.0
 40
0.0
 40
0.0
 40
0.0
 40
0.0784361202981699
 40
0.2092331118080657
 40
0.3399771926625542
 40
0.4706944679440414
 40
0.6014111641167165
 40
0.7342280788857674
 40
0.8670847393855982
 40
1.0
 40
1.0
 40
1.0
 40
1.0
 10
16.12943024344294
 20
-0.4493035845124898
 30
0.0
 10
15.81052508234271
 20
-0.3218177772647642
 30
0.0
 10
14.95982620821431
 20
0.018258351697306
 30
0.0
 10
13.57764633609065
 20
0.5795581969078645
 30
0.0
 10
11.9829730084929
 20
1.203046500569076
 30
0.0
 10
10.38866084636067
 20
1.781954103999462
 30
0.0
 10
8.785929777393216
 20
2.297268123525595
 30
0.0
 10
7.174439271317343
 20
2.725400330532962
 30
0.0
 10
5.553976922101434
 20
3.059446222298522
 30
0.0
 10
4.473413526522627
 20
3.180869453753455
 30
0.0
 10
3.933012701892215
 20
3.24159445579962
 30
0.0
  0
SPLINE
  5
BC
330
1F
100
AcDbEntity
  8
0
  6
Continuous
 62
     4
370
    15
100
AcDbSpline
210
0.0
220
0.0
230
1.0
 70
    24
 71
     3
 72
    10
 73
     6
 74
     0
 42
0.000000001
 43
0.00000001
 40
0.0
 40
0.0
 40
0.0
 40
0.0
 40
0.5
 40
0.5
 40
1.0
 40
1.0
 40
1.0
 40
1.0
 10
3.933012701892212
 20
4.670393182003852
 30
0.0
 10
3.933012701892212
 20
4.452021717061231
 30
0.0
 10
3.933012701892212
 20
4.205733080633837
 30
0.0
 10
3.933012701892212
 20
3.711045033611971
 30
0.0
 10
3.933012701892212
 20
3.463992152783832
 30
0.0
 10
3.933012701892212
 20
3.24159445579962
 30
0.0
  0
LINE
  5
BD
330
1F
100
AcDbEntity
  8
0
  6
Continuous
 62
     1
370
    15
100
AcDbLine
 10
27.93301270189222
 20
-4.74598537234081
 30
0.0
 11
27.93301270189233
 21
-4.507469128851517
 31
0.0
  0
SPLINE
  5
BE
330
1F
100
AcDbEntity
  8
0
  6
Continuous
 62
     1
370
    15
100
AcDbSpline
210
0.0
220
0.0
230
1.0
 70
     8
 71
     3
 72
     8
 73
     4
 74
     0
 42
0.000000001
 43
0.00000001
 40
0.0
 40
0.0
 40
0.0
 40
0.0
 40
1.0
 40
1.0
 40
1.0
 40
1.0
 10
24.99393887757114
 20
1.328661245554865
 30
0.0
 10
24.78104610966254
 20
1.580872367221693
 30
0.0
 10
24.59619184392354
 20
1.821988284272507
 30
0.0
 10
24.45029372029162
 20
2.046250247984886
 30
0.0
  0
LINE
  5
BF
330
1F
100
AcDbEntity
  8
0
  6
Continuous
 62
     1
370
    15
100
AcDbLine
 10
24.45029372029162
 20
2.046250247984888
 30
0.0
 11
27.93301270189221
 21
0.0000000000000026
 31
0.0
  0
LINE
  5
C0
330
1F
100
AcDbEntity
  8
0
  6
Continuous
 62
     1
370
    15
100
AcDbLine
 10
27.93301270189221
 20
0.0000000000000026
 30
0.0
 11
27.93301270189221
 21
-1.26940399364081
 31
0.0
  0
SPLINE
  5
C1
330
1F
100
AcDbEntity
  8
0
  6
Continuous
 62
     1
370
    15
100
AcDbSpline
210
0.0
220
0.0
230
1.0
 70
     8
 71
     3
 72
    12
 73
     8
 74
     0
 42
0.000000001
 43
0.00000001
 40
0.0
 40
0.0
 40
0.0
 40
0.0
 40
0.4999999999999991
 40
0.4999999999999991
 40
0.7499999999999996
 40
0.7499999999999996
 40
1.0
 40
1.0
 40
1.0
 40
1.0
 10
27.93301270189221
 20
-1.26940399364081
 30
0.0
 10
27.42425006625968
 20
-0.8694307073439809
 30
0.0
 10
26.92398522065823
 20
-0.4530574136791023
 30
0.0
 10
26.18666228148476
 20
0.1967348630961167
 30
0.0
 10
25.94310495448027
 20
0.4176108820016866
 30
0.0
 10
25.46096458626803
 20
0.8689628656127945
 30
0.0
 10
25.22369721472949
 20
1.09826757794734
 30
0.0
 10
24.99393887757115
 20
1.328661245554864
 30
0.0
  0
SPLINE
  5
C2
330
1F
100
AcDbEntity
  8
0
  6
Continuous
 62
     1
370
    15
100
AcDbSpline
210
0.0
220
0.0
230
1.0
 70
     8
 71
     3
 72
    14
 73
    10
 74
     0
 42
0.000000001
 43
0.00000001
 40
0.0
 40
0.0
 40
0.0
 40
0.0
 40
0.1572445164996548
 40
0.3144877944927214
 40
0.4602300341859394
 40
0.6060100140605852
 40
0.7518560155886117
 40
0.8977519596795567
 40
1.0
 40
1.0
 40
1.0
 40
1.0
 10
24.99393887757115
 20
1.328661245554863
 30
0.0
 10
24.4205339940669
 20
1.571210161688853
 30
0.0
 10
23.27372874337313
 20
2.056306083566333
 30
0.0
 10
21.59541093195567
 20
2.663705080346221
 30
0.0
 10
19.9591047983956
 20
3.152661343500023
 30
0.0
 10
18.36424568716609
 20
3.511373333233808
 30
0.0
 10
16.76874642944132
 20
3.733631706256585
 30
0.0
 10
15.33186247124344
 20
3.82506800189557
 30
0.0
 10
14.42699046454524
 20
3.778664452068985
 30
0.0
 10
14.05413681812224
 20
3.759543811103478
 30
0.0
  0
SPLINE
  5
C3
330
1F
100
AcDbEntity
  8
0
  6
Continuous
 62
     1
370
    15
100
AcDbSpline
210
0.0
220
0.0
230
1.0
 70
    24
 71
     3
 72
    10
 73
     6
 74
     0
 42
0.000000001
 43
0.00000001
 40
0.0
 40
0.0
 40
0.0
 40
0.0
 40
0.5
 40
0.5
 40
1.0
 40
1.0
 40
1.0
 40
1.0
 10
27.93301270189221
 20
-3.747618255749022
 30
0.0
 10
27.93301270189222
 20
-3.46033409776807
 30
0.0
 10
27.93301270189222
 20
-3.097339548555724
 30
0.0
 10
27.93301270189221
 20
-2.253412155965727
 30
0.0
 10
27.93301270189222
 20
-1.773210354493719
 30
0.0
 10
27.93301270189221
 20
-1.269403993640962
 30
0.0
  0
SPLINE
  5
C4
330
1F
100
AcDbEntity
  8
0
  6
Continuous
 62
     1
370
    15
100
AcDbSpline
210
0.0
220
0.0
230
1.0
 70
     8
 71
     3
 72
     9
 73
     5
 74
     0
 42
0.000000001
 43
0.00000001
 40
0.0
 40
0.0
 40
0.0
 40
0.0
 40
0.9031209663999917
 40
1.0
 40
1.0
 40
1.0
 40
1.0
 10
27.93301270189222
 20
3.325000000000004
 30
0.0
 10
27.40102136033006
 20
3.322643907744158
 30
0.0
 10
26.81196257268749
 20
3.320035074217417
 30
0.0
 10
26.22295238239279
 20
3.249696548624788
 30
0.0
 10
26.16588964437649
 20
3.242882220240524
 30
0.0
  0
SPLINE
  5
C5
330
1F
100
AcDbEntity
  8
0
  6
Continuous
 62
     1
370
    15
100
AcDbSpline
210
0.0
220
0.0
230
1.0
 70
     8
 71
     3
 72
    10
 73
     6
 74
     0
 42
0.000000001
 43
0.00000001
 40
0.0
 40
0.0
 40
0.0
 40
0.0
 40
0.5
 40
0.5
 40
1.0
 40
1.0
 40
1.0
 40
1.0
 10
27.93301270189221
 20
3.325000000000003
 30
0.0
 10
27.3419083266923
 20
3.164655598740476
 30
0.0
 10
26.75526235667785
 20
2.980742451393879
 30
0.0
 10
25.59203960105503
 20
2.5596867976139
 30
0.0
 10
25.01537940203376
 20
2.322902503574027
 30
0.0
 10
24.45029372029162
 20
2.046250247984888
 30
0.0
  0
SPLINE
  5
C6
330
1F
100
AcDbEntity
  8
0
  6
Continuous
 62
     1
370
    15
100
AcDbSpline
210
0.0
220
0.0
230
1.0
 70
     8
 71
     3
 72
     9
 73
     5
 74
     0
 42
0.000000001
 43
0.00000001
 40
0.0
 40
0.0
 40
0.0
 40
0.0
 40
0.4566179111048089
 40
1.0
 40
1.0
 40
1.0
 40
1.0
 10
6.916398852741553
 20
-3.942002221905282
 30
0.0
 10
6.462331690439278
 20
-3.982726798658011
 30
0.0
 10
5.467917868161404
 20
-4.071914225962813
 30
0.0
 10
4.473410301102717
 20
-4.01752778233906
 30
0.0
 10
3.933012701892292
 20
-3.987975162995206
 30
0.0
  0
SPLINE
  5
C7
330
1F
100
AcDbEntity
  8
0
  6
Continuous
 62
     1
370
    15
100
AcDbSpline
210
0.0
220
0.0
230
1.0
 70
     8
 71
     3
 72
    16
 73
    12
 74
     0
 42
0.000000001
 43
0.00000001
 40
0.0
 40
0.0
 40
0.0
 40
0.0
 40
0.0793948270945313
 40
0.1938656834113761
 40
0.3082792789109383
 40
0.4226477961555465
 40
0.536993475892088
 40
0.6513386614483296
 40
0.7675198903764024
 40
0.8837349815284348
 40
0.9999999999999999
 40
0.9999999999999999
 40
0.9999999999999999
 40
0.9999999999999999
 10
17.8759397087819
 20
-3.557436416957189
 30
0.0
 10
17.50693279115151
 20
-3.61506223781773
 30
0.0
 10
16.60589451337098
 20
-3.755772527796305
 30
0.0
 10
15.1729513961169
 20
-3.820008094413672
 30
0.0
 10
13.57763137196191
 20
-3.766995680687516
 30
0.0
 10
11.98296020921737
 20
-3.567882674711965
 30
0.0
 10
10.38865129376112
 20
-3.236422558749579
 30
0.0
 10
8.785927586155957
 20
-2.781141255614834
 30
0.0
 10
7.174438221987755
 20
-2.21671396945068
 30
0.0
 10
5.553984077940514
 20
-1.565855631735238
 30
0.0
 10
4.473413848160581
 20
-1.085842291411091
 30
0.0
 10
3.933012701892212
 20
-0.8457840775288673
 30
0.0
  0
SPLINE
  5
C8
330
1F
100
AcDbEntity
  8
0
  6
Continuous
 62
     4
370
    15
100
AcDbSpline
210
0.0
220
0.0
230
1.0
 70
    24
 71
     3
 72
    14
 73
    10
 74
     0
 42
0.000000001
 43
0.00000001
 40
0.0
 40
0.0
 40
0.0
 40
0.0
 40
0.25
 40
0.25
 40
0.5
 40
0.5
 40
0.75
 40
0.75
 40
1.0
 40
1.0
 40
1.0
 40
1.0
 10
3.933012701892212
 20
-0.8457840775288672
 30
0.0
 10
3.933012701892212
 20
-1.191106382928217
 30
0.0
 10
3.933012701892212
 20
-1.531626199110003
 30
0.0
 10
3.933012701892212
 20
-2.176841869587014
 30
0.0
 10
3.933012701892212
 20
-2.48132513749075
 30
0.0
 10
3.933012701892212
 20
-3.030500881448064
 30
0.0
 10
3.933012701892212
 20
-3.27503477221762
 30
0.0
 10
3.933012701892212
 20
-3.688894308188923
 30
0.0
 10
3.933012701892212
 20
-3.858189546486151
 30
0.0
 10
3.933012701892212
 20
-3.987975162995197
 30
0.0
  0
SPLINE
  5
C9
330
1F
100
AcDbEntity
  8
0
  6
Continuous
 62
     4
370
    15
100
AcDbSpline
210
0.0
220
0.0
230
1.0
 70
    24
 71
     3
 72
    14
 73
    10
 74
     0
 42
0.000000001
 43
0.00000001
 40
0.0
 40
0.0
 40
0.0
 40
0.0
 40
0.25
 40
0.25
 40
0.5
 40
0.5
 40
0.75
 40
0.75
 40
1.0
 40
1.0
 40
1.0
 40
1.0
 10
3.933012701892205
 20
3.241594455799622
 30
0.0
 10
3.933012701892205
 20
3.062752995072908
 30
0.0
 10
3.933012701892205
 20
2.831482088636833
 30
0.0
 10
3.933012701892205
 20
2.271571333040845
 30
0.0
 10
3.933012701892205
 20
1.943014338925069
 30
0.0
 10
3.933012701892205
 20
1.216569329892141
 30
0.0
 10
3.933012701892205
 20
0.8190683952471735
 30
0.0
 10
3.933012701892205
 20
-0.0035410499977235
 30
0.0
 10
3.933012701892205
 20
-0.4281977310693431
 30
0.0
 10
3.933012701892205
 20
-0.8457840775288638
 30
0.0
  0
LINE
  5
CA
330
1F
100
AcDbEntity
  8
0
  6
Continuous
 62
     1
370
    15
100
AcDbLine
 10
27.93301270189221
 20
0.0000000000000026
 30
0.0
 11
27.93301270189221
 21
3.325000000000002
 31
0.0
  0
SPLINE
  5
CB
330
1F
100
AcDbEntity
  8
0
  6
Continuous
 62
     1
370
    15
100
AcDbSpline
210
0.0
220
0.0
230
1.0
 70
     8
 71
     3
 72
    12
 73
     8
 74
     0
 42
0.000000001
 43
0.00000001
 40
0.0
 40
0.0
 40
0.0
 40
0.0
 40
0.0356430199892278
 40
0.2766636608109462
 40
0.5176541243006575
 40
0.75872844657775
 40
1.0
 40
1.0
 40
1.0
 40
1.0
 10
10.18924738357565
 20
-3.733052798303607
 30
0.0
 10
10.11491193568618
 20
-3.761935733732981
 30
0.0
 10
9.537914892581039
 20
-3.986127136517363
 30
0.0
 10
8.458522045555169
 20
-4.286950502310471
 30
0.0
 10
6.950718726428715
 20
-4.60333298992305
 30
0.0
 10
5.442336775815512
 20
-4.765321200914792
 30
0.0
 10
4.436257855030609
 20
-4.740383499658922
 30
0.0
 10
3.933012701889798
 20
-4.727909550520122
 30
0.0
  0
SPLINE
  5
CC
330
1F
100
AcDbEntity
  8
0
  6
Continuous
 62
     4
370
    15
100
AcDbSpline
210
0.0
220
0.0
230
1.0
 70
    24
 71
     3
 72
     8
 73
     4
 74
     0
 42
0.000000001
 43
0.00000001
 40
0.0
 40
0.0
 40
0.0
 40
0.0
 40
1.0
 40
1.0
 40
1.0
 40
1.0
 10
3.933012701892274
 20
-3.987975162995203
 30
0.0
 10
3.933012701892277
 20
-4.237884982196125
 30
0.0
 10
3.933012701892277
 20
-4.486129459672208
 30
0.0
 10
3.933012701892277
 20
-4.727909550510065
 30
0.0
  0
SPLINE
  5
CD
330
1F
100
AcDbEntity
  8
0
  6
Continuous
 62
     1
370
    15
100
AcDbSpline
210
0.0
220
0.0
230
1.0
 70
     8
 71
     3
 72
    13
 73
     9
 74
     0
 42
0.000000001
 43
0.00000001
 40
0.0
 40
0.0
 40
0.0
 40
0.0
 40
0.1997539800809179
 40
0.305052025520542
 40
0.4767527730602975
 40
0.64925341320729
 40
0.8242023661768249
 40
1.0
 40
1.0
 40
1.0
 40
1.0
 10
21.39671225991741
 20
3.18406263542697
 30
0.0
 10
21.8318837768936
 20
3.364084367831067
 30
0.0
 10
22.49645102430794
 20
3.639002515070691
 30
0.0
 10
23.53555242142492
 20
3.991662011590459
 30
0.0
 10
24.51426784650929
 20
4.277545510431282
 30
0.0
 10
25.64624518611868
 20
4.523102827528024
 30
0.0
 10
26.78552690475689
 20
4.692181288451463
 30
0.0
 10
27.54990093257827
 20
4.72802177067653
 30
0.0
 10
27.93301270189196
 20
4.745985372340803
 30
0.0
  0
SPLINE
  5
CE
330
1F
100
AcDbEntity
  8
0
  6
Continuous
 62
     1
370
    15
100
AcDbSpline
210
0.0
220
0.0
230
1.0
 70
    24
 71
     3
 72
    10
 73
     6
 74
     0
 42
0.000000001
 43
0.00000001
 40
0.0
 40
0.0
 40
0.0
 40
0.0
 40
0.5
 40
0.5
 40
1.0
 40
1.0
 40
1.0
 40
1.0
 10
27.93301270189221
 20
3.325000000000002
 30
0.0
 10
27.93301270189222
 20
3.526553219834743
 30
0.0
 10
27.93301270189222
 20
3.760776727118809
 30
0.0
 10
27.93301270189221
 20
4.252177014564067
 30
0.0
 10
27.93301270189221
 20
4.508098820056998
 30
0.0
 10
27.93301270189222
 20
4.745985372340813
 30
0.0
  0
LINE
  5
CF
330
1F
100
AcDbEntity
  8
중심선
100
AcDbLine
 10
-45.06698729810778
 20
-0.0000000000000044
 30
0.0
 11
30.93301270189223
 21
-0.0000000000000044
 31
0.0
  0
CIRCLE
  5
D0
330
1F
100
AcDbEntity
  8
외형선
100
AcDbCircle
 10
0.0
 20
0.0
 30
0.0
 40
3.000000000000004
  0
INSERT
  5
D1
330
1F
100
AcDbEntity
  8
0
  6
Continuous
 62
     7
100
AcDbBlockReference
 66
     1
  2
블럭10
 10
-30.00526073761939
 20
-52.04717430164393
 30
0.0
  0
ATTRIB
  5
D2
330
D1
100
AcDbEntity
  8
FORMAT
 62
     2
100
AcDbText
 10
-42.96519993247716
 20
-49.97180738881174
 30
0.0
 40
4.233333333333333
  1
SEME35095E [ 2 FLUTE ]
 41
0.75
  7
SLDTEXTSTYLE0
 11
-42.96519993247716
 21
-52.08847405547841
 31
0.0
100
AcDbAttribute
  2
AUTOATTR0
 70
     0
 74
     1
  0
SEQEND
  5
D3
330
D1
100
AcDbEntity
  8
0
  6
Continuous
 62
     7
  0
HATCH
  5
D4
330
1F
100
AcDbEntity
  8
중심선
100
AcDbHatch
 10
0.0
 20
0.0
 30
0.0
210
0.0
220
0.0
230
1.0
  2
SOLID
 70
     1
 71
     0
 91
        1
 92
        0
 93
        4
 72
     1
 10
-24.29035143323854
 20
-35.8
 11
-27.73662667707582
 21
-35.8
 72
     1
 10
-27.73662667707582
 20
-35.8
 11
-29.86485653627985
 21
-38.33632558057259
 72
     1
 10
-29.86485653627985
 20
-38.33632558057259
 11
-26.41854820732941
 21
-38.3362861512701
 72
     1
 10
-26.41854820732941
 20
-38.3362861512701
 11
-24.29035143323854
 21
-35.8
 97
        0
 75
     0
 76
     1
 98
        1
 10
-6.066987298107779
 20
-0.0000000000000009
  0
HATCH
  5
D5
330
1F
100
AcDbEntity
  8
중심선
100
AcDbHatch
 10
0.0
 20
0.0
 30
0.0
210
0.0
220
0.0
230
1.0
  2
SOLID
 70
     1
 71
     0
 91
        1
 92
        0
 93
        4
 72
     1
 10
-19.27758744220259
 20
-35.8
 11
-22.72386268603987
 21
-35.8
 72
     1
 10
-22.72386268603987
 20
-35.8
 11
-27.25500069439726
 21
-41.20000000000002
 72
     1
 10
-27.25500069439726
 20
-41.20000000000002
 11
-23.80872545055998
 21
-41.20000000000002
 72
     1
 10
-23.80872545055998
 20
-41.20000000000002
 11
-19.27758744220259
 21
-35.8
 97
        0
 75
     0
 76
     1
 98
        1
 10
-6.066987298107779
 20
-0.0000000000000009
  0
HATCH
  5
D6
330
1F
100
AcDbEntity
  8
중심선
100
AcDbHatch
 10
0.0
 20
0.0
 30
0.0
210
0.0
220
0.0
230
1.0
  2
SOLID
 70
     1
 71
     0
 91
        1
 92
        0
 93
        4
 72
     1
 10
-14.26482345116669
 20
-35.80000000000003
 11
-17.71109869500381
 21
-35.8
 72
     1
 10
-17.71109869500381
 20
-35.8
 11
-24.75953559689306
 21
-44.20000000000002
 72
     1
 10
-24.75953559689306
 20
-44.20000000000002
 11
-21.31326035305577
 21
-44.20000000000002
 72
     1
 10
-21.31326035305577
 20
-44.20000000000002
 11
-14.26482345116669
 21
-35.80000000000003
 97
        0
 75
     0
 76
     1
 98
        1
 10
-6.066987298107779
 20
-0.0000000000000009
  0
HATCH
  5
D7
330
1F
100
AcDbEntity
  8
중심선
100
AcDbHatch
 10
0.0
 20
0.0
 30
0.0
210
0.0
220
0.0
230
1.0
  2
SOLID
 70
     1
 71
     0
 91
        1
 92
        0
 93
        6
 72
     3
 10
-9.46493302015449
 20
-40.00000000005127
 11
3.960054785062284
 21
1.540882976769353E-10
 40
0.3939339440162627
 50
17.09539180608438
 51
320.0019657685082
 73
     0
 72
     1
 10
-7.781933364453897
 20
-38.5878940046383
 11
-5.476631490752859
 21
-36.65356729459038
 72
     3
 10
-9.46493302020734
 20
-40.00000000000015
 11
6.600054785286829
 21
-1.278976924368180E-13
 40
0.636358354079598
 50
39.99873849337411
 51
368.4976242363724
 73
     1
 72
     1
 10
-3.03960052830673
 20
-39.03999999993002
 11
-10.78486571337142
 21
-39.03999999992999
 72
     1
 10
-10.78486571337142
 20
-39.03999999992999
 11
-10.78489075781735
 21
-40.95999999992991
 72
     1
 10
-10.78489075781735
 20
-40.95999999992991
 11
-6.343510988345315
 21
-40.95999999992988
 97
        0
 75
     0
 76
     1
 98
        1
 10
-6.066987298107779
 20
-0.0000000000000009
  0
DIMENSION
  5
D8
330
1F
100
AcDbEntity
  8
치수문자_일반주서
100
AcDbDimension
  2
_D
 10
3.933012701892212
 20
16.9966192609186
 30
0.0
 11
15.93301270189221
 21
16.9966192609186
 31
0.0
 70
   160
  1
<>
 71
     2
 42
24.00000000000001
  3
SLDDIMSTYLE0
100
AcDbAlignedDimension
 13
27.93301270189222
 23
4.745985372340813
 33
0.0
 14
3.933012701892212
 24
4.670393182003859
 34
0.0
100
AcDbRotatedDimension
  0
DIMENSION
  5
E3
330
1F
100
AcDbEntity
  8
치수문자_일반주서
100
AcDbDimension
  2
_D_1
 10
-42.06698729810779
 20
26.10915911661223
 30
0.0
 11
-7.066987298107794
 21
26.10915911661223
 31
0.0
 70
   160
  1
<>
 71
     2
 42
70.00000000000001
  3
SLDDIMSTYLE0
100
AcDbAlignedDimension
 13
27.93301270189222
 23
4.745985372340813
 33
0.0
 14
-42.06698729810779
 24
3.999999999999994
 34
0.0
 50
0.0000000000000494
100
AcDbRotatedDimension
  0
DIMENSION
  5
ED
330
1F
100
AcDbEntity
  8
치수문자_일반주서
100
AcDbDimension
  2
_D_2
 10
43.49920301413852
 20
-4.745985372340751
 30
0.0
 11
43.4992030141385
 21
0.0000000000000003
 31
0.0
 70
   160
  1
%%c<>
 71
     2
 42
9.496970744681622
 52
-270.0
  3
SLDDIMSTYLE1
100
AcDbAlignedDimension
 13
27.93301270189222
 23
4.750985372340813
 33
0.0
 14
27.93301270189222
 24
-4.74598537234081
 34
0.0
 50
90.0000000000002
100
AcDbRotatedDimension
  0
DIMENSION
  5
FB
330
1F
100
AcDbEntity
  8
치수문자_일반주서
100
AcDbDimension
  2
_D_3
 10
-53.48654674349631
 20
-5.000000000000046
 30
0.0
 11
-53.48654674349633
 21
-0.0000000000000028
 31
0.0
 70
   160
  1
%%c<>
 71
     2
 42
9.999999999999995
 52
-270.0
  3
SLDDIMSTYLE1
100
AcDbAlignedDimension
 13
-41.06698729810779
 23
4.999999999999995
 33
0.0
 14
-41.06698729810779
 24
-5.0
 34
0.0
 50
90.0000000000002
100
AcDbRotatedDimension
  0
INSERT
  5
10E
330
1F
100
AcDbEntity
  8
외형선
100
AcDbBlockReference
  2
SW_DOWELSYMBOL_0
 10
0.0
 20
0.0
 30
0.0
  0
ENDSEC
  0
SECTION
  2
OBJECTS
  0
DICTIONARY
  5
C
330
0
100
AcDbDictionary
281
     1
  3
ACAD_GROUP
350
D
  3
ACAD_LAYOUT
350
1A
  3
ACAD_MLINESTYLE
350
17
  3
ACAD_PLOTSETTINGS
350
19
  3
ACAD_PLOTSTYLENAME
350
E
  3
ACAD_SCALELIST
350
47
  3
APPDATA
350
130
  3
DWGPROPS
350
160
  0
DICTIONARY
  5
D
102
{ACAD_REACTORS
330
C
102
}
330
C
100
AcDbDictionary
281
     1
  0
DICTIONARY
  5
1A
102
{ACAD_REACTORS
330
C
102
}
330
C
100
AcDbDictionary
281
     1
  3
Layout1
350
1E
  3
Layout2
350
26
  3
Model
350
22
  0
DICTIONARY
  5
17
102
{ACAD_REACTORS
330
C
102
}
330
C
100
AcDbDictionary
281
     1
  3
Standard
350
18
  0
DICTIONARY
  5
19
102
{ACAD_REACTORS
330
C
102
}
330
C
100
AcDbDictionary
281
     1
  0
ACDBDICTIONARYWDFLT
  5
E
102
{ACAD_REACTORS
330
C
102
}
330
C
100
AcDbDictionary
281
     1
  3
Normal
350
F
100
AcDbDictionaryWithDefault
340
F
  0
DICTIONARY
  5
47
102
{ACAD_REACTORS
330
C
102
}
330
C
100
AcDbDictionary
281
     1
  3
A0
350
48
  3
A1
350
49
  3
A2
350
4A
  3
A3
350
4B
  3
A4
350
4C
  3
A5
350
4D
  3
A6
350
4E
  3
A7
350
4F
  3
A8
350
50
  3
A9
350
51
  3
B0
350
52
  3
B1
350
53
  3
B2
350
54
  3
B3
350
55
  3
B4
350
56
  3
B5
350
57
  3
B6
350
58
  3
B7
350
59
  3
B8
350
5A
  3
B9
350
5B
  3
C0
350
5C
  3
C1
350
5D
  3
C2
350
5E
  3
C3
350
5F
  3
C4
350
60
  3
C5
350
61
  3
C6
350
62
  3
C7
350
63
  3
C8
350
64
  3
C9
350
65
  3
D0
350
66
  3
D1
350
67
  3
D2
350
68
  0
DICTIONARY
  5
130
102
{ACAD_REACTORS
330
C
102
}
330
C
100
AcDbDictionary
281
     1
  0
XRECORD
  5
160
102
{ACAD_REACTORS
330
C
102
}
330
C
100
AcDbXrecord
280
     1
  1
DWGPROPS COOKIE
  2

  3

  4

  6

  7

  8
12011908
  9

300
=
301
=
302
=
303
=
304
=
305
=
306
=
307
=
308
=
309
=
 40
0.0
 41
2458250.117806261
 42
2458264.042816806
  1

 90
        0
  0
LAYOUT
  5
1E
102
{ACAD_REACTORS
330
1A
102
}
330
1A
100
AcDbPlotSettings
  1

  2
none_device
  4

  6

 40
0.0
 41
0.0
 42
0.0
 43
0.0
 44
0.0
 45
0.0
 46
0.0
 47
0.0
 48
0.0
 49
0.0
140
0.0
141
0.0
142
1.0
143
1.0
 70
   688
 72
     1
 73
     0
 74
     5
  7

 75
    16
147
1.0
148
0.0
149
0.0
100
AcDbLayout
  1
Layout1
 70
     1
 71
     1
 10
0.0
 20
0.0
 11
420.0
 21
297.0
 12
0.0
 22
0.0
 32
0.0
 14
1.000000000000000E+20
 24
1.000000000000000E+20
 34
1.000000000000000E+20
 15
-1.000000000000000E+20
 25
-1.000000000000000E+20
 35
-1.000000000000000E+20
146
0.0
 13
0.0
 23
0.0
 33
0.0
 16
1.0
 26
0.0
 36
0.0
 17
0.0
 27
1.0
 37
0.0
 76
     0
330
1B
  0
LAYOUT
  5
26
102
{ACAD_REACTORS
330
1A
102
}
330
1A
100
AcDbPlotSettings
  1

  2
none_device
  4

  6

 40
0.0
 41
0.0
 42
0.0
 43
0.0
 44
0.0
 45
0.0
 46
0.0
 47
0.0
 48
0.0
 49
0.0
140
0.0
141
0.0
142
1.0
143
1.0
 70
   688
 72
     1
 73
     0
 74
     5
  7

 75
    16
147
1.0
148
0.0
149
0.0
100
AcDbLayout
  1
Layout2
 70
     1
 71
     2
 10
0.0
 20
0.0
 11
0.0
 21
0.0
 12
0.0
 22
0.0
 32
0.0
 14
0.0
 24
0.0
 34
0.0
 15
0.0
 25
0.0
 35
0.0
146
0.0
 13
0.0
 23
0.0
 33
0.0
 16
1.0
 26
0.0
 36
0.0
 17
0.0
 27
1.0
 37
0.0
 76
     0
330
23
  0
LAYOUT
  5
22
102
{ACAD_REACTORS
330
1A
102
}
330
1A
100
AcDbPlotSettings
  1

  2
none_device
  4
ANSI_A_(11.00_x_8.50_Inches)
  6

 40
6.35
 41
19.05
 42
6.35000508
 43
19.05000254
 44
279.4
 45
215.9
 46
135.2139068671641
 47
115.3032137235425
 48
0.0
 49
0.0
140
0.0
141
0.0
142
0.1034588714675078
143
1.0
 70
  1696
 72
     0
 73
     0
 74
     0
  7

 75
     0
147
0.0235690232323232
148
0.0
149
0.0
100
AcDbLayout
  1
Model
 70
     1
 71
     0
 10
0.0
 20
0.0
 11
420.0
 21
297.0
 12
0.0
 22
0.0
 32
0.0
 14
-57.86154674349634
 24
-49.97180738881174
 34
0.0
 15
44.04953634747185
 25
30.48415911661223
 35
0.0
146
0.0
 13
0.0
 23
0.0
 33
0.0
 16
1.0
 26
0.0
 36
0.0
 17
0.0
 27
1.0
 37
0.0
 76
     0
330
1F
331
29
  0
MLINESTYLE
  5
18
102
{ACAD_REACTORS
330
17
102
}
330
17
100
AcDbMlineStyle
  2
Standard
 70
     0
  3

 62
   256
 51
90.0
 52
90.0
 71
     2
 49
0.5
 62
   256
  6
BYLAYER
 49
-0.5
 62
   256
  6
BYLAYER
  0
ACDBPLACEHOLDER
  5
F
102
{ACAD_REACTORS
330
E
102
}
330
E
  0
SCALE
  5
48
102
{ACAD_REACTORS
330
47
102
}
330
47
100
AcDbScale
 70
     0
300
1:1
140
1.0
141
1.0
290
     1
  0
SCALE
  5
49
102
{ACAD_REACTORS
330
47
102
}
330
47
100
AcDbScale
 70
     0
300
1:2
140
1.0
141
2.0
290
     0
  0
SCALE
  5
4A
102
{ACAD_REACTORS
330
47
102
}
330
47
100
AcDbScale
 70
     0
300
1:4
140
1.0
141
4.0
290
     0
  0
SCALE
  5
4B
102
{ACAD_REACTORS
330
47
102
}
330
47
100
AcDbScale
 70
     0
300
1:5
140
1.0
141
5.0
290
     0
  0
SCALE
  5
4C
102
{ACAD_REACTORS
330
47
102
}
330
47
100
AcDbScale
 70
     0
300
1:8
140
1.0
141
8.0
290
     0
  0
SCALE
  5
4D
102
{ACAD_REACTORS
330
47
102
}
330
47
100
AcDbScale
 70
     0
300
1:10
140
1.0
141
10.0
290
     0
  0
SCALE
  5
4E
102
{ACAD_REACTORS
330
47
102
}
330
47
100
AcDbScale
 70
     0
300
1:16
140
1.0
141
16.0
290
     0
  0
SCALE
  5
4F
102
{ACAD_REACTORS
330
47
102
}
330
47
100
AcDbScale
 70
     0
300
1:20
140
1.0
141
20.0
290
     0
  0
SCALE
  5
50
102
{ACAD_REACTORS
330
47
102
}
330
47
100
AcDbScale
 70
     0
300
1:30
140
1.0
141
30.0
290
     0
  0
SCALE
  5
51
102
{ACAD_REACTORS
330
47
102
}
330
47
100
AcDbScale
 70
     0
300
1:40
140
1.0
141
40.0
290
     0
  0
SCALE
  5
52
102
{ACAD_REACTORS
330
47
102
}
330
47
100
AcDbScale
 70
     0
300
1:50
140
1.0
141
50.0
290
     0
  0
SCALE
  5
53
102
{ACAD_REACTORS
330
47
102
}
330
47
100
AcDbScale
 70
     0
300
1:100
140
1.0
141
100.0
290
     0
  0
SCALE
  5
54
102
{ACAD_REACTORS
330
47
102
}
330
47
100
AcDbScale
 70
     0
300
2:1
140
2.0
141
1.0
290
     0
  0
SCALE
  5
55
102
{ACAD_REACTORS
330
47
102
}
330
47
100
AcDbScale
 70
     0
300
4:1
140
4.0
141
1.0
290
     0
  0
SCALE
  5
56
102
{ACAD_REACTORS
330
47
102
}
330
47
100
AcDbScale
 70
     0
300
8:1
140
8.0
141
1.0
290
     0
  0
SCALE
  5
57
102
{ACAD_REACTORS
330
47
102
}
330
47
100
AcDbScale
 70
     0
300
10:1
140
10.0
141
1.0
290
     0
  0
SCALE
  5
58
102
{ACAD_REACTORS
330
47
102
}
330
47
100
AcDbScale
 70
     0
300
100:1
140
100.0
141
1.0
290
     0
  0
SCALE
  5
59
102
{ACAD_REACTORS
330
47
102
}
330
47
100
AcDbScale
 70
     0
300
1/128" = 1'-0"
140
0.0078125
141
12.0
290
     0
  0
SCALE
  5
5A
102
{ACAD_REACTORS
330
47
102
}
330
47
100
AcDbScale
 70
     0
300
1/64" = 1'-0"
140
0.015625
141
12.0
290
     0
  0
SCALE
  5
5B
102
{ACAD_REACTORS
330
47
102
}
330
47
100
AcDbScale
 70
     0
300
1/32" = 1'-0"
140
0.03125
141
12.0
290
     0
  0
SCALE
  5
5C
102
{ACAD_REACTORS
330
47
102
}
330
47
100
AcDbScale
 70
     0
300
1/16" = 1'-0"
140
0.0625
141
12.0
290
     0
  0
SCALE
  5
5D
102
{ACAD_REACTORS
330
47
102
}
330
47
100
AcDbScale
 70
     0
300
3/32" = 1'-0"
140
0.09375
141
12.0
290
     0
  0
SCALE
  5
5E
102
{ACAD_REACTORS
330
47
102
}
330
47
100
AcDbScale
 70
     0
300
1/8" = 1'-0"
140
0.125
141
12.0
290
     0
  0
SCALE
  5
5F
102
{ACAD_REACTORS
330
47
102
}
330
47
100
AcDbScale
 70
     0
300
3/16" = 1'-0"
140
0.1875
141
12.0
290
     0
  0
SCALE
  5
60
102
{ACAD_REACTORS
330
47
102
}
330
47
100
AcDbScale
 70
     0
300
1/4" = 1'-0"
140
0.25
141
12.0
290
     0
  0
SCALE
  5
61
102
{ACAD_REACTORS
330
47
102
}
330
47
100
AcDbScale
 70
     0
300
3/8" = 1'-0"
140
0.375
141
12.0
290
     0
  0
SCALE
  5
62
102
{ACAD_REACTORS
330
47
102
}
330
47
100
AcDbScale
 70
     0
300
1/2" = 1'-0"
140
0.5
141
12.0
290
     0
  0
SCALE
  5
63
102
{ACAD_REACTORS
330
47
102
}
330
47
100
AcDbScale
 70
     0
300
3/4" = 1'-0"
140
0.75
141
12.0
290
     0
  0
SCALE
  5
64
102
{ACAD_REACTORS
330
47
102
}
330
47
100
AcDbScale
 70
     0
300
1" = 1'-0"
140
1.0
141
12.0
290
     0
  0
SCALE
  5
65
102
{ACAD_REACTORS
330
47
102
}
330
47
100
AcDbScale
 70
     0
300
1-1/2" = 1'-0"
140
1.5
141
12.0
290
     0
  0
SCALE
  5
66
102
{ACAD_REACTORS
330
47
102
}
330
47
100
AcDbScale
 70
     0
300
3" = 1'-0"
140
3.0
141
12.0
290
     0
  0
SCALE
  5
67
102
{ACAD_REACTORS
330
47
102
}
330
47
100
AcDbScale
 70
     0
300
6" = 1'-0"
140
6.0
141
12.0
290
     0
  0
SCALE
  5
68
102
{ACAD_REACTORS
330
47
102
}
330
47
100
AcDbScale
 70
     0
300
1'-0" = 1'-0"
140
12.0
141
12.0
290
     0
  0
ENDSEC
  0
EOF
