  0
SECTION
  2
HEADER
  9
$ACADVER
  1
AC1015
  9
$ACADMAINTVER
 70
     6
  9
$DWGCODEPAGE
  3
ANSI_949
  9
$INSBASE
 10
0.0
 20
0.0
 30
0.0
  9
$EXTMIN
 10
-52.05154674349632
 20
-49.97180738881174
 30
0.0
  9
$EXTMAX
 10
40.0495363474719
 20
29.78415911661226
 30
0.0
  9
$LIMMIN
 10
0.0
 20
0.0
  9
$LIMMAX
 10
420.0
 20
297.0
  9
$ORTHOMODE
 70
     1
  9
$REGENMODE
 70
     1
  9
$FILLMODE
 70
     1
  9
$QTEXTMODE
 70
     0
  9
$MIRRTEXT
 70
     1
  9
$LTSCALE
 40
1.0
  9
$ATTMODE
 70
     1
  9
$TEXTSIZE
 40
3.5
  9
$TRACEWID
 40
1.0
  9
$TEXTSTYLE
  7
Standard
  9
$CLAYER
  8
0
  9
$CELTYPE
  6
ByLayer
  9
$CECOLOR
 62
   256
  9
$CELTSCALE
 40
1.0
  9
$DISPSILH
 70
     0
  9
$DIMSCALE
 40
1.0
  9
$DIMASZ
 40
3.302
  9
$DIMEXO
 40
1.0
  9
$DIMDLI
 40
3.75
  9
$DIMRND
 40
0.0
  9
$DIMDLE
 40
0.0
  9
$DIMEXE
 40
1.0
  9
$DIMTP
 40
0.0
  9
$DIMTM
 40
0.0
  9
$DIMTXT
 40
3.5
  9
$DIMCEN
 40
2.5
  9
$DIMTSZ
 40
0.0
  9
$DIMTOL
 70
     0
  9
$DIMLIM
 70
     0
  9
$DIMTIH
 70
     1
  9
$DIMTOH
 70
     1
  9
$DIMSE1
 70
     0
  9
$DIMSE2
 70
     0
  9
$DIMTAD
 70
     1
  9
$DIMZIN
 70
     0
  9
$DIMBLK
  1

  9
$DIMASO
 70
     1
  9
$DIMSHO
 70
     1
  9
$DIMPOST
  1

  9
$DIMAPOST
  1

  9
$DIMALT
 70
     0
  9
$DIMALTD
 70
     3
  9
$DIMALTF
 40
0.0393700787401575
  9
$DIMLFAC
 40
1.0
  9
$DIMTOFL
 70
     1
  9
$DIMTVP
 40
0.0
  9
$DIMTIX
 70
     0
  9
$DIMSOXD
 70
     0
  9
$DIMSAH
 70
     0
  9
$DIMBLK1
  1

  9
$DIMBLK2
  1

  9
$DIMSTYLE
  2
ISO-25
  9
$DIMCLRD
 70
     0
  9
$DIMCLRE
 70
     0
  9
$DIMCLRT
 70
     0
  9
$DIMTFAC
 40
1.0
  9
$DIMGAP
 40
1.524
  9
$DIMJUST
 70
     0
  9
$DIMSD1
 70
     0
  9
$DIMSD2
 70
     0
  9
$DIMTOLJ
 70
     0
  9
$DIMTZIN
 70
     0
  9
$DIMALTZ
 70
     0
  9
$DIMALTTZ
 70
     0
  9
$DIMUPT
 70
     0
  9
$DIMDEC
 70
     2
  9
$DIMTDEC
 70
     2
  9
$DIMALTU
 70
     2
  9
$DIMALTTD
 70
     3
  9
$DIMTXSTY
  7
Standard
  9
$DIMAUNIT
 70
     0
  9
$DIMADEC
 70
     2
  9
$DIMALTRND
 40
0.0
  9
$DIMAZIN
 70
     0
  9
$DIMDSEP
 70
    44
  9
$DIMATFIT
 70
     3
  9
$DIMFRAC
 70
     0
  9
$DIMLDRBLK
  1

  9
$DIMLUNIT
 70
     2
  9
$DIMLWD
 70
    -2
  9
$DIMLWE
 70
    -2
  9
$DIMTMOVE
 70
     0
  9
$LUNITS
 70
     2
  9
$LUPREC
 70
     2
  9
$SKETCHINC
 40
1.0
  9
$FILLETRAD
 40
10.0
  9
$AUNITS
 70
     0
  9
$AUPREC
 70
     2
  9
$MENU
  1
.
  9
$ELEVATION
 40
0.0
  9
$PELEVATION
 40
0.0
  9
$THICKNESS
 40
0.0
  9
$LIMCHECK
 70
     0
  9
$CHAMFERA
 40
0.0
  9
$CHAMFERB
 40
0.0
  9
$CHAMFERC
 40
0.0
  9
$CHAMFERD
 40
0.0
  9
$SKPOLY
 70
     0
  9
$TDCREATE
 40
2458250.492256342
  9
$TDUCREATE
 40
2458250.117256342
  9
$TDUPDATE
 40
2458264.415660845
  9
$TDUUPDATE
 40
2458264.040660845
  9
$TDINDWG
 40
0.0027596181
  9
$TDUSRTIMER
 40
0.0004045949
  9
$USRTIMER
 70
     1
  9
$ANGBASE
 50
0.0
  9
$ANGDIR
 70
     0
  9
$PDMODE
 70
     0
  9
$PDSIZE
 40
-1.0
  9
$PLINEWID
 40
0.0
  9
$SPLFRAME
 70
     0
  9
$SPLINETYPE
 70
     6
  9
$SPLINESEGS
 70
     8
  9
$HANDSEED
  5
168
  9
$SURFTAB1
 70
     6
  9
$SURFTAB2
 70
     6
  9
$SURFTYPE
 70
     6
  9
$SURFU
 70
     6
  9
$SURFV
 70
     6
  9
$UCSBASE
  2

  9
$UCSNAME
  2

  9
$UCSORG
 10
0.0
 20
0.0
 30
0.0
  9
$UCSXDIR
 10
1.0
 20
0.0
 30
0.0
  9
$UCSYDIR
 10
0.0
 20
1.0
 30
0.0
  9
$UCSORTHOREF
  2

  9
$UCSORTHOVIEW
 70
     0
  9
$UCSORGTOP
 10
0.0
 20
0.0
 30
0.0
  9
$UCSORGBOTTOM
 10
0.0
 20
0.0
 30
0.0
  9
$UCSORGLEFT
 10
0.0
 20
0.0
 30
0.0
  9
$UCSORGRIGHT
 10
0.0
 20
0.0
 30
0.0
  9
$UCSORGFRONT
 10
0.0
 20
0.0
 30
0.0
  9
$UCSORGBACK
 10
0.0
 20
0.0
 30
0.0
  9
$PUCSBASE
  2

  9
$PUCSNAME
  2

  9
$PUCSORG
 10
0.0
 20
0.0
 30
0.0
  9
$PUCSXDIR
 10
1.0
 20
0.0
 30
0.0
  9
$PUCSYDIR
 10
0.0
 20
1.0
 30
0.0
  9
$PUCSORTHOREF
  2

  9
$PUCSORTHOVIEW
 70
     0
  9
$PUCSORGTOP
 10
0.0
 20
0.0
 30
0.0
  9
$PUCSORGBOTTOM
 10
0.0
 20
0.0
 30
0.0
  9
$PUCSORGLEFT
 10
0.0
 20
0.0
 30
0.0
  9
$PUCSORGRIGHT
 10
0.0
 20
0.0
 30
0.0
  9
$PUCSORGFRONT
 10
0.0
 20
0.0
 30
0.0
  9
$PUCSORGBACK
 10
0.0
 20
0.0
 30
0.0
  9
$USERI1
 70
     0
  9
$USERI2
 70
     0
  9
$USERI3
 70
     0
  9
$USERI4
 70
     0
  9
$USERI5
 70
     0
  9
$USERR1
 40
0.0
  9
$USERR2
 40
0.0
  9
$USERR3
 40
0.0
  9
$USERR4
 40
0.0
  9
$USERR5
 40
0.0
  9
$WORLDVIEW
 70
     1
  9
$SHADEDGE
 70
     3
  9
$SHADEDIF
 70
    70
  9
$TILEMODE
 70
     1
  9
$MAXACTVP
 70
    64
  9
$PINSBASE
 10
0.0
 20
0.0
 30
0.0
  9
$PLIMCHECK
 70
     0
  9
$PEXTMIN
 10
1.000000000000000E+20
 20
1.000000000000000E+20
 30
1.000000000000000E+20
  9
$PEXTMAX
 10
-1.000000000000000E+20
 20
-1.000000000000000E+20
 30
-1.000000000000000E+20
  9
$PLIMMIN
 10
0.0
 20
0.0
  9
$PLIMMAX
 10
0.0
 20
0.0
  9
$UNITMODE
 70
     0
  9
$VISRETAIN
 70
     1
  9
$PLINEGEN
 70
     0
  9
$PSLTSCALE
 70
     1
  9
$TREEDEPTH
 70
  3020
  9
$CMLSTYLE
  2
Standard
  9
$CMLJUST
 70
     0
  9
$CMLSCALE
 40
20.0
  9
$PROXYGRAPHICS
 70
     1
  9
$MEASUREMENT
 70
     1
  9
$CELWEIGHT
370
    -1
  9
$ENDCAPS
280
     0
  9
$JOINSTYLE
280
     0
  9
$LWDISPLAY
290
     1
  9
$INSUNITS
 70
     4
  9
$HYPERLINKBASE
  1

  9
$STYLESHEET
  1

  9
$XEDIT
290
     1
  9
$CEPSNTYPE
380
     0
  9
$PSTYLEMODE
290
     1
  9
$FINGERPRINTGUID
  2
{0424AB69-6345-4E75-A0C2-C08D0E5899A3}
  9
$VERSIONGUID
  2
{FAEB1C32-E019-11D5-929B-00C0DF256EC4}
  9
$EXTNAMES
290
     1
  9
$PSVPSCALE
 40
0.0
  9
$OLESTARTUP
290
     0
  0
ENDSEC
  0
SECTION
  2
CLASSES
  0
CLASS
  1
ACDBDICTIONARYWDFLT
  2
AcDbDictionaryWithDefault
  3
ObjectDBX Classes
 90
        0
280
     0
281
     0
  0
CLASS
  1
VISUALSTYLE
  2
AcDbVisualStyle
  3
ObjectDBX Classes
 90
     4095
280
     0
281
     0
  0
CLASS
  1
MATERIAL
  2
AcDbMaterial
  3
ObjectDBX Classes
 90
     1153
280
     0
281
     0
  0
CLASS
  1
SCALE
  2
AcDbScale
  3
ObjectDBX Classes
 90
     1153
280
     0
281
     0
  0
CLASS
  1
SUN
  2
AcDbSun
  3
SCENEOE
 90
     1153
280
     0
281
     0
  0
CLASS
  1
ACDBPLACEHOLDER
  2
AcDbPlaceHolder
  3
ObjectDBX Classes
 90
        0
280
     0
281
     0
  0
CLASS
  1
LAYOUT
  2
AcDbLayout
  3
ObjectDBX Classes
 90
        0
280
     0
281
     0
  0
CLASS
  1
TABLESTYLE
  2
AcDbTableStyle
  3
ObjectDBX Classes
 90
     4095
280
     0
281
     0
  0
CLASS
  1
MLEADERSTYLE
  2
AcDbMLeaderStyle
  3
ACDB_MLEADERSTYLE_CLASS
 90
     4095
280
     0
281
     0
  0
ENDSEC
  0
SECTION
  2
TABLES
  0
TABLE
  2
VPORT
  5
8
330
0
100
AcDbSymbolTable
 70
     1
  0
VPORT
  5
29
330
8
100
AcDbSymbolTableRecord
100
AcDbViewportTableRecord
  2
*Active
 70
     0
 10
0.0
 20
0.0
 11
1.0
 21
1.0
 12
-4.41949170225624
 22
-16.86479400719568
 13
0.0
 23
0.0
 14
10.0
 24
10.0
 15
10.0
 25
10.0
 16
0.0
 26
0.0
 36
1.0
 17
0.0
 27
0.0
 37
0.0
 40
104.5607863341879
 41
2.223011363636364
 42
50.0
 43
0.0
 44
0.0
 50
0.0
 51
0.0
 71
    16
 72
  2000
 73
     1
 74
     3
 75
     0
 76
     0
 77
     0
 78
     0
281
     0
 65
     1
110
0.0
120
0.0
130
0.0
111
1.0
121
0.0
131
0.0
112
0.0
122
1.0
132
0.0
 79
     0
146
0.0
  0
ENDTAB
  0
TABLE
  2
LTYPE
  5
5
330
0
100
AcDbSymbolTable
 70
     6
  0
LTYPE
  5
14
330
5
100
AcDbSymbolTableRecord
100
AcDbLinetypeTableRecord
  2
ByBlock
 70
     0
  3

 72
    65
 73
     0
 40
0.0
  0
LTYPE
  5
15
330
5
100
AcDbSymbolTableRecord
100
AcDbLinetypeTableRecord
  2
ByLayer
 70
     0
  3

 72
    65
 73
     0
 40
0.0
  0
LTYPE
  5
16
330
5
100
AcDbSymbolTableRecord
100
AcDbLinetypeTableRecord
  2
Continuous
 70
     0
  3
Solid line
 72
    65
 73
     0
 40
0.0
  0
LTYPE
  5
6A
330
5
100
AcDbSymbolTableRecord
100
AcDbLinetypeTableRecord
  2
HIDDEN
 70
     0
  3
Hidden __ __ __ __ __ __ __ __ __ __ __ __ __ __
 72
    65
 73
     2
 40
1.905
 49
1.27
 74
     0
 49
-0.635
 74
     0
  0
LTYPE
  5
6B
330
5
100
AcDbSymbolTableRecord
100
AcDbLinetypeTableRecord
  2
PHANTOM
 70
     0
  3
Phantom ______  __  __  ______  __  __  ______
 72
    65
 73
     6
 40
12.7
 49
6.35
 74
     0
 49
-1.27
 74
     0
 49
1.27
 74
     0
 49
-1.27
 74
     0
 49
1.27
 74
     0
 49
-1.27
 74
     0
  0
LTYPE
  5
6C
330
5
100
AcDbSymbolTableRecord
100
AcDbLinetypeTableRecord
  2
CENTER
 70
     0
  3
Center ____ _ ____ _ ____ _ ____ _ ____ _ ____
 72
    65
 73
     4
 40
10.16
 49
6.35
 74
     0
 49
-1.27
 74
     0
 49
1.27
 74
     0
 49
-1.27
 74
     0
  0
LTYPE
  5
6D
330
5
100
AcDbSymbolTableRecord
100
AcDbLinetypeTableRecord
  2
CENTERX2
 70
     0
  3
Center (2x) ________  __  ________  __  _____
 72
    65
 73
     4
 40
20.32
 49
12.7
 74
     0
 49
-2.54
 74
     0
 49
2.54
 74
     0
 49
-2.54
 74
     0
  0
LTYPE
  5
6E
330
5
100
AcDbSymbolTableRecord
100
AcDbLinetypeTableRecord
  2
DOT2
 70
     0
  3
Dot (.5x) ........................................
 72
    65
 73
     2
 40
0.635
 49
0.0
 74
     0
 49
-0.635
 74
     0
  0
ENDTAB
  0
TABLE
  2
LAYER
  5
2
330
0
100
AcDbSymbolTable
 70
    17
  0
LAYER
  5
10
330
2
100
AcDbSymbolTableRecord
100
AcDbLayerTableRecord
  2
0
 70
     0
 62
     7
  6
Continuous
370
    -3
390
F
  0
LAYER
  5
6F
330
2
100
AcDbSymbolTableRecord
100
AcDbLayerTableRecord
  2
FORMAT
 70
     0
 62
     2
  6
Continuous
370
    -3
390
F
  0
LAYER
  5
70
330
2
100
AcDbSymbolTableRecord
100
AcDbLayerTableRecord
  2
외형선
 70
     0
 62
   100
  6
Continuous
370
    30
390
F
  0
LAYER
  5
71
330
2
100
AcDbSymbolTableRecord
100
AcDbLayerTableRecord
  2
숨은선
 70
     0
 62
     2
  6
HIDDEN
370
    15
390
F
  0
LAYER
  5
72
330
2
100
AcDbSymbolTableRecord
100
AcDbLayerTableRecord
  2
중심선
 70
     0
 62
     1
  6
CENTERX2
370
    -3
390
F
  0
LAYER
  5
73
330
2
100
AcDbSymbolTableRecord
100
AcDbLayerTableRecord
  2
파단선
 70
     0
 62
     4
  6
Continuous
370
    -3
390
F
  0
LAYER
  5
74
330
2
100
AcDbSymbolTableRecord
100
AcDbLayerTableRecord
  2
해칭선
 70
     0
 62
     4
  6
Continuous
370
    -3
390
F
  0
LAYER
  5
75
330
2
100
AcDbSymbolTableRecord
100
AcDbLayerTableRecord
  2
가는실선
 70
     0
 62
     4
  6
Continuous
370
    -3
390
F
  0
LAYER
  5
76
330
2
100
AcDbSymbolTableRecord
100
AcDbLayerTableRecord
  2
치수_보조선
 70
     0
 62
     4
  6
Continuous
370
    -3
390
F
  0
LAYER
  5
77
330
2
100
AcDbSymbolTableRecord
100
AcDbLayerTableRecord
  2
치수문자_일반주서
 70
     0
 62
     7
  6
Continuous
370
    15
390
F
  0
LAYER
  5
78
330
2
100
AcDbSymbolTableRecord
100
AcDbLayerTableRecord
  2
개별주서
 70
     0
 62
   100
  6
Continuous
370
    30
390
F
  0
LAYER
  5
79
330
2
100
AcDbSymbolTableRecord
100
AcDbLayerTableRecord
  2
중간선
 70
     0
 62
     2
  6
Continuous
370
    15
390
F
  0
LAYER
  5
7A
330
2
100
AcDbSymbolTableRecord
100
AcDbLayerTableRecord
  2
윤곽선
 70
     0
 62
     3
  6
Continuous
370
    40
390
F
  0
LAYER
  5
7B
330
2
100
AcDbSymbolTableRecord
100
AcDbLayerTableRecord
  2
중심마크
 70
     0
 62
   100
  6
Continuous
370
    30
390
F
  0
LAYER
  5
7C
330
2
100
AcDbSymbolTableRecord
100
AcDbLayerTableRecord
  2
가상선
 70
     0
 62
     4
  6
PHANTOM
370
    -3
390
F
  0
LAYER
  5
7D
330
2
100
AcDbSymbolTableRecord
100
AcDbLayerTableRecord
  2
특수지정선
 70
     0
 62
     5
  6
CENTERX2
370
    60
390
F
  0
LAYER
  5
134
330
2
100
AcDbSymbolTableRecord
100
AcDbLayerTableRecord
  2
Defpoints
 70
     0
 62
     7
  6
Continuous
290
     0
370
    -3
390
F
  0
ENDTAB
  0
TABLE
  2
STYLE
  5
3
330
0
100
AcDbSymbolTable
 70
     2
  0
STYLE
  5
11
330
3
100
AcDbSymbolTableRecord
100
AcDbTextStyleTableRecord
  2
Standard
 70
     0
 40
0.0
 41
1.0
 50
0.0
 71
     0
 42
3.5
  3
txt
  4

  0
STYLE
  5
93
330
3
100
AcDbSymbolTableRecord
100
AcDbTextStyleTableRecord
  2
SLDTEXTSTYLE0
 70
     0
 40
0.0
 41
0.75
 50
0.0
 71
     0
 42
3.5
  3
TXT
  4

  0
ENDTAB
  0
TABLE
  2
VIEW
  5
6
330
0
100
AcDbSymbolTable
 70
     0
  0
ENDTAB
  0
TABLE
  2
UCS
  5
7
330
0
100
AcDbSymbolTable
 70
     0
  0
ENDTAB
  0
TABLE
  2
APPID
  5
9
330
0
100
AcDbSymbolTable
 70
     2
  0
APPID
  5
12
330
9
100
AcDbSymbolTableRecord
100
AcDbRegAppTableRecord
  2
ACAD
 70
     0
  0
APPID
  5
13C
330
9
100
AcDbSymbolTableRecord
100
AcDbRegAppTableRecord
  2
PE_URL
 70
     0
  0
ENDTAB
  0
TABLE
  2
DIMSTYLE
  5
A
330
0
100
AcDbSymbolTable
 70
     3
100
AcDbDimStyleTable
  0
DIMSTYLE
105
27
330
A
100
AcDbSymbolTableRecord
100
AcDbDimStyleTableRecord
  2
ISO-25
 70
     0
 41
2.5
 42
0.625
 43
3.75
 44
1.25
 73
     0
 74
     0
 77
     1
 78
     8
140
2.5
141
2.5
143
0.03937007874016
147
0.625
171
     3
172
     1
178
     0
271
     2
272
     2
274
     3
278
    44
283
     0
284
     8
340
11
  0
DIMSTYLE
105
DC
102
{ACAD_REACTORS
330
DB
330
F1
330
FE
102
}
330
A
100
AcDbSymbolTableRecord
100
AcDbDimStyleTableRecord
  2
SLDDIMSTYLE0
 70
     0
 41
3.302
 44
0.0
 45
0.000000001
 73
     0
 74
     0
 77
     1
 78
    12
 79
     3
140
3.5
147
0.875
172
     1
173
     1
178
     0
271
     2
272
     2
276
     2
284
    12
289
     0
340
93
  0
DIMSTYLE
105
E7
102
{ACAD_REACTORS
330
E6
102
}
330
A
100
AcDbSymbolTableRecord
100
AcDbDimStyleTableRecord
  2
SLDDIMSTYLE1
 70
     0
 41
3.302
 44
0.0
 45
0.000000001
 73
     0
 74
     0
 77
     1
 78
    12
 79
     3
140
3.5
147
0.875
173
     1
178
     0
271
     2
272
     2
276
     2
284
    12
340
93
  0
ENDTAB
  0
TABLE
  2
BLOCK_RECORD
  5
1
330
0
100
AcDbSymbolTable
 70
     7
  0
BLOCK_RECORD
  5
1F
330
1
100
AcDbSymbolTableRecord
100
AcDbBlockTableRecord
  2
*Model_Space
340
22
  0
BLOCK_RECORD
  5
1B
330
1
100
AcDbSymbolTableRecord
100
AcDbBlockTableRecord
  2
*Paper_Space
340
1E
  0
BLOCK_RECORD
  5
23
330
1
100
AcDbSymbolTableRecord
100
AcDbBlockTableRecord
  2
*Paper_Space0
340
26
  0
BLOCK_RECORD
  5
7E
330
1
100
AcDbSymbolTableRecord
100
AcDbBlockTableRecord
  2
블럭10
340
0
102
{BLKREFS
331
D4
102
}
  0
BLOCK_RECORD
  5
DD
330
1
100
AcDbSymbolTableRecord
100
AcDbBlockTableRecord
  2
_D
340
0
  0
BLOCK_RECORD
  5
E8
330
1
100
AcDbSymbolTableRecord
100
AcDbBlockTableRecord
  2
_D_1
340
0
  0
BLOCK_RECORD
  5
F2
330
1
100
AcDbSymbolTableRecord
100
AcDbBlockTableRecord
  2
_D_2
340
0
  0
BLOCK_RECORD
  5
FF
330
1
100
AcDbSymbolTableRecord
100
AcDbBlockTableRecord
  2
_D_3
340
0
  0
BLOCK_RECORD
  5
10B
330
1
100
AcDbSymbolTableRecord
100
AcDbBlockTableRecord
  2
SW_DOWELSYMBOL_0
340
0
102
{BLKREFS
331
111
102
}
  0
ENDTAB
  0
ENDSEC
  0
SECTION
  2
BLOCKS
  0
BLOCK
  5
20
330
1F
100
AcDbEntity
  8
0
100
AcDbBlockBegin
  2
*Model_Space
 70
     0
 10
0.0
 20
0.0
 30
0.0
  3
*Model_Space
  1

  0
ENDBLK
  5
21
330
1F
100
AcDbEntity
  8
0
100
AcDbBlockEnd
  0
BLOCK
  5
1C
330
1B
100
AcDbEntity
 67
     1
  8
0
100
AcDbBlockBegin
  2
*Paper_Space
 70
     0
 10
0.0
 20
0.0
 30
0.0
  3
*Paper_Space
  1

  0
ENDBLK
  5
1D
330
1B
100
AcDbEntity
 67
     1
  8
0
100
AcDbBlockEnd
  0
BLOCK
  5
24
330
23
100
AcDbEntity
  8
0
100
AcDbBlockBegin
  2
*Paper_Space0
 70
     0
 10
0.0
 20
0.0
 30
0.0
  3
*Paper_Space0
  1

  0
ENDBLK
  5
25
330
23
100
AcDbEntity
  8
0
100
AcDbBlockEnd
  0
BLOCK
  5
7F
330
7E
100
AcDbEntity
  8
0
100
AcDbBlockBegin
  2
블럭10
 70
     2
 10
0.0
 20
0.0
 30
0.0
  3
블럭10
  1

  0
ELLIPSE
  5
81
330
7E
100
AcDbEntity
  8
중심선
100
AcDbEllipse
 10
20.54032771741204
 20
12.0471743016438
 30
0.0
 11
6.600054785286829
 21
-1.261213355974178E-13
 31
0.0
210
0.0
220
0.0
230
1.0
 40
0.636358354079598
 41
0.9219305317359503
 42
6.513795318482858
  0
ELLIPSE
  5
82
330
7E
100
AcDbEntity
  8
중심선
100
AcDbEllipse
 10
20.54032771746488
 20
12.04717430159265
 30
0.0
 11
3.960054785062283
 21
1.540847449632565E-10
 31
0.0
210
0.0
220
0.0
230
1.0
 40
0.3939339440162632
 41
1.131841032648279
 42
5.62031148352944
  0
LINE
  5
83
330
7E
100
AcDbEntity
  8
중심선
100
AcDbLine
 10
2.268634060543552
 20
16.24717430164393
 30
0.0
 11
5.714909304380834
 21
16.24717430164393
 31
0.0
  0
LINE
  5
84
330
7E
100
AcDbEntity
  8
중심선
100
AcDbLine
 10
5.245725140726316
 20
7.84717430164391
 30
0.0
 11
8.692000384563599
 21
7.84717430164391
 31
0.0
  0
LINE
  5
85
330
7E
100
AcDbEntity
  8
중심선
100
AcDbLine
 10
15.74043728645272
 20
16.24717430164393
 30
0.0
 11
8.692000384563599
 21
7.84717430164391
 31
0.0
  0
LINE
  5
86
330
7E
100
AcDbEntity
  8
중심선
100
AcDbLine
 10
0.1404042013395286
 20
13.71084872107135
 30
0.0
 11
3.58671253028996
 21
13.71088815037384
 31
0.0
  0
LINE
  5
87
330
7E
100
AcDbEntity
  8
중심선
100
AcDbLine
 10
2.750260043222114
 20
10.84717430164391
 30
0.0
 11
6.196535287059397
 21
10.84717430164391
 31
0.0
  0
LINE
  5
88
330
7E
100
AcDbEntity
  8
중심선
100
AcDbLine
 10
12.29416204261559
 20
16.24717430164393
 30
0.0
 11
5.245725140726316
 21
7.84717430164391
 31
0.0
  0
LINE
  5
89
330
7E
100
AcDbEntity
  8
중심선
100
AcDbLine
 10
10.72767329541681
 20
16.24717430164393
 30
0.0
 11
6.196535287059397
 21
10.84717430164391
 31
0.0
  0
LINE
  5
8A
330
7E
100
AcDbEntity
  8
중심선
100
AcDbLine
 10
7.28139805157953
 20
16.24717430164393
 30
0.0
 11
2.750260043222114
 21
10.84717430164391
 31
0.0
  0
LINE
  5
8B
330
7E
100
AcDbEntity
  8
중심선
100
AcDbLine
 10
5.714909304380834
 20
16.24717430164393
 30
0.0
 11
3.58671253028996
 21
13.71088815037384
 31
0.0
  0
LINE
  5
8C
330
7E
100
AcDbEntity
  8
중심선
100
AcDbLine
 10
2.268634060543552
 20
16.24717430164393
 30
0.0
 11
0.1404042013395286
 21
13.71084872107135
 31
0.0
  0
LINE
  5
8D
330
7E
100
AcDbEntity
  8
중심선
100
AcDbLine
 10
7.28139805157953
 20
16.24717430164393
 30
0.0
 11
10.72767329541681
 21
16.24717430164393
 31
0.0
  0
LINE
  5
8E
330
7E
100
AcDbEntity
  8
중심선
100
AcDbLine
 10
12.29416204261559
 20
16.24717430164393
 30
0.0
 11
15.74043728645272
 21
16.24717430164393
 31
0.0
  0
LINE
  5
8F
330
7E
100
AcDbEntity
  8
중심선
100
AcDbLine
 10
19.22036997980202
 20
11.08717430171403
 30
0.0
 11
23.66174974927406
 21
11.08717430171406
 31
0.0
  0
LINE
  5
90
330
7E
100
AcDbEntity
  8
중심선
100
AcDbLine
 10
19.22039502424796
 20
13.00717430171391
 30
0.0
 11
19.22036997980202
 21
11.08717430171403
 31
0.0
  0
LINE
  5
91
330
7E
100
AcDbEntity
  8
중심선
100
AcDbLine
 10
19.22039502424796
 20
13.00717430171391
 30
0.0
 11
26.96566020931264
 21
13.00717430171391
 31
0.0
  0
LINE
  5
92
330
7E
100
AcDbEntity
  8
중심선
100
AcDbLine
 10
22.22332737316547
 20
13.45928029700563
 30
0.0
 11
24.52862924686651
 21
15.39360700705356
 31
0.0
  0
ATTDEF
  5
94
330
7E
100
AcDbEntity
  8
FORMAT
 62
     2
100
AcDbText
 10
-12.95993919485777
 20
2.075366912832191
 30
0.0
 40
4.233333333333333
  1
SEME35075E [ 2 FLUTE ]
 41
0.75
  7
SLDTEXTSTYLE0
 11
-12.95993919485777
 21
-0.0412997538344756
 31
0.0
100
AcDbAttributeDefinition
  3

  2
AUTOATTR0
 70
     0
 74
     1
  0
ENDBLK
  5
80
330
7E
100
AcDbEntity
  8
0
100
AcDbBlockEnd
  0
BLOCK
  5
DE
330
DD
100
AcDbEntity
  8
0
100
AcDbBlockBegin
  2
_D
 70
     0
 10
0.0
 20
0.0
 30
0.0
  3
_D
  1

  0
LINE
  5
E0
330
DD
100
AcDbEntity
  8
치수문자_일반주서
 62
     0
370
    -2
100
AcDbLine
 10
23.93301270189222
 20
3.809330557111168
 30
0.0
 11
23.93301270189222
 21
15.99746444568895
 31
0.0
  0
LINE
  5
E1
330
DD
100
AcDbEntity
  8
치수문자_일반주서
 62
     0
370
    -2
100
AcDbLine
 10
3.933012701892224
 20
3.811642701768796
 30
0.0
 11
3.933012701892224
 21
15.99746444568895
 31
0.0
  0
LINE
  5
E2
330
DD
100
AcDbEntity
  8
치수문자_일반주서
 62
     0
370
    -2
100
AcDbLine
 10
20.63101270189222
 20
15.99746444568895
 30
0.0
 11
7.235012701892224
 21
15.99746444568895
 31
0.0
  0
SOLID
  5
E3
330
DD
100
AcDbEntity
  8
치수문자_일반주서
 62
     0
100
AcDbTrace
 10
20.63101270189222
 20
15.44713111235562
 30
0.0
 11
20.63101270189222
 21
16.54779777902228
 31
0.0
 12
23.93301270189222
 22
15.99746444568895
 32
0.0
 13
23.93301270189222
 23
15.99746444568895
 33
0.0
  0
SOLID
  5
E4
330
DD
100
AcDbEntity
  8
치수문자_일반주서
 62
     0
100
AcDbTrace
 10
7.235012701892224
 20
16.54779777902228
 30
0.0
 11
7.235012701892224
 21
15.44713111235562
 31
0.0
 12
3.933012701892224
 22
15.99746444568895
 32
0.0
 13
3.933012701892224
 23
15.99746444568895
 33
0.0
  0
MTEXT
  5
E5
330
DD
100
AcDbEntity
  8
치수문자_일반주서
 62
     0
100
AcDbMText
 10
13.93301270189223
 20
20.37246444568895
 30
0.0
 40
3.5
 41
0.0
 71
     2
 72
     1
  1
\A1;20
  7
SLDTEXTSTYLE0
 73
     1
 44
1.0
  0
POINT
  5
13D
330
DD
100
AcDbEntity
  8
Defpoints
 62
     0
100
AcDbPoint
 10
23.93301270189222
 20
3.746830557111168
 30
0.0
  0
POINT
  5
13E
330
DD
100
AcDbEntity
  8
Defpoints
 62
     0
100
AcDbPoint
 10
3.933012701892224
 20
3.749142701768796
 30
0.0
  0
POINT
  5
13F
330
DD
100
AcDbEntity
  8
Defpoints
 62
     0
100
AcDbPoint
 10
3.933012701892224
 20
15.99746444568895
 30
0.0
  0
ENDBLK
  5
DF
330
DD
100
AcDbEntity
  8
0
100
AcDbBlockEnd
  0
BLOCK
  5
E9
330
E8
100
AcDbEntity
  8
0
100
AcDbBlockBegin
  2
_D_1
 70
     0
 10
0.0
 20
0.0
 30
0.0
  3
_D_1
  1

  0
LINE
  5
EB
330
E8
100
AcDbEntity
  8
치수문자_일반주서
 62
     0
370
    -2
100
AcDbLine
 10
23.93301270189207
 20
3.809330557111161
 30
0.0
 11
23.93301270189207
 21
25.40915911661226
 31
0.0
  0
LINE
  5
EC
330
E8
100
AcDbEntity
  8
치수문자_일반주서
 62
     0
370
    -2
100
AcDbLine
 10
-36.06698729810778
 20
3.252499999999996
 30
0.0
 11
-36.06698729810778
 21
25.40915911661226
 31
0.0
  0
LINE
  5
ED
330
E8
100
AcDbEntity
  8
치수문자_일반주서
 62
     0
370
    -2
100
AcDbLine
 10
20.63101270189207
 20
25.40915911661226
 30
0.0
 11
-32.76498729810778
 21
25.40915911661226
 31
0.0
  0
SOLID
  5
EE
330
E8
100
AcDbEntity
  8
치수문자_일반주서
 62
     0
100
AcDbTrace
 10
20.63101270189207
 20
24.85882578327892
 30
0.0
 11
20.63101270189207
 21
25.95949244994559
 31
0.0
 12
23.93301270189207
 22
25.40915911661226
 32
0.0
 13
23.93301270189207
 23
25.40915911661226
 33
0.0
  0
SOLID
  5
EF
330
E8
100
AcDbEntity
  8
치수문자_일반주서
 62
     0
100
AcDbTrace
 10
-32.76498729810778
 20
25.95949244994559
 30
0.0
 11
-32.76498729810778
 21
24.85882578327892
 31
0.0
 12
-36.06698729810778
 22
25.40915911661226
 32
0.0
 13
-36.06698729810778
 23
25.40915911661226
 33
0.0
  0
MTEXT
  5
F0
330
E8
100
AcDbEntity
  8
치수문자_일반주서
 62
     0
100
AcDbMText
 10
-6.066987298107765
 20
29.78415911661226
 30
0.0
 40
3.5
 41
0.0
 71
     2
 72
     1
  1
\A1;60
  7
SLDTEXTSTYLE0
 73
     1
 44
1.0
  0
POINT
  5
135
330
E8
100
AcDbEntity
  8
Defpoints
 62
     0
100
AcDbPoint
 10
23.93301270189207
 20
3.746830557111161
 30
0.0
  0
POINT
  5
136
330
E8
100
AcDbEntity
  8
Defpoints
 62
     0
100
AcDbPoint
 10
-36.06698729810778
 20
3.189999999999996
 30
0.0
  0
POINT
  5
137
330
E8
100
AcDbEntity
  8
Defpoints
 62
     0
100
AcDbPoint
 10
-36.06698729810778
 20
25.40915911661226
 30
0.0
  0
ENDBLK
  5
EA
330
E8
100
AcDbEntity
  8
0
100
AcDbBlockEnd
  0
BLOCK
  5
F3
330
F2
100
AcDbEntity
  8
0
100
AcDbBlockBegin
  2
_D_2
 70
     0
 10
0.0
 20
0.0
 30
0.0
  3
_D_2
  1

  0
LINE
  5
F5
330
F2
100
AcDbEntity
  8
치수문자_일반주서
 62
     0
370
    -2
100
AcDbLine
 10
23.99551270189207
 20
3.751830557111162
 30
0.0
 11
39.49920301413853
 21
3.751830557111218
 31
0.0
  0
LINE
  5
F6
330
F2
100
AcDbEntity
  8
치수문자_일반주서
 62
     0
370
    -2
100
AcDbLine
 10
23.99551270189222
 20
-3.746830557111166
 30
0.0
 11
39.49920301413856
 21
-3.746830557111108
 31
0.0
  0
LINE
  5
F7
330
F2
100
AcDbEntity
  8
치수문자_일반주서
 62
     0
370
    -2
100
AcDbLine
 10
39.49920301413853
 20
3.751830557111218
 30
0.0
 11
39.49920301413847
 21
19.98083055711122
 31
0.0
  0
LINE
  5
F8
330
F2
100
AcDbEntity
  8
치수문자_일반주서
 62
     0
370
    -2
100
AcDbLine
 10
39.49920301413853
 20
3.751830557111218
 30
0.0
 11
39.49920301413856
 21
-3.746830557111108
 31
0.0
  0
LINE
  5
F9
330
F2
100
AcDbEntity
  8
치수문자_일반주서
 62
     0
370
    -2
100
AcDbLine
 10
39.49920301413852
 20
7.053830557111217
 30
0.0
 11
39.4992030141385
 21
10.35583055711122
 31
0.0
  0
LINE
  5
FA
330
F2
100
AcDbEntity
  8
치수문자_일반주서
 62
     0
370
    -2
100
AcDbLine
 10
39.49920301413857
 20
-7.048830557111108
 30
0.0
 11
39.49920301413859
 21
-10.35083055711111
 31
0.0
  0
SOLID
  5
FB
330
F2
100
AcDbEntity
  8
치수문자_일반주서
 62
     0
100
AcDbTrace
 10
38.94886968080518
 20
7.053830557111215
 30
0.0
 11
40.04953634747185
 21
7.053830557111219
 31
0.0
 12
39.49920301413853
 22
3.751830557111218
 32
0.0
 13
39.49920301413853
 23
3.751830557111218
 33
0.0
  0
SOLID
  5
FC
330
F2
100
AcDbEntity
  8
치수문자_일반주서
 62
     0
100
AcDbTrace
 10
40.04953634747191
 20
-7.048830557111106
 30
0.0
 11
38.94886968080524
 21
-7.04883055711111
 31
0.0
 12
39.49920301413856
 22
-3.746830557111108
 32
0.0
 13
39.49920301413856
 23
-3.746830557111108
 33
0.0
  0
MTEXT
  5
FD
330
F2
100
AcDbEntity
  8
치수문자_일반주서
 62
     0
100
AcDbMText
 10
35.12420301413849
 20
15.1683305571112
 30
0.0
 40
3.5
 41
0.0
 71
     2
 72
     1
  1
\A1;%%c7.5
  7
SLDTEXTSTYLE0
 11
-3.790237883466690E-15
 21
1.0
 31
0.0
 73
     1
 44
1.0
  0
POINT
  5
139
330
F2
100
AcDbEntity
  8
Defpoints
 62
     0
100
AcDbPoint
 10
23.93301270189207
 20
3.751830557111161
 30
0.0
  0
POINT
  5
13A
330
F2
100
AcDbEntity
  8
Defpoints
 62
     0
100
AcDbPoint
 10
23.93301270189222
 20
-3.746830557111166
 30
0.0
  0
POINT
  5
13B
330
F2
100
AcDbEntity
  8
Defpoints
 62
     0
100
AcDbPoint
 10
39.49920301413856
 20
-3.746830557111108
 30
0.0
  0
ENDBLK
  5
F4
330
F2
100
AcDbEntity
  8
0
100
AcDbBlockEnd
  0
BLOCK
  5
100
330
FF
100
AcDbEntity
  8
0
100
AcDbBlockBegin
  2
_D_3
 70
     0
 10
0.0
 20
0.0
 30
0.0
  3
_D_3
  1

  0
LINE
  5
102
330
FF
100
AcDbEntity
  8
치수문자_일반주서
 62
     0
370
    -2
100
AcDbLine
 10
-35.31948729810776
 20
3.999999999999996
 30
0.0
 11
-47.67654674349632
 21
3.999999999999949
 31
0.0
  0
LINE
  5
103
330
FF
100
AcDbEntity
  8
치수문자_일반주서
 62
     0
370
    -2
100
AcDbLine
 10
-35.31948729810776
 20
-4.000000000000003
 30
0.0
 11
-47.6765467434963
 21
-4.000000000000049
 31
0.0
  0
LINE
  5
104
330
FF
100
AcDbEntity
  8
치수문자_일반주서
 62
     0
370
    -2
100
AcDbLine
 10
-47.67654674349631
 20
0.6979999999999493
 30
0.0
 11
-47.67654674349631
 21
-0.6980000000000488
 31
0.0
  0
SOLID
  5
105
330
FF
100
AcDbEntity
  8
치수문자_일반주서
 62
     0
100
AcDbTrace
 10
-47.12621341016298
 20
0.6979999999999513
 30
0.0
 11
-48.22688007682964
 21
0.6979999999999473
 31
0.0
 12
-47.67654674349632
 22
3.999999999999949
 32
0.0
 13
-47.67654674349632
 23
3.999999999999949
 33
0.0
  0
SOLID
  5
106
330
FF
100
AcDbEntity
  8
치수문자_일반주서
 62
     0
100
AcDbTrace
 10
-48.22688007682964
 20
-0.6980000000000508
 30
0.0
 11
-47.12621341016298
 21
-0.6980000000000468
 31
0.0
 12
-47.6765467434963
 22
-4.000000000000049
 32
0.0
 13
-47.6765467434963
 23
-4.000000000000049
 33
0.0
  0
MTEXT
  5
107
330
FF
100
AcDbEntity
  8
치수문자_일반주서
 62
     0
100
AcDbMText
 10
-52.05154674349631
 20
-0.0000000000000183
 30
0.0
 40
3.5
 41
0.0
 71
     2
 72
     1
  1
\A1;%%c8
  7
SLDTEXTSTYLE0
 11
-3.552713678800502E-15
 21
1.0
 31
0.0
 73
     1
 44
1.0
  0
POINT
  5
108
330
FF
100
AcDbEntity
  8
Defpoints
 62
     0
100
AcDbPoint
 10
-35.25698729810776
 20
3.999999999999996
 30
0.0
  0
POINT
  5
109
330
FF
100
AcDbEntity
  8
Defpoints
 62
     0
100
AcDbPoint
 10
-35.25698729810776
 20
-4.000000000000003
 30
0.0
  0
POINT
  5
10A
330
FF
100
AcDbEntity
  8
Defpoints
 62
     0
100
AcDbPoint
 10
-47.6765467434963
 20
-4.000000000000049
 30
0.0
  0
ENDBLK
  5
101
330
FF
100
AcDbEntity
  8
0
100
AcDbBlockEnd
  0
BLOCK
  5
10C
330
10B
100
AcDbEntity
  8
0
100
AcDbBlockBegin
  2
SW_DOWELSYMBOL_0
 70
     0
 10
0.0
 20
0.0
 30
0.0
  3
SW_DOWELSYMBOL_0
  1

  0
CIRCLE
  5
10E
330
10B
100
AcDbEntity
  8
외형선
 62
     0
100
AcDbCircle
 10
0.0
 20
0.0
 30
0.0
 40
3.000000000000004
  0
HATCH
  5
10F
330
10B
100
AcDbEntity
  8
0
  6
Continuous
 62
     0
370
    30
100
AcDbHatch
 10
0.0
 20
0.0
 30
0.0
210
0.0
220
0.0
230
1.0
  2
SOLID
 70
     1
 71
     0
 91
        1
 92
        0
 93
        3
 72
     2
 10
0.0000000000000087
 20
-0.0000000000000035
 40
3.000000000000004
 50
0.0
 51
90.0
 73
     1
 72
     1
 10
0.0000000000000087
 20
3.000000000000001
 11
0.0000000000000087
 21
-0.0000000000000036
 72
     1
 10
0.0000000000000087
 20
-0.0000000000000035
 11
3.000000000000013
 21
-0.0000000000000035
 97
        0
 75
     0
 76
     1
 98
        1
 10
0.0
 20
0.0
  0
HATCH
  5
110
330
10B
100
AcDbEntity
  8
0
  6
Continuous
 62
     0
370
    30
100
AcDbHatch
 10
0.0
 20
0.0
 30
0.0
210
0.0
220
0.0
230
1.0
  2
SOLID
 70
     1
 71
     0
 91
        1
 92
        0
 93
        3
 72
     2
 10
0.0000000000000087
 20
-0.0000000000000035
 40
3.000000000000004
 50
180.0
 51
270.0000000000007
 73
     1
 72
     1
 10
0.0000000000000087
 20
-3.000000000000008
 11
0.0000000000000087
 21
-0.0000000000000036
 72
     1
 10
0.0000000000000087
 20
-0.0000000000000035
 11
-2.999999999999996
 21
-0.0000000000000035
 97
        0
 75
     0
 76
     1
 98
        1
 10
0.0
 20
0.0
  0
ENDBLK
  5
10D
330
10B
100
AcDbEntity
  8
0
100
AcDbBlockEnd
  0
ENDSEC
  0
SECTION
  2
ENTITIES
  0
LINE
  5
95
330
1F
100
AcDbEntity
  8
0
  6
Continuous
 62
     4
370
    15
100
AcDbLine
 10
2.000000000000005
 20
3.999999999999999
 30
0.0
 11
-35.25698729810776
 21
3.999999999999996
 31
0.0
  0
LINE
  5
96
330
1F
100
AcDbEntity
  8
0
  6
Continuous
 62
     4
370
    15
100
AcDbLine
 10
-35.25698729810776
 20
-4.000000000000003
 30
0.0
 11
2.000000000000005
 21
-3.999999999999999
 31
0.0
  0
LINE
  5
97
330
1F
100
AcDbEntity
  8
0
  6
Continuous
 62
     4
370
    15
100
AcDbLine
 10
2.000000000000005
 20
-4.000000000000001
 30
0.0
 11
2.412919939399661
 21
-3.889358435699155
 31
0.0
1001
PE_URL
1000

  0
LINE
  5
98
330
1F
100
AcDbEntity
  8
0
  6
Continuous
 62
     4
370
    15
100
AcDbLine
 10
2.412919939399661
 20
3.889358435699154
 30
0.0
 11
2.000000000000005
 21
3.999999999999999
 31
0.0
1001
PE_URL
1000

  0
LINE
  5
99
330
1F
100
AcDbEntity
  8
0
  6
Continuous
 62
     4
370
    15
100
AcDbLine
 10
-35.25698729810776
 20
3.999999999999996
 30
0.0
 11
-36.06698729810778
 21
3.189999999999996
 31
0.0
  0
LINE
  5
9A
330
1F
100
AcDbEntity
  8
0
  6
Continuous
 62
     4
370
    15
100
AcDbLine
 10
-36.06698729810778
 20
-3.190000000000002
 30
0.0
 11
-35.25698729810776
 21
-4.000000000000001
 31
0.0
  0
LINE
  5
9B
330
1F
100
AcDbEntity
  8
0
  6
Continuous
 62
     4
370
    15
100
AcDbLine
 10
3.794454086126215
 20
-3.75
 30
0.0
 11
3.933012701892221
 21
-3.75
 31
0.0
1001
PE_URL
1000

  0
LINE
  5
9C
330
1F
100
AcDbEntity
  8
0
  6
Continuous
 62
     1
370
    15
100
AcDbLine
 10
3.933012701892221
 20
3.75
 30
0.0
 11
3.794212747810506
 21
3.75
 31
0.0
  0
LINE
  5
9D
330
1F
100
AcDbEntity
  8
0
  6
Continuous
 62
     1
370
    15
100
AcDbLine
 10
12.14666956831078
 20
1.054280352720016
 30
0.0
 11
12.10326067050756
 21
1.07810030778393
 31
0.0
  0
SPLINE
  5
9E
330
1F
100
AcDbEntity
  8
0
  6
Continuous
 62
     1
370
    15
100
AcDbSpline
210
0.0
220
0.0
230
1.0
 70
     8
 71
     3
 72
     9
 73
     5
 74
     0
 42
0.000000001
 43
0.00000001
 40
0.0
 40
0.0
 40
0.0
 40
0.0
 40
0.4991618244967106
 40
1.0
 40
1.0
 40
1.0
 40
1.0
 10
14.21831138591993
 20
0.9609406719365886
 30
0.0
 10
14.04500341325554
 20
1.043430611292497
 30
0.0
 10
13.69780544225863
 20
1.208687518587203
 30
0.0
 10
13.35054903426136
 20
1.390340079708669
 30
0.0
 10
13.17662976844817
 20
1.481318616996244
 30
0.0
  0
LINE
  5
9F
330
1F
100
AcDbEntity
  8
0
  6
Continuous
 62
     1
370
    15
100
AcDbLine
 10
5.61198531504629
 20
3.750000000000001
 30
0.0
 11
3.933012701892224
 21
3.750000000000001
 31
0.0
  0
SPLINE
  5
A0
330
1F
100
AcDbEntity
  8
0
  6
Continuous
 62
     1
370
    15
100
AcDbSpline
210
0.0
220
0.0
230
1.0
 70
     8
 71
     3
 72
    18
 73
    14
 74
     0
 42
0.000000001
 43
0.00000001
 40
0.0
 40
0.0
 40
0.0
 40
0.0
 40
0.1455280157318228
 40
0.2609387581656876
 40
0.350956317393315
 40
0.4195520992106125
 40
0.4848791740767281
 40
0.556358229895644
 40
0.6736258636524681
 40
0.7942982158496948
 40
0.8872148596501152
 40
0.9601282888121372
 40
0.9999999999999999
 40
0.9999999999999999
 40
0.9999999999999999
 40
0.9999999999999999
 10
12.97788645338344
 20
2.979896622698397
 30
0.0
 10
12.83275432316191
 20
2.972514663268524
 30
0.0
 10
12.57252540682916
 20
2.959278453616559
 30
0.0
 10
12.20949560286278
 20
2.946443806394694
 30
0.0
 10
11.92518471196116
 20
2.938687643010469
 30
0.0
 10
11.69568504592272
 20
2.933944831762962
 30
0.0
 10
11.48564310862686
 20
2.930819821560867
 30
0.0
 10
11.22563006915094
 20
2.928492093190738
 30
0.0
 10
10.9090220802608
 20
2.928293166453959
 30
0.0
 10
10.57048083793361
 20
2.931545874574213
 30
0.0
 10
10.27731688846971
 20
2.937127328797212
 30
0.0
 10
10.06688996408223
 20
2.942503305416072
 30
0.0
 10
9.951765969010454
 20
2.946237824288719
 30
0.0
 10
9.911067427801436
 20
2.947558048366588
 30
0.0
  0
SPLINE
  5
A1
330
1F
100
AcDbEntity
  8
0
  6
Continuous
 62
     1
370
    15
100
AcDbSpline
210
0.0
220
0.0
230
1.0
 70
     8
 71
     3
 72
    30
 73
    26
 74
     0
 42
0.000000001
 43
0.00000001
 40
0.0
 40
0.0
 40
0.0
 40
0.0
 40
0.0537749645755914
 40
0.1023254351032362
 40
0.1444717138606124
 40
0.1764458851031743
 40
0.2191703680864364
 40
0.2792651494969743
 40
0.3268385808041041
 40
0.3631401338888624
 40
0.3949214942168361
 40
0.4244730669737709
 40
0.4658091461252003
 40
0.5183422957852428
 40
0.5551713748519367
 40
0.5985845931230722
 40
0.6587227472002751
 40
0.708974996492702
 40
0.7466743992247826
 40
0.7725966509532168
 40
0.7962034942897422
 40
0.8252168565813985
 40
0.8656470657904356
 40
0.9228663150760505
 40
1.0
 40
1.0
 40
1.0
 40
1.0
 10
22.54164943463947
 20
2.56505343083062
 30
0.0
 10
22.43560746526283
 20
2.555817056906309
 30
0.0
 10
22.23382600912785
 20
2.538241666796052
 30
0.0
 10
21.90456144832464
 20
2.516791017102467
 30
0.0
 10
21.62696031137369
 20
2.501586247000311
 30
0.0
 10
21.37001445880089
 20
2.489560545967231
 30
0.0
 10
21.07854489948193
 20
2.478785880664706
 30
0.0
 10
20.7483400125891
 20
2.470761184986148
 30
0.0
 10
20.43370399482882
 20
2.467575066003428
 30
0.0
 10
20.18053609212411
 20
2.467734905869355
 30
0.0
 10
19.96682502001961
 20
2.469739244927247
 30
0.0
 10
19.74199740167337
 20
2.473616401044408
 30
0.0
 10
19.47175202784334
 20
2.480732661872391
 30
0.0
 10
19.18585577068924
 20
2.491763209788886
 30
0.0
 10
18.89521560226947
 20
2.506267236668323
 30
0.0
 10
18.58798697790547
 20
2.524647536048995
 30
0.0
 10
18.25132642598521
 20
2.549086088924227
 30
0.0
 10
17.9270311403798
 20
2.577027120643991
 30
0.0
 10
17.67773947543285
 20
2.601258749621907
 30
0.0
 10
17.48676905827443
 20
2.621287054667005
 30
0.0
 10
17.31526125258186
 20
2.640206964844038
 30
0.0
 10
17.11006478459982
 20
2.664056671817365
 30
0.0
 10
16.82808132529349
 20
2.698974487575885
 30
0.0
 10
16.44504906163969
 20
2.750378736146936
 30
0.0
 10
16.15538124121537
 20
2.794918015869315
 30
0.0
 10
15.98907935488391
 20
2.820488568452013
 30
0.0
  0
SPLINE
  5
A2
330
1F
100
AcDbEntity
  8
0
  6
Continuous
 62
     1
370
    15
100
AcDbSpline
210
0.0
220
0.0
230
1.0
 70
     8
 71
     3
 72
    24
 73
    20
 74
     0
 42
0.000000001
 43
0.00000001
 40
0.0
 40
0.0
 40
0.0
 40
0.0
 40
0.0770612114499973
 40
0.1346357582620991
 40
0.1787064153515431
 40
0.2351889720156796
 40
0.2798903981141206
 40
0.3282372907929461
 40
0.3924700314840483
 40
0.4411557214441724
 40
0.4778027126796097
 40
0.5297441486854094
 40
0.6019396207729083
 40
0.6873818930168665
 40
0.7465408023000981
 40
0.7880482786814212
 40
0.8391568100826772
 40
0.9084650244771922
 40
1.0
 40
1.0
 40
1.0
 40
1.0
 10
7.337611363480358
 20
-3.120521921066499
 30
0.0
 10
7.480454510648411
 20
-3.106629503956553
 30
0.0
 10
7.730019694865559
 20
-3.082357680603442
 30
0.0
 10
8.066979641487222
 20
-3.053675267153405
 30
0.0
 10
8.368129848677103
 20
-3.03006310045804
 30
0.0
 10
8.641751296737436
 20
-3.010666270108394
 30
0.0
 10
8.92292412271952
 20
-2.992907908570231
 30
0.0
 10
9.219187126001984
 20
-2.976279514888661
 30
0.0
 10
9.523062703537072
 20
-2.961824027784413
 30
0.0
 10
9.804339871783842
 20
-2.950862327009087
 30
0.0
 10
10.06178446665107
 20
-2.942572137258866
 30
0.0
 10
10.36430947207614
 20
-2.934982550349186
 30
0.0
 10
10.75857877387257
 20
-2.928989130161462
 30
0.0
 10
11.16637475281385
 20
-2.927882164380912
 30
0.0
 10
11.51674497251375
 20
-2.931031114751957
 30
0.0
 10
11.80161999643089
 20
-2.935856853602231
 30
0.0
 10
12.10911013387408
 20
-2.943372230586674
 30
0.0
 10
12.51453822294362
 20
-2.956546573971071
 30
0.0
 10
12.80983479622886
 20
-2.971427799197027
 30
0.0
 10
12.97788645338344
 20
-2.979896622698397
 30
0.0
  0
SPLINE
  5
A3
330
1F
100
AcDbEntity
  8
0
  6
Continuous
 62
     1
370
    15
100
AcDbSpline
210
0.0
220
0.0
230
1.0
 70
     8
 71
     3
 72
    18
 73
    14
 74
     0
 42
0.000000001
 43
0.00000001
 40
0.0
 40
0.0
 40
0.0
 40
0.0
 40
0.1737478718913272
 40
0.3049795557251345
 40
0.3987453710536518
 40
0.4677556025929696
 40
0.5204917959915486
 40
0.5772395740407967
 40
0.6390857671862328
 40
0.7131967185902893
 40
0.810383606481941
 40
0.9231047887998062
 40
1.0
 40
1.0
 40
1.0
 40
1.0
 10
15.98907935488391
 20
-2.820488568452011
 30
0.0
 10
16.1487651140763
 20
-2.795910149282514
 30
0.0
 10
16.42906145016373
 20
-2.752767661969474
 30
0.0
 10
16.80086750829636
 20
-2.702525883126452
 30
0.0
 10
17.07976230365182
 20
-2.667717044918747
 30
0.0
 10
17.28275080566281
 20
-2.643915842714632
 30
0.0
 10
17.44893138346904
 20
-2.625395129062672
 30
0.0
 10
17.60879063160645
 20
-2.608408534843738
 30
0.0
 10
17.78854269300783
 20
-2.590350861799773
 30
0.0
 10
18.00615893241093
 20
-2.570078231989371
 30
0.0
 10
18.2712109037011
 20
-2.547847775401168
 30
0.0
 10
18.5387970293577
 20
-2.528070306967449
 30
0.0
 10
18.71567223511197
 20
-2.517349011120617
 30
0.0
 10
18.78740050738954
 20
-2.513001199767464
 30
0.0
  0
LINE
  5
A4
330
1F
100
AcDbEntity
  8
0
  6
Continuous
 62
     1
370
    15
100
AcDbLine
 10
3.933012701892224
 20
-3.750000000000002
 30
0.0
 11
5.611985315046285
 21
-3.750000000000002
 31
0.0
  0
LINE
  5
A5
330
1F
100
AcDbEntity
  8
0
  6
Continuous
 62
     4
370
    15
100
AcDbLine
 10
2.000000000000005
 20
3.999999999999999
 30
0.0
 11
2.000000000000005
 21
-3.999999999999999
 31
0.0
  0
LINE
  5
A6
330
1F
100
AcDbEntity
  8
0
  6
Continuous
 62
     4
370
    15
100
AcDbLine
 10
-35.25698729810776
 20
3.999999999999996
 30
0.0
 11
-35.25698729810776
 21
-4.000000000000003
 31
0.0
  0
SPLINE
  5
A7
330
1F
100
AcDbEntity
  8
0
  6
Continuous
 62
     4
370
    15
100
AcDbSpline
210
0.0
220
0.0
230
1.0
 70
     8
 71
     3
 72
     8
 73
     4
 74
     0
 42
0.000000001
 43
0.00000001
 40
0.0
 40
0.0
 40
0.0
 40
0.0
 40
0.0005964950056551
 40
0.0005964950056551
 40
0.0005964950056551
 40
0.0005964950056551
 10
2.412919939399661
 20
3.811846969277262
 30
0.0
 10
2.586389419947855
 20
3.783243717699788
 30
0.0
 10
2.759792797180811
 20
3.751643739537896
 30
0.0
 10
2.933012701892487
 20
3.717004772193678
 30
0.0
1001
PE_URL
1000

  0
LINE
  5
A8
330
1F
100
AcDbEntity
  8
0
  6
Continuous
 62
     4
370
    15
100
AcDbLine
 10
2.412919939399659
 20
-3.456465036624157
 30
0.0
 11
2.412919939399661
 21
3.889358435699154
 31
0.0
1001
PE_URL
1000

  0
SPLINE
  5
A9
330
1F
100
AcDbEntity
  8
0
  6
Continuous
 62
     4
370
    15
100
AcDbSpline
210
0.0
220
0.0
230
1.0
 70
     8
 71
     3
 72
     8
 73
     4
 74
     0
 42
0.000000001
 43
0.00000001
 40
0.0
 40
0.0
 40
0.0
 40
0.0
 40
1.0
 40
1.0
 40
1.0
 40
1.0
 10
2.933012701892224
 20
-3.435348776334283
 30
0.0
 10
2.759173249261091
 20
-3.445888278947809
 30
0.0
 10
2.585778017725332
 20
-3.453024596608161
 30
0.0
 10
2.412822746416417
 20
-3.456540331721688
 30
0.0
1001
PE_URL
1000

  0
LINE
  5
AA
330
1F
100
AcDbEntity
  8
0
  6
Continuous
 62
     4
370
    15
100
AcDbLine
 10
2.933012701892224
 20
-3.435348776334286
 30
0.0
 11
2.933012701892224
 21
-3.717004772194842
 31
0.0
1001
PE_URL
1000

  0
SPLINE
  5
AB
330
1F
100
AcDbEntity
  8
0
  6
Continuous
 62
     4
370
    15
100
AcDbSpline
210
0.0
220
0.0
230
1.0
 70
     8
 71
     3
 72
     8
 73
     4
 74
     0
 42
0.000000001
 43
0.00000001
 40
0.0
 40
0.0
 40
0.0
 40
0.0
 40
0.0005964950056551
 40
0.0005964950056551
 40
0.0005964950056551
 40
0.0005964950056551
 10
2.412919939399661
 20
-3.811846969277263
 30
0.0
 10
2.586389419947855
 20
-3.783243717699789
 30
0.0
 10
2.759792797180811
 20
-3.751643739537897
 30
0.0
 10
2.933012701892487
 20
-3.717004772193679
 30
0.0
1001
PE_URL
1000

  0
LINE
  5
AC
330
1F
100
AcDbEntity
  8
0
  6
Continuous
 62
     4
370
    15
100
AcDbLine
 10
2.412919939399661
 20
-3.889358435699155
 30
0.0
 11
2.412919939399661
 21
-3.811834160619309
 31
0.0
1001
PE_URL
1000

  0
LINE
  5
AD
330
1F
100
AcDbEntity
  8
0
  6
Continuous
 62
     4
370
    15
100
AcDbLine
 10
-36.06698729810778
 20
3.189999999999996
 30
0.0
 11
-36.06698729810778
 21
-3.189999999999998
 31
0.0
  0
SPLINE
  5
AE
330
1F
100
AcDbEntity
  8
0
  6
Continuous
 62
     4
370
    15
100
AcDbSpline
210
0.0
220
0.0
230
1.0
 70
     8
 71
     3
 72
    10
 73
     6
 74
     0
 42
0.000000001
 43
0.00000001
 40
0.0
 40
0.0
 40
0.0
 40
0.0
 40
0.5000000000000001
 40
0.5000000000000001
 40
1.0
 40
1.0
 40
1.0
 40
1.0
 10
3.933012701894847
 20
-3.026945581431685
 30
0.0
 10
3.679357337188312
 20
-2.987965169084701
 30
0.0
 10
3.428508213036713
 20
-2.942238841322417
 30
0.0
 10
2.921581290053931
 20
-2.837277762714884
 30
0.0
 10
2.666636062743091
 20
-2.778074903120182
 30
0.0
 10
2.412822746416417
 20
-2.712747897293541
 30
0.0
  0
SPLINE
  5
AF
330
1F
100
AcDbEntity
  8
0
  6
Continuous
 62
     4
370
    15
100
AcDbSpline
210
0.0
220
0.0
230
1.0
 70
     8
 71
     3
 72
    10
 73
     6
 74
     0
 42
0.000000001
 43
0.00000001
 40
0.0
 40
0.0
 40
0.0
 40
0.0
 40
0.5
 40
0.5
 40
1.0
 40
1.0
 40
1.0
 40
1.0
 10
3.933012701892224
 20
-0.1873786863392815
 30
0.0
 10
3.679367614968578
 20
-0.0705393800935495
 30
0.0
 10
3.428528633165495
 20
0.0462957003942877
 30
0.0
 10
2.921622489948598
 20
0.2800259567814457
 30
0.0
 10
2.666687667026745
 20
0.3967440909516217
 30
0.0
 10
2.412884451533291
 20
0.5121176077788681
 30
0.0
  0
SPLINE
  5
B0
330
1F
100
AcDbEntity
  8
0
  6
Continuous
 62
     1
370
    15
100
AcDbSpline
210
0.0
220
0.0
230
1.0
 70
    24
 71
     3
 72
    14
 73
    10
 74
     0
 42
0.000000001
 43
0.00000001
 40
0.0
 40
0.0
 40
0.0
 40
0.0
 40
0.2500000000000001
 40
0.2500000000000001
 40
0.5000000000000002
 40
0.5000000000000002
 40
0.7500000000000001
 40
0.7500000000000001
 40
1.0
 40
1.0
 40
1.0
 40
1.0
 10
3.933012701892221
 20
-0.1873786863392794
 30
0.0
 10
3.933012701892221
 20
-0.471998526338119
 30
0.0
 10
3.933012701892221
 20
-0.7579207094226732
 30
0.0
 10
3.933012701892221
 20
-1.311536901095611
 30
0.0
 10
3.933012701892221
 20
-1.579061994566369
 30
0.0
 10
3.933012701892221
 20
-2.075346663357374
 30
0.0
 10
3.933012701892221
 20
-2.303962926730543
 30
0.0
 10
3.933012701892221
 20
-2.707422486928071
 30
0.0
 10
3.933012701892221
 20
-2.882215108240361
 30
0.0
 10
3.933012701892221
 20
-3.026945581431281
 30
0.0
  0
SPLINE
  5
B1
330
1F
100
AcDbEntity
  8
0
  6
Continuous
 62
     4
370
    15
100
AcDbSpline
210
0.0
220
0.0
230
1.0
 70
     8
 71
     3
 72
    10
 73
     6
 74
     0
 42
0.000000001
 43
0.00000001
 40
0.0
 40
0.0
 40
0.0
 40
0.0
 40
0.5
 40
0.5
 40
1.0
 40
1.0
 40
1.0
 40
1.0
 10
3.933012701892224
 20
2.619874675459755
 30
0.0
 10
3.6793696261352
 20
2.626272632286174
 30
0.0
 10
3.428532628995245
 20
2.62668451086022
 30
0.0
 10
2.921630551983016
 20
2.615545412477086
 30
0.0
 10
2.666697765003521
 20
2.603960623942671
 30
0.0
 10
2.412896526056738
 20
2.586471165335608
 30
0.0
  0
SPLINE
  5
B2
330
1F
100
AcDbEntity
  8
0
  6
Continuous
 62
     1
370
    15
100
AcDbSpline
210
0.0
220
0.0
230
1.0
 70
    24
 71
     3
 72
    14
 73
    10
 74
     0
 42
0.000000001
 43
0.00000001
 40
0.0
 40
0.0
 40
0.0
 40
0.0
 40
0.25
 40
0.25
 40
0.5
 40
0.5
 40
0.75
 40
0.75
 40
1.0
 40
1.0
 40
1.0
 40
1.0
 10
3.933012701892221
 20
2.619874675459754
 30
0.0
 10
3.933012701892221
 20
2.529017754583955
 30
0.0
 10
3.933012701892221
 20
2.39607716582461
 30
0.0
 10
3.933012701892217
 20
2.046705901919641
 30
0.0
 10
3.933012701892217
 20
1.830282718618037
 30
0.0
 10
3.933012701892217
 20
1.331352859995636
 30
0.0
 10
3.933012701892217
 20
1.049112035362883
 30
0.0
 10
3.933012701892221
 20
0.4489542918810176
 30
0.0
 10
3.933012701892221
 20
0.1313971080183012
 30
0.0
 10
3.933012701892221
 20
-0.1873786863392797
 30
0.0
  0
SPLINE
  5
B3
330
1F
100
AcDbEntity
  8
0
  6
Continuous
 62
     4
370
    15
100
AcDbSpline
210
0.0
220
0.0
230
1.0
 70
     8
 71
     3
 72
     8
 73
     4
 74
     0
 42
0.000000001
 43
0.00000001
 40
0.0
 40
0.0
 40
0.0
 40
0.0
 40
1.0
 40
1.0
 40
1.0
 40
1.0
 10
3.933012701894706
 20
-3.625466912238888
 30
0.0
 10
3.598740627571382
 20
-3.576180490903853
 30
0.0
 10
3.26792504704492
 20
-3.512724675458789
 30
0.0
 10
2.933012701892224
 20
-3.435348776334286
 30
0.0
  0
SPLINE
  5
B4
330
1F
100
AcDbEntity
  8
0
  6
Continuous
 62
     1
370
    15
100
AcDbSpline
210
0.0
220
0.0
230
1.0
 70
    24
 71
     3
 72
     8
 73
     4
 74
     0
 42
0.000000001
 43
0.00000001
 40
0.0
 40
0.0
 40
0.0
 40
0.0
 40
1.0
 40
1.0
 40
1.0
 40
1.0
 10
3.933012701892245
 20
-3.026945581431285
 30
0.0
 10
3.933012701892245
 20
-3.226451110725921
 30
0.0
 10
3.933012701892245
 20
-3.427240452308692
 30
0.0
 10
3.933012701892245
 20
-3.625466912237508
 30
0.0
  0
LINE
  5
B5
330
1F
100
AcDbEntity
  8
0
  6
Continuous
 62
     4
370
    15
100
AcDbLine
 10
2.933012701892224
 20
-3.717004772194842
 30
0.0
 11
3.794454086126215
 21
-3.744689714731741
 31
0.0
  0
LINE
  5
B6
330
1F
100
AcDbEntity
  8
0
  6
Continuous
 62
     4
370
    15
100
AcDbLine
 10
3.933012701892221
 20
-3.62546691223852
 30
0.0
 11
3.933012701892221
 21
-3.75
 31
0.0
1001
PE_URL
1000

  0
SPLINE
  5
B7
330
1F
100
AcDbEntity
  8
0
  6
Continuous
 62
     4
370
    15
100
AcDbSpline
210
0.0
220
0.0
230
1.0
 70
     8
 71
     3
 72
     8
 73
     4
 74
     0
 42
0.000000001
 43
0.00000001
 40
0.0
 40
0.0
 40
0.0
 40
0.0
 40
1.0
 40
1.0
 40
1.0
 40
1.0
 10
2.933012701892224
 20
3.717004772194841
 30
0.0
 10
3.267925047044094
 20
3.742547416130086
 30
0.0
 10
3.598740627569748
 20
3.753266163047918
 30
0.0
 10
3.933012701892238
 20
3.749142701766816
 30
0.0
  0
SPLINE
  5
B8
330
1F
100
AcDbEntity
  8
0
  6
Continuous
 62
     4
370
    15
100
AcDbSpline
210
0.0
220
0.0
230
1.0
 70
    24
 71
     3
 72
    10
 73
     6
 74
     0
 42
0.000000001
 43
0.00000001
 40
0.0
 40
0.0
 40
0.0
 40
0.0
 40
0.5
 40
0.5
 40
1.0
 40
1.0
 40
1.0
 40
1.0
 10
3.933012701892224
 20
3.749142701755777
 30
0.0
 10
3.933012701892224
 20
3.564705669480866
 30
0.0
 10
3.933012701892224
 20
3.363768569338017
 30
0.0
 10
3.933012701892224
 20
2.973119199349082
 30
0.0
 10
3.933012701892224
 20
2.784423022283467
 30
0.0
 10
3.933012701892224
 20
2.619874675459755
 30
0.0
  0
LINE
  5
B9
330
1F
100
AcDbEntity
  8
0
  6
Continuous
 62
     1
370
    15
100
AcDbLine
 10
3.933012701892221
 20
3.75
 30
0.0
 11
3.933012701892221
 21
3.749142701766816
 31
0.0
  0
SPLINE
  5
BA
330
1F
100
AcDbEntity
  8
0
  6
Continuous
 62
     1
370
    15
100
AcDbSpline
210
0.0
220
0.0
230
1.0
 70
     8
 71
     3
 72
    50
 73
    46
 74
     0
 42
0.000000001
 43
0.00000001
 40
0.0
 40
0.0
 40
0.0
 40
0.0
 40
0.0625
 40
0.0625
 40
0.1250000000000001
 40
0.1250000000000001
 40
0.1562500000000001
 40
0.1562500000000001
 40
0.1875000000000002
 40
0.1875000000000002
 40
0.2500000000000004
 40
0.2500000000000004
 40
0.2812500000000004
 40
0.2812500000000004
 40
0.3125000000000004
 40
0.3125000000000004
 40
0.3750000000000007
 40
0.3750000000000007
 40
0.4375000000000009
 40
0.4375000000000009
 40
0.468750000000001
 40
0.468750000000001
 40
0.500000000000001
 40
0.500000000000001
 40
0.5625000000000009
 40
0.5625000000000009
 40
0.5937500000000007
 40
0.5937500000000007
 40
0.6250000000000006
 40
0.6250000000000006
 40
0.6875000000000004
 40
0.6875000000000004
 40
0.7500000000000002
 40
0.7500000000000002
 40
0.7812500000000002
 40
0.7812500000000002
 40
0.8125000000000002
 40
0.8125000000000002
 40
0.8749999999999998
 40
0.8749999999999998
 40
0.9062499999999998
 40
0.9062499999999998
 40
0.9374999999999997
 40
0.9374999999999997
 40
1.0
 40
1.0
 40
1.0
 40
1.0
 10
3.933012701892228
 20
3.749142701766818
 30
0.0
 10
4.350115525566141
 20
3.743997469856124
 30
0.0
 10
4.768923557147229
 20
3.715543943705059
 30
0.0
 10
5.598030544024908
 20
3.613613790436335
 30
0.0
 10
6.019053675848975
 20
3.539634785385037
 30
0.0
 10
6.642914763827063
 20
3.397092906124521
 30
0.0
 10
6.849322287125776
 20
3.344404013807443
 30
0.0
 10
7.266342372154531
 20
3.228519775744829
 30
0.0
 10
7.475765961335611
 20
3.165407252805017
 30
0.0
 10
8.1024180196052
 20
2.961845951648665
 30
0.0
 10
8.51538060609009
 20
2.80754806555792
 30
0.0
 10
9.142548183997942
 20
2.550634339747803
 30
0.0
 10
9.351806735801722
 20
2.460882428315951
 30
0.0
 10
9.767830582762759
 20
2.274433942625991
 30
0.0
 10
9.974187742274891
 20
2.177818364035907
 30
0.0
 10
10.59958914660482
 20
1.877366686646528
 30
0.0
 10
11.01905060770819
 20
1.663751612792067
 30
0.0
 10
11.8475504725001
 20
1.220500751959652
 30
0.0
 10
12.26853501953103
 20
0.9887381888981617
 30
0.0
 10
12.89274089400154
 20
0.6354093791921936
 30
0.0
 10
13.09905776100014
 20
0.5168055772619611
 30
0.0
 10
13.5159031403644
 20
0.2775702437793082
 30
0.0
 10
13.7253061998423
 20
0.1571509376183362
 30
0.0
 10
14.35209855543212
 20
-0.2040075618234777
 30
0.0
 10
14.76499248642989
 20
-0.4440523690220501
 30
0.0
 10
15.3920941742083
 20
-0.7992834377781037
 30
0.0
 10
15.60139820468576
 20
-0.9166886651503822
 30
0.0
 10
16.0176458019392
 20
-1.147871792806125
 30
0.0
 10
16.2239324486868
 20
-1.261537420338503
 30
0.0
 10
16.8490625736673
 20
-1.597319263672378
 30
0.0
 10
17.26921114325886
 20
-1.813218388284098
 30
0.0
 10
18.09707981594813
 20
-2.218032378286265
 30
0.0
 10
18.51801308050693
 20
-2.409066529259418
 30
0.0
 10
19.14254541110402
 20
-2.670550974238495
 30
0.0
 10
19.34881191060531
 20
-2.75347550211174
 30
0.0
 10
19.76547029429403
 20
-2.911133930696733
 30
0.0
 10
19.97484658220586
 20
-2.985714325837767
 30
0.0
 10
20.6017606495417
 20
-3.195114784174874
 30
0.0
 10
21.0146202510988
 20
-3.315295087855045
 30
0.0
 10
21.64163743256533
 20
-3.464569804091397
 30
0.0
 10
21.8509807097146
 20
-3.509061608875211
 30
0.0
 10
22.26743982615429
 20
-3.5869350098827
 30
0.0
 10
22.47369625190868
 20
-3.620294862588246
 30
0.0
 10
23.09853667612622
 20
-3.703818180056774
 30
0.0
 10
23.51940596573304
 20
-3.736966698958474
 30
0.0
 10
23.93301270189222
 20
-3.746830557111163
 30
0.0
  0
SPLINE
  5
BB
330
1F
100
AcDbEntity
  8
0
  6
Continuous
 62
     1
370
    15
100
AcDbSpline
210
0.0
220
0.0
230
1.0
 70
     8
 71
     3
 72
    16
 73
    12
 74
     0
 42
0.000000001
 43
0.00000001
 40
0.0
 40
0.0
 40
0.0
 40
0.0
 40
0.0092131477317682
 40
0.1351835575731721
 40
0.2610691844050276
 40
0.3869040382932991
 40
0.5127224237326417
 40
0.6385587409164886
 40
0.7589955720642146
 40
0.8795474322123383
 40
1.0
 40
1.0
 40
1.0
 40
1.0
 10
14.61681083246028
 20
-0.3563772079146801
 30
0.0
 10
14.58399812164876
 20
-0.3434934246903019
 30
0.0
 10
14.10254063173723
 20
-0.1544510146497616
 30
0.0
 10
13.17271865788064
 20
0.2278473769971912
 30
0.0
 10
11.82768196738498
 20
0.7627773677604114
 30
0.0
 10
10.48322799016325
 20
1.267390306238746
 30
0.0
 10
9.138976133507077
 20
1.717069460523765
 30
0.0
 10
7.81390902172235
 20
2.088707062408617
 30
0.0
 10
6.507604326432649
 20
2.367915675633135
 30
0.0
 10
5.220223580920036
 20
2.557566191954565
 30
0.0
 10
4.361965129145121
 20
2.599110886345274
 30
0.0
 10
3.933012701892224
 20
2.619874675459754
 30
0.0
  0
SPLINE
  5
BC
330
1F
100
AcDbEntity
  8
0
  6
Continuous
 62
     4
370
    15
100
AcDbSpline
210
0.0
220
0.0
230
1.0
 70
    24
 71
     3
 72
    10
 73
     6
 74
     0
 42
0.000000001
 43
0.00000001
 40
0.0
 40
0.0
 40
0.0
 40
0.0
 40
0.5
 40
0.5
 40
1.0
 40
1.0
 40
1.0
 40
1.0
 10
3.933012701892224
 20
3.749142701755784
 30
0.0
 10
3.933012701892224
 20
3.564705669480873
 30
0.0
 10
3.933012701892224
 20
3.363768569338022
 30
0.0
 10
3.933012701892224
 20
2.973119199349087
 30
0.0
 10
3.933012701892224
 20
2.78442302228347
 30
0.0
 10
3.933012701892224
 20
2.619874675459755
 30
0.0
  0
SPLINE
  5
BD
330
1F
100
AcDbEntity
  8
0
  6
Continuous
 62
     1
370
    15
100
AcDbSpline
210
0.0
220
0.0
230
1.0
 70
     8
 71
     3
 72
    22
 73
    18
 74
     0
 42
0.000000001
 43
0.00000001
 40
0.0
 40
0.0
 40
0.0
 40
0.0
 40
0.0685140744467366
 40
0.1369525937968335
 40
0.2053662059624196
 40
0.2738058337147355
 40
0.3423220531896984
 40
0.4096122786968842
 40
0.4768212060249973
 40
0.5440111319398377
 40
0.6112445931765838
 40
0.6799298542773419
 40
0.7485640990837271
 40
0.8171394800601365
 40
0.8857054759337196
 40
0.9543116672784346
 40
1.0
 40
1.0
 40
1.0
 40
1.0
 10
23.93301270189222
 20
-3.558528259619622
 30
0.0
 10
23.51451197563237
 20
-3.469562830310539
 30
0.0
 10
22.67797203212481
 20
-3.2917300798791
 30
0.0
 10
21.42394737035129
 20
-2.866947957994353
 30
0.0
 10
20.17042665997597
 20
-2.345149298922031
 30
0.0
 10
18.91638029619887
 20
-1.733466068638216
 30
0.0
 10
17.66877835760441
 20
-1.062337257702826
 30
0.0
 10
16.42873325022773
 20
-0.3565672883785879
 30
0.0
 10
15.19721934776658
 20
0.3580799159437892
 30
0.0
 10
13.96607858348037
 20
1.059753549390394
 30
0.0
 10
12.72580520355648
 20
1.728020243857685
 30
0.0
 10
11.47618446849329
 20
2.337116437782486
 30
0.0
 10
10.2187223510316
 20
2.863058001293885
 30
0.0
 10
8.96221783347401
 20
3.283497914355857
 30
0.0
 10
7.705905359417699
 20
3.575856764989169
 30
0.0
 10
6.589249472776507
 20
3.735032856366736
 30
0.0
 10
5.891075030605306
 20
3.734553292002595
 30
0.0
 10
5.61198531504629
 20
3.734361589938045
 30
0.0
  0
SPLINE
  5
BE
330
1F
100
AcDbEntity
  8
0
  6
Continuous
 62
     1
370
    15
100
AcDbSpline
210
0.0
220
0.0
230
1.0
 70
     8
 71
     3
 72
    15
 73
    11
 74
     0
 42
0.000000001
 43
0.00000001
 40
0.0
 40
0.0
 40
0.0
 40
0.0
 40
0.1383105055478132
 40
0.2765310910982153
 40
0.4146976202376494
 40
0.5528462660914178
 40
0.6910133044030041
 40
0.8292349053775306
 40
0.9675469020816732
 40
1.0
 40
1.0
 40
1.0
 40
1.0
 10
23.93301270189222
 20
-2.958645991380808
 30
0.0
 10
23.48435161113581
 20
-2.864521703740369
 30
0.0
 10
22.58732111826919
 20
-2.676334321610853
 30
0.0
 10
21.2422749578425
 20
-2.245744843797712
 30
0.0
 10
19.89781874606982
 20
-1.728280082278997
 30
0.0
 10
18.55356700369941
 20
-1.134849554121739
 30
0.0
 10
17.20910379070867
 20
-0.4925676249960892
 30
0.0
 10
15.8640516565227
 20
0.1673269010159958
 30
0.0
 10
14.86172307004859
 20
0.6637562590868775
 30
0.0
 10
14.30779820331234
 20
0.9158445123330644
 30
0.0
 10
14.20252740438631
 20
0.9637526916055628
 30
0.0
  0
LINE
  5
BF
330
1F
100
AcDbEntity
  8
0
  6
Continuous
 62
     1
370
    15
100
AcDbLine
 10
23.93301270189222
 20
-3.558528259619623
 30
0.0
 11
23.93301270189222
 21
-2.958645991380808
 31
0.0
  0
LINE
  5
C0
330
1F
100
AcDbEntity
  8
0
  6
Continuous
 62
     1
370
    15
100
AcDbLine
 10
23.93301270189222
 20
-3.746830557111166
 30
0.0
 11
23.93301270189222
 21
-3.558528259619626
 31
0.0
  0
SPLINE
  5
C1
330
1F
100
AcDbEntity
  8
0
  6
Continuous
 62
     1
370
    15
100
AcDbSpline
210
0.0
220
0.0
230
1.0
 70
     8
 71
     3
 72
     8
 73
     4
 74
     0
 42
0.000000001
 43
0.00000001
 40
0.0
 40
0.0
 40
0.0
 40
0.0
 40
1.0
 40
1.0
 40
1.0
 40
1.0
 10
21.61243634370452
 20
1.049206504046472
 30
0.0
 10
21.44445965002573
 20
1.248231419039127
 30
0.0
 10
21.29863920283829
 20
1.438475436226693
 30
0.0
 10
21.18353398362495
 20
1.615439413517634
 30
0.0
  0
LINE
  5
C2
330
1F
100
AcDbEntity
  8
0
  6
Continuous
 62
     1
370
    15
100
AcDbLine
 10
21.18353398362495
 20
1.615439413517629
 30
0.0
 11
23.93301270189222
 21
0.0000000000000021
 31
0.0
  0
LINE
  5
C3
330
1F
100
AcDbEntity
  8
0
  6
Continuous
 62
     1
370
    15
100
AcDbLine
 10
23.93301270189222
 20
0.0000000000000021
 30
0.0
 11
23.93301270189222
 21
-1.002161047611166
 31
0.0
  0
SPLINE
  5
C4
330
1F
100
AcDbEntity
  8
0
  6
Continuous
 62
     1
370
    15
100
AcDbSpline
210
0.0
220
0.0
230
1.0
 70
     8
 71
     3
 72
    10
 73
     6
 74
     0
 42
0.000000001
 43
0.00000001
 40
0.0
 40
0.0
 40
0.0
 40
0.0
 40
0.5
 40
0.5
 40
1.0
 40
1.0
 40
1.0
 40
1.0
 10
23.93301270189222
 20
-1.002161047611166
 30
0.0
 10
23.53130992667091
 20
-0.6863541378790079
 30
0.0
 10
23.13631875363922
 20
-0.3575967695334709
 30
0.0
 10
22.36009981721087
 20
0.3264753318258709
 30
0.0
 10
21.97524993057733
 20
0.6853792682701002
 30
0.0
 10
21.61243634370452
 20
1.049206504046472
 30
0.0
  0
SPLINE
  5
C5
330
1F
100
AcDbEntity
  8
0
  6
Continuous
 62
     1
370
    15
100
AcDbSpline
210
0.0
220
0.0
230
1.0
 70
     8
 71
     3
 72
    15
 73
    11
 74
     0
 42
0.000000001
 43
0.00000001
 40
0.0
 40
0.0
 40
0.0
 40
0.0
 40
0.1180031207889131
 40
0.2363010418948107
 40
0.3542345912056904
 40
0.5099068205083468
 40
0.6656413915808506
 40
0.8214792424070531
 40
0.9773136367795837
 40
1.0
 40
1.0
 40
1.0
 40
1.0
 10
21.61243634370452
 20
1.049206504046474
 30
0.0
 10
21.27285578303034
 20
1.193823661533786
 30
0.0
 10
20.59284630736507
 20
1.483419265121657
 30
0.0
 10
19.57271116967782
 20
1.872810291335372
 30
0.0
 10
18.44515310219177
 20
2.256555699801414
 30
0.0
 10
17.20907767180952
 20
2.597963513394392
 30
0.0
 10
15.86407367925952
 20
2.862125739418888
 30
0.0
 10
14.5183801565363
 20
2.991715475156931
 30
0.0
 10
13.55572878012365
 20
3.025342636668085
 30
0.0
 10
13.04181851712601
 20
2.97798214067671
 30
0.0
 10
12.97651095823895
 20
2.971963583345639
 30
0.0
  0
SPLINE
  5
C6
330
1F
100
AcDbEntity
  8
0
  6
Continuous
 62
     1
370
    15
100
AcDbSpline
210
0.0
220
0.0
230
1.0
 70
    24
 71
     3
 72
    10
 73
     6
 74
     0
 42
0.000000001
 43
0.00000001
 40
0.0
 40
0.0
 40
0.0
 40
0.0
 40
0.5
 40
0.5
 40
1.0
 40
1.0
 40
1.0
 40
1.0
 10
23.93301270189222
 20
-2.958645991380808
 30
0.0
 10
23.93301270189222
 20
-2.731842708764266
 30
0.0
 10
23.93301270189222
 20
-2.445268064649256
 30
0.0
 10
23.93301270189222
 20
-1.779009596815048
 30
0.0
 10
23.93301270189222
 20
-1.39990291144241
 30
0.0
 10
23.93301270189222
 20
-1.002161047611286
 30
0.0
  0
SPLINE
  5
C7
330
1F
100
AcDbEntity
  8
0
  6
Continuous
 62
     1
370
    15
100
AcDbSpline
210
0.0
220
0.0
230
1.0
 70
     8
 71
     3
 72
     9
 73
     5
 74
     0
 42
0.000000001
 43
0.00000001
 40
0.0
 40
0.0
 40
0.0
 40
0.0
 40
0.9670697068350205
 40
1.0
 40
1.0
 40
1.0
 40
1.0
 10
23.93301270189222
 20
2.625000000000002
 30
0.0
 10
23.48434792694567
 20
2.624006961663684
 30
0.0
 10
23.02040538818606
 20
2.62298010876022
 30
0.0
 10
22.55651139806009
 20
2.56514965055015
 30
0.0
 10
22.54123523296776
 20
2.563245276607428
 30
0.0
  0
SPLINE
  5
C8
330
1F
100
AcDbEntity
  8
0
  6
Continuous
 62
     1
370
    15
100
AcDbSpline
210
0.0
220
0.0
230
1.0
 70
     8
 71
     3
 72
    10
 73
     6
 74
     0
 42
0.000000001
 43
0.00000001
 40
0.0
 40
0.0
 40
0.0
 40
0.0
 40
0.5
 40
0.5
 40
1.0
 40
1.0
 40
1.0
 40
1.0
 10
23.93301270189222
 20
2.625000000000002
 30
0.0
 10
23.46636032073282
 20
2.498386896124182
 30
0.0
 10
23.00321437221695
 20
2.353238109311149
 30
0.0
 10
22.08489851519926
 20
2.020777641420246
 30
0.0
 10
21.62960540797214
 20
1.83399827401362
 30
0.0
 10
21.18353398362304
 20
1.615439413519163
 30
0.0
  0
SPLINE
  5
C9
330
1F
100
AcDbEntity
  8
0
  6
Continuous
 62
     1
370
    15
100
AcDbSpline
210
0.0
220
0.0
230
1.0
 70
     8
 71
     3
 72
    10
 73
     6
 74
     0
 42
0.000000001
 43
0.00000001
 40
0.0
 40
0.0
 40
0.0
 40
0.0
 40
0.2446444098541255
 40
0.6224716719681733
 40
0.9999999999999999
 40
0.9999999999999999
 40
0.9999999999999999
 40
0.9999999999999999
 10
7.341837018470601
 20
-3.106186297094549
 30
0.0
 10
7.063879759564111
 20
-3.134389912411084
 30
0.0
 10
6.356647087497825
 20
-3.206151010864545
 30
0.0
 10
5.220173724217521
 20
-3.187643072778909
 30
0.0
 10
4.361953161606664
 20
-3.080497277464686
 30
0.0
 10
3.933012701892266
 20
-3.026945581431288
 30
0.0
  0
SPLINE
  5
CA
330
1F
100
AcDbEntity
  8
0
  6
Continuous
 62
     1
370
    15
100
AcDbSpline
210
0.0
220
0.0
230
1.0
 70
     8
 71
     3
 72
    17
 73
    13
 74
     0
 42
0.000000001
 43
0.00000001
 40
0.0
 40
0.0
 40
0.0
 40
0.0
 40
0.0105545931050273
 40
0.1221648285992272
 40
0.2337725885997892
 40
0.3453071856353779
 40
0.4567979694293567
 40
0.5682745417016926
 40
0.6797665860809101
 40
0.7864734405622936
 40
0.8932795624090066
 40
0.9999999999999999
 40
0.9999999999999999
 40
0.9999999999999999
 40
0.9999999999999999
 10
15.99160609017765
 20
-2.81507361623274
 30
0.0
 10
15.94918219626654
 20
-2.823409442212118
 30
0.0
 10
15.45814405992247
 20
-2.919893005516759
 30
0.0
 10
14.51836787129761
 20
-2.991572352331812
 30
0.0
 10
13.17270452436533
 20
-3.012492689585129
 30
0.0
 10
11.82766717207845
 20
-2.892335257545761
 30
0.0
 10
10.48321820473904
 20
-2.651931638407933
 30
0.0
 10
9.138970989589232
 20
-2.297361851430765
 30
0.0
 10
7.813904515290493
 20
-1.85144679562932
 30
0.0
 10
6.507619397897283
 20
-1.336834563123071
 30
0.0
 10
5.220201879330366
 20
-0.7786131309367226
 30
0.0
 10
4.361960962307226
 20
-0.3844041049434473
 30
0.0
 10
3.933012701892224
 20
-0.1873786863392804
 30
0.0
  0
SPLINE
  5
CB
330
1F
100
AcDbEntity
  8
0
  6
Continuous
 62
     4
370
    15
100
AcDbSpline
210
0.0
220
0.0
230
1.0
 70
    24
 71
     3
 72
    14
 73
    10
 74
     0
 42
0.000000001
 43
0.00000001
 40
0.0
 40
0.0
 40
0.0
 40
0.0
 40
0.2500000000000001
 40
0.2500000000000001
 40
0.5000000000000002
 40
0.5000000000000002
 40
0.7500000000000001
 40
0.7500000000000001
 40
1.0
 40
1.0
 40
1.0
 40
1.0
 10
3.933012701892221
 20
-0.1873786863392794
 30
0.0
 10
3.933012701892221
 20
-0.471998526338119
 30
0.0
 10
3.933012701892221
 20
-0.7579207094226732
 30
0.0
 10
3.933012701892221
 20
-1.311536901095611
 30
0.0
 10
3.933012701892221
 20
-1.579061994566369
 30
0.0
 10
3.933012701892221
 20
-2.075346663357374
 30
0.0
 10
3.933012701892221
 20
-2.303962926730543
 30
0.0
 10
3.933012701892221
 20
-2.707422486928071
 30
0.0
 10
3.933012701892221
 20
-2.882215108240361
 30
0.0
 10
3.933012701892221
 20
-3.026945581431281
 30
0.0
  0
SPLINE
  5
CC
330
1F
100
AcDbEntity
  8
0
  6
Continuous
 62
     4
370
    15
100
AcDbSpline
210
0.0
220
0.0
230
1.0
 70
    24
 71
     3
 72
    14
 73
    10
 74
     0
 42
0.000000001
 43
0.00000001
 40
0.0
 40
0.0
 40
0.0
 40
0.0
 40
0.25
 40
0.25
 40
0.5
 40
0.5
 40
0.75
 40
0.75
 40
1.0
 40
1.0
 40
1.0
 40
1.0
 10
3.933012701892221
 20
2.619874675459754
 30
0.0
 10
3.933012701892221
 20
2.529017754583955
 30
0.0
 10
3.933012701892221
 20
2.39607716582461
 30
0.0
 10
3.933012701892217
 20
2.046705901919641
 30
0.0
 10
3.933012701892217
 20
1.830282718618037
 30
0.0
 10
3.933012701892217
 20
1.331352859995636
 30
0.0
 10
3.933012701892217
 20
1.049112035362883
 30
0.0
 10
3.933012701892221
 20
0.4489542918810176
 30
0.0
 10
3.933012701892221
 20
0.1313971080183012
 30
0.0
 10
3.933012701892221
 20
-0.1873786863392797
 30
0.0
  0
LINE
  5
CD
330
1F
100
AcDbEntity
  8
0
  6
Continuous
 62
     1
370
    15
100
AcDbLine
 10
23.93301270189222
 20
0.0000000000000021
 30
0.0
 11
23.93301270189222
 21
2.625000000000002
 31
0.0
  0
SPLINE
  5
CE
330
1F
100
AcDbEntity
  8
0
  6
Continuous
 62
     1
370
    15
100
AcDbSpline
210
0.0
220
0.0
230
1.0
 70
     8
 71
     3
 72
    12
 73
     8
 74
     0
 42
0.000000001
 43
0.00000001
 40
0.0
 40
0.0
 40
0.0
 40
0.0
 40
0.1587173663047589
 40
0.3688627704162971
 40
0.5791313681519754
 40
0.7896397867265619
 40
1.0
 40
1.0
 40
1.0
 40
1.0
 10
9.910837397214141
 20
-2.947634318298838
 30
0.0
 10
9.594609974492213
 20
-3.05796937212137
 30
0.0
 10
8.859690249306977
 20
-3.314390547538706
 30
0.0
 10
7.705907856376429
 20
-3.577412767075478
 30
0.0
 10
6.448823553480993
 20
-3.741283690392234
 30
0.0
 10
5.190814782751705
 20
-3.771507882351048
 30
0.0
 10
4.352181623007548
 20
-3.67413580602739
 30
0.0
 10
3.933012701894746
 20
-3.625466912238892
 30
0.0
  0
SPLINE
  5
CF
330
1F
100
AcDbEntity
  8
0
  6
Continuous
 62
     4
370
    15
100
AcDbSpline
210
0.0
220
0.0
230
1.0
 70
    24
 71
     3
 72
     8
 73
     4
 74
     0
 42
0.000000001
 43
0.00000001
 40
0.0
 40
0.0
 40
0.0
 40
0.0
 40
1.0
 40
1.0
 40
1.0
 40
1.0
 10
3.933012701892245
 20
-3.026945581431285
 30
0.0
 10
3.933012701892245
 20
-3.226451110725921
 30
0.0
 10
3.933012701892245
 20
-3.427240452308691
 30
0.0
 10
3.933012701892245
 20
-3.625466912237508
 30
0.0
  0
SPLINE
  5
D0
330
1F
100
AcDbEntity
  8
0
  6
Continuous
 62
     1
370
    15
100
AcDbSpline
210
0.0
220
0.0
230
1.0
 70
     8
 71
     3
 72
    15
 73
    11
 74
     0
 42
0.000000001
 43
0.00000001
 40
0.0
 40
0.0
 40
0.0
 40
0.0
 40
0.1007096448052362
 40
0.2108251886556263
 40
0.4320661693718838
 40
0.5432498448160062
 40
0.656854342445098
 40
0.7706910328431809
 40
0.8852268310051162
 40
1.0
 40
1.0
 40
1.0
 40
1.0
 10
18.77163876152605
 20
2.514169734202724
 30
0.0
 10
18.94481006580384
 20
2.587081158000609
 30
0.0
 10
19.30732621770483
 20
2.739713656179575
 30
0.0
 10
20.05069856691605
 20
3.018809145216582
 30
0.0
 10
20.81221799046229
 20
3.261708107196218
 30
0.0
 10
21.57971938104526
 20
3.453500622342586
 30
0.0
 10
22.16270399754055
 20
3.571753141745082
 30
0.0
 10
22.75026229787252
 20
3.661837693473071
 30
0.0
 10
23.34131806591356
 20
3.723707666576143
 30
0.0
 10
23.73564509307617
 20
3.739117609694862
 30
0.0
 10
23.93301270189207
 20
3.746830557111161
 30
0.0
  0
SPLINE
  5
D1
330
1F
100
AcDbEntity
  8
0
  6
Continuous
 62
     1
370
    15
100
AcDbSpline
210
0.0
220
0.0
230
1.0
 70
    24
 71
     3
 72
    10
 73
     6
 74
     0
 42
0.000000001
 43
0.00000001
 40
0.0
 40
0.0
 40
0.0
 40
0.0
 40
0.5
 40
0.5
 40
1.0
 40
1.0
 40
1.0
 40
1.0
 10
23.93301270189222
 20
2.625000000000003
 30
0.0
 10
23.93301270189222
 20
2.784120963027429
 30
0.0
 10
23.93301270189222
 20
2.969034258251692
 30
0.0
 10
23.93301270189222
 20
3.356981853603211
 30
0.0
 10
23.93301270189222
 20
3.559025384255524
 30
0.0
 10
23.93301270189222
 20
3.746830557111168
 30
0.0
  0
LINE
  5
D2
330
1F
100
AcDbEntity
  8
중심선
100
AcDbLine
 10
-39.06698729810775
 20
-0.0000000000000044
 30
0.0
 11
26.93301270189225
 21
-0.0000000000000044
 31
0.0
  0
CIRCLE
  5
D3
330
1F
100
AcDbEntity
  8
외형선
100
AcDbCircle
 10
0.0
 20
0.0
 30
0.0
 40
3.000000000000004
  0
INSERT
  5
D4
330
1F
100
AcDbEntity
  8
0
  6
Continuous
 62
     7
100
AcDbBlockReference
 66
     1
  2
블럭10
 10
-30.00526073761938
 20
-52.04717430164393
 30
0.0
  0
ATTRIB
  5
D5
330
D4
100
AcDbEntity
  8
FORMAT
 62
     2
100
AcDbText
 10
-42.96519993247716
 20
-49.97180738881174
 30
0.0
 40
4.233333333333333
  1
SEME35075E [ 2 FLUTE ]
 41
0.75
  7
SLDTEXTSTYLE0
 11
-42.96519993247716
 21
-52.08847405547841
 31
0.0
100
AcDbAttribute
  2
AUTOATTR0
 70
     0
 74
     1
  0
SEQEND
  5
D6
330
D4
100
AcDbEntity
  8
0
  6
Continuous
 62
     7
  0
HATCH
  5
D7
330
1F
100
AcDbEntity
  8
중심선
100
AcDbHatch
 10
0.0
 20
0.0
 30
0.0
210
0.0
220
0.0
230
1.0
  2
SOLID
 70
     1
 71
     0
 91
        1
 92
        0
 93
        4
 72
     1
 10
-24.29035143323853
 20
-35.8
 11
-27.73662667707582
 21
-35.8
 72
     1
 10
-27.73662667707581
 20
-35.8
 11
-29.86485653627983
 21
-38.33632558057259
 72
     1
 10
-29.86485653627984
 20
-38.33632558057259
 11
-26.4185482073294
 21
-38.3362861512701
 72
     1
 10
-26.4185482073294
 20
-38.3362861512701
 11
-24.29035143323852
 21
-35.8
 97
        0
 75
     0
 76
     1
 98
        1
 10
-6.066987298107771
 20
-0.0000000000000009
  0
HATCH
  5
D8
330
1F
100
AcDbEntity
  8
중심선
100
AcDbHatch
 10
0.0
 20
0.0
 30
0.0
210
0.0
220
0.0
230
1.0
  2
SOLID
 70
     1
 71
     0
 91
        1
 92
        0
 93
        4
 72
     1
 10
-19.27758744220257
 20
-35.8
 11
-22.72386268603986
 21
-35.8
 72
     1
 10
-22.72386268603987
 20
-35.8
 11
-27.25500069439725
 21
-41.20000000000002
 72
     1
 10
-27.25500069439725
 20
-41.20000000000002
 11
-23.80872545055997
 21
-41.20000000000002
 72
     1
 10
-23.80872545055996
 20
-41.20000000000002
 11
-19.27758744220257
 21
-35.8
 97
        0
 75
     0
 76
     1
 98
        1
 10
-6.066987298107771
 20
-0.0000000000000009
  0
HATCH
  5
D9
330
1F
100
AcDbEntity
  8
중심선
100
AcDbHatch
 10
0.0
 20
0.0
 30
0.0
210
0.0
220
0.0
230
1.0
  2
SOLID
 70
     1
 71
     0
 91
        1
 92
        0
 93
        4
 72
     1
 10
-14.26482345116669
 20
-35.80000000000003
 11
-17.71109869500381
 21
-35.8
 72
     1
 10
-17.71109869500381
 20
-35.8
 11
-24.75953559689304
 21
-44.20000000000002
 72
     1
 10
-24.75953559689304
 20
-44.20000000000002
 11
-21.31326035305577
 21
-44.20000000000002
 72
     1
 10
-21.31326035305577
 20
-44.20000000000002
 11
-14.26482345116669
 21
-35.80000000000003
 97
        0
 75
     0
 76
     1
 98
        1
 10
-6.066987298107771
 20
-0.0000000000000009
  0
HATCH
  5
DA
330
1F
100
AcDbEntity
  8
중심선
100
AcDbHatch
 10
0.0
 20
0.0
 30
0.0
210
0.0
220
0.0
230
1.0
  2
SOLID
 70
     1
 71
     0
 91
        1
 92
        0
 93
        6
 72
     3
 10
-9.464933020154485
 20
-40.00000000005127
 11
3.960054785062284
 21
1.540882976769353E-10
 40
0.3939339440162627
 50
17.09539180608439
 51
320.0019657685082
 73
     0
 72
     1
 10
-7.781933364453888
 20
-38.5878940046383
 11
-5.476631490752849
 21
-36.65356729459038
 72
     3
 10
-9.464933020207335
 20
-40.00000000000015
 11
6.600054785286829
 21
-1.278976924368180E-13
 40
0.636358354079598
 50
39.99873849337413
 51
368.4976242363724
 73
     1
 72
     1
 10
-3.03960052830672
 20
-39.03999999993002
 11
-10.7848657133714
 21
-39.03999999992999
 72
     1
 10
-10.7848657133714
 20
-39.03999999992999
 11
-10.78489075781734
 21
-40.95999999992991
 72
     1
 10
-10.78489075781734
 20
-40.95999999992991
 11
-6.343510988345306
 21
-40.95999999992988
 97
        0
 75
     0
 76
     1
 98
        1
 10
-6.066987298107771
 20
-0.0000000000000009
  0
DIMENSION
  5
DB
330
1F
100
AcDbEntity
  8
치수문자_일반주서
100
AcDbDimension
  2
_D
 10
3.933012701892224
 20
15.99746444568895
 30
0.0
 11
13.93301270189223
 21
15.99746444568895
 31
0.0
 70
   160
  1
<>
 71
     2
 42
20.0
  3
SLDDIMSTYLE0
100
AcDbAlignedDimension
 13
23.93301270189222
 23
3.746830557111168
 33
0.0
 14
3.933012701892224
 24
3.749142701768796
 34
0.0
 50
-0.0000000000000204
100
AcDbRotatedDimension
  0
DIMENSION
  5
E6
330
1F
100
AcDbEntity
  8
치수문자_일반주서
100
AcDbDimension
  2
_D_1
 10
-36.06698729810778
 20
25.40915911661226
 30
0.0
 11
-6.066987298107765
 21
25.40915911661226
 31
0.0
 70
   160
  1
<>
 71
     2
 42
59.99999999999984
  3
SLDDIMSTYLE1
100
AcDbAlignedDimension
 13
23.93301270189207
 23
3.746830557111161
 33
0.0
 14
-36.06698729810778
 24
3.189999999999996
 34
0.0
 50
0.0000000000000068
100
AcDbRotatedDimension
  0
DIMENSION
  5
F1
330
1F
100
AcDbEntity
  8
치수문자_일반주서
100
AcDbDimension
  2
_D_2
 10
39.49920301413856
 20
-3.746830557111108
 30
0.0
 11
39.49920301413849
 21
15.16833055711122
 31
0.0
 70
   160
  1
%%c<>
 71
     2
 42
7.498661114222328
 52
-270.0
  3
SLDDIMSTYLE0
100
AcDbAlignedDimension
 13
23.93301270189207
 23
3.751830557111161
 33
0.0
 14
23.93301270189222
 24
-3.746830557111166
 34
0.0
 50
90.0000000000002
100
AcDbRotatedDimension
  0
DIMENSION
  5
FE
330
1F
100
AcDbEntity
  8
치수문자_일반주서
100
AcDbDimension
  2
_D_3
 10
-47.6765467434963
 20
-4.000000000000049
 30
0.0
 11
-47.67654674349631
 21
-0.0000000000000029
 31
0.0
 70
   160
  1
%%c<>
 71
     2
 42
7.999999999999998
 52
-270.0
  3
SLDDIMSTYLE0
100
AcDbAlignedDimension
 13
-35.25698729810776
 23
3.999999999999996
 33
0.0
 14
-35.25698729810776
 24
-4.000000000000003
 34
0.0
 50
90.0000000000002
100
AcDbRotatedDimension
  0
INSERT
  5
111
330
1F
100
AcDbEntity
  8
외형선
100
AcDbBlockReference
  2
SW_DOWELSYMBOL_0
 10
0.0
 20
0.0
 30
0.0
  0
ENDSEC
  0
SECTION
  2
OBJECTS
  0
DICTIONARY
  5
C
330
0
100
AcDbDictionary
281
     1
  3
ACAD_GROUP
350
D
  3
ACAD_LAYOUT
350
1A
  3
ACAD_MLINESTYLE
350
17
  3
ACAD_PLOTSETTINGS
350
19
  3
ACAD_PLOTSTYLENAME
350
E
  3
ACAD_SCALELIST
350
47
  3
APPDATA
350
133
  3
DWGPROPS
350
167
  0
DICTIONARY
  5
D
102
{ACAD_REACTORS
330
C
102
}
330
C
100
AcDbDictionary
281
     1
  0
DICTIONARY
  5
1A
102
{ACAD_REACTORS
330
C
102
}
330
C
100
AcDbDictionary
281
     1
  3
Layout1
350
1E
  3
Layout2
350
26
  3
Model
350
22
  0
DICTIONARY
  5
17
102
{ACAD_REACTORS
330
C
102
}
330
C
100
AcDbDictionary
281
     1
  3
Standard
350
18
  0
DICTIONARY
  5
19
102
{ACAD_REACTORS
330
C
102
}
330
C
100
AcDbDictionary
281
     1
  0
ACDBDICTIONARYWDFLT
  5
E
102
{ACAD_REACTORS
330
C
102
}
330
C
100
AcDbDictionary
281
     1
  3
Normal
350
F
100
AcDbDictionaryWithDefault
340
F
  0
DICTIONARY
  5
47
102
{ACAD_REACTORS
330
C
102
}
330
C
100
AcDbDictionary
281
     1
  3
A0
350
48
  3
A1
350
49
  3
A2
350
4A
  3
A3
350
4B
  3
A4
350
4C
  3
A5
350
4D
  3
A6
350
4E
  3
A7
350
4F
  3
A8
350
50
  3
A9
350
51
  3
B0
350
52
  3
B1
350
53
  3
B2
350
54
  3
B3
350
55
  3
B4
350
56
  3
B5
350
57
  3
B6
350
58
  3
B7
350
59
  3
B8
350
5A
  3
B9
350
5B
  3
C0
350
5C
  3
C1
350
5D
  3
C2
350
5E
  3
C3
350
5F
  3
C4
350
60
  3
C5
350
61
  3
C6
350
62
  3
C7
350
63
  3
C8
350
64
  3
C9
350
65
  3
D0
350
66
  3
D1
350
67
  3
D2
350
68
  0
DICTIONARY
  5
133
102
{ACAD_REACTORS
330
C
102
}
330
C
100
AcDbDictionary
281
     1
  0
XRECORD
  5
167
102
{ACAD_REACTORS
330
C
102
}
330
C
100
AcDbXrecord
280
     1
  1
DWGPROPS COOKIE
  2

  3

  4

  6

  7

  8
12011908
  9

300
=
301
=
302
=
303
=
304
=
305
=
306
=
307
=
308
=
309
=
 40
0.0
 41
2458250.117256342
 42
2458264.040660845
  1

 90
        0
  0
LAYOUT
  5
1E
102
{ACAD_REACTORS
330
1A
102
}
330
1A
100
AcDbPlotSettings
  1

  2
none_device
  4

  6

 40
0.0
 41
0.0
 42
0.0
 43
0.0
 44
0.0
 45
0.0
 46
0.0
 47
0.0
 48
0.0
 49
0.0
140
0.0
141
0.0
142
1.0
143
1.0
 70
   688
 72
     1
 73
     0
 74
     5
  7

 75
    16
147
1.0
148
0.0
149
0.0
100
AcDbLayout
  1
Layout1
 70
     1
 71
     1
 10
0.0
 20
0.0
 11
420.0
 21
297.0
 12
0.0
 22
0.0
 32
0.0
 14
1.000000000000000E+20
 24
1.000000000000000E+20
 34
1.000000000000000E+20
 15
-1.000000000000000E+20
 25
-1.000000000000000E+20
 35
-1.000000000000000E+20
146
0.0
 13
0.0
 23
0.0
 33
0.0
 16
1.0
 26
0.0
 36
0.0
 17
0.0
 27
1.0
 37
0.0
 76
     0
330
1B
  0
LAYOUT
  5
26
102
{ACAD_REACTORS
330
1A
102
}
330
1A
100
AcDbPlotSettings
  1

  2
none_device
  4

  6

 40
0.0
 41
0.0
 42
0.0
 43
0.0
 44
0.0
 45
0.0
 46
0.0
 47
0.0
 48
0.0
 49
0.0
140
0.0
141
0.0
142
1.0
143
1.0
 70
   688
 72
     1
 73
     0
 74
     5
  7

 75
    16
147
1.0
148
0.0
149
0.0
100
AcDbLayout
  1
Layout2
 70
     1
 71
     2
 10
0.0
 20
0.0
 11
0.0
 21
0.0
 12
0.0
 22
0.0
 32
0.0
 14
0.0
 24
0.0
 34
0.0
 15
0.0
 25
0.0
 35
0.0
146
0.0
 13
0.0
 23
0.0
 33
0.0
 16
1.0
 26
0.0
 36
0.0
 17
0.0
 27
1.0
 37
0.0
 76
     0
330
23
  0
LAYOUT
  5
22
102
{ACAD_REACTORS
330
1A
102
}
330
1A
100
AcDbPlotSettings
  1

  2
none_device
  4
ANSI_A_(11.00_x_8.50_Inches)
  6

 40
6.35
 41
19.05
 42
6.35000508
 43
19.05000254
 44
279.4
 45
215.9
 46
132.8312331974616
 47
116.4601513980491
 48
0.0
 49
0.0
140
0.0
141
0.0
142
0.1043569890458202
143
1.0
 70
  1696
 72
     0
 73
     0
 74
     0
  7

 75
     0
147
0.0235690232323232
148
0.0
149
0.0
100
AcDbLayout
  1
Model
 70
     1
 71
     0
 10
0.0
 20
0.0
 11
420.0
 21
297.0
 12
0.0
 22
0.0
 32
0.0
 14
-52.05154674349632
 24
-49.97180738881174
 34
0.0
 15
40.0495363474719
 25
29.78415911661226
 35
0.0
146
0.0
 13
0.0
 23
0.0
 33
0.0
 16
1.0
 26
0.0
 36
0.0
 17
0.0
 27
1.0
 37
0.0
 76
     0
330
1F
331
29
  0
MLINESTYLE
  5
18
102
{ACAD_REACTORS
330
17
102
}
330
17
100
AcDbMlineStyle
  2
Standard
 70
     0
  3

 62
   256
 51
90.0
 52
90.0
 71
     2
 49
0.5
 62
   256
  6
BYLAYER
 49
-0.5
 62
   256
  6
BYLAYER
  0
ACDBPLACEHOLDER
  5
F
102
{ACAD_REACTORS
330
E
102
}
330
E
  0
SCALE
  5
48
102
{ACAD_REACTORS
330
47
102
}
330
47
100
AcDbScale
 70
     0
300
1:1
140
1.0
141
1.0
290
     1
  0
SCALE
  5
49
102
{ACAD_REACTORS
330
47
102
}
330
47
100
AcDbScale
 70
     0
300
1:2
140
1.0
141
2.0
290
     0
  0
SCALE
  5
4A
102
{ACAD_REACTORS
330
47
102
}
330
47
100
AcDbScale
 70
     0
300
1:4
140
1.0
141
4.0
290
     0
  0
SCALE
  5
4B
102
{ACAD_REACTORS
330
47
102
}
330
47
100
AcDbScale
 70
     0
300
1:5
140
1.0
141
5.0
290
     0
  0
SCALE
  5
4C
102
{ACAD_REACTORS
330
47
102
}
330
47
100
AcDbScale
 70
     0
300
1:8
140
1.0
141
8.0
290
     0
  0
SCALE
  5
4D
102
{ACAD_REACTORS
330
47
102
}
330
47
100
AcDbScale
 70
     0
300
1:10
140
1.0
141
10.0
290
     0
  0
SCALE
  5
4E
102
{ACAD_REACTORS
330
47
102
}
330
47
100
AcDbScale
 70
     0
300
1:16
140
1.0
141
16.0
290
     0
  0
SCALE
  5
4F
102
{ACAD_REACTORS
330
47
102
}
330
47
100
AcDbScale
 70
     0
300
1:20
140
1.0
141
20.0
290
     0
  0
SCALE
  5
50
102
{ACAD_REACTORS
330
47
102
}
330
47
100
AcDbScale
 70
     0
300
1:30
140
1.0
141
30.0
290
     0
  0
SCALE
  5
51
102
{ACAD_REACTORS
330
47
102
}
330
47
100
AcDbScale
 70
     0
300
1:40
140
1.0
141
40.0
290
     0
  0
SCALE
  5
52
102
{ACAD_REACTORS
330
47
102
}
330
47
100
AcDbScale
 70
     0
300
1:50
140
1.0
141
50.0
290
     0
  0
SCALE
  5
53
102
{ACAD_REACTORS
330
47
102
}
330
47
100
AcDbScale
 70
     0
300
1:100
140
1.0
141
100.0
290
     0
  0
SCALE
  5
54
102
{ACAD_REACTORS
330
47
102
}
330
47
100
AcDbScale
 70
     0
300
2:1
140
2.0
141
1.0
290
     0
  0
SCALE
  5
55
102
{ACAD_REACTORS
330
47
102
}
330
47
100
AcDbScale
 70
     0
300
4:1
140
4.0
141
1.0
290
     0
  0
SCALE
  5
56
102
{ACAD_REACTORS
330
47
102
}
330
47
100
AcDbScale
 70
     0
300
8:1
140
8.0
141
1.0
290
     0
  0
SCALE
  5
57
102
{ACAD_REACTORS
330
47
102
}
330
47
100
AcDbScale
 70
     0
300
10:1
140
10.0
141
1.0
290
     0
  0
SCALE
  5
58
102
{ACAD_REACTORS
330
47
102
}
330
47
100
AcDbScale
 70
     0
300
100:1
140
100.0
141
1.0
290
     0
  0
SCALE
  5
59
102
{ACAD_REACTORS
330
47
102
}
330
47
100
AcDbScale
 70
     0
300
1/128" = 1'-0"
140
0.0078125
141
12.0
290
     0
  0
SCALE
  5
5A
102
{ACAD_REACTORS
330
47
102
}
330
47
100
AcDbScale
 70
     0
300
1/64" = 1'-0"
140
0.015625
141
12.0
290
     0
  0
SCALE
  5
5B
102
{ACAD_REACTORS
330
47
102
}
330
47
100
AcDbScale
 70
     0
300
1/32" = 1'-0"
140
0.03125
141
12.0
290
     0
  0
SCALE
  5
5C
102
{ACAD_REACTORS
330
47
102
}
330
47
100
AcDbScale
 70
     0
300
1/16" = 1'-0"
140
0.0625
141
12.0
290
     0
  0
SCALE
  5
5D
102
{ACAD_REACTORS
330
47
102
}
330
47
100
AcDbScale
 70
     0
300
3/32" = 1'-0"
140
0.09375
141
12.0
290
     0
  0
SCALE
  5
5E
102
{ACAD_REACTORS
330
47
102
}
330
47
100
AcDbScale
 70
     0
300
1/8" = 1'-0"
140
0.125
141
12.0
290
     0
  0
SCALE
  5
5F
102
{ACAD_REACTORS
330
47
102
}
330
47
100
AcDbScale
 70
     0
300
3/16" = 1'-0"
140
0.1875
141
12.0
290
     0
  0
SCALE
  5
60
102
{ACAD_REACTORS
330
47
102
}
330
47
100
AcDbScale
 70
     0
300
1/4" = 1'-0"
140
0.25
141
12.0
290
     0
  0
SCALE
  5
61
102
{ACAD_REACTORS
330
47
102
}
330
47
100
AcDbScale
 70
     0
300
3/8" = 1'-0"
140
0.375
141
12.0
290
     0
  0
SCALE
  5
62
102
{ACAD_REACTORS
330
47
102
}
330
47
100
AcDbScale
 70
     0
300
1/2" = 1'-0"
140
0.5
141
12.0
290
     0
  0
SCALE
  5
63
102
{ACAD_REACTORS
330
47
102
}
330
47
100
AcDbScale
 70
     0
300
3/4" = 1'-0"
140
0.75
141
12.0
290
     0
  0
SCALE
  5
64
102
{ACAD_REACTORS
330
47
102
}
330
47
100
AcDbScale
 70
     0
300
1" = 1'-0"
140
1.0
141
12.0
290
     0
  0
SCALE
  5
65
102
{ACAD_REACTORS
330
47
102
}
330
47
100
AcDbScale
 70
     0
300
1-1/2" = 1'-0"
140
1.5
141
12.0
290
     0
  0
SCALE
  5
66
102
{ACAD_REACTORS
330
47
102
}
330
47
100
AcDbScale
 70
     0
300
3" = 1'-0"
140
3.0
141
12.0
290
     0
  0
SCALE
  5
67
102
{ACAD_REACTORS
330
47
102
}
330
47
100
AcDbScale
 70
     0
300
6" = 1'-0"
140
6.0
141
12.0
290
     0
  0
SCALE
  5
68
102
{ACAD_REACTORS
330
47
102
}
330
47
100
AcDbScale
 70
     0
300
1'-0" = 1'-0"
140
12.0
141
12.0
290
     0
  0
ENDSEC
  0
EOF
