  0
SECTION
  2
HEADER
  9
$ACADVER
  1
AC1015
  9
$ACADMAINTVER
 70
     6
  9
$DWGCODEPAGE
  3
ANSI_949
  9
$INSBASE
 10
0.0
 20
0.0
 30
0.0
  9
$EXTMIN
 10
-51.1185340416041
 20
-49.97180738881174
 30
0.0
  9
$EXTMAX
 10
40.98254904936406
 20
29.60915911661226
 30
0.0
  9
$LIMMIN
 10
0.0
 20
0.0
  9
$LIMMAX
 10
420.0
 20
297.0
  9
$ORTHOMODE
 70
     1
  9
$REGENMODE
 70
     1
  9
$FILLMODE
 70
     1
  9
$QTEXTMODE
 70
     0
  9
$MIRRTEXT
 70
     1
  9
$LTSCALE
 40
1.0
  9
$ATTMODE
 70
     1
  9
$TEXTSIZE
 40
3.5
  9
$TRACEWID
 40
1.0
  9
$TEXTSTYLE
  7
Standard
  9
$CLAYER
  8
0
  9
$CELTYPE
  6
ByLayer
  9
$CECOLOR
 62
   256
  9
$CELTSCALE
 40
1.0
  9
$DISPSILH
 70
     0
  9
$DIMSCALE
 40
1.0
  9
$DIMASZ
 40
3.302
  9
$DIMEXO
 40
1.0
  9
$DIMDLI
 40
3.75
  9
$DIMRND
 40
0.0
  9
$DIMDLE
 40
0.0
  9
$DIMEXE
 40
1.0
  9
$DIMTP
 40
0.0
  9
$DIMTM
 40
0.0
  9
$DIMTXT
 40
3.5
  9
$DIMCEN
 40
2.5
  9
$DIMTSZ
 40
0.0
  9
$DIMTOL
 70
     0
  9
$DIMLIM
 70
     0
  9
$DIMTIH
 70
     1
  9
$DIMTOH
 70
     1
  9
$DIMSE1
 70
     0
  9
$DIMSE2
 70
     0
  9
$DIMTAD
 70
     1
  9
$DIMZIN
 70
     0
  9
$DIMBLK
  1

  9
$DIMASO
 70
     1
  9
$DIMSHO
 70
     1
  9
$DIMPOST
  1

  9
$DIMAPOST
  1

  9
$DIMALT
 70
     0
  9
$DIMALTD
 70
     3
  9
$DIMALTF
 40
0.0393700787401575
  9
$DIMLFAC
 40
1.0
  9
$DIMTOFL
 70
     1
  9
$DIMTVP
 40
0.0
  9
$DIMTIX
 70
     0
  9
$DIMSOXD
 70
     0
  9
$DIMSAH
 70
     0
  9
$DIMBLK1
  1

  9
$DIMBLK2
  1

  9
$DIMSTYLE
  2
ISO-25
  9
$DIMCLRD
 70
     0
  9
$DIMCLRE
 70
     0
  9
$DIMCLRT
 70
     0
  9
$DIMTFAC
 40
1.0
  9
$DIMGAP
 40
1.524
  9
$DIMJUST
 70
     0
  9
$DIMSD1
 70
     0
  9
$DIMSD2
 70
     0
  9
$DIMTOLJ
 70
     0
  9
$DIMTZIN
 70
     0
  9
$DIMALTZ
 70
     0
  9
$DIMALTTZ
 70
     0
  9
$DIMUPT
 70
     0
  9
$DIMDEC
 70
     2
  9
$DIMTDEC
 70
     2
  9
$DIMALTU
 70
     2
  9
$DIMALTTD
 70
     3
  9
$DIMTXSTY
  7
Standard
  9
$DIMAUNIT
 70
     0
  9
$DIMADEC
 70
     2
  9
$DIMALTRND
 40
0.0
  9
$DIMAZIN
 70
     0
  9
$DIMDSEP
 70
    44
  9
$DIMATFIT
 70
     3
  9
$DIMFRAC
 70
     0
  9
$DIMLDRBLK
  1

  9
$DIMLUNIT
 70
     2
  9
$DIMLWD
 70
    -2
  9
$DIMLWE
 70
    -2
  9
$DIMTMOVE
 70
     0
  9
$LUNITS
 70
     2
  9
$LUPREC
 70
     2
  9
$SKETCHINC
 40
1.0
  9
$FILLETRAD
 40
10.0
  9
$AUNITS
 70
     0
  9
$AUPREC
 70
     2
  9
$MENU
  1
.
  9
$ELEVATION
 40
0.0
  9
$PELEVATION
 40
0.0
  9
$THICKNESS
 40
0.0
  9
$LIMCHECK
 70
     0
  9
$CHAMFERA
 40
0.0
  9
$CHAMFERB
 40
0.0
  9
$CHAMFERC
 40
0.0
  9
$CHAMFERD
 40
0.0
  9
$SKPOLY
 70
     0
  9
$TDCREATE
 40
2458250.492069838
  9
$TDUCREATE
 40
2458250.117069838
  9
$TDUPDATE
 40
2458264.41515375
  9
$TDUUPDATE
 40
2458264.04015375
  9
$TDINDWG
 40
0.0024641667
  9
$TDUSRTIMER
 40
0.0006472222
  9
$USRTIMER
 70
     1
  9
$ANGBASE
 50
0.0
  9
$ANGDIR
 70
     0
  9
$PDMODE
 70
     0
  9
$PDSIZE
 40
-1.0
  9
$PLINEWID
 40
0.0
  9
$SPLFRAME
 70
     0
  9
$SPLINETYPE
 70
     6
  9
$SPLINESEGS
 70
     8
  9
$HANDSEED
  5
162
  9
$SURFTAB1
 70
     6
  9
$SURFTAB2
 70
     6
  9
$SURFTYPE
 70
     6
  9
$SURFU
 70
     6
  9
$SURFV
 70
     6
  9
$UCSBASE
  2

  9
$UCSNAME
  2

  9
$UCSORG
 10
0.0
 20
0.0
 30
0.0
  9
$UCSXDIR
 10
1.0
 20
0.0
 30
0.0
  9
$UCSYDIR
 10
0.0
 20
1.0
 30
0.0
  9
$UCSORTHOREF
  2

  9
$UCSORTHOVIEW
 70
     0
  9
$UCSORGTOP
 10
0.0
 20
0.0
 30
0.0
  9
$UCSORGBOTTOM
 10
0.0
 20
0.0
 30
0.0
  9
$UCSORGLEFT
 10
0.0
 20
0.0
 30
0.0
  9
$UCSORGRIGHT
 10
0.0
 20
0.0
 30
0.0
  9
$UCSORGFRONT
 10
0.0
 20
0.0
 30
0.0
  9
$UCSORGBACK
 10
0.0
 20
0.0
 30
0.0
  9
$PUCSBASE
  2

  9
$PUCSNAME
  2

  9
$PUCSORG
 10
0.0
 20
0.0
 30
0.0
  9
$PUCSXDIR
 10
1.0
 20
0.0
 30
0.0
  9
$PUCSYDIR
 10
0.0
 20
1.0
 30
0.0
  9
$PUCSORTHOREF
  2

  9
$PUCSORTHOVIEW
 70
     0
  9
$PUCSORGTOP
 10
0.0
 20
0.0
 30
0.0
  9
$PUCSORGBOTTOM
 10
0.0
 20
0.0
 30
0.0
  9
$PUCSORGLEFT
 10
0.0
 20
0.0
 30
0.0
  9
$PUCSORGRIGHT
 10
0.0
 20
0.0
 30
0.0
  9
$PUCSORGFRONT
 10
0.0
 20
0.0
 30
0.0
  9
$PUCSORGBACK
 10
0.0
 20
0.0
 30
0.0
  9
$USERI1
 70
     0
  9
$USERI2
 70
     0
  9
$USERI3
 70
     0
  9
$USERI4
 70
     0
  9
$USERI5
 70
     0
  9
$USERR1
 40
0.0
  9
$USERR2
 40
0.0
  9
$USERR3
 40
0.0
  9
$USERR4
 40
0.0
  9
$USERR5
 40
0.0
  9
$WORLDVIEW
 70
     1
  9
$SHADEDGE
 70
     3
  9
$SHADEDIF
 70
    70
  9
$TILEMODE
 70
     1
  9
$MAXACTVP
 70
    64
  9
$PINSBASE
 10
0.0
 20
0.0
 30
0.0
  9
$PLIMCHECK
 70
     0
  9
$PEXTMIN
 10
1.000000000000000E+20
 20
1.000000000000000E+20
 30
1.000000000000000E+20
  9
$PEXTMAX
 10
-1.000000000000000E+20
 20
-1.000000000000000E+20
 30
-1.000000000000000E+20
  9
$PLIMMIN
 10
0.0
 20
0.0
  9
$PLIMMAX
 10
0.0
 20
0.0
  9
$UNITMODE
 70
     0
  9
$VISRETAIN
 70
     1
  9
$PLINEGEN
 70
     0
  9
$PSLTSCALE
 70
     1
  9
$TREEDEPTH
 70
  3020
  9
$CMLSTYLE
  2
Standard
  9
$CMLJUST
 70
     0
  9
$CMLSCALE
 40
20.0
  9
$PROXYGRAPHICS
 70
     1
  9
$MEASUREMENT
 70
     1
  9
$CELWEIGHT
370
    -1
  9
$ENDCAPS
280
     0
  9
$JOINSTYLE
280
     0
  9
$LWDISPLAY
290
     1
  9
$INSUNITS
 70
     4
  9
$HYPERLINKBASE
  1

  9
$STYLESHEET
  1

  9
$XEDIT
290
     1
  9
$CEPSNTYPE
380
     0
  9
$PSTYLEMODE
290
     1
  9
$FINGERPRINTGUID
  2
{C817092C-7BBA-49E0-B5D1-B56091E97C77}
  9
$VERSIONGUID
  2
{FAEB1C32-E019-11D5-929B-00C0DF256EC4}
  9
$EXTNAMES
290
     1
  9
$PSVPSCALE
 40
0.0
  9
$OLESTARTUP
290
     0
  0
ENDSEC
  0
SECTION
  2
CLASSES
  0
CLASS
  1
ACDBDICTIONARYWDFLT
  2
AcDbDictionaryWithDefault
  3
ObjectDBX Classes
 90
        0
280
     0
281
     0
  0
CLASS
  1
VISUALSTYLE
  2
AcDbVisualStyle
  3
ObjectDBX Classes
 90
     4095
280
     0
281
     0
  0
CLASS
  1
MATERIAL
  2
AcDbMaterial
  3
ObjectDBX Classes
 90
     1153
280
     0
281
     0
  0
CLASS
  1
SCALE
  2
AcDbScale
  3
ObjectDBX Classes
 90
     1153
280
     0
281
     0
  0
CLASS
  1
SUN
  2
AcDbSun
  3
SCENEOE
 90
     1153
280
     0
281
     0
  0
CLASS
  1
ACDBPLACEHOLDER
  2
AcDbPlaceHolder
  3
ObjectDBX Classes
 90
        0
280
     0
281
     0
  0
CLASS
  1
LAYOUT
  2
AcDbLayout
  3
ObjectDBX Classes
 90
        0
280
     0
281
     0
  0
CLASS
  1
TABLESTYLE
  2
AcDbTableStyle
  3
ObjectDBX Classes
 90
     4095
280
     0
281
     0
  0
CLASS
  1
MLEADERSTYLE
  2
AcDbMLeaderStyle
  3
ACDB_MLEADERSTYLE_CLASS
 90
     4095
280
     0
281
     0
  0
ENDSEC
  0
SECTION
  2
TABLES
  0
TABLE
  2
VPORT
  5
8
330
0
100
AcDbSymbolTable
 70
     1
  0
VPORT
  5
29
330
8
100
AcDbSymbolTableRecord
100
AcDbViewportTableRecord
  2
*Active
 70
     0
 10
0.0
 20
0.0
 11
1.0
 21
1.0
 12
-4.514114422889548
 22
-22.44177258422438
 13
0.0
 23
0.0
 14
10.0
 24
10.0
 15
10.0
 25
10.0
 16
0.0
 26
0.0
 36
1.0
 17
0.0
 27
0.0
 37
0.0
 40
83.47012906735031
 41
2.223011363636364
 42
50.0
 43
0.0
 44
0.0
 50
0.0
 51
0.0
 71
    16
 72
  2000
 73
     1
 74
     3
 75
     0
 76
     0
 77
     0
 78
     0
281
     0
 65
     1
110
0.0
120
0.0
130
0.0
111
1.0
121
0.0
131
0.0
112
0.0
122
1.0
132
0.0
 79
     0
146
0.0
  0
ENDTAB
  0
TABLE
  2
LTYPE
  5
5
330
0
100
AcDbSymbolTable
 70
     6
  0
LTYPE
  5
14
330
5
100
AcDbSymbolTableRecord
100
AcDbLinetypeTableRecord
  2
ByBlock
 70
     0
  3

 72
    65
 73
     0
 40
0.0
  0
LTYPE
  5
15
330
5
100
AcDbSymbolTableRecord
100
AcDbLinetypeTableRecord
  2
ByLayer
 70
     0
  3

 72
    65
 73
     0
 40
0.0
  0
LTYPE
  5
16
330
5
100
AcDbSymbolTableRecord
100
AcDbLinetypeTableRecord
  2
Continuous
 70
     0
  3
Solid line
 72
    65
 73
     0
 40
0.0
  0
LTYPE
  5
6A
330
5
100
AcDbSymbolTableRecord
100
AcDbLinetypeTableRecord
  2
HIDDEN
 70
     0
  3
Hidden __ __ __ __ __ __ __ __ __ __ __ __ __ __
 72
    65
 73
     2
 40
1.905
 49
1.27
 74
     0
 49
-0.635
 74
     0
  0
LTYPE
  5
6B
330
5
100
AcDbSymbolTableRecord
100
AcDbLinetypeTableRecord
  2
PHANTOM
 70
     0
  3
Phantom ______  __  __  ______  __  __  ______
 72
    65
 73
     6
 40
12.7
 49
6.35
 74
     0
 49
-1.27
 74
     0
 49
1.27
 74
     0
 49
-1.27
 74
     0
 49
1.27
 74
     0
 49
-1.27
 74
     0
  0
LTYPE
  5
6C
330
5
100
AcDbSymbolTableRecord
100
AcDbLinetypeTableRecord
  2
CENTER
 70
     0
  3
Center ____ _ ____ _ ____ _ ____ _ ____ _ ____
 72
    65
 73
     4
 40
10.16
 49
6.35
 74
     0
 49
-1.27
 74
     0
 49
1.27
 74
     0
 49
-1.27
 74
     0
  0
LTYPE
  5
6D
330
5
100
AcDbSymbolTableRecord
100
AcDbLinetypeTableRecord
  2
CENTERX2
 70
     0
  3
Center (2x) ________  __  ________  __  _____
 72
    65
 73
     4
 40
20.32
 49
12.7
 74
     0
 49
-2.54
 74
     0
 49
2.54
 74
     0
 49
-2.54
 74
     0
  0
LTYPE
  5
6E
330
5
100
AcDbSymbolTableRecord
100
AcDbLinetypeTableRecord
  2
DOT2
 70
     0
  3
Dot (.5x) ........................................
 72
    65
 73
     2
 40
0.635
 49
0.0
 74
     0
 49
-0.635
 74
     0
  0
ENDTAB
  0
TABLE
  2
LAYER
  5
2
330
0
100
AcDbSymbolTable
 70
    17
  0
LAYER
  5
10
330
2
100
AcDbSymbolTableRecord
100
AcDbLayerTableRecord
  2
0
 70
     0
 62
     7
  6
Continuous
370
    -3
390
F
  0
LAYER
  5
6F
330
2
100
AcDbSymbolTableRecord
100
AcDbLayerTableRecord
  2
FORMAT
 70
     0
 62
     2
  6
Continuous
370
    -3
390
F
  0
LAYER
  5
70
330
2
100
AcDbSymbolTableRecord
100
AcDbLayerTableRecord
  2
외형선
 70
     0
 62
   100
  6
Continuous
370
    30
390
F
  0
LAYER
  5
71
330
2
100
AcDbSymbolTableRecord
100
AcDbLayerTableRecord
  2
숨은선
 70
     0
 62
     2
  6
HIDDEN
370
    15
390
F
  0
LAYER
  5
72
330
2
100
AcDbSymbolTableRecord
100
AcDbLayerTableRecord
  2
중심선
 70
     0
 62
     1
  6
CENTERX2
370
    -3
390
F
  0
LAYER
  5
73
330
2
100
AcDbSymbolTableRecord
100
AcDbLayerTableRecord
  2
파단선
 70
     0
 62
     4
  6
Continuous
370
    -3
390
F
  0
LAYER
  5
74
330
2
100
AcDbSymbolTableRecord
100
AcDbLayerTableRecord
  2
해칭선
 70
     0
 62
     4
  6
Continuous
370
    -3
390
F
  0
LAYER
  5
75
330
2
100
AcDbSymbolTableRecord
100
AcDbLayerTableRecord
  2
가는실선
 70
     0
 62
     4
  6
Continuous
370
    -3
390
F
  0
LAYER
  5
76
330
2
100
AcDbSymbolTableRecord
100
AcDbLayerTableRecord
  2
치수_보조선
 70
     0
 62
     4
  6
Continuous
370
    -3
390
F
  0
LAYER
  5
77
330
2
100
AcDbSymbolTableRecord
100
AcDbLayerTableRecord
  2
치수문자_일반주서
 70
     0
 62
     7
  6
Continuous
370
    15
390
F
  0
LAYER
  5
78
330
2
100
AcDbSymbolTableRecord
100
AcDbLayerTableRecord
  2
개별주서
 70
     0
 62
   100
  6
Continuous
370
    30
390
F
  0
LAYER
  5
79
330
2
100
AcDbSymbolTableRecord
100
AcDbLayerTableRecord
  2
중간선
 70
     0
 62
     2
  6
Continuous
370
    15
390
F
  0
LAYER
  5
7A
330
2
100
AcDbSymbolTableRecord
100
AcDbLayerTableRecord
  2
윤곽선
 70
     0
 62
     3
  6
Continuous
370
    40
390
F
  0
LAYER
  5
7B
330
2
100
AcDbSymbolTableRecord
100
AcDbLayerTableRecord
  2
중심마크
 70
     0
 62
   100
  6
Continuous
370
    30
390
F
  0
LAYER
  5
7C
330
2
100
AcDbSymbolTableRecord
100
AcDbLayerTableRecord
  2
가상선
 70
     0
 62
     4
  6
PHANTOM
370
    -3
390
F
  0
LAYER
  5
7D
330
2
100
AcDbSymbolTableRecord
100
AcDbLayerTableRecord
  2
특수지정선
 70
     0
 62
     5
  6
CENTERX2
370
    60
390
F
  0
LAYER
  5
133
330
2
100
AcDbSymbolTableRecord
100
AcDbLayerTableRecord
  2
Defpoints
 70
     0
 62
     7
  6
Continuous
290
     0
370
    -3
390
F
  0
ENDTAB
  0
TABLE
  2
STYLE
  5
3
330
0
100
AcDbSymbolTable
 70
     2
  0
STYLE
  5
11
330
3
100
AcDbSymbolTableRecord
100
AcDbTextStyleTableRecord
  2
Standard
 70
     0
 40
0.0
 41
1.0
 50
0.0
 71
     0
 42
3.5
  3
txt
  4

  0
STYLE
  5
93
330
3
100
AcDbSymbolTableRecord
100
AcDbTextStyleTableRecord
  2
SLDTEXTSTYLE0
 70
     0
 40
0.0
 41
0.75
 50
0.0
 71
     0
 42
3.5
  3
TXT
  4

  0
ENDTAB
  0
TABLE
  2
VIEW
  5
6
330
0
100
AcDbSymbolTable
 70
     0
  0
ENDTAB
  0
TABLE
  2
UCS
  5
7
330
0
100
AcDbSymbolTable
 70
     0
  0
ENDTAB
  0
TABLE
  2
APPID
  5
9
330
0
100
AcDbSymbolTable
 70
     2
  0
APPID
  5
12
330
9
100
AcDbSymbolTableRecord
100
AcDbRegAppTableRecord
  2
ACAD
 70
     0
  0
APPID
  5
139
330
9
100
AcDbSymbolTableRecord
100
AcDbRegAppTableRecord
  2
PE_URL
 70
     0
  0
ENDTAB
  0
TABLE
  2
DIMSTYLE
  5
A
330
0
100
AcDbSymbolTable
 70
     3
100
AcDbDimStyleTable
  0
DIMSTYLE
105
27
330
A
100
AcDbSymbolTableRecord
100
AcDbDimStyleTableRecord
  2
ISO-25
 70
     0
 41
2.5
 42
0.625
 43
3.75
 44
1.25
 73
     0
 74
     0
 77
     1
 78
     8
140
2.5
141
2.5
143
0.03937007874016
147
0.625
171
     3
172
     1
178
     0
271
     2
272
     2
274
     3
278
    44
283
     0
284
     8
340
11
  0
DIMSTYLE
105
DB
102
{ACAD_REACTORS
330
DA
330
F0
330
FD
102
}
330
A
100
AcDbSymbolTableRecord
100
AcDbDimStyleTableRecord
  2
SLDDIMSTYLE0
 70
     0
 41
3.302
 44
0.0
 45
0.000000001
 73
     0
 74
     0
 77
     1
 78
    12
 79
     3
140
3.5
147
0.875
172
     1
173
     1
178
     0
271
     2
272
     2
276
     2
284
    12
289
     0
340
93
  0
DIMSTYLE
105
E6
102
{ACAD_REACTORS
330
E5
102
}
330
A
100
AcDbSymbolTableRecord
100
AcDbDimStyleTableRecord
  2
SLDDIMSTYLE1
 70
     0
 41
3.302
 44
0.0
 45
0.000000001
 73
     0
 74
     0
 77
     1
 78
    12
 79
     3
140
3.5
147
0.875
173
     1
178
     0
271
     2
272
     2
276
     2
284
    12
340
93
  0
ENDTAB
  0
TABLE
  2
BLOCK_RECORD
  5
1
330
0
100
AcDbSymbolTable
 70
     7
  0
BLOCK_RECORD
  5
1F
330
1
100
AcDbSymbolTableRecord
100
AcDbBlockTableRecord
  2
*Model_Space
340
22
  0
BLOCK_RECORD
  5
1B
330
1
100
AcDbSymbolTableRecord
100
AcDbBlockTableRecord
  2
*Paper_Space
340
1E
  0
BLOCK_RECORD
  5
23
330
1
100
AcDbSymbolTableRecord
100
AcDbBlockTableRecord
  2
*Paper_Space0
340
26
  0
BLOCK_RECORD
  5
7E
330
1
100
AcDbSymbolTableRecord
100
AcDbBlockTableRecord
  2
블럭10
340
0
102
{BLKREFS
331
D3
102
}
  0
BLOCK_RECORD
  5
DC
330
1
100
AcDbSymbolTableRecord
100
AcDbBlockTableRecord
  2
_D
340
0
  0
BLOCK_RECORD
  5
E7
330
1
100
AcDbSymbolTableRecord
100
AcDbBlockTableRecord
  2
_D_1
340
0
  0
BLOCK_RECORD
  5
F1
330
1
100
AcDbSymbolTableRecord
100
AcDbBlockTableRecord
  2
_D_2
340
0
  0
BLOCK_RECORD
  5
FE
330
1
100
AcDbSymbolTableRecord
100
AcDbBlockTableRecord
  2
_D_3
340
0
  0
BLOCK_RECORD
  5
10A
330
1
100
AcDbSymbolTableRecord
100
AcDbBlockTableRecord
  2
SW_DOWELSYMBOL_0
340
0
102
{BLKREFS
331
110
102
}
  0
ENDTAB
  0
ENDSEC
  0
SECTION
  2
BLOCKS
  0
BLOCK
  5
20
330
1F
100
AcDbEntity
  8
0
100
AcDbBlockBegin
  2
*Model_Space
 70
     0
 10
0.0
 20
0.0
 30
0.0
  3
*Model_Space
  1

  0
ENDBLK
  5
21
330
1F
100
AcDbEntity
  8
0
100
AcDbBlockEnd
  0
BLOCK
  5
1C
330
1B
100
AcDbEntity
 67
     1
  8
0
100
AcDbBlockBegin
  2
*Paper_Space
 70
     0
 10
0.0
 20
0.0
 30
0.0
  3
*Paper_Space
  1

  0
ENDBLK
  5
1D
330
1B
100
AcDbEntity
 67
     1
  8
0
100
AcDbBlockEnd
  0
BLOCK
  5
24
330
23
100
AcDbEntity
  8
0
100
AcDbBlockBegin
  2
*Paper_Space0
 70
     0
 10
0.0
 20
0.0
 30
0.0
  3
*Paper_Space0
  1

  0
ENDBLK
  5
25
330
23
100
AcDbEntity
  8
0
100
AcDbBlockEnd
  0
BLOCK
  5
7F
330
7E
100
AcDbEntity
  8
0
100
AcDbBlockBegin
  2
블럭10
 70
     2
 10
0.0
 20
0.0
 30
0.0
  3
블럭10
  1

  0
ELLIPSE
  5
81
330
7E
100
AcDbEntity
  8
중심선
100
AcDbEllipse
 10
20.54032771741204
 20
12.0471743016438
 30
0.0
 11
6.600054785286829
 21
-1.261213355974178E-13
 31
0.0
210
0.0
220
0.0
230
1.0
 40
0.636358354079598
 41
0.9219305317359503
 42
6.513795318482858
  0
ELLIPSE
  5
82
330
7E
100
AcDbEntity
  8
중심선
100
AcDbEllipse
 10
20.54032771746488
 20
12.04717430159265
 30
0.0
 11
3.960054785062283
 21
1.540847449632565E-10
 31
0.0
210
0.0
220
0.0
230
1.0
 40
0.3939339440162632
 41
1.131841032648279
 42
5.62031148352944
  0
LINE
  5
83
330
7E
100
AcDbEntity
  8
중심선
100
AcDbLine
 10
2.268634060543552
 20
16.24717430164393
 30
0.0
 11
5.714909304380834
 21
16.24717430164393
 31
0.0
  0
LINE
  5
84
330
7E
100
AcDbEntity
  8
중심선
100
AcDbLine
 10
5.245725140726316
 20
7.84717430164391
 30
0.0
 11
8.692000384563599
 21
7.84717430164391
 31
0.0
  0
LINE
  5
85
330
7E
100
AcDbEntity
  8
중심선
100
AcDbLine
 10
15.74043728645272
 20
16.24717430164393
 30
0.0
 11
8.692000384563599
 21
7.84717430164391
 31
0.0
  0
LINE
  5
86
330
7E
100
AcDbEntity
  8
중심선
100
AcDbLine
 10
0.1404042013395286
 20
13.71084872107135
 30
0.0
 11
3.58671253028996
 21
13.71088815037384
 31
0.0
  0
LINE
  5
87
330
7E
100
AcDbEntity
  8
중심선
100
AcDbLine
 10
2.750260043222114
 20
10.84717430164391
 30
0.0
 11
6.196535287059397
 21
10.84717430164391
 31
0.0
  0
LINE
  5
88
330
7E
100
AcDbEntity
  8
중심선
100
AcDbLine
 10
12.29416204261559
 20
16.24717430164393
 30
0.0
 11
5.245725140726316
 21
7.84717430164391
 31
0.0
  0
LINE
  5
89
330
7E
100
AcDbEntity
  8
중심선
100
AcDbLine
 10
10.72767329541681
 20
16.24717430164393
 30
0.0
 11
6.196535287059397
 21
10.84717430164391
 31
0.0
  0
LINE
  5
8A
330
7E
100
AcDbEntity
  8
중심선
100
AcDbLine
 10
7.28139805157953
 20
16.24717430164393
 30
0.0
 11
2.750260043222114
 21
10.84717430164391
 31
0.0
  0
LINE
  5
8B
330
7E
100
AcDbEntity
  8
중심선
100
AcDbLine
 10
5.714909304380834
 20
16.24717430164393
 30
0.0
 11
3.58671253028996
 21
13.71088815037384
 31
0.0
  0
LINE
  5
8C
330
7E
100
AcDbEntity
  8
중심선
100
AcDbLine
 10
2.268634060543552
 20
16.24717430164393
 30
0.0
 11
0.1404042013395286
 21
13.71084872107135
 31
0.0
  0
LINE
  5
8D
330
7E
100
AcDbEntity
  8
중심선
100
AcDbLine
 10
7.28139805157953
 20
16.24717430164393
 30
0.0
 11
10.72767329541681
 21
16.24717430164393
 31
0.0
  0
LINE
  5
8E
330
7E
100
AcDbEntity
  8
중심선
100
AcDbLine
 10
12.29416204261559
 20
16.24717430164393
 30
0.0
 11
15.74043728645272
 21
16.24717430164393
 31
0.0
  0
LINE
  5
8F
330
7E
100
AcDbEntity
  8
중심선
100
AcDbLine
 10
19.22036997980202
 20
11.08717430171403
 30
0.0
 11
23.66174974927406
 21
11.08717430171406
 31
0.0
  0
LINE
  5
90
330
7E
100
AcDbEntity
  8
중심선
100
AcDbLine
 10
19.22039502424796
 20
13.00717430171391
 30
0.0
 11
19.22036997980202
 21
11.08717430171403
 31
0.0
  0
LINE
  5
91
330
7E
100
AcDbEntity
  8
중심선
100
AcDbLine
 10
19.22039502424796
 20
13.00717430171391
 30
0.0
 11
26.96566020931264
 21
13.00717430171391
 31
0.0
  0
LINE
  5
92
330
7E
100
AcDbEntity
  8
중심선
100
AcDbLine
 10
22.22332737316547
 20
13.45928029700563
 30
0.0
 11
24.52862924686651
 21
15.39360700705356
 31
0.0
  0
ATTDEF
  5
94
330
7E
100
AcDbEntity
  8
FORMAT
 62
     2
100
AcDbText
 10
-12.95993919485777
 20
2.075366912832191
 30
0.0
 40
4.233333333333333
  1
SEME35070E [ 2 FLUTE ]
 41
0.75
  7
SLDTEXTSTYLE0
 11
-12.95993919485777
 21
-0.0412997538344756
 31
0.0
100
AcDbAttributeDefinition
  3

  2
AUTOATTR0
 70
     0
 74
     1
  0
ENDBLK
  5
80
330
7E
100
AcDbEntity
  8
0
100
AcDbBlockEnd
  0
BLOCK
  5
DD
330
DC
100
AcDbEntity
  8
0
100
AcDbBlockBegin
  2
_D
 70
     0
 10
0.0
 20
0.0
 30
0.0
  3
_D
  1

  0
LINE
  5
DF
330
DC
100
AcDbEntity
  8
치수문자_일반주서
 62
     0
370
    -2
100
AcDbLine
 10
24.86602540378445
 20
3.559541853303755
 30
0.0
 11
24.86602540378445
 21
15.74767574188154
 31
0.0
  0
LINE
  5
E0
330
DC
100
AcDbEntity
  8
치수문자_일반주서
 62
     0
370
    -2
100
AcDbLine
 10
4.866025403784443
 20
2.482183245928787
 30
0.0
 11
4.866025403784443
 21
15.74767574188154
 31
0.0
  0
LINE
  5
E1
330
DC
100
AcDbEntity
  8
치수문자_일반주서
 62
     0
370
    -2
100
AcDbLine
 10
21.56402540378445
 20
15.74767574188154
 30
0.0
 11
8.168025403784442
 21
15.74767574188154
 31
0.0
  0
SOLID
  5
E2
330
DC
100
AcDbEntity
  8
치수문자_일반주서
 62
     0
100
AcDbTrace
 10
21.56402540378445
 20
15.19734240854821
 30
0.0
 11
21.56402540378445
 21
16.29800907521487
 31
0.0
 12
24.86602540378445
 22
15.74767574188154
 32
0.0
 13
24.86602540378445
 23
15.74767574188154
 33
0.0
  0
SOLID
  5
E3
330
DC
100
AcDbEntity
  8
치수문자_일반주서
 62
     0
100
AcDbTrace
 10
8.168025403784442
 20
16.29800907521487
 30
0.0
 11
8.168025403784442
 21
15.19734240854821
 31
0.0
 12
4.866025403784443
 22
15.74767574188154
 32
0.0
 13
4.866025403784443
 23
15.74767574188154
 33
0.0
  0
MTEXT
  5
E4
330
DC
100
AcDbEntity
  8
치수문자_일반주서
 62
     0
100
AcDbMText
 10
14.86602540378444
 20
20.12267574188154
 30
0.0
 40
3.5
 41
0.0
 71
     2
 72
     1
  1
\A1;20
  7
SLDTEXTSTYLE0
 73
     1
 44
1.0
  0
POINT
  5
13A
330
DC
100
AcDbEntity
  8
Defpoints
 62
     0
100
AcDbPoint
 10
24.86602540378445
 20
3.497041853303755
 30
0.0
  0
POINT
  5
13B
330
DC
100
AcDbEntity
  8
Defpoints
 62
     0
100
AcDbPoint
 10
4.866025403784443
 20
2.419683245928787
 30
0.0
  0
POINT
  5
13C
330
DC
100
AcDbEntity
  8
Defpoints
 62
     0
100
AcDbPoint
 10
4.866025403784443
 20
15.74767574188154
 30
0.0
  0
ENDBLK
  5
DE
330
DC
100
AcDbEntity
  8
0
100
AcDbBlockEnd
  0
BLOCK
  5
E8
330
E7
100
AcDbEntity
  8
0
100
AcDbBlockBegin
  2
_D_1
 70
     0
 10
0.0
 20
0.0
 30
0.0
  3
_D_1
  1

  0
LINE
  5
EA
330
E7
100
AcDbEntity
  8
치수문자_일반주서
 62
     0
370
    -2
100
AcDbLine
 10
24.86602540378445
 20
3.559541853303755
 30
0.0
 11
24.86602540378445
 21
25.23415911661226
 31
0.0
  0
LINE
  5
EB
330
E7
100
AcDbEntity
  8
치수문자_일반주서
 62
     0
370
    -2
100
AcDbLine
 10
-35.13397459621555
 20
3.252499999999996
 30
0.0
 11
-35.13397459621555
 21
25.23415911661226
 31
0.0
  0
LINE
  5
EC
330
E7
100
AcDbEntity
  8
치수문자_일반주서
 62
     0
370
    -2
100
AcDbLine
 10
21.56402540378445
 20
25.23415911661226
 30
0.0
 11
-31.83197459621555
 21
25.23415911661226
 31
0.0
  0
SOLID
  5
ED
330
E7
100
AcDbEntity
  8
치수문자_일반주서
 62
     0
100
AcDbTrace
 10
21.56402540378445
 20
24.68382578327893
 30
0.0
 11
21.56402540378445
 21
25.7844924499456
 31
0.0
 12
24.86602540378445
 22
25.23415911661226
 32
0.0
 13
24.86602540378445
 23
25.23415911661226
 33
0.0
  0
SOLID
  5
EE
330
E7
100
AcDbEntity
  8
치수문자_일반주서
 62
     0
100
AcDbTrace
 10
-31.83197459621555
 20
25.7844924499456
 30
0.0
 11
-31.83197459621555
 21
24.68382578327893
 31
0.0
 12
-35.13397459621555
 22
25.23415911661226
 32
0.0
 13
-35.13397459621555
 23
25.23415911661226
 33
0.0
  0
MTEXT
  5
EF
330
E7
100
AcDbEntity
  8
치수문자_일반주서
 62
     0
100
AcDbMText
 10
-5.133974596215547
 20
29.60915911661226
 30
0.0
 40
3.5
 41
0.0
 71
     2
 72
     1
  1
\A1;60
  7
SLDTEXTSTYLE0
 73
     1
 44
1.0
  0
POINT
  5
134
330
E7
100
AcDbEntity
  8
Defpoints
 62
     0
100
AcDbPoint
 10
24.86602540378445
 20
3.497041853303755
 30
0.0
  0
POINT
  5
135
330
E7
100
AcDbEntity
  8
Defpoints
 62
     0
100
AcDbPoint
 10
-35.13397459621555
 20
3.189999999999996
 30
0.0
  0
POINT
  5
136
330
E7
100
AcDbEntity
  8
Defpoints
 62
     0
100
AcDbPoint
 10
-35.13397459621555
 20
25.23415911661226
 30
0.0
  0
ENDBLK
  5
E9
330
E7
100
AcDbEntity
  8
0
100
AcDbBlockEnd
  0
BLOCK
  5
F2
330
F1
100
AcDbEntity
  8
0
100
AcDbBlockBegin
  2
_D_2
 70
     0
 10
0.0
 20
0.0
 30
0.0
  3
_D_2
  1

  0
LINE
  5
F4
330
F1
100
AcDbEntity
  8
치수문자_일반주서
 62
     0
370
    -2
100
AcDbLine
 10
24.92852540378445
 20
3.502041853303755
 30
0.0
 11
40.43221571603071
 21
3.502041853303812
 31
0.0
  0
LINE
  5
F5
330
F1
100
AcDbEntity
  8
치수문자_일반주서
 62
     0
370
    -2
100
AcDbLine
 10
24.92852540378445
 20
-3.497041853303754
 30
0.0
 11
40.43221571603073
 21
-3.497041853303697
 31
0.0
  0
LINE
  5
F6
330
F1
100
AcDbEntity
  8
치수문자_일반주서
 62
     0
370
    -2
100
AcDbLine
 10
40.43221571603072
 20
0.2000418533038122
 30
0.0
 11
40.43221571603073
 21
-0.1950418533036968
 31
0.0
  0
SOLID
  5
F7
330
F1
100
AcDbEntity
  8
치수문자_일반주서
 62
     0
100
AcDbTrace
 10
40.98254904936405
 20
0.2000418533038139
 30
0.0
 11
39.88188238269738
 21
0.2000418533038105
 31
0.0
 12
40.43221571603071
 22
3.502041853303812
 32
0.0
 13
40.43221571603071
 23
3.502041853303812
 33
0.0
  0
SOLID
  5
F8
330
F1
100
AcDbEntity
  8
치수문자_일반주서
 62
     0
100
AcDbTrace
 10
39.88188238269739
 20
-0.1950418533036985
 30
0.0
 11
40.98254904936406
 21
-0.1950418533036952
 31
0.0
 12
40.43221571603073
 22
-3.497041853303697
 32
0.0
 13
40.43221571603073
 23
-3.497041853303697
 33
0.0
  0
MTEXT
  5
F9
330
F1
100
AcDbEntity
  8
치수문자_일반주서
 62
     0
100
AcDbMText
 10
36.05721571603073
 20
-0.0000000000000134
 30
0.0
 40
3.5
 41
0.0
 71
     2
 72
     1
  1
\A1;%%c7
  7
SLDTEXTSTYLE0
 11
-3.045581817042608E-15
 21
1.0
 31
0.0
 73
     1
 44
1.0
  0
POINT
  5
FA
330
F1
100
AcDbEntity
  8
Defpoints
 62
     0
100
AcDbPoint
 10
24.86602540378445
 20
3.502041853303755
 30
0.0
  0
POINT
  5
FB
330
F1
100
AcDbEntity
  8
Defpoints
 62
     0
100
AcDbPoint
 10
24.86602540378445
 20
-3.497041853303754
 30
0.0
  0
POINT
  5
FC
330
F1
100
AcDbEntity
  8
Defpoints
 62
     0
100
AcDbPoint
 10
40.43221571603074
 20
-3.497041853303696
 30
0.0
  0
ENDBLK
  5
F3
330
F1
100
AcDbEntity
  8
0
100
AcDbBlockEnd
  0
BLOCK
  5
FF
330
FE
100
AcDbEntity
  8
0
100
AcDbBlockBegin
  2
_D_3
 70
     0
 10
0.0
 20
0.0
 30
0.0
  3
_D_3
  1

  0
LINE
  5
101
330
FE
100
AcDbEntity
  8
치수문자_일반주서
 62
     0
370
    -2
100
AcDbLine
 10
-34.38647459621555
 20
3.999999999999996
 30
0.0
 11
-46.74353404160411
 21
3.999999999999949
 31
0.0
  0
LINE
  5
102
330
FE
100
AcDbEntity
  8
치수문자_일반주서
 62
     0
370
    -2
100
AcDbLine
 10
-34.38647459621555
 20
-4.000000000000003
 30
0.0
 11
-46.74353404160408
 21
-4.000000000000049
 31
0.0
  0
LINE
  5
103
330
FE
100
AcDbEntity
  8
치수문자_일반주서
 62
     0
370
    -2
100
AcDbLine
 10
-46.74353404160409
 20
0.6979999999999493
 30
0.0
 11
-46.74353404160409
 21
-0.6980000000000488
 31
0.0
  0
SOLID
  5
104
330
FE
100
AcDbEntity
  8
치수문자_일반주서
 62
     0
100
AcDbTrace
 10
-46.19320070827076
 20
0.6979999999999513
 30
0.0
 11
-47.29386737493743
 21
0.6979999999999473
 31
0.0
 12
-46.74353404160411
 22
3.999999999999949
 32
0.0
 13
-46.74353404160411
 23
3.999999999999949
 33
0.0
  0
SOLID
  5
105
330
FE
100
AcDbEntity
  8
치수문자_일반주서
 62
     0
100
AcDbTrace
 10
-47.29386737493743
 20
-0.6980000000000508
 30
0.0
 11
-46.19320070827076
 21
-0.6980000000000468
 31
0.0
 12
-46.74353404160408
 22
-4.000000000000049
 32
0.0
 13
-46.74353404160408
 23
-4.000000000000049
 33
0.0
  0
MTEXT
  5
106
330
FE
100
AcDbEntity
  8
치수문자_일반주서
 62
     0
100
AcDbMText
 10
-51.11853404160409
 20
-0.0000000000000175
 30
0.0
 40
3.5
 41
0.0
 71
     2
 72
     1
  1
\A1;%%c8
  7
SLDTEXTSTYLE0
 11
-3.552713678800502E-15
 21
1.0
 31
0.0
 73
     1
 44
1.0
  0
POINT
  5
107
330
FE
100
AcDbEntity
  8
Defpoints
 62
     0
100
AcDbPoint
 10
-34.32397459621555
 20
3.999999999999996
 30
0.0
  0
POINT
  5
108
330
FE
100
AcDbEntity
  8
Defpoints
 62
     0
100
AcDbPoint
 10
-34.32397459621555
 20
-4.000000000000003
 30
0.0
  0
POINT
  5
109
330
FE
100
AcDbEntity
  8
Defpoints
 62
     0
100
AcDbPoint
 10
-46.74353404160409
 20
-4.000000000000049
 30
0.0
  0
ENDBLK
  5
100
330
FE
100
AcDbEntity
  8
0
100
AcDbBlockEnd
  0
BLOCK
  5
10B
330
10A
100
AcDbEntity
  8
0
100
AcDbBlockBegin
  2
SW_DOWELSYMBOL_0
 70
     0
 10
0.0
 20
0.0
 30
0.0
  3
SW_DOWELSYMBOL_0
  1

  0
CIRCLE
  5
10D
330
10A
100
AcDbEntity
  8
외형선
 62
     0
100
AcDbCircle
 10
0.0
 20
0.0
 30
0.0
 40
3.000000000000004
  0
HATCH
  5
10E
330
10A
100
AcDbEntity
  8
0
  6
Continuous
 62
     0
370
    30
100
AcDbHatch
 10
0.0
 20
0.0
 30
0.0
210
0.0
220
0.0
230
1.0
  2
SOLID
 70
     1
 71
     0
 91
        1
 92
        0
 93
        3
 72
     2
 10
0.0000000000000087
 20
-0.0000000000000035
 40
3.000000000000004
 50
0.0
 51
90.0
 73
     1
 72
     1
 10
0.0000000000000087
 20
3.000000000000001
 11
0.0000000000000087
 21
-0.0000000000000036
 72
     1
 10
0.0000000000000087
 20
-0.0000000000000035
 11
3.000000000000013
 21
-0.0000000000000035
 97
        0
 75
     0
 76
     1
 98
        1
 10
0.0
 20
0.0
  0
HATCH
  5
10F
330
10A
100
AcDbEntity
  8
0
  6
Continuous
 62
     0
370
    30
100
AcDbHatch
 10
0.0
 20
0.0
 30
0.0
210
0.0
220
0.0
230
1.0
  2
SOLID
 70
     1
 71
     0
 91
        1
 92
        0
 93
        3
 72
     2
 10
0.0000000000000087
 20
-0.0000000000000035
 40
3.000000000000004
 50
180.0
 51
270.0000000000007
 73
     1
 72
     1
 10
0.0000000000000087
 20
-3.000000000000008
 11
0.0000000000000087
 21
-0.0000000000000036
 72
     1
 10
0.0000000000000087
 20
-0.0000000000000035
 11
-2.999999999999996
 21
-0.0000000000000035
 97
        0
 75
     0
 76
     1
 98
        1
 10
0.0
 20
0.0
  0
ENDBLK
  5
10C
330
10A
100
AcDbEntity
  8
0
100
AcDbBlockEnd
  0
ENDSEC
  0
SECTION
  2
ENTITIES
  0
LINE
  5
95
330
1F
100
AcDbEntity
  8
0
  6
Continuous
 62
     4
370
    15
100
AcDbLine
 10
2.000000000000005
 20
3.999999999999999
 30
0.0
 11
-34.32397459621555
 21
3.999999999999996
 31
0.0
  0
LINE
  5
96
330
1F
100
AcDbEntity
  8
0
  6
Continuous
 62
     4
370
    15
100
AcDbLine
 10
-34.32397459621555
 20
-4.000000000000003
 30
0.0
 11
2.000000000000005
 21
-3.999999999999999
 31
0.0
  0
LINE
  5
97
330
1F
100
AcDbEntity
  8
0
  6
Continuous
 62
     4
370
    15
100
AcDbLine
 10
2.000000000000005
 20
-4.000000000000001
 30
0.0
 11
3.345988154030299
 21
-3.639343561105725
 31
0.0
1001
PE_URL
1000

  0
LINE
  5
98
330
1F
100
AcDbEntity
  8
0
  6
Continuous
 62
     4
370
    15
100
AcDbLine
 10
3.345988154030299
 20
3.639343561105724
 30
0.0
 11
2.000000000000005
 21
3.999999999999999
 31
0.0
1001
PE_URL
1000

  0
LINE
  5
99
330
1F
100
AcDbEntity
  8
0
  6
Continuous
 62
     4
370
    15
100
AcDbLine
 10
-34.32397459621555
 20
3.999999999999996
 30
0.0
 11
-35.13397459621555
 21
3.189999999999996
 31
0.0
  0
LINE
  5
9A
330
1F
100
AcDbEntity
  8
0
  6
Continuous
 62
     4
370
    15
100
AcDbLine
 10
-35.13397459621555
 20
-3.190000000000002
 30
0.0
 11
-34.32397459621555
 21
-4.000000000000001
 31
0.0
  0
SPLINE
  5
9B
330
1F
100
AcDbEntity
  8
0
  6
Continuous
 62
     4
370
    15
100
AcDbSpline
210
0.0
220
0.0
230
1.0
 70
     8
 71
     3
 72
     9
 73
     5
 74
     0
 42
0.000000001
 43
0.00000001
 40
0.0
 40
0.0
 40
0.0
 40
0.0
 40
0.5064832885256579
 40
1.0
 40
1.0
 40
1.0
 40
1.0
 10
4.507410512011603
 20
2.392769751723538
 30
0.0
 10
4.313423024232609
 20
2.377200030679352
 30
0.0
 10
3.930414360030328
 20
2.346459192043769
 30
0.0
 10
3.5390992789581
 20
2.329185547148231
 30
0.0
 10
3.345978746997016
 20
2.32066071472421
 30
0.0
1001
PE_URL
1000

  0
SPLINE
  5
9C
330
1F
100
AcDbEntity
  8
0
  6
Continuous
 62
     1
370
    15
100
AcDbSpline
210
0.0
220
0.0
230
1.0
 70
     8
 71
     3
 72
    11
 73
     7
 74
     0
 42
0.000000001
 43
0.00000001
 40
0.0
 40
0.0
 40
0.0
 40
0.0
 40
0.3120929270761799
 40
0.498945527440509
 40
0.6863425727804721
 40
1.0
 40
1.0
 40
1.0
 40
1.0
 10
15.79750010974985
 20
0.8968765651483442
 30
0.0
 10
15.69657844665173
 20
0.9446583525938569
 30
0.0
 10
15.5352341544359
 20
1.021047488875796
 30
0.0
 10
15.3138293121169
 20
1.131444232548985
 30
0.0
 10
15.09168114996065
 20
1.24418503810138
 30
0.0
 10
14.92961662522904
 20
1.329256456002335
 30
0.0
 10
14.82816509719217
 20
1.382510709841097
 30
0.0
  0
LINE
  5
9D
330
1F
100
AcDbEntity
  8
0
  6
Continuous
 62
     1
370
    15
100
AcDbLine
 10
13.86306155315306
 20
0.9851189613156643
 30
0.0
 11
13.8246649004072
 21
1.006252337225761
 31
0.0
  0
LINE
  5
9E
330
1F
100
AcDbEntity
  8
0
  6
Continuous
 62
     1
370
    15
100
AcDbLine
 10
7.76669584319971
 20
3.500000000000001
 30
0.0
 11
6.069690296554728
 21
3.500000000000001
 31
0.0
  0
SPLINE
  5
9F
330
1F
100
AcDbEntity
  8
0
  6
Continuous
 62
     1
370
    15
100
AcDbSpline
210
0.0
220
0.0
230
1.0
 70
     8
 71
     3
 72
    20
 73
    16
 74
     0
 42
0.000000001
 43
0.00000001
 40
0.0
 40
0.0
 40
0.0
 40
0.0
 40
0.1300168813952651
 40
0.2250794797463323
 40
0.2878293701775612
 40
0.3487215705691034
 40
0.4168721294234468
 40
0.4860982971114927
 40
0.5440820912732829
 40
0.5921481337612122
 40
0.6817182510167812
 40
0.7875603141383383
 40
0.8877646450382706
 40
0.9749740379552612
 40
1.0
 40
1.0
 40
1.0
 40
1.0
 10
14.6416493921642
 20
2.78123748789599
 30
0.0
 10
14.51747972956307
 20
2.775002525415225
 30
0.0
 10
14.30252269660997
 20
2.764208833885723
 30
0.0
 10
14.02722376747815
 20
2.753750104060682
 30
0.0
 10
13.81588331681083
 20
2.747041876130827
 30
0.0
 10
13.63087781311714
 20
2.742165510184067
 30
0.0
 10
13.44031521145389
 20
2.738232863884884
 30
0.0
 10
13.25292311059765
 20
2.735495269138084
 30
0.0
 10
13.08470836725902
 20
2.733970779373988
 30
0.0
 10
12.89691770280353
 20
2.733133981067995
 30
0.0
 10
12.66316352091401
 20
2.733502415160438
 30
0.0
 10
12.37943347286279
 20
2.736313210017948
 30
0.0
 10
12.09810858510196
 20
2.741850512757681
 30
0.0
 10
11.89422493739058
 20
2.747070722299624
 30
0.0
 10
11.78649713865256
 20
2.750908620280182
 30
0.0
 10
11.76247626035356
 20
2.751764385286011
 30
0.0
  0
SPLINE
  5
A0
330
1F
100
AcDbEntity
  8
0
  6
Continuous
 62
     1
370
    15
100
AcDbSpline
210
0.0
220
0.0
230
1.0
 70
     8
 71
     3
 72
    25
 73
    21
 74
     0
 42
0.000000001
 43
0.00000001
 40
0.0
 40
0.0
 40
0.0
 40
0.0
 40
0.0819227863314206
 40
0.1568966873127381
 40
0.213489761719727
 40
0.2626135082878162
 40
0.3266903129524939
 40
0.4091100859886235
 40
0.467769248784965
 40
0.5163299996569158
 40
0.5721370227299973
 40
0.6308661713632503
 40
0.6797842715275361
 40
0.7249509611778933
 40
0.7630006199506427
 40
0.8028566277927436
 40
0.8383596315304668
 40
0.8731854040435878
 40
0.92611989684888
 40
1.0
 40
1.0
 40
1.0
 40
1.0
 10
9.376334919024409
 20
-2.912491360502997
 30
0.0
 10
9.512743167500632
 20
-2.898884605515165
 30
0.0
 10
9.773989192769717
 20
-2.872825252821396
 30
0.0
 10
10.16024565134787
 20
-2.841778513710219
 30
0.0
 10
10.48160262973159
 20
-2.817747414006625
 30
0.0
 10
10.77814448556413
 20
-2.797971380597155
 30
0.0
 10
11.12286048156124
 20
-2.778025692993657
 30
0.0
 10
11.48329874789499
 20
-2.761277229464817
 30
0.0
 10
11.81679683388815
 20
-2.749410915104536
 30
0.0
 10
12.10340506224171
 20
-2.741606365629786
 30
0.0
 10
12.39002385332028
 20
-2.736176658196499
 30
0.0
 10
12.67741426822673
 20
-2.733406237984553
 30
0.0
 10
12.94617428294629
 20
-2.733121891522102
 30
0.0
 10
13.17852122869614
 20
-2.734618650815087
 30
0.0
 10
13.39480299812307
 20
-2.737447587416256
 30
0.0
 10
13.59433183981549
 20
-2.74130360961233
 30
0.0
 10
13.78886895081894
 20
-2.746253742590091
 30
0.0
 10
14.00724807690137
 20
-2.753041229133081
 30
0.0
 10
14.29054393064165
 20
-2.763648250774582
 30
0.0
 10
14.51239980146967
 20
-2.774762505454212
 30
0.0
 10
14.64164939216421
 20
-2.78123748789599
 30
0.0
  0
SPLINE
  5
A1
330
1F
100
AcDbEntity
  8
0
  6
Continuous
 62
     1
370
    15
100
AcDbSpline
210
0.0
220
0.0
230
1.0
 70
     8
 71
     3
 72
    16
 73
    12
 74
     0
 42
0.000000001
 43
0.00000001
 40
0.0
 40
0.0
 40
0.0
 40
0.0
 40
0.1437677380550518
 40
0.2690580978518475
 40
0.3745743732906914
 40
0.4548349852431232
 40
0.5463044940811116
 40
0.6740534145130338
 40
0.7966513563600336
 40
0.9015752074430496
 40
1.0
 40
1.0
 40
1.0
 40
1.0
 10
17.45054779542471
 20
-2.63247033022137
 30
0.0
 10
17.56898811290199
 20
-2.614046144310295
 30
0.0
 10
17.79064651109702
 20
-2.57956569353069
 30
0.0
 10
18.12381816451265
 20
-2.533757810483357
 30
0.0
 10
18.40206892987835
 20
-2.498129484748834
 30
0.0
 10
18.64424781277339
 20
-2.469000665661143
 30
0.0
 10
18.900507725388
 20
-2.440592307957572
 30
0.0
 10
19.1993903003214
 20
-2.410678793133713
 30
0.0
 10
19.5082502856898
 20
-2.383893275853383
 30
0.0
 10
19.79202512516038
 20
-2.362230364215589
 30
0.0
 10
19.96901012436704
 20
-2.351346987811325
 30
0.0
 10
20.05467438807094
 20
-2.34607921692417
 30
0.0
  0
SPLINE
  5
A2
330
1F
100
AcDbEntity
  8
0
  6
Continuous
 62
     1
370
    15
100
AcDbSpline
210
0.0
220
0.0
230
1.0
 70
     8
 71
     3
 72
    28
 73
    24
 74
     0
 42
0.000000001
 43
0.00000001
 40
0.0
 40
0.0
 40
0.0
 40
0.0
 40
0.0658176201144345
 40
0.1208643606306395
 40
0.1659438573550875
 40
0.2003737087743766
 40
0.2386644871814097
 40
0.2903061214643401
 40
0.3444491278042184
 40
0.3906448341894493
 40
0.4378093347314985
 40
0.5030086796726307
 40
0.5574902754609742
 40
0.6017400740483946
 40
0.6408677311513444
 40
0.6789127199398726
 40
0.7285262227731092
 40
0.7803109312709372
 40
0.813215348635499
 40
0.8473635947949044
 40
0.8911767731388601
 40
0.9420424054156201
 40
1.0
 40
1.0
 40
1.0
 40
1.0
 10
23.57078439791959
 20
2.394364612187321
 30
0.0
 10
23.4424762885843
 20
2.38361126206788
 30
0.0
 10
23.20685735293193
 20
2.363864319158613
 30
0.0
 10
22.86088625005654
 20
2.342334079515537
 30
0.0
 10
22.5767108865229
 20
2.3280361341625
 30
0.0
 10
22.33541462489389
 20
2.318249353613561
 30
0.0
 10
22.08512497194423
 20
2.310438396617008
 30
0.0
 10
21.78950344770249
 20
2.304503621463599
 30
0.0
 10
21.47946151420233
 20
2.30257057148672
 30
0.0
 10
21.17788675283293
 20
2.304597923112887
 30
0.0
 10
20.85362205924373
 20
2.31065982864618
 30
0.0
 10
20.5124637023773
 20
2.321928486796751
 30
0.0
 10
20.17748250178035
 20
2.338154148707288
 30
0.0
 10
19.89576157253094
 20
2.35539732760192
 30
0.0
 10
19.64751011589033
 20
2.373082422535843
 30
0.0
 10
19.38838880563392
 20
2.393968589633429
 30
0.0
 10
19.10359308174588
 20
2.419896098933496
 30
0.0
 10
18.82781179022759
 20
2.448446748661784
 30
0.0
 10
18.59060030685333
 20
2.475282520853261
 30
0.0
 10
18.36048849833782
 20
2.503392144678434
 30
0.0
 10
18.09035232705045
 20
2.538180909990398
 30
0.0
 10
17.77282996216616
 20
2.582317474325069
 30
0.0
 10
17.56254328147573
 20
2.61504183416233
 30
0.0
 10
17.45054779542471
 20
2.632470330221371
 30
0.0
  0
LINE
  5
A3
330
1F
100
AcDbEntity
  8
0
  6
Continuous
 62
     1
370
    15
100
AcDbLine
 10
6.069795523956309
 20
-3.500000000000002
 30
0.0
 11
7.766695843199713
 21
-3.500000000000002
 31
0.0
  0
LINE
  5
A4
330
1F
100
AcDbEntity
  8
0
  6
Continuous
 62
     4
370
    15
100
AcDbLine
 10
2.000000000000005
 20
3.999999999999999
 30
0.0
 11
2.000000000000005
 21
-3.999999999999999
 31
0.0
  0
LINE
  5
A5
330
1F
100
AcDbEntity
  8
0
  6
Continuous
 62
     4
370
    15
100
AcDbLine
 10
-34.32397459621555
 20
3.999999999999996
 30
0.0
 11
-34.32397459621555
 21
-4.000000000000003
 31
0.0
  0
SPLINE
  5
A6
330
1F
100
AcDbEntity
  8
0
  6
Continuous
 62
     4
370
    15
100
AcDbSpline
210
0.0
220
0.0
230
1.0
 70
     8
 71
     3
 72
     8
 73
     4
 74
     0
 42
0.000000001
 43
0.00000001
 40
0.0
 40
0.0
 40
0.0
 40
0.0
 40
0.0005963816714362
 40
0.0005963816714362
 40
0.0005963816714362
 40
0.0005963816714362
 10
3.345988154030299
 20
3.299389020516282
 30
0.0
 10
3.519510595538407
 20
3.2931632141704
 30
0.0
 10
3.692898792027048
 20
3.283727114019599
 30
0.0
 10
3.866025403784887
 20
3.270968639755941
 30
0.0
1001
PE_URL
1000

  0
LINE
  5
A7
330
1F
100
AcDbEntity
  8
0
  6
Continuous
 62
     4
370
    15
100
AcDbLine
 10
3.345988154030299
 20
-2.755611373071726
 30
0.0
 11
3.345988154030299
 21
3.639343561105724
 31
0.0
1001
PE_URL
1000

  0
SPLINE
  5
A8
330
1F
100
AcDbEntity
  8
0
  6
Continuous
 62
     4
370
    15
100
AcDbSpline
210
0.0
220
0.0
230
1.0
 70
     8
 71
     3
 72
     8
 73
     4
 74
     0
 42
0.000000001
 43
0.00000001
 40
0.0
 40
0.0
 40
0.0
 40
0.0
 40
1.0
 40
1.0
 40
1.0
 40
1.0
 10
3.866025403784442
 20
-2.799819586581826
 30
0.0
 10
3.692252797780678
 20
-2.788901113562649
 30
0.0
 10
3.518894889838736
 20
-2.774260389634843
 30
0.0
 10
3.345949089771535
 20
-2.755681130876938
 30
0.0
1001
PE_URL
1000

  0
LINE
  5
A9
330
1F
100
AcDbEntity
  8
0
  6
Continuous
 62
     4
370
    15
100
AcDbLine
 10
3.866025403784442
 20
-2.799819586581826
 30
0.0
 11
3.866025403784442
 21
-3.270968639758051
 31
0.0
1001
PE_URL
1000

  0
SPLINE
  5
AA
330
1F
100
AcDbEntity
  8
0
  6
Continuous
 62
     4
370
    15
100
AcDbSpline
210
0.0
220
0.0
230
1.0
 70
     8
 71
     3
 72
     8
 73
     4
 74
     0
 42
0.000000001
 43
0.00000001
 40
0.0
 40
0.0
 40
0.0
 40
0.0
 40
0.0005963816714362
 40
0.0005963816714362
 40
0.0005963816714362
 40
0.0005963816714362
 10
3.345988154030303
 20
-3.299389020516283
 30
0.0
 10
3.519510595538407
 20
-3.293163214170401
 30
0.0
 10
3.692898792027048
 20
-3.2837271140196
 30
0.0
 10
3.866025403784887
 20
-3.270968639755941
 30
0.0
1001
PE_URL
1000

  0
LINE
  5
AB
330
1F
100
AcDbEntity
  8
0
  6
Continuous
 62
     4
370
    15
100
AcDbLine
 10
3.345988154030299
 20
-3.639343561105725
 30
0.0
 11
3.345988154030303
 21
-3.299361495937505
 31
0.0
1001
PE_URL
1000

  0
LINE
  5
AC
330
1F
100
AcDbEntity
  8
0
  6
Continuous
 62
     4
370
    15
100
AcDbLine
 10
-35.13397459621555
 20
3.189999999999996
 30
0.0
 11
-35.13397459621555
 21
-3.189999999999998
 31
0.0
  0
SPLINE
  5
AD
330
1F
100
AcDbEntity
  8
0
  6
Continuous
 62
     4
370
    15
100
AcDbSpline
210
0.0
220
0.0
230
1.0
 70
     8
 71
     3
 72
    10
 73
     6
 74
     0
 42
0.000000001
 43
0.00000001
 40
0.0
 40
0.0
 40
0.0
 40
0.0
 40
0.5
 40
0.5
 40
1.0
 40
1.0
 40
1.0
 40
1.0
 10
4.86602540378445
 20
-2.553635461389784
 30
0.0
 10
4.611681631863357
 20
-2.489758703582427
 30
0.0
 10
4.359541268852796
 20
-2.419362885982659
 30
0.0
 10
3.855181223673863
 20
-2.266332299018898
 30
0.0
 10
3.600381485205883
 20
-2.183408319243689
 30
0.0
 10
3.345949089771535
 20
-2.094998405817083
 30
0.0
1001
PE_URL
1000

  0
SPLINE
  5
AE
330
1F
100
AcDbEntity
  8
0
  6
Continuous
 62
     4
370
    15
100
AcDbSpline
210
0.0
220
0.0
230
1.0
 70
     8
 71
     3
 72
    10
 73
     6
 74
     0
 42
0.000000001
 43
0.00000001
 40
0.0
 40
0.0
 40
0.0
 40
0.0
 40
0.5
 40
0.5
 40
1.0
 40
1.0
 40
1.0
 40
1.0
 10
4.866025403784446
 20
0.4391204409135604
 30
0.0
 10
4.611685764600756
 20
0.554851067113395
 30
0.0
 10
4.359549379179741
 20
0.6690927474378767
 30
0.0
 10
3.855197698819445
 20
0.8935060353845374
 30
0.0
 10
3.600402180318728
 20
1.004051146166809
 30
0.0
 10
3.345973894837199
 20
1.111613959198976
 30
0.0
1001
PE_URL
1000

  0
SPLINE
  5
AF
330
1F
100
AcDbEntity
  8
0
  6
Continuous
 62
     4
370
    15
100
AcDbSpline
210
0.0
220
0.0
230
1.0
 70
    24
 71
     3
 72
    14
 73
    10
 74
     0
 42
0.000000001
 43
0.00000001
 40
0.0
 40
0.0
 40
0.0
 40
0.0
 40
0.25
 40
0.25
 40
0.5
 40
0.5
 40
0.7499999999999999
 40
0.7499999999999999
 40
1.0
 40
1.0
 40
1.0
 40
1.0
 10
4.866025403784443
 20
0.4391204409135624
 30
0.0
 10
4.866025403784443
 20
0.1694283484979944
 30
0.0
 10
4.866025403784443
 20
-0.1078620985747602
 30
0.0
 10
4.866025403784443
 20
-0.6588397659860314
 30
0.0
 10
4.866025403784443
 20
-0.9323745543825466
 30
0.0
 10
4.866025403784443
 20
-1.455432797635809
 30
0.0
 10
4.866025403784443
 20
-1.704805209149913
 30
0.0
 10
4.866025403784443
 20
-2.162535633917235
 30
0.0
 10
4.866025403784443
 20
-2.370814642003422
 30
0.0
 10
4.866025403784443
 20
-2.553635461389781
 30
0.0
1001
PE_URL
1000

  0
LINE
  5
B0
330
1F
100
AcDbEntity
  8
0
  6
Continuous
 62
     4
370
    15
100
AcDbLine
 10
4.866025403784443
 20
2.419683245928786
 30
0.0
 11
4.503992240024509
 21
2.37894810564267
 31
0.0
1001
PE_URL
1000

  0
SPLINE
  5
B1
330
1F
100
AcDbEntity
  8
0
  6
Continuous
 62
     4
370
    15
100
AcDbSpline
210
0.0
220
0.0
230
1.0
 70
    24
 71
     3
 72
    14
 73
    10
 74
     0
 42
0.000000001
 43
0.00000001
 40
0.0
 40
0.0
 40
0.0
 40
0.0
 40
0.2500000000000001
 40
0.2500000000000001
 40
0.5000000000000002
 40
0.5000000000000002
 40
0.7500000000000001
 40
0.7500000000000001
 40
1.0
 40
1.0
 40
1.0
 40
1.0
 10
4.866025403784443
 20
2.419683245928787
 30
0.0
 10
4.866025403784443
 20
2.402002144584064
 30
0.0
 10
4.866025403784443
 20
2.345811015706203
 30
0.0
 10
4.866025403784443
 20
2.150401264603274
 30
0.0
 10
4.866025403784443
 20
2.011116187108057
 30
0.0
 10
4.866025403784443
 20
1.659113074832589
 30
0.0
 10
4.866025403784443
 20
1.44658260202718
 30
0.0
 10
4.866025403784443
 20
0.972084228731889
 30
0.0
 10
4.866025403784443
 20
0.7104418680006513
 30
0.0
 10
4.866025403784443
 20
0.4391204409135617
 30
0.0
1001
PE_URL
1000

  0
SPLINE
  5
B2
330
1F
100
AcDbEntity
  8
0
  6
Continuous
 62
     4
370
    15
100
AcDbSpline
210
0.0
220
0.0
230
1.0
 70
     8
 71
     3
 72
     8
 73
     4
 74
     0
 42
0.000000001
 43
0.00000001
 40
0.0
 40
0.0
 40
0.0
 40
0.0
 40
1.0
 40
1.0
 40
1.0
 40
1.0
 10
4.866025403784446
 20
-3.107041871684366
 30
0.0
 10
4.530780733713682
 20
-3.018158128160298
 30
0.0
 10
4.200214938069598
 20
-2.915552949510479
 30
0.0
 10
3.866025403784442
 20
-2.799819586581826
 30
0.0
1001
PE_URL
1000

  0
SPLINE
  5
B3
330
1F
100
AcDbEntity
  8
0
  6
Continuous
 62
     4
370
    15
100
AcDbSpline
210
0.0
220
0.0
230
1.0
 70
    24
 71
     3
 72
     8
 73
     4
 74
     0
 42
0.000000001
 43
0.00000001
 40
0.0
 40
0.0
 40
0.0
 40
0.0
 40
1.0
 40
1.0
 40
1.0
 40
1.0
 10
4.866025403784443
 20
-2.553635461389782
 30
0.0
 10
4.866025403784443
 20
-2.734845178521902
 30
0.0
 10
4.866025403784443
 20
-2.920485107007814
 30
0.0
 10
4.866025403784443
 20
-3.107041871670406
 30
0.0
1001
PE_URL
1000

  0
SPLINE
  5
B4
330
1F
100
AcDbEntity
  8
0
  6
Continuous
 62
     4
370
    15
100
AcDbSpline
210
0.0
220
0.0
230
1.0
 70
     8
 71
     3
 72
     8
 73
     4
 74
     0
 42
0.000000001
 43
0.00000001
 40
0.0
 40
0.0
 40
0.0
 40
0.0
 40
1.0
 40
1.0
 40
1.0
 40
1.0
 10
3.866025403784442
 20
-3.270968639758051
 30
0.0
 10
4.200214938069609
 20
-3.339590488645743
 30
0.0
 10
4.530780733713696
 20
-3.39311476914578
 30
0.0
 10
4.866025403784468
 20
-3.431206023929721
 30
0.0
1001
PE_URL
1000

  0
LINE
  5
B5
330
1F
100
AcDbEntity
  8
0
  6
Continuous
 62
     4
370
    15
100
AcDbLine
 10
4.866025403784443
 20
-3.107041871684364
 30
0.0
 11
4.866025403784443
 21
-3.431206023929632
 31
0.0
1001
PE_URL
1000

  0
SPLINE
  5
B6
330
1F
100
AcDbEntity
  8
0
  6
Continuous
 62
     4
370
    15
100
AcDbSpline
210
0.0
220
0.0
230
1.0
 70
     8
 71
     3
 72
     8
 73
     4
 74
     0
 42
0.000000001
 43
0.00000001
 40
0.0
 40
0.0
 40
0.0
 40
0.0
 40
1.0
 40
1.0
 40
1.0
 40
1.0
 10
3.866025403784442
 20
3.27096863975805
 30
0.0
 10
4.200214938069605
 20
3.339590488645742
 30
0.0
 10
4.530780733713696
 20
3.393114769145779
 30
0.0
 10
4.866025403784468
 20
3.43120602392972
 30
0.0
1001
PE_URL
1000

  0
SPLINE
  5
B7
330
1F
100
AcDbEntity
  8
0
  6
Continuous
 62
     4
370
    15
100
AcDbSpline
210
0.0
220
0.0
230
1.0
 70
    24
 71
     3
 72
    10
 73
     6
 74
     0
 42
0.000000001
 43
0.00000001
 40
0.0
 40
0.0
 40
0.0
 40
0.0
 40
0.5
 40
0.5
 40
1.0
 40
1.0
 40
1.0
 40
1.0
 10
4.866025403784464
 20
3.43120602392971
 30
0.0
 10
4.866025403784464
 20
3.251056328723109
 30
0.0
 10
4.866025403784464
 20
3.063147391251975
 30
0.0
 10
4.866025403784464
 20
2.713650179337076
 30
0.0
 10
4.866025403784464
 20
2.552911302030489
 30
0.0
 10
4.866025403784464
 20
2.419683245928788
 30
0.0
1001
PE_URL
1000

  0
SPLINE
  5
B8
330
1F
100
AcDbEntity
  8
0
  6
Continuous
 62
     1
370
    15
100
AcDbSpline
210
0.0
220
0.0
230
1.0
 70
     8
 71
     3
 72
    21
 73
    17
 74
     0
 42
0.000000001
 43
0.00000001
 40
0.0
 40
0.0
 40
0.0
 40
0.0
 40
0.0734203492257709
 40
0.1467391012766803
 40
0.2200294921449117
 40
0.2933651572461037
 40
0.3668099165222811
 40
0.4388901062900197
 40
0.5108792562749008
 40
0.5828666906944614
 40
0.6549417612247194
 40
0.7285493309638027
 40
0.8020498066287537
 40
0.875501604770524
 40
0.9489765477014094
 40
1.0
 40
1.0
 40
1.0
 40
1.0
 10
24.86602540378445
 20
-3.321293042311647
 30
0.0
 10
24.4474407930209
 20
-3.231405444655235
 30
0.0
 10
23.61085079802086
 20
-3.051754633468522
 30
0.0
 10
22.3569276642592
 20
-2.613852249788542
 30
0.0
 10
21.10352652385522
 20
-2.074694630245852
 30
0.0
 10
19.84932256060343
 20
-1.444063896892791
 30
0.0
 10
18.60138762455303
 20
-0.7573442033765206
 30
0.0
 10
17.36150005437521
 20
-0.0426809969373658
 30
0.0
 10
16.13029514895133
 20
0.669577535971674
 30
0.0
 10
14.89912113799724
 20
1.354241543882856
 30
0.0
 10
13.65837482771079
 20
1.987397399868545
 30
0.0
 10
12.40858232996728
 20
2.540517010174613
 30
0.0
 10
11.15157190527028
 20
2.990519245648955
 30
0.0
 10
9.895409132881557
 20
3.306660393962193
 30
0.0
 10
8.76733877601471
 20
3.481845805252531
 30
0.0
 10
8.05757847501706
 20
3.483385992476182
 30
0.0
 10
7.766695843199706
 20
3.484017210807888
 30
0.0
  0
SPLINE
  5
B9
330
1F
100
AcDbEntity
  8
0
  6
Continuous
 62
     1
370
    15
100
AcDbSpline
210
0.0
220
0.0
230
1.0
 70
     8
 71
     3
 72
    14
 73
    10
 74
     0
 42
0.000000001
 43
0.00000001
 40
0.0
 40
0.0
 40
0.0
 40
0.0
 40
0.1482872016537292
 40
0.2964479042317926
 40
0.4445373212672204
 40
0.5926112097913407
 40
0.7407254454864687
 40
0.8889355959398481
 40
1.0
 40
1.0
 40
1.0
 40
1.0
 10
24.86602540378445
 20
-2.761402925288755
 30
0.0
 10
24.41727820578468
 20
-2.666395431836797
 30
0.0
 10
23.52016662168746
 20
-2.476461492791151
 30
0.0
 10
22.17514201147854
 20
-2.033714210088775
 30
0.0
 10
20.83084165794649
 20
-1.501174008852803
 30
0.0
 10
19.48670809461517
 20
-0.8921053841836643
 30
0.0
 10
18.1421514390296
 20
-0.2413245617531691
 30
0.0
 10
16.90945770990307
 20
0.3707740773016976
 30
0.0
 10
16.12481662065073
 20
0.739585939650667
 30
0.0
 10
15.78870305508149
 20
0.8975724022210436
 30
0.0
  0
LINE
  5
BA
330
1F
100
AcDbEntity
  8
0
  6
Continuous
 62
     1
370
    15
100
AcDbLine
 10
24.86602540378445
 20
-3.32129304231165
 30
0.0
 11
24.86602540378445
 21
-2.761402925288755
 31
0.0
  0
SPLINE
  5
BB
330
1F
100
AcDbEntity
  8
0
  6
Continuous
 62
     1
370
    15
100
AcDbSpline
210
0.0
220
0.0
230
1.0
 70
     8
 71
     3
 72
    54
 73
    50
 74
     0
 42
0.000000001
 43
0.00000001
 40
0.0
 40
0.0
 40
0.0
 40
0.0
 40
0.0312499999999997
 40
0.0312499999999997
 40
0.0624999999999996
 40
0.0624999999999996
 40
0.1249999999999991
 40
0.1249999999999991
 40
0.1874999999999988
 40
0.1874999999999988
 40
0.2187499999999986
 40
0.2187499999999986
 40
0.2499999999999983
 40
0.2499999999999983
 40
0.3124999999999981
 40
0.3124999999999981
 40
0.343749999999998
 40
0.343749999999998
 40
0.3749999999999979
 40
0.3749999999999979
 40
0.4374999999999979
 40
0.4374999999999979
 40
0.4687499999999978
 40
0.4687499999999978
 40
0.4999999999999977
 40
0.4999999999999977
 40
0.5312499999999977
 40
0.5312499999999977
 40
0.5624999999999976
 40
0.5624999999999976
 40
0.5937499999999976
 40
0.5937499999999976
 40
0.6249999999999976
 40
0.6249999999999976
 40
0.6874999999999973
 40
0.6874999999999973
 40
0.749999999999997
 40
0.749999999999997
 40
0.7812499999999973
 40
0.7812499999999973
 40
0.8124999999999976
 40
0.8124999999999976
 40
0.8749999999999984
 40
0.8749999999999984
 40
0.9062499999999988
 40
0.9062499999999988
 40
0.9374999999999991
 40
0.9374999999999991
 40
1.0
 40
1.0
 40
1.0
 40
1.0
 10
4.866025403784446
 20
3.431206023929719
 30
0.0
 10
5.075135959118935
 20
3.454965636392987
 30
0.0
 10
5.284675822462933
 20
3.472631787791089
 30
0.0
 10
5.701278715830124
 20
3.495543242391632
 30
0.0
 10
5.907189786107919
 20
3.500808949245155
 30
0.0
 10
6.531676733602968
 20
3.498082116546972
 30
0.0
 10
6.953302287505025
 20
3.471207910741442
 30
0.0
 10
7.780565358282654
 20
3.369357549038148
 30
0.0
 10
8.200885424664126
 20
3.293827590182112
 30
0.0
 10
8.826343400574023
 20
3.146630298395432
 30
0.0
 10
9.032369621875782
 20
3.092115133141867
 30
0.0
 10
9.448256078513458
 20
2.972028395265433
 30
0.0
 10
9.65765749751801
 20
2.90646611931597
 30
0.0
 10
10.28524410582975
 20
2.694694448548963
 30
0.0
 10
10.69761924545575
 20
2.5340935734436
 30
0.0
 10
11.3244196005316
 20
2.266997566652635
 30
0.0
 10
11.53404633793279
 20
2.173674848193994
 30
0.0
 10
11.95134634972401
 20
1.979945683568107
 30
0.0
 10
12.15762401437093
 20
1.879777616081157
 30
0.0
 10
12.7807353784475
 20
1.569175044605814
 30
0.0
 10
13.20249545741522
 20
1.348374853596259
 30
0.0
 10
13.82470119900739
 20
1.007050375101972
 30
0.0
 10
14.03143895321526
 20
0.8914202217436008
 30
0.0
 10
14.44906668322989
 20
0.6566388766315964
 30
0.0
 10
14.6587055009744
 20
0.5377173115263632
 30
0.0
 10
15.07629236974349
 20
0.2987076627474117
 30
0.0
 10
15.28295768762637
 20
0.1788695242145752
 30
0.0
 10
15.69784583472913
 20
-0.0613118860659159
 30
0.0
 10
15.90700650544099
 20
-0.1818373552050311
 30
0.0
 10
16.32544557830261
 20
-0.4218378837371124
 30
0.0
 10
16.53471806975678
 20
-0.5413095508915899
 30
0.0
 10
16.95004761052241
 20
-0.7773078395423166
 30
0.0
 10
17.15637656206061
 20
-0.8938933569595409
 30
0.0
 10
17.78239747848792
 20
-1.239594124361202
 30
0.0
 10
18.20121116976355
 20
-1.463108308860611
 30
0.0
 10
19.02986784986764
 20
-1.884837081381267
 30
0.0
 10
19.45159191314627
 20
-2.084996176088004
 30
0.0
 10
20.07531400970129
 20
-2.359629038995347
 30
0.0
 10
20.28137035164948
 20
-2.446905009912808
 30
0.0
 10
20.69839599040557
 20
-2.613174504180986
 30
0.0
 10
20.90799623533434
 20
-2.691956980486261
 30
0.0
 10
21.5350512928449
 20
-2.913330736613802
 30
0.0
 10
21.9472864479434
 20
-3.040644463786205
 30
0.0
 10
22.57476779543965
 20
-3.198948659284341
 30
0.0
 10
22.78424587734767
 20
-3.246140115001609
 30
0.0
 10
23.20050511665355
 20
-3.328674619704826
 30
0.0
 10
23.40642513145752
 20
-3.363999876566619
 30
0.0
 10
24.03141951069171
 20
-3.452355187065195
 30
0.0
 10
24.45293706651415
 20
-3.487181968908809
 30
0.0
 10
24.86602540378445
 20
-3.497041853303752
 30
0.0
  0
SPLINE
  5
BC
330
1F
100
AcDbEntity
  8
0
  6
Continuous
 62
     1
370
    15
100
AcDbSpline
210
0.0
220
0.0
230
1.0
 70
     8
 71
     3
 72
    16
 73
    12
 74
     0
 42
0.000000001
 43
0.00000001
 40
0.0
 40
0.0
 40
0.0
 40
0.0
 40
0.0628421504351792
 40
0.181972561498789
 40
0.3010175802901662
 40
0.4200236509238108
 40
0.539037518687781
 40
0.6581058685205242
 40
0.7721410129204411
 40
0.8861388686392556
 40
1.0
 40
1.0
 40
1.0
 40
1.0
 10
16.16027273947643
 20
-0.3270776036045628
 30
0.0
 10
15.92365828950586
 20
-0.2327232151385825
 30
0.0
 10
15.23849176909555
 20
0.0404996080605815
 30
0.0
 10
14.10519828915607
 20
0.5012074494607154
 30
0.0
 10
12.76055162685797
 20
1.020595434222338
 30
0.0
 10
11.41639167322296
 20
1.49072736427461
 30
0.0
 10
10.07212780180985
 20
1.887424702227786
 30
0.0
 10
8.746539347065664
 20
2.187955860533843
 30
0.0
 10
7.439632378919017
 20
2.379661005886928
 30
0.0
 10
6.152389086436314
 20
2.469649174843594
 30
0.0
 10
5.294641737281651
 20
2.436331891673431
 30
0.0
 10
4.866025403784443
 20
2.419683245928787
 30
0.0
  0
SPLINE
  5
BD
330
1F
100
AcDbEntity
  8
0
  6
Continuous
 62
     4
370
    15
100
AcDbSpline
210
0.0
220
0.0
230
1.0
 70
    24
 71
     3
 72
    10
 73
     6
 74
     0
 42
0.000000001
 43
0.00000001
 40
0.0
 40
0.0
 40
0.0
 40
0.0
 40
0.5
 40
0.5
 40
1.0
 40
1.0
 40
1.0
 40
1.0
 10
4.866025403784464
 20
3.43120602392971
 30
0.0
 10
4.866025403784464
 20
3.251056328723108
 30
0.0
 10
4.866025403784464
 20
3.063147391251975
 30
0.0
 10
4.866025403784464
 20
2.713650179337076
 30
0.0
 10
4.866025403784464
 20
2.552911302030489
 30
0.0
 10
4.866025403784464
 20
2.419683245928788
 30
0.0
1001
PE_URL
1000

  0
LINE
  5
BE
330
1F
100
AcDbEntity
  8
0
  6
Continuous
 62
     1
370
    15
100
AcDbLine
 10
24.86602540378445
 20
-3.497041853303754
 30
0.0
 11
24.86602540378445
 21
-3.321293042311651
 31
0.0
  0
SPLINE
  5
BF
330
1F
100
AcDbEntity
  8
0
  6
Continuous
 62
     1
370
    15
100
AcDbSpline
210
0.0
220
0.0
230
1.0
 70
     8
 71
     3
 72
     8
 73
     4
 74
     0
 42
0.000000001
 43
0.00000001
 40
0.0
 40
0.0
 40
0.0
 40
0.0
 40
1.0
 40
1.0
 40
1.0
 40
1.0
 10
22.6998007000283
 20
0.9796246418600923
 30
0.0
 10
22.54313274630262
 20
1.165268865817606
 30
0.0
 10
22.40716344489814
 20
1.342697591052352
 30
0.0
 10
22.29981975535129
 20
1.507758441673999
 30
0.0
  0
LINE
  5
C0
330
1F
100
AcDbEntity
  8
0
  6
Continuous
 62
     1
370
    15
100
AcDbLine
 10
22.29981975535129
 20
1.507758441673998
 30
0.0
 11
24.86602540378445
 21
0.0000000000000021
 31
0.0
  0
LINE
  5
C1
330
1F
100
AcDbEntity
  8
0
  6
Continuous
 62
     1
370
    15
100
AcDbLine
 10
24.86602540378445
 20
0.0000000000000021
 30
0.0
 11
24.86602540378445
 21
-0.9353503111037544
 31
0.0
  0
SPLINE
  5
C2
330
1F
100
AcDbEntity
  8
0
  6
Continuous
 62
     1
370
    15
100
AcDbSpline
210
0.0
220
0.0
230
1.0
 70
     8
 71
     3
 72
    10
 73
     6
 74
     0
 42
0.000000001
 43
0.00000001
 40
0.0
 40
0.0
 40
0.0
 40
0.0
 40
0.5
 40
0.5
 40
1.0
 40
1.0
 40
1.0
 40
1.0
 10
24.86602540378445
 20
-0.9353503111037547
 30
0.0
 10
24.49103660065254
 20
-0.6405442681825642
 30
0.0
 10
24.12231521483535
 20
-0.3336465454131659
 30
0.0
 10
23.39771990819595
 20
0.3049354151729704
 30
0.0
 10
23.0384726674103
 20
0.6399847852841316
 30
0.0
 10
22.69980070002826
 20
0.9796246418601151
 30
0.0
  0
SPLINE
  5
C3
330
1F
100
AcDbEntity
  8
0
  6
Continuous
 62
     1
370
    15
100
AcDbSpline
210
0.0
220
0.0
230
1.0
 70
     8
 71
     3
 72
    14
 73
    10
 74
     0
 42
0.000000001
 43
0.00000001
 40
0.0
 40
0.0
 40
0.0
 40
0.0
 40
0.1329050349503649
 40
0.2659533994506328
 40
0.398609103315409
 40
0.565385524822815
 40
0.7322714607430895
 40
0.8992887344647638
 40
1.0
 40
1.0
 40
1.0
 40
1.0
 10
22.69980070002826
 20
0.9796246418601163
 30
0.0
 10
22.34272133707734
 20
1.131188797209224
 30
0.0
 10
21.62817752400115
 20
1.434480560121086
 30
0.0
 10
20.55676837372339
 20
1.835575804487219
 30
0.0
 10
19.39529894402467
 20
2.21227117289008
 30
0.0
 10
18.14210792078494
 20
2.528686894016723
 30
0.0
 10
16.79673414011955
 20
2.738727299314029
 30
0.0
 10
15.62859377663882
 20
2.82361221280248
 30
0.0
 10
14.90914641107836
 20
2.780823211460027
 30
0.0
 10
14.63851237679613
 20
2.764727301445547
 30
0.0
  0
SPLINE
  5
C4
330
1F
100
AcDbEntity
  8
0
  6
Continuous
 62
     1
370
    15
100
AcDbSpline
210
0.0
220
0.0
230
1.0
 70
    24
 71
     3
 72
    10
 73
     6
 74
     0
 42
0.000000001
 43
0.00000001
 40
0.0
 40
0.0
 40
0.0
 40
0.0
 40
0.5
 40
0.5
 40
1.0
 40
1.0
 40
1.0
 40
1.0
 10
24.86602540378445
 20
-2.761402925288754
 30
0.0
 10
24.86602540378445
 20
-2.549719861513316
 30
0.0
 10
24.86602540378445
 20
-2.282250193672638
 30
0.0
 10
24.86602540378445
 20
-1.660408957027379
 30
0.0
 10
24.86602540378445
 20
-1.306576050679582
 30
0.0
 10
24.86602540378445
 20
-0.9353503111038666
 30
0.0
  0
SPLINE
  5
C5
330
1F
100
AcDbEntity
  8
0
  6
Continuous
 62
     1
370
    15
100
AcDbSpline
210
0.0
220
0.0
230
1.0
 70
     8
 71
     3
 72
    11
 73
     7
 74
     0
 42
0.000000001
 43
0.00000001
 40
0.0
 40
0.0
 40
0.0
 40
0.0
 40
0.1447584693622607
 40
0.4300082043954105
 40
0.7151683743624427
 40
1.0
 40
1.0
 40
1.0
 40
1.0
 10
9.381100797323853
 20
-2.894301454468332
 30
0.0
 10
9.163250729754363
 20
-2.919843429888018
 30
0.0
 10
8.516122331701549
 20
-2.995716427408076
 30
0.0
 10
7.439602989839425
 20
-2.971975412847498
 30
0.0
 10
6.152348469836845
 20
-2.845438781224086
 30
0.0
 10
5.294634963249251
 20
-2.650865850601705
 30
0.0
 10
4.866025403784446
 20
-2.553635461389784
 30
0.0
  0
SPLINE
  5
C6
330
1F
100
AcDbEntity
  8
0
  6
Continuous
 62
     1
370
    15
100
AcDbSpline
210
0.0
220
0.0
230
1.0
 70
     8
 71
     3
 72
    17
 73
    13
 74
     0
 42
0.000000001
 43
0.00000001
 40
0.0
 40
0.0
 40
0.0
 40
0.0
 40
0.0524476364324147
 40
0.1593789393062682
 40
0.2662364318174014
 40
0.3730193229471284
 40
0.4797681884411019
 40
0.5865238649629427
 40
0.69332713689852
 40
0.7956129580031472
 40
0.8978662034230837
 40
1.0
 40
1.0
 40
1.0
 40
1.0
 10
17.4574410114128
 20
-2.615440808087767
 30
0.0
 10
17.23730936546109
 20
-2.653371424158949
 30
0.0
 10
16.5683688635428
 20
-2.768635748118494
 30
0.0
 10
15.45070314750089
 20
-2.818322603152843
 30
0.0
 10
14.10518550706525
 20
-2.765614450751109
 30
0.0
 10
12.76054249953174
 20
-2.570455242944504
 30
0.0
 10
11.41639023477561
 20
-2.251150083498799
 30
0.0
 10
10.07213138938127
 20
-1.821067387566079
 30
0.0
 10
8.746555944104188
 20
-1.309004322990774
 30
0.0
 10
7.439623904106415
 20
-0.7446136916097384
 30
0.0
 10
6.152365036831666
 20
-0.1537066526680334
 30
0.0
 10
5.294638189204747
 20
0.2415884164584763
 30
0.0
 10
4.866025403784443
 20
0.4391204409135624
 30
0.0
  0
SPLINE
  5
C7
330
1F
100
AcDbEntity
  8
0
  6
Continuous
 62
     4
370
    15
100
AcDbSpline
210
0.0
220
0.0
230
1.0
 70
    24
 71
     3
 72
    14
 73
    10
 74
     0
 42
0.000000001
 43
0.00000001
 40
0.0
 40
0.0
 40
0.0
 40
0.0
 40
0.25
 40
0.25
 40
0.5
 40
0.5
 40
0.7499999999999999
 40
0.7499999999999999
 40
1.0
 40
1.0
 40
1.0
 40
1.0
 10
4.866025403784443
 20
0.4391204409135624
 30
0.0
 10
4.866025403784443
 20
0.1694283484979944
 30
0.0
 10
4.866025403784443
 20
-0.1078620985747602
 30
0.0
 10
4.866025403784443
 20
-0.6588397659860314
 30
0.0
 10
4.866025403784443
 20
-0.9323745543825466
 30
0.0
 10
4.866025403784443
 20
-1.455432797635809
 30
0.0
 10
4.866025403784443
 20
-1.704805209149913
 30
0.0
 10
4.866025403784443
 20
-2.162535633917235
 30
0.0
 10
4.866025403784443
 20
-2.370814642003422
 30
0.0
 10
4.866025403784443
 20
-2.553635461389781
 30
0.0
1001
PE_URL
1000

  0
SPLINE
  5
C8
330
1F
100
AcDbEntity
  8
0
  6
Continuous
 62
     4
370
    15
100
AcDbSpline
210
0.0
220
0.0
230
1.0
 70
    24
 71
     3
 72
    14
 73
    10
 74
     0
 42
0.000000001
 43
0.00000001
 40
0.0
 40
0.0
 40
0.0
 40
0.0
 40
0.2500000000000001
 40
0.2500000000000001
 40
0.5000000000000002
 40
0.5000000000000002
 40
0.7500000000000001
 40
0.7500000000000001
 40
1.0
 40
1.0
 40
1.0
 40
1.0
 10
4.866025403784443
 20
2.419683245928787
 30
0.0
 10
4.866025403784443
 20
2.402002144584064
 30
0.0
 10
4.866025403784443
 20
2.345811015706203
 30
0.0
 10
4.866025403784443
 20
2.150401264603274
 30
0.0
 10
4.866025403784443
 20
2.011116187108057
 30
0.0
 10
4.866025403784443
 20
1.659113074832589
 30
0.0
 10
4.866025403784443
 20
1.44658260202718
 30
0.0
 10
4.866025403784443
 20
0.972084228731889
 30
0.0
 10
4.866025403784443
 20
0.7104418680006513
 30
0.0
 10
4.866025403784443
 20
0.4391204409135617
 30
0.0
1001
PE_URL
1000

  0
LINE
  5
C9
330
1F
100
AcDbEntity
  8
0
  6
Continuous
 62
     1
370
    15
100
AcDbLine
 10
24.86602540378445
 20
2.450000000000002
 30
0.0
 11
23.57034923079149
 21
2.392167015229122
 31
0.0
  0
SPLINE
  5
CA
330
1F
100
AcDbEntity
  8
0
  6
Continuous
 62
     1
370
    15
100
AcDbSpline
210
0.0
220
0.0
230
1.0
 70
     8
 71
     3
 72
    10
 73
     6
 74
     0
 42
0.000000001
 43
0.00000001
 40
0.0
 40
0.0
 40
0.0
 40
0.0
 40
0.5
 40
0.5
 40
1.0
 40
1.0
 40
1.0
 40
1.0
 10
24.86602540378445
 20
2.450000000000002
 30
0.0
 10
24.43048622939998
 20
2.331795776371614
 30
0.0
 10
23.99820483659484
 20
2.196371389196838
 30
0.0
 10
23.14111457255562
 20
1.886023943612189
 30
0.0
 10
22.71612631283026
 20
1.711847497969144
 30
0.0
 10
22.29981975534938
 20
1.507758441675509
 30
0.0
  0
LINE
  5
CB
330
1F
100
AcDbEntity
  8
0
  6
Continuous
 62
     1
370
    15
100
AcDbLine
 10
24.86602540378445
 20
0.0000000000000021
 30
0.0
 11
24.86602540378445
 21
2.450000000000002
 31
0.0
  0
SPLINE
  5
CC
330
1F
100
AcDbEntity
  8
0
  6
Continuous
 62
     1
370
    15
100
AcDbSpline
210
0.0
220
0.0
230
1.0
 70
     8
 71
     3
 72
    13
 73
     9
 74
     0
 42
0.000000001
 43
0.00000001
 40
0.0
 40
0.0
 40
0.0
 40
0.0
 40
0.088603057644767
 40
0.2707267592642789
 40
0.4529078483783583
 40
0.6353236130822338
 40
0.8177922461142715
 40
1.0
 40
1.0
 40
1.0
 40
1.0
 10
11.76232138414027
 20
-2.751819267542839
 30
0.0
 10
11.55864596080627
 20
-2.826841739725611
 30
0.0
 10
10.93631543670557
 20
-3.056073002234261
 30
0.0
 10
9.89542713367484
 20
-3.306052160671516
 30
0.0
 10
8.638828496424514
 20
-3.490352146534867
 30
0.0
 10
7.38101538951623
 20
-3.516132867733756
 30
0.0
 10
6.122993384336847
 20
-3.402654844417174
 30
0.0
 10
5.284814860916191
 20
-3.205532524021709
 30
0.0
 10
4.866025403779849
 20
-3.107041871683147
 30
0.0
  0
SPLINE
  5
CD
330
1F
100
AcDbEntity
  8
0
  6
Continuous
 62
     4
370
    15
100
AcDbSpline
210
0.0
220
0.0
230
1.0
 70
    24
 71
     3
 72
     8
 73
     4
 74
     0
 42
0.000000001
 43
0.00000001
 40
0.0
 40
0.0
 40
0.0
 40
0.0
 40
1.0
 40
1.0
 40
1.0
 40
1.0
 10
4.866025403784443
 20
-2.553635461389782
 30
0.0
 10
4.866025403784443
 20
-2.734845178521907
 30
0.0
 10
4.866025403784443
 20
-2.920485107007823
 30
0.0
 10
4.866025403784443
 20
-3.10704187167042
 30
0.0
1001
PE_URL
1000

  0
SPLINE
  5
CE
330
1F
100
AcDbEntity
  8
0
  6
Continuous
 62
     1
370
    15
100
AcDbSpline
210
0.0
220
0.0
230
1.0
 70
     8
 71
     3
 72
    10
 73
     6
 74
     0
 42
0.000000001
 43
0.00000001
 40
0.0
 40
0.0
 40
0.0
 40
0.0
 40
0.4576817490021297
 40
0.9163112973279431
 40
1.0
 40
1.0
 40
1.0
 40
1.0
 10
4.866025403784443
 20
-3.43120602392972
 30
0.0
 10
5.049866994785164
 20
-3.448876485695553
 30
0.0
 10
5.417930888790082
 20
-3.484254002453292
 30
0.0
 10
5.818532645317367
 20
-3.502911616969326
 30
0.0
 10
6.03620505947398
 20
-3.498501785233179
 30
0.0
 10
6.069795523956309
 20
-3.497821275041384
 30
0.0
  0
SPLINE
  5
CF
330
1F
100
AcDbEntity
  8
0
  6
Continuous
 62
     1
370
    15
100
AcDbSpline
210
0.0
220
0.0
230
1.0
 70
     8
 71
     3
 72
    13
 73
     9
 74
     0
 42
0.000000001
 43
0.00000001
 40
0.0
 40
0.0
 40
0.0
 40
0.0
 40
0.133448507039295
 40
0.2389244782803212
 40
0.4265392459404305
 40
0.6151930129993225
 40
0.8070388378732958
 40
1.0
 40
1.0
 40
1.0
 40
1.0
 10
20.0635147657425
 20
2.345634919801631
 30
0.0
 10
20.27702756648515
 20
2.437923394851483
 30
0.0
 10
20.65929811904054
 20
2.603155485054481
 30
0.0
 10
21.34280371090507
 20
2.848494743657135
 30
0.0
 10
22.1129497285596
 20
3.09220723075779
 30
0.0
 10
23.02356665250093
 20
3.304688800775384
 30
0.0
 10
23.94080632734008
 20
3.451672414284543
 30
0.0
 10
24.55702369006556
 20
3.481889512885876
 30
0.0
 10
24.86602540378431
 20
3.497041853303749
 30
0.0
  0
SPLINE
  5
D0
330
1F
100
AcDbEntity
  8
0
  6
Continuous
 62
     1
370
    15
100
AcDbSpline
210
0.0
220
0.0
230
1.0
 70
    24
 71
     3
 72
    10
 73
     6
 74
     0
 42
0.000000001
 43
0.00000001
 40
0.0
 40
0.0
 40
0.0
 40
0.0
 40
0.5
 40
0.5
 40
1.0
 40
1.0
 40
1.0
 40
1.0
 10
24.86602540378445
 20
2.450000000000002
 30
0.0
 10
24.86602540378445
 20
2.598512898825601
 30
0.0
 10
24.86602540378445
 20
2.771098641034912
 30
0.0
 10
24.86602540378445
 20
3.133183063362995
 30
0.0
 10
24.86602540378445
 20
3.321757025305155
 30
0.0
 10
24.86602540378445
 20
3.497041853303755
 30
0.0
  0
LINE
  5
D1
330
1F
100
AcDbEntity
  8
중심선
100
AcDbLine
 10
-38.13397459621553
 20
-0.0000000000000044
 30
0.0
 11
27.86602540378446
 21
-0.0000000000000044
 31
0.0
  0
CIRCLE
  5
D2
330
1F
100
AcDbEntity
  8
외형선
100
AcDbCircle
 10
0.0
 20
0.0
 30
0.0
 40
3.000000000000004
  0
INSERT
  5
D3
330
1F
100
AcDbEntity
  8
0
  6
Continuous
 62
     7
100
AcDbBlockReference
 66
     1
  2
블럭10
 10
-29.07224803572716
 20
-52.04717430164393
 30
0.0
  0
ATTRIB
  5
D4
330
D3
100
AcDbEntity
  8
FORMAT
 62
     2
100
AcDbText
 10
-42.03218723058493
 20
-49.97180738881174
 30
0.0
 40
4.233333333333333
  1
SEME35070E [ 2 FLUTE ]
 41
0.75
  7
SLDTEXTSTYLE0
 11
-42.03218723058493
 21
-52.08847405547841
 31
0.0
100
AcDbAttribute
  2
AUTOATTR0
 70
     0
 74
     1
  0
SEQEND
  5
D5
330
D3
100
AcDbEntity
  8
0
  6
Continuous
 62
     7
  0
HATCH
  5
D6
330
1F
100
AcDbEntity
  8
중심선
100
AcDbHatch
 10
0.0
 20
0.0
 30
0.0
210
0.0
220
0.0
230
1.0
  2
SOLID
 70
     1
 71
     0
 91
        1
 92
        0
 93
        4
 72
     1
 10
-23.35733873134632
 20
-35.8
 11
-26.80361397518359
 21
-35.8
 72
     1
 10
-26.80361397518359
 20
-35.8
 11
-28.93184383438762
 21
-38.33632558057259
 72
     1
 10
-28.93184383438761
 20
-38.33632558057259
 11
-25.48553550543718
 21
-38.3362861512701
 72
     1
 10
-25.48553550543718
 20
-38.3362861512701
 11
-23.35733873134631
 21
-35.8
 97
        0
 75
     0
 76
     1
 98
        1
 10
-5.133974596215552
 20
-0.0000000000000009
  0
HATCH
  5
D7
330
1F
100
AcDbEntity
  8
중심선
100
AcDbHatch
 10
0.0
 20
0.0
 30
0.0
210
0.0
220
0.0
230
1.0
  2
SOLID
 70
     1
 71
     0
 91
        1
 92
        0
 93
        4
 72
     1
 10
-18.34457474031036
 20
-35.8
 11
-21.79084998414764
 21
-35.8
 72
     1
 10
-21.79084998414764
 20
-35.8
 11
-26.32198799250503
 21
-41.20000000000002
 72
     1
 10
-26.32198799250504
 20
-41.20000000000002
 11
-22.87571274866776
 21
-41.20000000000002
 72
     1
 10
-22.87571274866774
 20
-41.20000000000002
 11
-18.34457474031036
 21
-35.8
 97
        0
 75
     0
 76
     1
 98
        1
 10
-5.133974596215552
 20
-0.0000000000000009
  0
HATCH
  5
D8
330
1F
100
AcDbEntity
  8
중심선
100
AcDbHatch
 10
0.0
 20
0.0
 30
0.0
210
0.0
220
0.0
230
1.0
  2
SOLID
 70
     1
 71
     0
 91
        1
 92
        0
 93
        4
 72
     1
 10
-13.33181074927447
 20
-35.80000000000003
 11
-16.77808599311158
 21
-35.8
 72
     1
 10
-16.77808599311158
 20
-35.8
 11
-23.82652289500082
 21
-44.20000000000002
 72
     1
 10
-23.82652289500083
 20
-44.20000000000002
 11
-20.38024765116355
 21
-44.20000000000002
 72
     1
 10
-20.38024765116354
 20
-44.20000000000002
 11
-13.33181074927446
 21
-35.80000000000003
 97
        0
 75
     0
 76
     1
 98
        1
 10
-5.133974596215552
 20
-0.0000000000000009
  0
HATCH
  5
D9
330
1F
100
AcDbEntity
  8
중심선
100
AcDbHatch
 10
0.0
 20
0.0
 30
0.0
210
0.0
220
0.0
230
1.0
  2
SOLID
 70
     1
 71
     0
 91
        1
 92
        0
 93
        6
 72
     3
 10
-8.531920318262264
 20
-40.00000000005127
 11
3.960054785062284
 21
1.540882976769353E-10
 40
0.3939339440162627
 50
17.09539180608439
 51
320.0019657685078
 73
     0
 72
     1
 10
-6.848920662561669
 20
-38.5878940046383
 11
-4.543618788860631
 21
-36.65356729459038
 72
     3
 10
-8.531920318315114
 20
-40.00000000000015
 11
6.600054785286829
 21
-1.278976924368180E-13
 40
0.636358354079598
 50
39.99873849337411
 51
368.4976242363724
 73
     1
 72
     1
 10
-2.106587826414502
 20
-39.03999999993002
 11
-9.851853011479184
 21
-39.03999999992999
 72
     1
 10
-9.851853011479184
 20
-39.03999999992999
 11
-9.851878055925125
 21
-40.95999999992991
 72
     1
 10
-9.851878055925125
 20
-40.95999999992991
 11
-5.410498286453087
 21
-40.95999999992988
 97
        0
 75
     0
 76
     1
 98
        1
 10
-5.133974596215552
 20
-0.0000000000000009
  0
DIMENSION
  5
DA
330
1F
100
AcDbEntity
  8
치수문자_일반주서
100
AcDbDimension
  2
_D
 10
4.866025403784443
 20
15.74767574188154
 30
0.0
 11
14.86602540378444
 21
15.74767574188154
 31
0.0
 70
   160
  1
<>
 71
     2
 42
20.00000000000001
  3
SLDDIMSTYLE0
100
AcDbAlignedDimension
 13
24.86602540378445
 23
3.497041853303755
 33
0.0
 14
4.866025403784443
 24
2.419683245928787
 34
0.0
100
AcDbRotatedDimension
  0
DIMENSION
  5
E5
330
1F
100
AcDbEntity
  8
치수문자_일반주서
100
AcDbDimension
  2
_D_1
 10
-35.13397459621555
 20
25.23415911661226
 30
0.0
 11
-5.133974596215547
 21
25.23415911661226
 31
0.0
 70
   160
  1
<>
 71
     2
 42
60.0
  3
SLDDIMSTYLE1
100
AcDbAlignedDimension
 13
24.86602540378445
 23
3.497041853303755
 33
0.0
 14
-35.13397459621555
 24
3.189999999999996
 34
0.0
 50
0.0000000000000068
100
AcDbRotatedDimension
  0
DIMENSION
  5
F0
330
1F
100
AcDbEntity
  8
치수문자_일반주서
100
AcDbDimension
  2
_D_2
 10
40.43221571603073
 20
-3.497041853303697
 30
0.0
 11
40.43221571603073
 21
-0.0000000000000001
 31
0.0
 70
   160
  1
%%c<>
 71
     2
 42
6.999083706607509
 52
-270.0
  3
SLDDIMSTYLE0
100
AcDbAlignedDimension
 13
24.86602540378445
 23
3.502041853303755
 33
0.0
 14
24.86602540378445
 24
-3.497041853303754
 34
0.0
 50
90.0000000000002
100
AcDbRotatedDimension
  0
DIMENSION
  5
FD
330
1F
100
AcDbEntity
  8
치수문자_일반주서
100
AcDbDimension
  2
_D_3
 10
-46.74353404160408
 20
-4.000000000000049
 30
0.0
 11
-46.74353404160409
 21
-0.0000000000000021
 31
0.0
 70
   160
  1
%%c<>
 71
     2
 42
7.999999999999998
 52
-270.0
  3
SLDDIMSTYLE0
100
AcDbAlignedDimension
 13
-34.32397459621555
 23
3.999999999999996
 33
0.0
 14
-34.32397459621555
 24
-4.000000000000003
 34
0.0
 50
90.0000000000002
100
AcDbRotatedDimension
  0
INSERT
  5
110
330
1F
100
AcDbEntity
  8
외형선
100
AcDbBlockReference
  2
SW_DOWELSYMBOL_0
 10
0.0
 20
0.0
 30
0.0
  0
ENDSEC
  0
SECTION
  2
OBJECTS
  0
DICTIONARY
  5
C
330
0
100
AcDbDictionary
281
     1
  3
ACAD_GROUP
350
D
  3
ACAD_LAYOUT
350
1A
  3
ACAD_MLINESTYLE
350
17
  3
ACAD_PLOTSETTINGS
350
19
  3
ACAD_PLOTSTYLENAME
350
E
  3
ACAD_SCALELIST
350
47
  3
APPDATA
350
132
  3
DWGPROPS
350
161
  0
DICTIONARY
  5
D
102
{ACAD_REACTORS
330
C
102
}
330
C
100
AcDbDictionary
281
     1
  0
DICTIONARY
  5
1A
102
{ACAD_REACTORS
330
C
102
}
330
C
100
AcDbDictionary
281
     1
  3
Layout1
350
1E
  3
Layout2
350
26
  3
Model
350
22
  0
DICTIONARY
  5
17
102
{ACAD_REACTORS
330
C
102
}
330
C
100
AcDbDictionary
281
     1
  3
Standard
350
18
  0
DICTIONARY
  5
19
102
{ACAD_REACTORS
330
C
102
}
330
C
100
AcDbDictionary
281
     1
  0
ACDBDICTIONARYWDFLT
  5
E
102
{ACAD_REACTORS
330
C
102
}
330
C
100
AcDbDictionary
281
     1
  3
Normal
350
F
100
AcDbDictionaryWithDefault
340
F
  0
DICTIONARY
  5
47
102
{ACAD_REACTORS
330
C
102
}
330
C
100
AcDbDictionary
281
     1
  3
A0
350
48
  3
A1
350
49
  3
A2
350
4A
  3
A3
350
4B
  3
A4
350
4C
  3
A5
350
4D
  3
A6
350
4E
  3
A7
350
4F
  3
A8
350
50
  3
A9
350
51
  3
B0
350
52
  3
B1
350
53
  3
B2
350
54
  3
B3
350
55
  3
B4
350
56
  3
B5
350
57
  3
B6
350
58
  3
B7
350
59
  3
B8
350
5A
  3
B9
350
5B
  3
C0
350
5C
  3
C1
350
5D
  3
C2
350
5E
  3
C3
350
5F
  3
C4
350
60
  3
C5
350
61
  3
C6
350
62
  3
C7
350
63
  3
C8
350
64
  3
C9
350
65
  3
D0
350
66
  3
D1
350
67
  3
D2
350
68
  0
DICTIONARY
  5
132
102
{ACAD_REACTORS
330
C
102
}
330
C
100
AcDbDictionary
281
     1
  0
XRECORD
  5
161
102
{ACAD_REACTORS
330
C
102
}
330
C
100
AcDbXrecord
280
     1
  1
DWGPROPS COOKIE
  2

  3

  4

  6

  7

  8
12011908
  9

300
=
301
=
302
=
303
=
304
=
305
=
306
=
307
=
308
=
309
=
 40
0.0
 41
2458250.117069838
 42
2458264.04015375
  1

 90
        0
  0
LAYOUT
  5
1E
102
{ACAD_REACTORS
330
1A
102
}
330
1A
100
AcDbPlotSettings
  1

  2
none_device
  4

  6

 40
0.0
 41
0.0
 42
0.0
 43
0.0
 44
0.0
 45
0.0
 46
0.0
 47
0.0
 48
0.0
 49
0.0
140
0.0
141
0.0
142
1.0
143
1.0
 70
   688
 72
     1
 73
     0
 74
     5
  7

 75
    16
147
1.0
148
0.0
149
0.0
100
AcDbLayout
  1
Layout1
 70
     1
 71
     1
 10
0.0
 20
0.0
 11
420.0
 21
297.0
 12
0.0
 22
0.0
 32
0.0
 14
1.000000000000000E+20
 24
1.000000000000000E+20
 34
1.000000000000000E+20
 15
-1.000000000000000E+20
 25
-1.000000000000000E+20
 35
-1.000000000000000E+20
146
0.0
 13
0.0
 23
0.0
 33
0.0
 16
1.0
 26
0.0
 36
0.0
 17
0.0
 27
1.0
 37
0.0
 76
     0
330
1B
  0
LAYOUT
  5
26
102
{ACAD_REACTORS
330
1A
102
}
330
1A
100
AcDbPlotSettings
  1

  2
none_device
  4

  6

 40
0.0
 41
0.0
 42
0.0
 43
0.0
 44
0.0
 45
0.0
 46
0.0
 47
0.0
 48
0.0
 49
0.0
140
0.0
141
0.0
142
1.0
143
1.0
 70
   688
 72
     1
 73
     0
 74
     5
  7

 75
    16
147
1.0
148
0.0
149
0.0
100
AcDbLayout
  1
Layout2
 70
     1
 71
     2
 10
0.0
 20
0.0
 11
0.0
 21
0.0
 12
0.0
 22
0.0
 32
0.0
 14
0.0
 24
0.0
 34
0.0
 15
0.0
 25
0.0
 35
0.0
146
0.0
 13
0.0
 23
0.0
 33
0.0
 16
1.0
 26
0.0
 36
0.0
 17
0.0
 27
1.0
 37
0.0
 76
     0
330
23
  0
LAYOUT
  5
22
102
{ACAD_REACTORS
330
1A
102
}
330
1A
100
AcDbPlotSettings
  1

  2
none_device
  4
ANSI_A_(11.00_x_8.50_Inches)
  6

 40
6.35
 41
19.05
 42
6.35000508
 43
19.05000254
 44
279.4
 45
215.9
 46
132.8301049118208
 47
116.7525311667406
 48
0.0
 49
0.0
140
0.0
141
0.0
142
0.1045839601399344
143
1.0
 70
  1696
 72
     0
 73
     0
 74
     0
  7

 75
     0
147
0.0235690232323232
148
0.0
149
0.0
100
AcDbLayout
  1
Model
 70
     1
 71
     0
 10
0.0
 20
0.0
 11
420.0
 21
297.0
 12
0.0
 22
0.0
 32
0.0
 14
-51.1185340416041
 24
-49.97180738881174
 34
0.0
 15
40.98254904936406
 25
29.60915911661226
 35
0.0
146
0.0
 13
0.0
 23
0.0
 33
0.0
 16
1.0
 26
0.0
 36
0.0
 17
0.0
 27
1.0
 37
0.0
 76
     0
330
1F
331
29
  0
MLINESTYLE
  5
18
102
{ACAD_REACTORS
330
17
102
}
330
17
100
AcDbMlineStyle
  2
Standard
 70
     0
  3

 62
   256
 51
90.0
 52
90.0
 71
     2
 49
0.5
 62
   256
  6
BYLAYER
 49
-0.5
 62
   256
  6
BYLAYER
  0
ACDBPLACEHOLDER
  5
F
102
{ACAD_REACTORS
330
E
102
}
330
E
  0
SCALE
  5
48
102
{ACAD_REACTORS
330
47
102
}
330
47
100
AcDbScale
 70
     0
300
1:1
140
1.0
141
1.0
290
     1
  0
SCALE
  5
49
102
{ACAD_REACTORS
330
47
102
}
330
47
100
AcDbScale
 70
     0
300
1:2
140
1.0
141
2.0
290
     0
  0
SCALE
  5
4A
102
{ACAD_REACTORS
330
47
102
}
330
47
100
AcDbScale
 70
     0
300
1:4
140
1.0
141
4.0
290
     0
  0
SCALE
  5
4B
102
{ACAD_REACTORS
330
47
102
}
330
47
100
AcDbScale
 70
     0
300
1:5
140
1.0
141
5.0
290
     0
  0
SCALE
  5
4C
102
{ACAD_REACTORS
330
47
102
}
330
47
100
AcDbScale
 70
     0
300
1:8
140
1.0
141
8.0
290
     0
  0
SCALE
  5
4D
102
{ACAD_REACTORS
330
47
102
}
330
47
100
AcDbScale
 70
     0
300
1:10
140
1.0
141
10.0
290
     0
  0
SCALE
  5
4E
102
{ACAD_REACTORS
330
47
102
}
330
47
100
AcDbScale
 70
     0
300
1:16
140
1.0
141
16.0
290
     0
  0
SCALE
  5
4F
102
{ACAD_REACTORS
330
47
102
}
330
47
100
AcDbScale
 70
     0
300
1:20
140
1.0
141
20.0
290
     0
  0
SCALE
  5
50
102
{ACAD_REACTORS
330
47
102
}
330
47
100
AcDbScale
 70
     0
300
1:30
140
1.0
141
30.0
290
     0
  0
SCALE
  5
51
102
{ACAD_REACTORS
330
47
102
}
330
47
100
AcDbScale
 70
     0
300
1:40
140
1.0
141
40.0
290
     0
  0
SCALE
  5
52
102
{ACAD_REACTORS
330
47
102
}
330
47
100
AcDbScale
 70
     0
300
1:50
140
1.0
141
50.0
290
     0
  0
SCALE
  5
53
102
{ACAD_REACTORS
330
47
102
}
330
47
100
AcDbScale
 70
     0
300
1:100
140
1.0
141
100.0
290
     0
  0
SCALE
  5
54
102
{ACAD_REACTORS
330
47
102
}
330
47
100
AcDbScale
 70
     0
300
2:1
140
2.0
141
1.0
290
     0
  0
SCALE
  5
55
102
{ACAD_REACTORS
330
47
102
}
330
47
100
AcDbScale
 70
     0
300
4:1
140
4.0
141
1.0
290
     0
  0
SCALE
  5
56
102
{ACAD_REACTORS
330
47
102
}
330
47
100
AcDbScale
 70
     0
300
8:1
140
8.0
141
1.0
290
     0
  0
SCALE
  5
57
102
{ACAD_REACTORS
330
47
102
}
330
47
100
AcDbScale
 70
     0
300
10:1
140
10.0
141
1.0
290
     0
  0
SCALE
  5
58
102
{ACAD_REACTORS
330
47
102
}
330
47
100
AcDbScale
 70
     0
300
100:1
140
100.0
141
1.0
290
     0
  0
SCALE
  5
59
102
{ACAD_REACTORS
330
47
102
}
330
47
100
AcDbScale
 70
     0
300
1/128" = 1'-0"
140
0.0078125
141
12.0
290
     0
  0
SCALE
  5
5A
102
{ACAD_REACTORS
330
47
102
}
330
47
100
AcDbScale
 70
     0
300
1/64" = 1'-0"
140
0.015625
141
12.0
290
     0
  0
SCALE
  5
5B
102
{ACAD_REACTORS
330
47
102
}
330
47
100
AcDbScale
 70
     0
300
1/32" = 1'-0"
140
0.03125
141
12.0
290
     0
  0
SCALE
  5
5C
102
{ACAD_REACTORS
330
47
102
}
330
47
100
AcDbScale
 70
     0
300
1/16" = 1'-0"
140
0.0625
141
12.0
290
     0
  0
SCALE
  5
5D
102
{ACAD_REACTORS
330
47
102
}
330
47
100
AcDbScale
 70
     0
300
3/32" = 1'-0"
140
0.09375
141
12.0
290
     0
  0
SCALE
  5
5E
102
{ACAD_REACTORS
330
47
102
}
330
47
100
AcDbScale
 70
     0
300
1/8" = 1'-0"
140
0.125
141
12.0
290
     0
  0
SCALE
  5
5F
102
{ACAD_REACTORS
330
47
102
}
330
47
100
AcDbScale
 70
     0
300
3/16" = 1'-0"
140
0.1875
141
12.0
290
     0
  0
SCALE
  5
60
102
{ACAD_REACTORS
330
47
102
}
330
47
100
AcDbScale
 70
     0
300
1/4" = 1'-0"
140
0.25
141
12.0
290
     0
  0
SCALE
  5
61
102
{ACAD_REACTORS
330
47
102
}
330
47
100
AcDbScale
 70
     0
300
3/8" = 1'-0"
140
0.375
141
12.0
290
     0
  0
SCALE
  5
62
102
{ACAD_REACTORS
330
47
102
}
330
47
100
AcDbScale
 70
     0
300
1/2" = 1'-0"
140
0.5
141
12.0
290
     0
  0
SCALE
  5
63
102
{ACAD_REACTORS
330
47
102
}
330
47
100
AcDbScale
 70
     0
300
3/4" = 1'-0"
140
0.75
141
12.0
290
     0
  0
SCALE
  5
64
102
{ACAD_REACTORS
330
47
102
}
330
47
100
AcDbScale
 70
     0
300
1" = 1'-0"
140
1.0
141
12.0
290
     0
  0
SCALE
  5
65
102
{ACAD_REACTORS
330
47
102
}
330
47
100
AcDbScale
 70
     0
300
1-1/2" = 1'-0"
140
1.5
141
12.0
290
     0
  0
SCALE
  5
66
102
{ACAD_REACTORS
330
47
102
}
330
47
100
AcDbScale
 70
     0
300
3" = 1'-0"
140
3.0
141
12.0
290
     0
  0
SCALE
  5
67
102
{ACAD_REACTORS
330
47
102
}
330
47
100
AcDbScale
 70
     0
300
6" = 1'-0"
140
6.0
141
12.0
290
     0
  0
SCALE
  5
68
102
{ACAD_REACTORS
330
47
102
}
330
47
100
AcDbScale
 70
     0
300
1'-0" = 1'-0"
140
12.0
141
12.0
290
     0
  0
ENDSEC
  0
EOF
