  0
SECTION
  2
HEADER
  9
$ACADVER
  1
AC1015
  9
$ACADMAINTVER
 70
     6
  9
$DWGCODEPAGE
  3
ANSI_949
  9
$INSBASE
 10
0.0
 20
0.0
 30
0.0
  9
$EXTMIN
 10
-57.31154674349634
 20
-49.97180738881173
 30
0.0
  9
$EXTMAX
 10
35.04953634747187
 20
29.08415911661227
 30
0.0
  9
$LIMMIN
 10
0.0
 20
0.0
  9
$LIMMAX
 10
420.0
 20
297.0
  9
$ORTHOMODE
 70
     1
  9
$REGENMODE
 70
     1
  9
$FILLMODE
 70
     1
  9
$QTEXTMODE
 70
     0
  9
$MIRRTEXT
 70
     1
  9
$LTSCALE
 40
1.0
  9
$ATTMODE
 70
     1
  9
$TEXTSIZE
 40
3.5
  9
$TRACEWID
 40
1.0
  9
$TEXTSTYLE
  7
Standard
  9
$CLAYER
  8
0
  9
$CELTYPE
  6
ByLayer
  9
$CECOLOR
 62
   256
  9
$CELTSCALE
 40
1.0
  9
$DISPSILH
 70
     0
  9
$DIMSCALE
 40
1.0
  9
$DIMASZ
 40
3.302
  9
$DIMEXO
 40
1.0
  9
$DIMDLI
 40
3.75
  9
$DIMRND
 40
0.0
  9
$DIMDLE
 40
0.0
  9
$DIMEXE
 40
1.0
  9
$DIMTP
 40
0.0
  9
$DIMTM
 40
0.0
  9
$DIMTXT
 40
3.5
  9
$DIMCEN
 40
2.5
  9
$DIMTSZ
 40
0.0
  9
$DIMTOL
 70
     0
  9
$DIMLIM
 70
     0
  9
$DIMTIH
 70
     1
  9
$DIMTOH
 70
     1
  9
$DIMSE1
 70
     0
  9
$DIMSE2
 70
     0
  9
$DIMTAD
 70
     1
  9
$DIMZIN
 70
     0
  9
$DIMBLK
  1

  9
$DIMASO
 70
     1
  9
$DIMSHO
 70
     1
  9
$DIMPOST
  1

  9
$DIMAPOST
  1

  9
$DIMALT
 70
     0
  9
$DIMALTD
 70
     3
  9
$DIMALTF
 40
0.0393700787401575
  9
$DIMLFAC
 40
1.0
  9
$DIMTOFL
 70
     1
  9
$DIMTVP
 40
0.0
  9
$DIMTIX
 70
     0
  9
$DIMSOXD
 70
     0
  9
$DIMSAH
 70
     0
  9
$DIMBLK1
  1

  9
$DIMBLK2
  1

  9
$DIMSTYLE
  2
ISO-25
  9
$DIMCLRD
 70
     0
  9
$DIMCLRE
 70
     0
  9
$DIMCLRT
 70
     0
  9
$DIMTFAC
 40
1.0
  9
$DIMGAP
 40
1.524
  9
$DIMJUST
 70
     0
  9
$DIMSD1
 70
     0
  9
$DIMSD2
 70
     0
  9
$DIMTOLJ
 70
     0
  9
$DIMTZIN
 70
     0
  9
$DIMALTZ
 70
     0
  9
$DIMALTTZ
 70
     0
  9
$DIMUPT
 70
     0
  9
$DIMDEC
 70
     2
  9
$DIMTDEC
 70
     2
  9
$DIMALTU
 70
     2
  9
$DIMALTTD
 70
     3
  9
$DIMTXSTY
  7
Standard
  9
$DIMAUNIT
 70
     0
  9
$DIMADEC
 70
     2
  9
$DIMALTRND
 40
0.0
  9
$DIMAZIN
 70
     0
  9
$DIMDSEP
 70
    44
  9
$DIMATFIT
 70
     3
  9
$DIMFRAC
 70
     0
  9
$DIMLDRBLK
  1

  9
$DIMLUNIT
 70
     2
  9
$DIMLWD
 70
    -2
  9
$DIMLWE
 70
    -2
  9
$DIMTMOVE
 70
     0
  9
$LUNITS
 70
     2
  9
$LUPREC
 70
     2
  9
$SKETCHINC
 40
1.0
  9
$FILLETRAD
 40
10.0
  9
$AUNITS
 70
     0
  9
$AUPREC
 70
     2
  9
$MENU
  1
.
  9
$ELEVATION
 40
0.0
  9
$PELEVATION
 40
0.0
  9
$THICKNESS
 40
0.0
  9
$LIMCHECK
 70
     0
  9
$CHAMFERA
 40
0.0
  9
$CHAMFERB
 40
0.0
  9
$CHAMFERC
 40
0.0
  9
$CHAMFERD
 40
0.0
  9
$SKPOLY
 70
     0
  9
$TDCREATE
 40
2458250.491475417
  9
$TDUCREATE
 40
2458250.116475417
  9
$TDUPDATE
 40
2458264.412347813
  9
$TDUUPDATE
 40
2458264.037347813
  9
$TDINDWG
 40
0.0048087269
  9
$TDUSRTIMER
 40
0.0005956366
  9
$USRTIMER
 70
     1
  9
$ANGBASE
 50
0.0
  9
$ANGDIR
 70
     0
  9
$PDMODE
 70
     0
  9
$PDSIZE
 40
-1.0
  9
$PLINEWID
 40
0.0
  9
$SPLFRAME
 70
     0
  9
$SPLINETYPE
 70
     6
  9
$SPLINESEGS
 70
     8
  9
$HANDSEED
  5
166
  9
$SURFTAB1
 70
     6
  9
$SURFTAB2
 70
     6
  9
$SURFTYPE
 70
     6
  9
$SURFU
 70
     6
  9
$SURFV
 70
     6
  9
$UCSBASE
  2

  9
$UCSNAME
  2

  9
$UCSORG
 10
0.0
 20
0.0
 30
0.0
  9
$UCSXDIR
 10
1.0
 20
0.0
 30
0.0
  9
$UCSYDIR
 10
0.0
 20
1.0
 30
0.0
  9
$UCSORTHOREF
  2

  9
$UCSORTHOVIEW
 70
     0
  9
$UCSORGTOP
 10
0.0
 20
0.0
 30
0.0
  9
$UCSORGBOTTOM
 10
0.0
 20
0.0
 30
0.0
  9
$UCSORGLEFT
 10
0.0
 20
0.0
 30
0.0
  9
$UCSORGRIGHT
 10
0.0
 20
0.0
 30
0.0
  9
$UCSORGFRONT
 10
0.0
 20
0.0
 30
0.0
  9
$UCSORGBACK
 10
0.0
 20
0.0
 30
0.0
  9
$PUCSBASE
  2

  9
$PUCSNAME
  2

  9
$PUCSORG
 10
0.0
 20
0.0
 30
0.0
  9
$PUCSXDIR
 10
1.0
 20
0.0
 30
0.0
  9
$PUCSYDIR
 10
0.0
 20
1.0
 30
0.0
  9
$PUCSORTHOREF
  2

  9
$PUCSORTHOVIEW
 70
     0
  9
$PUCSORGTOP
 10
0.0
 20
0.0
 30
0.0
  9
$PUCSORGBOTTOM
 10
0.0
 20
0.0
 30
0.0
  9
$PUCSORGLEFT
 10
0.0
 20
0.0
 30
0.0
  9
$PUCSORGRIGHT
 10
0.0
 20
0.0
 30
0.0
  9
$PUCSORGFRONT
 10
0.0
 20
0.0
 30
0.0
  9
$PUCSORGBACK
 10
0.0
 20
0.0
 30
0.0
  9
$USERI1
 70
     0
  9
$USERI2
 70
     0
  9
$USERI3
 70
     0
  9
$USERI4
 70
     0
  9
$USERI5
 70
     0
  9
$USERR1
 40
0.0
  9
$USERR2
 40
0.0
  9
$USERR3
 40
0.0
  9
$USERR4
 40
0.0
  9
$USERR5
 40
0.0
  9
$WORLDVIEW
 70
     1
  9
$SHADEDGE
 70
     3
  9
$SHADEDIF
 70
    70
  9
$TILEMODE
 70
     1
  9
$MAXACTVP
 70
    64
  9
$PINSBASE
 10
0.0
 20
0.0
 30
0.0
  9
$PLIMCHECK
 70
     0
  9
$PEXTMIN
 10
1.000000000000000E+20
 20
1.000000000000000E+20
 30
1.000000000000000E+20
  9
$PEXTMAX
 10
-1.000000000000000E+20
 20
-1.000000000000000E+20
 30
-1.000000000000000E+20
  9
$PLIMMIN
 10
0.0
 20
0.0
  9
$PLIMMAX
 10
0.0
 20
0.0
  9
$UNITMODE
 70
     0
  9
$VISRETAIN
 70
     1
  9
$PLINEGEN
 70
     0
  9
$PSLTSCALE
 70
     1
  9
$TREEDEPTH
 70
  3020
  9
$CMLSTYLE
  2
Standard
  9
$CMLJUST
 70
     0
  9
$CMLSCALE
 40
20.0
  9
$PROXYGRAPHICS
 70
     1
  9
$MEASUREMENT
 70
     1
  9
$CELWEIGHT
370
    -1
  9
$ENDCAPS
280
     0
  9
$JOINSTYLE
280
     0
  9
$LWDISPLAY
290
     1
  9
$INSUNITS
 70
     4
  9
$HYPERLINKBASE
  1

  9
$STYLESHEET
  1

  9
$XEDIT
290
     1
  9
$CEPSNTYPE
380
     0
  9
$PSTYLEMODE
290
     1
  9
$FINGERPRINTGUID
  2
{8343E739-49B7-4A57-B029-BEDEA67F1499}
  9
$VERSIONGUID
  2
{FAEB1C32-E019-11D5-929B-00C0DF256EC4}
  9
$EXTNAMES
290
     1
  9
$PSVPSCALE
 40
0.0
  9
$OLESTARTUP
290
     0
  0
ENDSEC
  0
SECTION
  2
CLASSES
  0
CLASS
  1
ACDBDICTIONARYWDFLT
  2
AcDbDictionaryWithDefault
  3
ObjectDBX Classes
 90
        0
280
     0
281
     0
  0
CLASS
  1
VISUALSTYLE
  2
AcDbVisualStyle
  3
ObjectDBX Classes
 90
     4095
280
     0
281
     0
  0
CLASS
  1
MATERIAL
  2
AcDbMaterial
  3
ObjectDBX Classes
 90
     1153
280
     0
281
     0
  0
CLASS
  1
SCALE
  2
AcDbScale
  3
ObjectDBX Classes
 90
     1153
280
     0
281
     0
  0
CLASS
  1
SUN
  2
AcDbSun
  3
SCENEOE
 90
     1153
280
     0
281
     0
  0
CLASS
  1
ACDBPLACEHOLDER
  2
AcDbPlaceHolder
  3
ObjectDBX Classes
 90
        0
280
     0
281
     0
  0
CLASS
  1
LAYOUT
  2
AcDbLayout
  3
ObjectDBX Classes
 90
        0
280
     0
281
     0
  0
CLASS
  1
TABLESTYLE
  2
AcDbTableStyle
  3
ObjectDBX Classes
 90
     4095
280
     0
281
     0
  0
CLASS
  1
MLEADERSTYLE
  2
AcDbMLeaderStyle
  3
ACDB_MLEADERSTYLE_CLASS
 90
     4095
280
     0
281
     0
  0
ENDSEC
  0
SECTION
  2
TABLES
  0
TABLE
  2
VPORT
  5
8
330
0
100
AcDbSymbolTable
 70
     1
  0
VPORT
  5
29
330
8
100
AcDbSymbolTableRecord
100
AcDbViewportTableRecord
  2
*Active
 70
     0
 10
0.0
 20
0.0
 11
1.0
 21
1.0
 12
11.78898846363054
 22
-7.063176471605345
 13
0.0
 23
0.0
 14
10.0
 24
10.0
 15
10.0
 25
10.0
 16
0.0
 26
0.0
 36
1.0
 17
0.0
 27
0.0
 37
0.0
 40
103.6682863341877
 41
2.223011363636364
 42
50.0
 43
0.0
 44
0.0
 50
0.0
 51
0.0
 71
    16
 72
  2000
 73
     1
 74
     3
 75
     0
 76
     0
 77
     0
 78
     0
281
     0
 65
     1
110
0.0
120
0.0
130
0.0
111
1.0
121
0.0
131
0.0
112
0.0
122
1.0
132
0.0
 79
     0
146
0.0
  0
ENDTAB
  0
TABLE
  2
LTYPE
  5
5
330
0
100
AcDbSymbolTable
 70
     6
  0
LTYPE
  5
14
330
5
100
AcDbSymbolTableRecord
100
AcDbLinetypeTableRecord
  2
ByBlock
 70
     0
  3

 72
    65
 73
     0
 40
0.0
  0
LTYPE
  5
15
330
5
100
AcDbSymbolTableRecord
100
AcDbLinetypeTableRecord
  2
ByLayer
 70
     0
  3

 72
    65
 73
     0
 40
0.0
  0
LTYPE
  5
16
330
5
100
AcDbSymbolTableRecord
100
AcDbLinetypeTableRecord
  2
Continuous
 70
     0
  3
Solid line
 72
    65
 73
     0
 40
0.0
  0
LTYPE
  5
6A
330
5
100
AcDbSymbolTableRecord
100
AcDbLinetypeTableRecord
  2
HIDDEN
 70
     0
  3
Hidden __ __ __ __ __ __ __ __ __ __ __ __ __ __
 72
    65
 73
     2
 40
1.905
 49
1.27
 74
     0
 49
-0.635
 74
     0
  0
LTYPE
  5
6B
330
5
100
AcDbSymbolTableRecord
100
AcDbLinetypeTableRecord
  2
PHANTOM
 70
     0
  3
Phantom ______  __  __  ______  __  __  ______
 72
    65
 73
     6
 40
12.7
 49
6.35
 74
     0
 49
-1.27
 74
     0
 49
1.27
 74
     0
 49
-1.27
 74
     0
 49
1.27
 74
     0
 49
-1.27
 74
     0
  0
LTYPE
  5
6C
330
5
100
AcDbSymbolTableRecord
100
AcDbLinetypeTableRecord
  2
CENTER
 70
     0
  3
Center ____ _ ____ _ ____ _ ____ _ ____ _ ____
 72
    65
 73
     4
 40
10.16
 49
6.35
 74
     0
 49
-1.27
 74
     0
 49
1.27
 74
     0
 49
-1.27
 74
     0
  0
LTYPE
  5
6D
330
5
100
AcDbSymbolTableRecord
100
AcDbLinetypeTableRecord
  2
CENTERX2
 70
     0
  3
Center (2x) ________  __  ________  __  _____
 72
    65
 73
     4
 40
20.32
 49
12.7
 74
     0
 49
-2.54
 74
     0
 49
2.54
 74
     0
 49
-2.54
 74
     0
  0
LTYPE
  5
6E
330
5
100
AcDbSymbolTableRecord
100
AcDbLinetypeTableRecord
  2
DOT2
 70
     0
  3
Dot (.5x) ........................................
 72
    65
 73
     2
 40
0.635
 49
0.0
 74
     0
 49
-0.635
 74
     0
  0
ENDTAB
  0
TABLE
  2
LAYER
  5
2
330
0
100
AcDbSymbolTable
 70
    17
  0
LAYER
  5
10
330
2
100
AcDbSymbolTableRecord
100
AcDbLayerTableRecord
  2
0
 70
     0
 62
     7
  6
Continuous
370
    -3
390
F
  0
LAYER
  5
6F
330
2
100
AcDbSymbolTableRecord
100
AcDbLayerTableRecord
  2
FORMAT
 70
     0
 62
     2
  6
Continuous
370
    -3
390
F
  0
LAYER
  5
70
330
2
100
AcDbSymbolTableRecord
100
AcDbLayerTableRecord
  2
외형선
 70
     0
 62
   100
  6
Continuous
370
    30
390
F
  0
LAYER
  5
71
330
2
100
AcDbSymbolTableRecord
100
AcDbLayerTableRecord
  2
숨은선
 70
     0
 62
     2
  6
HIDDEN
370
    15
390
F
  0
LAYER
  5
72
330
2
100
AcDbSymbolTableRecord
100
AcDbLayerTableRecord
  2
중심선
 70
     0
 62
     1
  6
CENTERX2
370
    -3
390
F
  0
LAYER
  5
73
330
2
100
AcDbSymbolTableRecord
100
AcDbLayerTableRecord
  2
파단선
 70
     0
 62
     4
  6
Continuous
370
    -3
390
F
  0
LAYER
  5
74
330
2
100
AcDbSymbolTableRecord
100
AcDbLayerTableRecord
  2
해칭선
 70
     0
 62
     4
  6
Continuous
370
    -3
390
F
  0
LAYER
  5
75
330
2
100
AcDbSymbolTableRecord
100
AcDbLayerTableRecord
  2
가는실선
 70
     0
 62
     4
  6
Continuous
370
    -3
390
F
  0
LAYER
  5
76
330
2
100
AcDbSymbolTableRecord
100
AcDbLayerTableRecord
  2
치수_보조선
 70
     0
 62
     4
  6
Continuous
370
    -3
390
F
  0
LAYER
  5
77
330
2
100
AcDbSymbolTableRecord
100
AcDbLayerTableRecord
  2
치수문자_일반주서
 70
     0
 62
     7
  6
Continuous
370
    15
390
F
  0
LAYER
  5
78
330
2
100
AcDbSymbolTableRecord
100
AcDbLayerTableRecord
  2
개별주서
 70
     0
 62
   100
  6
Continuous
370
    30
390
F
  0
LAYER
  5
79
330
2
100
AcDbSymbolTableRecord
100
AcDbLayerTableRecord
  2
중간선
 70
     0
 62
     2
  6
Continuous
370
    15
390
F
  0
LAYER
  5
7A
330
2
100
AcDbSymbolTableRecord
100
AcDbLayerTableRecord
  2
윤곽선
 70
     0
 62
     3
  6
Continuous
370
    40
390
F
  0
LAYER
  5
7B
330
2
100
AcDbSymbolTableRecord
100
AcDbLayerTableRecord
  2
중심마크
 70
     0
 62
   100
  6
Continuous
370
    30
390
F
  0
LAYER
  5
7C
330
2
100
AcDbSymbolTableRecord
100
AcDbLayerTableRecord
  2
가상선
 70
     0
 62
     4
  6
PHANTOM
370
    -3
390
F
  0
LAYER
  5
7D
330
2
100
AcDbSymbolTableRecord
100
AcDbLayerTableRecord
  2
특수지정선
 70
     0
 62
     5
  6
CENTERX2
370
    60
390
F
  0
LAYER
  5
136
330
2
100
AcDbSymbolTableRecord
100
AcDbLayerTableRecord
  2
Defpoints
 70
     0
 62
     7
  6
Continuous
290
     0
370
    -3
390
F
  0
ENDTAB
  0
TABLE
  2
STYLE
  5
3
330
0
100
AcDbSymbolTable
 70
     2
  0
STYLE
  5
11
330
3
100
AcDbSymbolTableRecord
100
AcDbTextStyleTableRecord
  2
Standard
 70
     0
 40
0.0
 41
1.0
 50
0.0
 71
     0
 42
3.5
  3
txt
  4

  0
STYLE
  5
93
330
3
100
AcDbSymbolTableRecord
100
AcDbTextStyleTableRecord
  2
SLDTEXTSTYLE0
 70
     0
 40
0.0
 41
0.75
 50
0.0
 71
     0
 42
3.5
  3
TXT
  4

  0
ENDTAB
  0
TABLE
  2
VIEW
  5
6
330
0
100
AcDbSymbolTable
 70
     0
  0
ENDTAB
  0
TABLE
  2
UCS
  5
7
330
0
100
AcDbSymbolTable
 70
     0
  0
ENDTAB
  0
TABLE
  2
APPID
  5
9
330
0
100
AcDbSymbolTable
 70
     2
  0
APPID
  5
12
330
9
100
AcDbSymbolTableRecord
100
AcDbRegAppTableRecord
  2
ACAD
 70
     0
  0
APPID
  5
134
330
9
100
AcDbSymbolTableRecord
100
AcDbRegAppTableRecord
  2
PE_URL
 70
     0
  0
ENDTAB
  0
TABLE
  2
DIMSTYLE
  5
A
330
0
100
AcDbSymbolTable
 70
     4
100
AcDbDimStyleTable
  0
DIMSTYLE
105
27
330
A
100
AcDbSymbolTableRecord
100
AcDbDimStyleTableRecord
  2
ISO-25
 70
     0
 41
2.5
 42
0.625
 43
3.75
 44
1.25
 73
     0
 74
     0
 77
     1
 78
     8
140
2.5
141
2.5
143
0.03937007874016
147
0.625
171
     3
172
     1
178
     0
271
     2
272
     2
274
     3
278
    44
283
     0
284
     8
340
11
  0
DIMSTYLE
105
D9
102
{ACAD_REACTORS
330
D8
330
FE
102
}
330
A
100
AcDbSymbolTableRecord
100
AcDbDimStyleTableRecord
  2
SLDDIMSTYLE0
 70
     0
 41
3.302
 44
0.0
 45
0.000000001
 73
     0
 74
     0
 77
     1
 78
    12
 79
     3
140
3.5
147
0.875
172
     1
173
     1
178
     0
271
     2
272
     2
276
     2
284
    12
289
     0
340
93
  0
DIMSTYLE
105
E6
102
{ACAD_REACTORS
330
E5
102
}
330
A
100
AcDbSymbolTableRecord
100
AcDbDimStyleTableRecord
  2
SLDDIMSTYLE1
 70
     0
 41
3.302
 44
0.0
 45
0.000000001
 73
     0
 74
     0
 77
     1
 78
    12
 79
     3
140
3.5
147
0.875
173
     1
178
     0
271
     2
272
     2
276
     2
284
    12
340
93
  0
DIMSTYLE
105
F1
102
{ACAD_REACTORS
330
F0
102
}
330
A
100
AcDbSymbolTableRecord
100
AcDbDimStyleTableRecord
  2
SLDDIMSTYLE2
 70
     0
 41
3.302
 44
0.0
 45
0.000000001
 73
     0
 74
     0
 77
     1
 78
     4
 79
     1
140
3.5
147
0.875
172
     1
173
     1
178
     0
271
     2
272
     2
276
     2
284
    12
289
     0
340
93
  0
ENDTAB
  0
TABLE
  2
BLOCK_RECORD
  5
1
330
0
100
AcDbSymbolTable
 70
     7
  0
BLOCK_RECORD
  5
1F
330
1
100
AcDbSymbolTableRecord
100
AcDbBlockTableRecord
  2
*Model_Space
340
22
  0
BLOCK_RECORD
  5
1B
330
1
100
AcDbSymbolTableRecord
100
AcDbBlockTableRecord
  2
*Paper_Space
340
1E
  0
BLOCK_RECORD
  5
23
330
1
100
AcDbSymbolTableRecord
100
AcDbBlockTableRecord
  2
*Paper_Space0
340
26
  0
BLOCK_RECORD
  5
7E
330
1
100
AcDbSymbolTableRecord
100
AcDbBlockTableRecord
  2
블럭10
340
0
102
{BLKREFS
331
D1
102
}
  0
BLOCK_RECORD
  5
DA
330
1
100
AcDbSymbolTableRecord
100
AcDbBlockTableRecord
  2
_D
340
0
  0
BLOCK_RECORD
  5
E7
330
1
100
AcDbSymbolTableRecord
100
AcDbBlockTableRecord
  2
_D_1
340
0
  0
BLOCK_RECORD
  5
F2
330
1
100
AcDbSymbolTableRecord
100
AcDbBlockTableRecord
  2
_D_2
340
0
  0
BLOCK_RECORD
  5
FF
330
1
100
AcDbSymbolTableRecord
100
AcDbBlockTableRecord
  2
_D_3
340
0
  0
BLOCK_RECORD
  5
10B
330
1
100
AcDbSymbolTableRecord
100
AcDbBlockTableRecord
  2
SW_DOWELSYMBOL_0
340
0
102
{BLKREFS
331
111
102
}
  0
ENDTAB
  0
ENDSEC
  0
SECTION
  2
BLOCKS
  0
BLOCK
  5
20
330
1F
100
AcDbEntity
  8
0
100
AcDbBlockBegin
  2
*Model_Space
 70
     0
 10
0.0
 20
0.0
 30
0.0
  3
*Model_Space
  1

  0
ENDBLK
  5
21
330
1F
100
AcDbEntity
  8
0
100
AcDbBlockEnd
  0
BLOCK
  5
1C
330
1B
100
AcDbEntity
 67
     1
  8
0
100
AcDbBlockBegin
  2
*Paper_Space
 70
     0
 10
0.0
 20
0.0
 30
0.0
  3
*Paper_Space
  1

  0
ENDBLK
  5
1D
330
1B
100
AcDbEntity
 67
     1
  8
0
100
AcDbBlockEnd
  0
BLOCK
  5
24
330
23
100
AcDbEntity
  8
0
100
AcDbBlockBegin
  2
*Paper_Space0
 70
     0
 10
0.0
 20
0.0
 30
0.0
  3
*Paper_Space0
  1

  0
ENDBLK
  5
25
330
23
100
AcDbEntity
  8
0
100
AcDbBlockEnd
  0
BLOCK
  5
7F
330
7E
100
AcDbEntity
  8
0
100
AcDbBlockBegin
  2
블럭10
 70
     2
 10
0.0
 20
0.0
 30
0.0
  3
블럭10
  1

  0
ELLIPSE
  5
81
330
7E
100
AcDbEntity
  8
중심선
100
AcDbEllipse
 10
20.54032771741204
 20
12.0471743016438
 30
0.0
 11
6.600054785286829
 21
-1.261213355974178E-13
 31
0.0
210
0.0
220
0.0
230
1.0
 40
0.636358354079598
 41
0.9219305317359503
 42
6.513795318482858
  0
ELLIPSE
  5
82
330
7E
100
AcDbEntity
  8
중심선
100
AcDbEllipse
 10
20.54032771746488
 20
12.04717430159265
 30
0.0
 11
3.960054785062283
 21
1.540847449632565E-10
 31
0.0
210
0.0
220
0.0
230
1.0
 40
0.3939339440162632
 41
1.131841032648279
 42
5.62031148352944
  0
LINE
  5
83
330
7E
100
AcDbEntity
  8
중심선
100
AcDbLine
 10
2.268634060543552
 20
16.24717430164393
 30
0.0
 11
5.714909304380834
 21
16.24717430164393
 31
0.0
  0
LINE
  5
84
330
7E
100
AcDbEntity
  8
중심선
100
AcDbLine
 10
5.245725140726316
 20
7.84717430164391
 30
0.0
 11
8.692000384563599
 21
7.84717430164391
 31
0.0
  0
LINE
  5
85
330
7E
100
AcDbEntity
  8
중심선
100
AcDbLine
 10
15.74043728645272
 20
16.24717430164393
 30
0.0
 11
8.692000384563599
 21
7.84717430164391
 31
0.0
  0
LINE
  5
86
330
7E
100
AcDbEntity
  8
중심선
100
AcDbLine
 10
0.1404042013395286
 20
13.71084872107135
 30
0.0
 11
3.58671253028996
 21
13.71088815037384
 31
0.0
  0
LINE
  5
87
330
7E
100
AcDbEntity
  8
중심선
100
AcDbLine
 10
2.750260043222114
 20
10.84717430164391
 30
0.0
 11
6.196535287059397
 21
10.84717430164391
 31
0.0
  0
LINE
  5
88
330
7E
100
AcDbEntity
  8
중심선
100
AcDbLine
 10
12.29416204261559
 20
16.24717430164393
 30
0.0
 11
5.245725140726316
 21
7.84717430164391
 31
0.0
  0
LINE
  5
89
330
7E
100
AcDbEntity
  8
중심선
100
AcDbLine
 10
10.72767329541681
 20
16.24717430164393
 30
0.0
 11
6.196535287059397
 21
10.84717430164391
 31
0.0
  0
LINE
  5
8A
330
7E
100
AcDbEntity
  8
중심선
100
AcDbLine
 10
7.28139805157953
 20
16.24717430164393
 30
0.0
 11
2.750260043222114
 21
10.84717430164391
 31
0.0
  0
LINE
  5
8B
330
7E
100
AcDbEntity
  8
중심선
100
AcDbLine
 10
5.714909304380834
 20
16.24717430164393
 30
0.0
 11
3.58671253028996
 21
13.71088815037384
 31
0.0
  0
LINE
  5
8C
330
7E
100
AcDbEntity
  8
중심선
100
AcDbLine
 10
2.268634060543552
 20
16.24717430164393
 30
0.0
 11
0.1404042013395286
 21
13.71084872107135
 31
0.0
  0
LINE
  5
8D
330
7E
100
AcDbEntity
  8
중심선
100
AcDbLine
 10
7.28139805157953
 20
16.24717430164393
 30
0.0
 11
10.72767329541681
 21
16.24717430164393
 31
0.0
  0
LINE
  5
8E
330
7E
100
AcDbEntity
  8
중심선
100
AcDbLine
 10
12.29416204261559
 20
16.24717430164393
 30
0.0
 11
15.74043728645272
 21
16.24717430164393
 31
0.0
  0
LINE
  5
8F
330
7E
100
AcDbEntity
  8
중심선
100
AcDbLine
 10
19.22036997980202
 20
11.08717430171403
 30
0.0
 11
23.66174974927406
 21
11.08717430171406
 31
0.0
  0
LINE
  5
90
330
7E
100
AcDbEntity
  8
중심선
100
AcDbLine
 10
19.22039502424796
 20
13.00717430171391
 30
0.0
 11
19.22036997980202
 21
11.08717430171403
 31
0.0
  0
LINE
  5
91
330
7E
100
AcDbEntity
  8
중심선
100
AcDbLine
 10
19.22039502424796
 20
13.00717430171391
 30
0.0
 11
26.96566020931264
 21
13.00717430171391
 31
0.0
  0
LINE
  5
92
330
7E
100
AcDbEntity
  8
중심선
100
AcDbLine
 10
22.22332737316547
 20
13.45928029700563
 30
0.0
 11
24.52862924686651
 21
15.39360700705356
 31
0.0
  0
ATTDEF
  5
94
330
7E
100
AcDbEntity
  8
FORMAT
 62
     2
100
AcDbText
 10
-12.95993919485777
 20
2.075366912832191
 30
0.0
 40
4.233333333333333
  1
SEME35055E [ 2 FLUTE ]
 41
0.75
  7
SLDTEXTSTYLE0
 11
-12.95993919485777
 21
-0.0412997538344756
 31
0.0
100
AcDbAttributeDefinition
  3

  2
AUTOATTR0
 70
     0
 74
     1
  0
ENDBLK
  5
80
330
7E
100
AcDbEntity
  8
0
100
AcDbBlockEnd
  0
BLOCK
  5
DB
330
DA
100
AcDbEntity
  8
0
100
AcDbBlockBegin
  2
_D
 70
     0
 10
0.0
 20
0.0
 30
0.0
  3
_D
  1

  0
LINE
  5
DD
330
DA
100
AcDbEntity
  8
치수문자_일반주서
 62
     0
370
    -2
100
AcDbLine
 10
18.93301270189221
 20
2.810175741881527
 30
0.0
 11
18.93301270189221
 21
14.9983096304593
 31
0.0
  0
LINE
  5
DE
330
DA
100
AcDbEntity
  8
치수문자_일반주서
 62
     0
370
    -2
100
AcDbLine
 10
3.933012701892203
 20
1.987443841114422
 30
0.0
 11
3.933012701892203
 21
14.9983096304593
 31
0.0
  0
LINE
  5
DF
330
DA
100
AcDbEntity
  8
치수문자_일반주서
 62
     0
370
    -2
100
AcDbLine
 10
15.63101270189221
 20
14.9983096304593
 30
0.0
 11
7.235012701892202
 21
14.9983096304593
 31
0.0
  0
SOLID
  5
E0
330
DA
100
AcDbEntity
  8
치수문자_일반주서
 62
     0
100
AcDbTrace
 10
15.63101270189221
 20
14.44797629712597
 30
0.0
 11
15.63101270189221
 21
15.54864296379264
 31
0.0
 12
18.93301270189221
 22
14.9983096304593
 32
0.0
 13
18.93301270189221
 23
14.9983096304593
 33
0.0
  0
SOLID
  5
E1
330
DA
100
AcDbEntity
  8
치수문자_일반주서
 62
     0
100
AcDbTrace
 10
7.235012701892202
 20
15.54864296379264
 30
0.0
 11
7.235012701892202
 21
14.44797629712597
 31
0.0
 12
3.933012701892203
 22
14.9983096304593
 32
0.0
 13
3.933012701892203
 23
14.9983096304593
 33
0.0
  0
MTEXT
  5
E2
330
DA
100
AcDbEntity
  8
치수문자_일반주서
 62
     0
100
AcDbMText
 10
11.4330127018922
 20
19.3733096304593
 30
0.0
 40
3.5
 41
0.0
 71
     2
 72
     1
  1
\A1;15
  7
SLDTEXTSTYLE0
 73
     1
 44
1.0
  0
POINT
  5
E3
330
DA
100
AcDbEntity
  8
Defpoints
 62
     0
100
AcDbPoint
 10
18.93301270189221
 20
2.747675741881527
 30
0.0
  0
POINT
  5
E4
330
DA
100
AcDbEntity
  8
Defpoints
 62
     0
100
AcDbPoint
 10
3.933012701892203
 20
1.924943841114422
 30
0.0
  0
POINT
  5
13A
330
DA
100
AcDbEntity
  8
Defpoints
 62
     0
100
AcDbPoint
 10
3.933012701892203
 20
14.9983096304593
 30
0.0
  0
ENDBLK
  5
DC
330
DA
100
AcDbEntity
  8
0
100
AcDbBlockEnd
  0
BLOCK
  5
E8
330
E7
100
AcDbEntity
  8
0
100
AcDbBlockBegin
  2
_D_1
 70
     0
 10
0.0
 20
0.0
 30
0.0
  3
_D_1
  1

  0
LINE
  5
EA
330
E7
100
AcDbEntity
  8
치수문자_일반주서
 62
     0
370
    -2
100
AcDbLine
 10
18.93301270189221
 20
1.987500000000004
 30
0.0
 11
18.93301270189221
 21
24.70915911661226
 31
0.0
  0
LINE
  5
EB
330
E7
100
AcDbEntity
  8
치수문자_일반주서
 62
     0
370
    -2
100
AcDbLine
 10
-41.06698729810779
 20
2.512499999999998
 30
0.0
 11
-41.06698729810779
 21
24.70915911661226
 31
0.0
  0
LINE
  5
EC
330
E7
100
AcDbEntity
  8
치수문자_일반주서
 62
     0
370
    -2
100
AcDbLine
 10
15.63101270189221
 20
24.70915911661226
 30
0.0
 11
-37.76498729810779
 21
24.70915911661226
 31
0.0
  0
SOLID
  5
ED
330
E7
100
AcDbEntity
  8
치수문자_일반주서
 62
     0
100
AcDbTrace
 10
15.63101270189221
 20
24.15882578327893
 30
0.0
 11
15.63101270189221
 21
25.2594924499456
 31
0.0
 12
18.93301270189221
 22
24.70915911661226
 32
0.0
 13
18.93301270189221
 23
24.70915911661226
 33
0.0
  0
SOLID
  5
EE
330
E7
100
AcDbEntity
  8
치수문자_일반주서
 62
     0
100
AcDbTrace
 10
-37.76498729810779
 20
25.2594924499456
 30
0.0
 11
-37.76498729810779
 21
24.15882578327893
 31
0.0
 12
-41.06698729810779
 22
24.70915911661226
 32
0.0
 13
-41.06698729810779
 23
24.70915911661226
 33
0.0
  0
MTEXT
  5
EF
330
E7
100
AcDbEntity
  8
치수문자_일반주서
 62
     0
100
AcDbMText
 10
-11.06698729810779
 20
29.08415911661226
 30
0.0
 40
3.5
 41
0.0
 71
     2
 72
     1
  1
\A1;60
  7
SLDTEXTSTYLE0
 73
     1
 44
1.0
  0
POINT
  5
13B
330
E7
100
AcDbEntity
  8
Defpoints
 62
     0
100
AcDbPoint
 10
18.93301270189221
 20
1.925000000000004
 30
0.0
  0
POINT
  5
13C
330
E7
100
AcDbEntity
  8
Defpoints
 62
     0
100
AcDbPoint
 10
-41.06698729810779
 20
2.449999999999998
 30
0.0
  0
POINT
  5
13D
330
E7
100
AcDbEntity
  8
Defpoints
 62
     0
100
AcDbPoint
 10
-41.06698729810779
 20
24.70915911661226
 30
0.0
  0
ENDBLK
  5
E9
330
E7
100
AcDbEntity
  8
0
100
AcDbBlockEnd
  0
BLOCK
  5
F3
330
F2
100
AcDbEntity
  8
0
100
AcDbBlockBegin
  2
_D_2
 70
     0
 10
0.0
 20
0.0
 30
0.0
  3
_D_2
  1

  0
LINE
  5
F5
330
F2
100
AcDbEntity
  8
치수문자_일반주서
 62
     0
370
    -2
100
AcDbLine
 10
18.99551270189221
 20
2.747675741881528
 30
0.0
 11
34.49920301413849
 21
2.747675741881586
 31
0.0
  0
LINE
  5
F6
330
F2
100
AcDbEntity
  8
치수문자_일반주서
 62
     0
370
    -2
100
AcDbLine
 10
18.99551270189221
 20
-2.747675741881518
 30
0.0
 11
34.49920301413852
 21
-2.74767574188146
 31
0.0
  0
LINE
  5
F7
330
F2
100
AcDbEntity
  8
치수문자_일반주서
 62
     0
370
    -2
100
AcDbLine
 10
34.49920301413849
 20
2.747675741881586
 30
0.0
 11
34.49920301413842
 21
21.16417574188159
 31
0.0
  0
LINE
  5
F8
330
F2
100
AcDbEntity
  8
치수문자_일반주서
 62
     0
370
    -2
100
AcDbLine
 10
34.49920301413849
 20
2.747675741881586
 30
0.0
 11
34.49920301413852
 21
-2.74767574188146
 31
0.0
  0
LINE
  5
F9
330
F2
100
AcDbEntity
  8
치수문자_일반주서
 62
     0
370
    -2
100
AcDbLine
 10
34.49920301413848
 20
6.049675741881586
 30
0.0
 11
34.49920301413847
 21
9.351675741881586
 31
0.0
  0
LINE
  5
FA
330
F2
100
AcDbEntity
  8
치수문자_일반주서
 62
     0
370
    -2
100
AcDbLine
 10
34.49920301413853
 20
-6.04967574188146
 30
0.0
 11
34.49920301413854
 21
-9.35167574188146
 31
0.0
  0
SOLID
  5
FB
330
F2
100
AcDbEntity
  8
치수문자_일반주서
 62
     0
100
AcDbTrace
 10
33.94886968080515
 20
6.049675741881584
 30
0.0
 11
35.04953634747181
 21
6.049675741881588
 31
0.0
 12
34.49920301413849
 22
2.747675741881586
 32
0.0
 13
34.49920301413849
 23
2.747675741881586
 33
0.0
  0
SOLID
  5
FC
330
F2
100
AcDbEntity
  8
치수문자_일반주서
 62
     0
100
AcDbTrace
 10
35.04953634747186
 20
-6.049675741881458
 30
0.0
 11
33.9488696808052
 21
-6.049675741881462
 31
0.0
 12
34.49920301413852
 22
-2.74767574188146
 32
0.0
 13
34.49920301413852
 23
-2.74767574188146
 33
0.0
  0
MTEXT
  5
FD
330
F2
100
AcDbEntity
  8
치수문자_일반주서
 62
     0
100
AcDbMText
 10
30.12420301413844
 20
15.25792574188157
 30
0.0
 40
3.5
 41
0.0
 71
     2
 72
     1
  1
\A1;%%c5.50
  7
SLDTEXTSTYLE0
 11
-3.878966092666793E-15
 21
1.0
 31
0.0
 73
     1
 44
1.0
  0
POINT
  5
137
330
F2
100
AcDbEntity
  8
Defpoints
 62
     0
100
AcDbPoint
 10
18.93301270189221
 20
2.747675741881527
 30
0.0
  0
POINT
  5
138
330
F2
100
AcDbEntity
  8
Defpoints
 62
     0
100
AcDbPoint
 10
18.93301270189221
 20
-2.747675741881519
 30
0.0
  0
POINT
  5
139
330
F2
100
AcDbEntity
  8
Defpoints
 62
     0
100
AcDbPoint
 10
34.49920301413852
 20
-2.74767574188146
 30
0.0
  0
ENDBLK
  5
F4
330
F2
100
AcDbEntity
  8
0
100
AcDbBlockEnd
  0
BLOCK
  5
100
330
FF
100
AcDbEntity
  8
0
100
AcDbBlockBegin
  2
_D_3
 70
     0
 10
0.0
 20
0.0
 30
0.0
  3
_D_3
  1

  0
LINE
  5
102
330
FF
100
AcDbEntity
  8
치수문자_일반주서
 62
     0
370
    -2
100
AcDbLine
 10
-40.57948729810779
 20
2.999999999999999
 30
0.0
 11
-52.93654674349634
 21
2.999999999999953
 31
0.0
  0
LINE
  5
103
330
FF
100
AcDbEntity
  8
치수문자_일반주서
 62
     0
370
    -2
100
AcDbLine
 10
-40.57948729810779
 20
-2.999999999999998
 30
0.0
 11
-52.93654674349632
 21
-3.000000000000044
 31
0.0
  0
LINE
  5
104
330
FF
100
AcDbEntity
  8
치수문자_일반주서
 62
     0
370
    -2
100
AcDbLine
 10
-52.93654674349632
 20
-0.3020000000000467
 30
0.0
 11
-52.93654674349633
 21
0.3019999999999561
 31
0.0
  0
SOLID
  5
105
330
FF
100
AcDbEntity
  8
치수문자_일반주서
 62
     0
100
AcDbTrace
 10
-52.38621341016299
 20
-0.3020000000000447
 30
0.0
 11
-53.48688007682966
 21
-0.3020000000000486
 31
0.0
 12
-52.93654674349634
 22
2.999999999999953
 32
0.0
 13
-52.93654674349634
 23
2.999999999999953
 33
0.0
  0
SOLID
  5
106
330
FF
100
AcDbEntity
  8
치수문자_일반주서
 62
     0
100
AcDbTrace
 10
-53.48688007682966
 20
0.3019999999999541
 30
0.0
 11
-52.38621341016299
 21
0.301999999999958
 31
0.0
 12
-52.93654674349632
 22
-3.000000000000044
 32
0.0
 13
-52.93654674349632
 23
-3.000000000000044
 33
0.0
  0
MTEXT
  5
107
330
FF
100
AcDbEntity
  8
치수문자_일반주서
 62
     0
100
AcDbMText
 10
-57.31154674349633
 20
-0.0000000000000147
 30
0.0
 40
3.5
 41
0.0
 71
     2
 72
     1
  1
\A1;%%c6
  7
SLDTEXTSTYLE0
 11
-3.552713678800503E-15
 21
1.0
 31
0.0
 73
     1
 44
1.0
  0
POINT
  5
108
330
FF
100
AcDbEntity
  8
Defpoints
 62
     0
100
AcDbPoint
 10
-40.51698729810779
 20
3.0
 30
0.0
  0
POINT
  5
109
330
FF
100
AcDbEntity
  8
Defpoints
 62
     0
100
AcDbPoint
 10
-40.51698729810779
 20
-2.999999999999998
 30
0.0
  0
POINT
  5
10A
330
FF
100
AcDbEntity
  8
Defpoints
 62
     0
100
AcDbPoint
 10
-52.93654674349632
 20
-3.000000000000044
 30
0.0
  0
ENDBLK
  5
101
330
FF
100
AcDbEntity
  8
0
100
AcDbBlockEnd
  0
BLOCK
  5
10C
330
10B
100
AcDbEntity
  8
0
100
AcDbBlockBegin
  2
SW_DOWELSYMBOL_0
 70
     0
 10
0.0
 20
0.0
 30
0.0
  3
SW_DOWELSYMBOL_0
  1

  0
CIRCLE
  5
10E
330
10B
100
AcDbEntity
  8
외형선
 62
     0
100
AcDbCircle
 10
0.0
 20
0.0
 30
0.0
 40
3.000000000000004
  0
HATCH
  5
10F
330
10B
100
AcDbEntity
  8
0
  6
Continuous
 62
     0
370
    30
100
AcDbHatch
 10
0.0
 20
0.0
 30
0.0
210
0.0
220
0.0
230
1.0
  2
SOLID
 70
     1
 71
     0
 91
        1
 92
        0
 93
        3
 72
     2
 10
0.0000000000000087
 20
-0.0000000000000035
 40
3.000000000000004
 50
0.0
 51
90.0
 73
     1
 72
     1
 10
0.0000000000000087
 20
3.000000000000001
 11
0.0000000000000087
 21
-0.0000000000000036
 72
     1
 10
0.0000000000000087
 20
-0.0000000000000035
 11
3.000000000000013
 21
-0.0000000000000035
 97
        0
 75
     0
 76
     1
 98
        1
 10
0.0
 20
0.0
  0
HATCH
  5
110
330
10B
100
AcDbEntity
  8
0
  6
Continuous
 62
     0
370
    30
100
AcDbHatch
 10
0.0
 20
0.0
 30
0.0
210
0.0
220
0.0
230
1.0
  2
SOLID
 70
     1
 71
     0
 91
        1
 92
        0
 93
        3
 72
     2
 10
0.0000000000000087
 20
-0.0000000000000035
 40
3.000000000000004
 50
180.0
 51
270.0000000000007
 73
     1
 72
     1
 10
0.0000000000000087
 20
-3.000000000000008
 11
0.0000000000000087
 21
-0.0000000000000036
 72
     1
 10
0.0000000000000087
 20
-0.0000000000000035
 11
-2.999999999999996
 21
-0.0000000000000035
 97
        0
 75
     0
 76
     1
 98
        1
 10
0.0
 20
0.0
  0
ENDBLK
  5
10D
330
10B
100
AcDbEntity
  8
0
100
AcDbBlockEnd
  0
ENDSEC
  0
SECTION
  2
ENTITIES
  0
LINE
  5
95
330
1F
100
AcDbEntity
  8
0
  6
Continuous
 62
     4
370
    15
100
AcDbLine
 10
1.999999999999991
 20
3.000000000000001
 30
0.0
 11
-40.51698729810779
 21
3.0
 31
0.0
  0
LINE
  5
96
330
1F
100
AcDbEntity
  8
0
  6
Continuous
 62
     4
370
    15
100
AcDbLine
 10
-40.51698729810779
 20
-2.999999999999998
 30
0.0
 11
1.999999999999991
 21
-2.999999999999995
 31
0.0
  0
LINE
  5
97
330
1F
100
AcDbEntity
  8
0
  6
Continuous
 62
     4
370
    15
100
AcDbLine
 10
1.999999999999991
 20
-2.999999999999996
 30
0.0
 11
2.93301270189221
 21
-2.749999999999996
 31
0.0
  0
LINE
  5
98
330
1F
100
AcDbEntity
  8
0
  6
Continuous
 62
     4
370
    15
100
AcDbLine
 10
2.93301270189221
 20
2.750000000000004
 30
0.0
 11
1.999999999999991
 21
3.000000000000004
 31
0.0
  0
LINE
  5
99
330
1F
100
AcDbEntity
  8
0
  6
Continuous
 62
     4
370
    15
100
AcDbLine
 10
-40.51698729810779
 20
2.999999999999997
 30
0.0
 11
-41.06698729810779
 21
2.449999999999998
 31
0.0
  0
LINE
  5
9A
330
1F
100
AcDbEntity
  8
0
  6
Continuous
 62
     4
370
    15
100
AcDbLine
 10
-41.06698729810779
 20
-2.449999999999996
 30
0.0
 11
-40.51698729810779
 21
-2.999999999999996
 31
0.0
  0
LINE
  5
9B
330
1F
100
AcDbEntity
  8
0
  6
Continuous
 62
     4
370
    15
100
AcDbLine
 10
3.042910812264241
 20
2.750000000000004
 30
0.0
 11
2.93301270189221
 21
2.750000000000004
 31
0.0
1001
PE_URL
1000

  0
LINE
  5
9C
330
1F
100
AcDbEntity
  8
0
  6
Continuous
 62
     4
370
    15
100
AcDbLine
 10
2.93301270189221
 20
-2.749999999999996
 30
0.0
 11
3.042910812264241
 21
-2.749999999999996
 31
0.0
1001
PE_URL
1000

  0
LINE
  5
9D
330
1F
100
AcDbEntity
  8
0
  6
Continuous
 62
     1
370
    15
100
AcDbLine
 10
11.06470870722011
 20
1.07595266254692
 30
0.0
 11
11.04463149619634
 21
1.086286743495317
 31
0.0
  0
SPLINE
  5
9E
330
1F
100
AcDbEntity
  8
0
  6
Continuous
 62
     1
370
    15
100
AcDbSpline
210
0.0
220
0.0
230
1.0
 70
     8
 71
     3
 72
     9
 73
     5
 74
     0
 42
0.000000001
 43
0.00000001
 40
0.0
 40
0.0
 40
0.0
 40
0.0
 40
0.5106853138634663
 40
1.0
 40
1.0
 40
1.0
 40
1.0
 10
11.80930944410833
 20
0.7046593911766449
 30
0.0
 10
11.68216041024362
 20
0.7650982819729916
 30
0.0
 10
11.43318314300484
 20
0.8834468797407852
 30
0.0
 10
11.18577106870334
 20
1.012704842881885
 30
0.0
 10
11.06470870722011
 20
1.07595266254692
 30
0.0
  0
LINE
  5
9F
330
1F
100
AcDbEntity
  8
0
  6
Continuous
 62
     1
370
    15
100
AcDbLine
 10
5.498327509242708
 20
2.750000000000004
 30
0.0
 11
4.16509340317344
 21
2.750000000000004
 31
0.0
  0
SPLINE
  5
A0
330
1F
100
AcDbEntity
  8
0
  6
Continuous
 62
     1
370
    15
100
AcDbSpline
210
0.0
220
0.0
230
1.0
 70
     8
 71
     3
 72
    13
 73
     9
 74
     0
 42
0.000000001
 43
0.00000001
 40
0.0
 40
0.0
 40
0.0
 40
0.0
 40
0.2079139180056549
 40
0.3573535674910548
 40
0.4604812318902197
 40
0.5645878969167462
 40
0.9031449687003309
 40
1.0
 40
1.0
 40
1.0
 40
1.0
 10
10.89871252085213
 20
2.18525712860376
 30
0.0
 10
10.74110607574443
 20
2.177580938933895
 30
0.0
 10
10.4702188453028
 20
2.164387431786436
 30
0.0
 10
10.12228471540828
 20
2.154606166012082
 30
0.0
 10
9.855432658321977
 20
2.149698285223871
 30
0.0
 10
9.444444571367153
 20
2.146061358870762
 30
0.0
 10
9.037108904721435
 20
2.148507114951165
 30
0.0
 10
8.708552320397226
 20
2.160446432292666
 30
0.0
 10
8.635466712456859
 20
2.163102267871465
 30
0.0
  0
SPLINE
  5
A1
330
1F
100
AcDbEntity
  8
0
  6
Continuous
 62
     1
370
    15
100
AcDbSpline
210
0.0
220
0.0
230
1.0
 70
     8
 71
     3
 72
    18
 73
    14
 74
     0
 42
0.000000001
 43
0.00000001
 40
0.0
 40
0.0
 40
0.0
 40
0.0
 40
0.1215761597739367
 40
0.2068503498406127
 40
0.2633347692360234
 40
0.3198873306537915
 40
0.505799536933491
 40
0.6239881270974721
 40
0.7400493848227065
 40
0.7832168990293212
 40
0.8354942685228774
 40
0.9079662687648632
 40
1.0
 40
1.0
 40
1.0
 40
1.0
 10
6.762806679215972
 20
-2.28838503615555
 30
0.0
 10
6.931134864425196
 20
-2.272294869499476
 30
0.0
 10
7.217529368605191
 20
-2.244918971066828
 30
0.0
 10
7.581182800305216
 20
-2.217313313993174
 30
0.0
 10
7.852399257847686
 20
-2.199242397921127
 30
0.0
 10
8.263513808567838
 20
-2.175166476163801
 30
0.0
 10
8.76151617507451
 20
-2.155568042701148
 30
0.0
 10
9.340585371295457
 20
-2.146561718723495
 30
0.0
 10
9.723417171799676
 20
-2.147865402085841
 30
0.0
 10
10.01295368584856
 20
-2.152451498301655
 30
0.0
 10
10.24366849694129
 20
-2.157865091126399
 30
0.0
 10
10.54327806866354
 20
-2.167613296230912
 30
0.0
 10
10.77120013543358
 20
-2.1789273900544
 30
0.0
 10
10.89871252085213
 20
-2.185257128603752
 30
0.0
  0
SPLINE
  5
A2
330
1F
100
AcDbEntity
  8
0
  6
Continuous
 62
     1
370
    15
100
AcDbSpline
210
0.0
220
0.0
230
1.0
 70
     8
 71
     3
 72
    14
 73
    10
 74
     0
 42
0.000000001
 43
0.00000001
 40
0.0
 40
0.0
 40
0.0
 40
0.0
 40
0.2098896354690468
 40
0.3755107323019966
 40
0.4970042200638971
 40
0.629932457518159
 40
0.7558818479033084
 40
0.8865593721917461
 40
1.0
 40
1.0
 40
1.0
 40
1.0
 10
13.10804301518368
 20
-2.068350812418314
 30
0.0
 10
13.25136697545653
 20
-2.046480848688238
 30
0.0
 10
13.50778595087763
 20
-2.0073535898441
 30
0.0
 10
13.84631206908176
 20
-1.963229101149832
 30
0.0
 10
14.13234253649941
 20
-1.929788303469927
 30
0.0
 10
14.39152054691256
 20
-1.902738089915845
 30
0.0
 10
14.65700850855155
 20
-1.878531089439188
 30
0.0
 10
14.90897377302579
 20
-1.858336028194052
 30
0.0
 10
15.07535688331208
 20
-1.848141586297499
 30
0.0
 10
15.15267438029236
 20
-1.843404274143662
 30
0.0
  0
SPLINE
  5
A3
330
1F
100
AcDbEntity
  8
0
  6
Continuous
 62
     1
370
    15
100
AcDbSpline
210
0.0
220
0.0
230
1.0
 70
     8
 71
     3
 72
    21
 73
    17
 74
     0
 42
0.000000001
 43
0.00000001
 40
0.0
 40
0.0
 40
0.0
 40
0.0
 40
0.0898287610922093
 40
0.1563895689051961
 40
0.2017619833330144
 40
0.2432982442831399
 40
0.2847449414926476
 40
0.3677868168415742
 40
0.4587816809964086
 40
0.5471003164219534
 40
0.636207065673459
 40
0.7166099187237964
 40
0.7594982107671873
 40
0.818380588095515
 40
0.8986407270052468
 40
1.0
 40
1.0
 40
1.0
 40
1.0
 10
17.9260306107792
 20
1.882213754379772
 30
0.0
 10
17.78091166760187
 20
1.870483988468626
 30
0.0
 10
17.52826330990956
 20
1.850062766892167
 30
0.0
 10
17.20350178612068
 20
1.832159038442709
 30
0.0
 10
16.95783689259604
 20
1.821831642097109
 30
0.0
 10
16.75216341089412
 20
1.815496861585987
 30
0.0
 10
16.48550898746545
 20
1.810078189583131
 30
0.0
 10
16.13986843179284
 20
1.808580340322288
 30
0.0
 10
15.71885056169396
 20
1.816284904368618
 30
0.0
 10
15.28783425394446
 20
1.833923267158466
 30
0.0
 10
14.87421735174476
 20
1.860246747582933
 30
0.0
 10
14.53332045637085
 20
1.889190444763388
 30
0.0
 10
14.24030360127856
 20
1.918191292840694
 30
0.0
 10
13.94829963466038
 20
1.950622538453076
 30
0.0
 10
13.5626664067081
 20
1.999250938314408
 30
0.0
 10
13.2708831826957
 20
2.043600139039174
 30
0.0
 10
13.10804301518368
 20
2.068350812418323
 30
0.0
  0
LINE
  5
A4
330
1F
100
AcDbEntity
  8
0
  6
Continuous
 62
     1
370
    15
100
AcDbLine
 10
4.164698672463031
 20
-2.749999999999998
 30
0.0
 11
5.49832750924271
 21
-2.749999999999998
 31
0.0
  0
LINE
  5
A5
330
1F
100
AcDbEntity
  8
0
  6
Continuous
 62
     4
370
    15
100
AcDbLine
 10
1.999999999999991
 20
3.000000000000004
 30
0.0
 11
1.999999999999991
 21
-2.999999999999995
 31
0.0
  0
LINE
  5
A6
330
1F
100
AcDbEntity
  8
0
  6
Continuous
 62
     4
370
    15
100
AcDbLine
 10
-40.51698729810779
 20
2.999999999999997
 30
0.0
 11
-40.51698729810779
 21
-2.999999999999998
 31
0.0
  0
LINE
  5
A7
330
1F
100
AcDbEntity
  8
0
  6
Continuous
 62
     4
370
    15
100
AcDbLine
 10
2.93301270189221
 20
2.750000000000004
 30
0.0
 11
2.93301270189221
 21
-2.749999999999996
 31
0.0
1001
PE_URL
1000

  0
LINE
  5
A8
330
1F
100
AcDbEntity
  8
0
  6
Continuous
 62
     4
370
    15
100
AcDbLine
 10
-41.06698729810779
 20
2.449999999999998
 30
0.0
 11
-41.06698729810779
 21
-2.449999999999998
 31
0.0
  0
SPLINE
  5
A9
330
1F
100
AcDbEntity
  8
0
  6
Continuous
 62
     4
370
    15
100
AcDbSpline
210
0.0
220
0.0
230
1.0
 70
     8
 71
     3
 72
     8
 73
     4
 74
     0
 42
0.000000001
 43
0.00000001
 40
0.0
 40
0.0
 40
0.0
 40
0.0
 40
1.0
 40
1.0
 40
1.0
 40
1.0
 10
3.042910812264241
 20
2.674140178648104
 30
0.0
 10
3.340057189211812
 20
2.714074646893625
 30
0.0
 10
3.639335045167089
 20
2.738420923262503
 30
0.0
 10
3.933012701892203
 20
2.746732132213714
 30
0.0
  0
LINE
  5
AA
330
1F
100
AcDbEntity
  8
0
  6
Continuous
 62
     4
370
    15
100
AcDbLine
 10
3.042910812264241
 20
-2.392883336854137
 30
0.0
 11
3.042910812264241
 21
2.750000000000004
 31
0.0
1001
PE_URL
1000

  0
SPLINE
  5
AB
330
1F
100
AcDbEntity
  8
0
  6
Continuous
 62
     4
370
    15
100
AcDbSpline
210
0.0
220
0.0
230
1.0
 70
     8
 71
     3
 72
     8
 73
     4
 74
     0
 42
0.000000001
 43
0.00000001
 40
0.0
 40
0.0
 40
0.0
 40
0.0
 40
1.0
 40
1.0
 40
1.0
 40
1.0
 10
3.933012701888616
 20
-2.602884908714241
 30
0.0
 10
3.639299856490304
 20
-2.547847969193011
 30
0.0
 10
3.339985466391459
 20
-2.477314486585253
 30
0.0
 10
3.04280399945973
 20
-2.392941415384966
 30
0.0
  0
LINE
  5
AC
330
1F
100
AcDbEntity
  8
0
  6
Continuous
 62
     4
370
    15
100
AcDbLine
 10
3.93301270189221
 20
-2.602884908714913
 30
0.0
 11
3.93301270189221
 21
-2.746732132213708
 31
0.0
1001
PE_URL
1000

  0
SPLINE
  5
AD
330
1F
100
AcDbEntity
  8
0
  6
Continuous
 62
     4
370
    15
100
AcDbSpline
210
0.0
220
0.0
230
1.0
 70
     8
 71
     3
 72
     8
 73
     4
 74
     0
 42
0.000000001
 43
0.00000001
 40
0.0
 40
0.0
 40
0.0
 40
0.0
 40
1.0
 40
1.0
 40
1.0
 40
1.0
 10
3.042910812264241
 20
-2.674140178648095
 30
0.0
 10
3.340057189211812
 20
-2.714074646893616
 30
0.0
 10
3.639335045167092
 20
-2.738420923262495
 30
0.0
 10
3.933012701892206
 20
-2.746732132213706
 30
0.0
  0
LINE
  5
AE
330
1F
100
AcDbEntity
  8
0
  6
Continuous
 62
     4
370
    15
100
AcDbLine
 10
3.042910812264241
 20
-2.749999999999996
 30
0.0
 11
3.042910812264241
 21
-2.673970039510599
 31
0.0
1001
PE_URL
1000

  0
SPLINE
  5
AF
330
1F
100
AcDbEntity
  8
0
  6
Continuous
 62
     4
370
    15
100
AcDbSpline
210
0.0
220
0.0
230
1.0
 70
     8
 71
     3
 72
     8
 73
     4
 74
     0
 42
0.000000001
 43
0.00000001
 40
0.0
 40
0.0
 40
0.0
 40
0.0
 40
1.0
 40
1.0
 40
1.0
 40
1.0
 10
3.933012701888259
 20
-2.162967069526748
 30
0.0
 10
3.63929985649006
 20
-2.108000428978416
 30
0.0
 10
3.339985466391338
 20
-2.040098093232148
 30
0.0
 10
3.04280399945973
 20
-1.960878378216263
 30
0.0
  0
SPLINE
  5
B0
330
1F
100
AcDbEntity
  8
0
  6
Continuous
 62
     4
370
    15
100
AcDbSpline
210
0.0
220
0.0
230
1.0
 70
     8
 71
     3
 72
     8
 73
     4
 74
     0
 42
0.000000001
 43
0.00000001
 40
0.0
 40
0.0
 40
0.0
 40
0.0
 40
1.0
 40
1.0
 40
1.0
 40
1.0
 10
3.933012701892199
 20
0.0168046079460083
 30
0.0
 10
3.639322199077036
 20
0.1532342322021077
 30
0.0
 10
3.340031005868607
 20
0.290426826859952
 30
0.0
 10
3.042871818818632
 20
0.424816699687021
 30
0.0
  0
SPLINE
  5
B1
330
1F
100
AcDbEntity
  8
0
  6
Continuous
 62
     1
370
    15
100
AcDbSpline
210
0.0
220
0.0
230
1.0
 70
    24
 71
     3
 72
    10
 73
     6
 74
     0
 42
0.000000001
 43
0.00000001
 40
0.0
 40
0.0
 40
0.0
 40
0.0
 40
0.5
 40
0.5
 40
1.0
 40
1.0
 40
1.0
 40
1.0
 10
3.933012701892206
 20
0.016804607946004
 30
0.0
 10
3.93301270189221
 20
-0.404884652816705
 30
0.0
 10
3.933012701892206
 20
-0.8369857615223059
 30
0.0
 10
3.93301270189221
 20
-1.59892397601885
 30
0.0
 10
3.933012701892206
 20
-1.925481401872044
 30
0.0
 10
3.933012701892206
 20
-2.162967069527487
 30
0.0
  0
SPLINE
  5
B2
330
1F
100
AcDbEntity
  8
0
  6
Continuous
 62
     4
370
    15
100
AcDbSpline
210
0.0
220
0.0
230
1.0
 70
     8
 71
     3
 72
     8
 73
     4
 74
     0
 42
0.000000001
 43
0.00000001
 40
0.0
 40
0.0
 40
0.0
 40
0.0
 40
1.0
 40
1.0
 40
1.0
 40
1.0
 10
3.933012701892203
 20
1.924943841114422
 30
0.0
 10
3.639326570130096
 20
1.924031980104248
 30
0.0
 10
3.340039915101917
 20
1.911912887427969
 30
0.0
 10
3.042885086854555
 20
1.888771333520483
 30
0.0
  0
SPLINE
  5
B3
330
1F
100
AcDbEntity
  8
0
  6
Continuous
 62
     1
370
    15
100
AcDbSpline
210
0.0
220
0.0
230
1.0
 70
    24
 71
     3
 72
    14
 73
    10
 74
     0
 42
0.000000001
 43
0.00000001
 40
0.0
 40
0.0
 40
0.0
 40
0.0
 40
0.25
 40
0.25
 40
0.5
 40
0.5
 40
0.75
 40
0.75
 40
1.0
 40
1.0
 40
1.0
 40
1.0
 10
3.933012701892169
 20
1.924943841114422
 30
0.0
 10
3.933012701892169
 20
1.874900611150532
 30
0.0
 10
3.933012701892169
 20
1.794026870600548
 30
0.0
 10
3.933012701892169
 20
1.569442190467693
 30
0.0
 10
3.933012701892169
 20
1.425718239811911
 30
0.0
 10
3.933012701892169
 20
1.086586884305595
 30
0.0
 10
3.933012701892169
 20
0.8913601828197554
 30
0.0
 10
3.933012701892169
 20
0.4705333811527833
 30
0.0
 10
3.933012701892169
 20
0.2451959025471689
 30
0.0
 10
3.933012701892169
 20
0.0168046079460223
 30
0.0
  0
SPLINE
  5
B4
330
1F
100
AcDbEntity
  8
0
  6
Continuous
 62
     1
370
    15
100
AcDbSpline
210
0.0
220
0.0
230
1.0
 70
    24
 71
     3
 72
     8
 73
     4
 74
     0
 42
0.000000001
 43
0.00000001
 40
0.0
 40
0.0
 40
0.0
 40
0.0
 40
1.0
 40
1.0
 40
1.0
 40
1.0
 10
3.93301270189221
 20
-2.162967069527487
 30
0.0
 10
3.93301270189221
 20
-2.308783143970242
 30
0.0
 10
3.93301270189221
 20
-2.456361226031166
 30
0.0
 10
3.93301270189221
 20
-2.602884908714167
 30
0.0
  0
SPLINE
  5
B5
330
1F
100
AcDbEntity
  8
0
  6
Continuous
 62
     4
370
    15
100
AcDbSpline
210
0.0
220
0.0
230
1.0
 70
    24
 71
     3
 72
    10
 73
     6
 74
     0
 42
0.000000001
 43
0.00000001
 40
0.0
 40
0.0
 40
0.0
 40
0.0
 40
0.5
 40
0.5
 40
1.0
 40
1.0
 40
1.0
 40
1.0
 10
3.933012701892206
 20
2.746732132203574
 30
0.0
 10
3.933012701892206
 20
2.608743178802005
 30
0.0
 10
3.933012701892206
 20
2.460518396889511
 30
0.0
 10
3.933012701892206
 20
2.176342027340663
 30
0.0
 10
3.933012701892206
 20
2.041114538240218
 30
0.0
 10
3.93301270189221
 20
1.924943841114422
 30
0.0
  0
SPLINE
  5
B6
330
1F
100
AcDbEntity
  8
0
  6
Continuous
 62
     1
370
    15
100
AcDbSpline
210
0.0
220
0.0
230
1.0
 70
     8
 71
     3
 72
    20
 73
    16
 74
     0
 42
0.000000001
 43
0.00000001
 40
0.0
 40
0.0
 40
0.0
 40
0.0
 40
0.0782406771137675
 40
0.1563350143354536
 40
0.2344056916138002
 40
0.3125758567366613
 40
0.3908654818405258
 40
0.4690015585287319
 40
0.547066724435842
 40
0.6251842364181575
 40
0.7071543710205903
 40
0.7890998405553491
 40
0.8709346266294362
 40
0.9527310101169371
 40
1.0
 40
1.0
 40
1.0
 40
1.0
 10
18.93301270189221
 20
-2.609587390387718
 30
0.0
 10
18.5825285989153
 20
-2.533588433419327
 30
0.0
 10
17.88221593184097
 20
-2.381732666503395
 30
0.0
 10
16.83276640686919
 20
-2.004498960413149
 30
0.0
 10
15.78364553345192
 20
-1.539330120380751
 30
0.0
 10
14.73339547241314
 20
-0.9971416042146819
 30
0.0
 10
13.68225235516596
 20
-0.4081781515124346
 30
0.0
 10
12.6323153250957
 20
0.2016738553159112
 30
0.0
 10
11.58327438052946
 20
0.8014796984968341
 30
0.0
 10
10.5169755969966
 20
1.371587676129011
 30
0.0
 10
9.432662342171035
 20
1.880041108696531
 30
0.0
 10
8.331867672382232
 20
2.298502552474821
 30
0.0
 10
7.232224956622291
 20
2.588357755890967
 30
0.0
 10
6.287955200871886
 20
2.740561017452607
 30
0.0
 10
5.709998692773286
 20
2.734395251972773
 30
0.0
 10
5.498327509242708
 20
2.732137097841449
 30
0.0
  0
SPLINE
  5
B7
330
1F
100
AcDbEntity
  8
0
  6
Continuous
 62
     1
370
    15
100
AcDbSpline
210
0.0
220
0.0
230
1.0
 70
     8
 71
     3
 72
    15
 73
    11
 74
     0
 42
0.000000001
 43
0.00000001
 40
0.0
 40
0.0
 40
0.0
 40
0.0
 40
0.1392074155049813
 40
0.2780737869261116
 40
0.4169996308925193
 40
0.5563194683475041
 40
0.6953844930315329
 40
0.8342265935169718
 40
0.9732469652666893
 40
1.0
 40
1.0
 40
1.0
 40
1.0
 10
18.93301270189221
 20
-2.169673727012587
 30
0.0
 10
18.60153835502026
 20
-2.10013073744478
 30
0.0
 10
17.93940173988968
 20
-1.961215131597684
 30
0.0
 10
16.94701565872229
 20
-1.64225934429303
 30
0.0
 10
15.95431460232255
 20
-1.258646129626586
 30
0.0
 10
14.96039529160684
 20
-0.820067822042583
 30
0.0
 10
13.96720022826704
 20
-0.3448045053899544
 30
0.0
 10
12.97498121616745
 20
0.1426822848154699
 30
0.0
 10
12.24993273037551
 20
0.502401774621829
 30
0.0
 10
11.85517288887537
 20
0.6812035191758227
 30
0.0
 10
11.79146530166324
 20
0.7100591081627043
 30
0.0
  0
LINE
  5
B8
330
1F
100
AcDbEntity
  8
0
  6
Continuous
 62
     1
370
    15
100
AcDbLine
 10
18.93301270189207
 20
-2.609587390387719
 30
0.0
 11
18.93301270189221
 21
-2.169673727012587
 31
0.0
  0
SPLINE
  5
B9
330
1F
100
AcDbEntity
  8
0
  6
Continuous
 62
     1
370
    15
100
AcDbSpline
210
0.0
220
0.0
230
1.0
 70
     8
 71
     3
 72
    48
 73
    44
 74
     0
 42
0.000000001
 43
0.00000001
 40
0.0
 40
0.0
 40
0.0
 40
0.0
 40
0.0624999999999996
 40
0.0624999999999996
 40
0.1249999999999992
 40
0.1249999999999992
 40
0.1874999999999989
 40
0.1874999999999989
 40
0.2499999999999986
 40
0.2499999999999986
 40
0.3124999999999982
 40
0.3124999999999982
 40
0.343749999999998
 40
0.343749999999998
 40
0.3749999999999979
 40
0.3749999999999979
 40
0.4374999999999977
 40
0.4374999999999977
 40
0.4687499999999976
 40
0.4687499999999976
 40
0.4999999999999976
 40
0.4999999999999976
 40
0.5312499999999978
 40
0.5312499999999978
 40
0.562499999999998
 40
0.562499999999998
 40
0.6249999999999987
 40
0.6249999999999987
 40
0.6562499999999989
 40
0.6562499999999989
 40
0.6874999999999991
 40
0.6874999999999991
 40
0.7187499999999993
 40
0.7187499999999993
 40
0.7499999999999996
 40
0.7499999999999996
 40
0.8124999999999997
 40
0.8124999999999997
 40
0.8749999999999998
 40
0.8749999999999998
 40
0.9374999999999999
 40
0.9374999999999999
 40
1.0
 40
1.0
 40
1.0
 40
1.0
 10
3.933012701892203
 20
2.746732132213714
 30
0.0
 10
4.242834328998795
 20
2.755500222742633
 30
0.0
 10
4.557603876173532
 20
2.746546415386157
 30
0.0
 10
5.184799830745607
 20
2.693230454887968
 30
0.0
 10
5.493090556077041
 20
2.649196501968346
 30
0.0
 10
6.120452499135478
 20
2.527068883436487
 30
0.0
 10
6.434670207594511
 20
2.449112860593071
 30
0.0
 10
7.054804921706296
 20
2.263553001550878
 30
0.0
 10
7.370927461198443
 20
2.154891967085443
 30
0.0
 10
7.997104771914182
 20
1.911790215707858
 30
0.0
 10
8.30574953437492
 20
1.777715950821823
 30
0.0
 10
8.776718633546256
 20
1.559566210684297
 30
0.0
 10
8.933976350444405
 20
1.484159143337985
 30
0.0
 10
9.246745047056672
 20
1.329078351849572
 30
0.0
 10
9.40116864894758
 20
1.249598731441876
 30
0.0
 10
9.867911393900613
 20
1.004936569099393
 30
0.0
 10
10.18424966864271
 20
0.8333413263819243
 30
0.0
 10
10.65285776480325
 20
0.5705960197695331
 30
0.0
 10
10.80704732873741
 20
0.4823328475611872
 30
0.0
 10
11.11869262077955
 20
0.3039237088919706
 30
0.0
 10
11.27569715043603
 20
0.2138590007604142
 30
0.0
 10
11.58979938372697
 20
0.0333089564423048
 30
0.0
 10
11.74689339731683
 20
-0.0571742593269784
 30
0.0
 10
12.05889232364262
 20
-0.2372443316509612
 30
0.0
 10
12.21301533404555
 20
-0.3266826621959367
 30
0.0
 10
12.68114423490205
 20
-0.5940903334308375
 30
0.0
 10
12.99751827859323
 20
-0.7704571222484455
 30
0.0
 10
13.46484248582764
 20
-1.024540795881031
 30
0.0
 10
13.61906645779349
 20
-1.107447654175119
 30
0.0
 10
13.93155000957379
 20
-1.270140370120969
 30
0.0
 10
14.08875324576488
 20
-1.349729738223288
 30
0.0
 10
14.40280248972209
 20
-1.504217676687224
 30
0.0
 10
14.55964481178521
 20
-1.579114467121623
 30
0.0
 10
14.87070205249295
 20
-1.723176050157559
 30
0.0
 10
15.02519445459243
 20
-1.792399778917425
 30
0.0
 10
15.49445139682586
 20
-1.991913409277982
 30
0.0
 10
15.81068117474904
 20
-2.113265133617106
 30
0.0
 10
16.43172609696919
 20
-2.325860028968703
 30
0.0
 10
16.74494552672492
 20
-2.418125362638606
 30
0.0
 10
17.37258658730938
 20
-2.57031270535838
 30
0.0
 10
17.68094765174294
 20
-2.629883069153811
 30
0.0
 10
18.3077806891488
 20
-2.715048399121335
 30
0.0
 10
18.62368644246885
 20
-2.740284433168895
 30
0.0
 10
18.93301270189221
 20
-2.747675741881515
 30
0.0
  0
SPLINE
  5
BA
330
1F
100
AcDbEntity
  8
0
  6
Continuous
 62
     1
370
    15
100
AcDbSpline
210
0.0
220
0.0
230
1.0
 70
     8
 71
     3
 72
    14
 73
    10
 74
     0
 42
0.000000001
 43
0.00000001
 40
0.0
 40
0.0
 40
0.0
 40
0.0
 40
0.136346278687226
 40
0.2984450977090671
 40
0.460539795609536
 40
0.622630718902908
 40
0.748347685379862
 40
0.8740472526997083
 40
1.0
 40
1.0
 40
1.0
 40
1.0
 10
12.10100218874136
 20
-0.2614345673904199
 30
0.0
 10
11.72974348924287
 20
-0.1117000014766719
 30
0.0
 10
10.91710423048217
 20
0.2160503968826778
 30
0.0
 10
9.663088444243488
 20
0.7148864985833604
 30
0.0
 10
8.339024809830178
 20
1.184845923724581
 30
0.0
 10
7.113853374277125
 20
1.536436286102003
 30
0.0
 10
5.988318729650599
 20
1.767190001990061
 30
0.0
 10
4.961146341681321
 20
1.902189475931611
 30
0.0
 10
4.275953699199533
 20
1.91735396720417
 30
0.0
 10
3.933012701892203
 20
1.924943841114422
 30
0.0
  0
SPLINE
  5
BB
330
1F
100
AcDbEntity
  8
0
  6
Continuous
 62
     4
370
    15
100
AcDbSpline
210
0.0
220
0.0
230
1.0
 70
    24
 71
     3
 72
    10
 73
     6
 74
     0
 42
0.000000001
 43
0.00000001
 40
0.0
 40
0.0
 40
0.0
 40
0.0
 40
0.5
 40
0.5
 40
1.0
 40
1.0
 40
1.0
 40
1.0
 10
3.933012701892206
 20
2.746732132203582
 30
0.0
 10
3.933012701892206
 20
2.608743178802011
 30
0.0
 10
3.933012701892206
 20
2.460518396889517
 30
0.0
 10
3.933012701892206
 20
2.176342027340667
 30
0.0
 10
3.933012701892206
 20
2.041114538240219
 30
0.0
 10
3.93301270189221
 20
1.924943841114422
 30
0.0
  0
LINE
  5
BC
330
1F
100
AcDbEntity
  8
0
  6
Continuous
 62
     1
370
    15
100
AcDbLine
 10
18.93301270189221
 20
-2.747675741881519
 30
0.0
 11
18.93301270189233
 21
-2.609587390387713
 31
0.0
  0
SPLINE
  5
BD
330
1F
100
AcDbEntity
  8
0
  6
Continuous
 62
     1
370
    15
100
AcDbSpline
210
0.0
220
0.0
230
1.0
 70
     8
 71
     3
 72
     8
 73
     4
 74
     0
 42
0.000000001
 43
0.00000001
 40
0.0
 40
0.0
 40
0.0
 40
0.0
 40
1.0
 40
1.0
 40
1.0
 40
1.0
 10
17.2306761668444
 20
0.7700180492846389
 30
0.0
 10
17.1076535351391
 20
0.9157945446548871
 30
0.0
 10
17.00091192509825
 20
1.055103180789401
 30
0.0
 10
16.91663678245456
 20
1.184709345479205
 30
0.0
  0
LINE
  5
BE
330
1F
100
AcDbEntity
  8
0
  6
Continuous
 62
     1
370
    15
100
AcDbLine
 10
16.91663678245456
 20
1.184709345479204
 30
0.0
 11
18.93301270189221
 21
0.0000000000000055
 31
0.0
  0
LINE
  5
BF
330
1F
100
AcDbEntity
  8
0
  6
Continuous
 62
     1
370
    15
100
AcDbLine
 10
18.93301270189221
 20
0.0000000000000055
 30
0.0
 11
18.93301270189221
 21
-0.7349181015815179
 31
0.0
  0
SPLINE
  5
C0
330
1F
100
AcDbEntity
  8
0
  6
Continuous
 62
     1
370
    15
100
AcDbSpline
210
0.0
220
0.0
230
1.0
 70
     8
 71
     3
 72
    10
 73
     6
 74
     0
 42
0.000000001
 43
0.00000001
 40
0.0
 40
0.0
 40
0.0
 40
0.0
 40
0.5
 40
0.5
 40
1.0
 40
1.0
 40
1.0
 40
1.0
 10
18.93301270189221
 20
-0.734918101581518
 30
0.0
 10
18.63832250220076
 20
-0.503239763198786
 30
0.0
 10
18.34855913276487
 20
-0.2620564139026201
 30
0.0
 10
17.77912723787688
 20
0.2397856059932153
 30
0.0
 10
17.49681119145187
 20
0.5030971768424265
 30
0.0
 10
17.2306761668444
 20
0.7700180492846371
 30
0.0
  0
SPLINE
  5
C1
330
1F
100
AcDbEntity
  8
0
  6
Continuous
 62
     1
370
    15
100
AcDbSpline
210
0.0
220
0.0
230
1.0
 70
     8
 71
     3
 72
    14
 73
    10
 74
     0
 42
0.000000001
 43
0.00000001
 40
0.0
 40
0.0
 40
0.0
 40
0.0
 40
0.1791741959289534
 40
0.3585389084407735
 40
0.5153816988037557
 40
0.6719695669929229
 40
0.8287613483308551
 40
0.985915947294647
 40
1.0
 40
1.0
 40
1.0
 40
1.0
 10
17.2306761668444
 20
0.770018049284637
 30
0.0
 10
16.85246027459219
 20
0.9294219935538537
 30
0.0
 10
16.09562633173564
 20
1.248399376893701
 30
0.0
 10
15.00736531457479
 20
1.627816978485672
 30
0.0
 10
13.96722960404693
 20
1.91338633063538
 30
0.0
 10
12.97499678530522
 20
2.105293814357447
 30
0.0
 10
11.98197368390124
 20
2.196102334120345
 30
0.0
 10
11.28916231233636
 20
2.218860247687541
 30
0.0
 10
10.92776885628137
 20
2.18423173773246
 30
0.0
 10
10.8980449333654
 20
2.181383608793337
 30
0.0
  0
SPLINE
  5
C2
330
1F
100
AcDbEntity
  8
0
  6
Continuous
 62
     1
370
    15
100
AcDbSpline
210
0.0
220
0.0
230
1.0
 70
    24
 71
     3
 72
    10
 73
     6
 74
     0
 42
0.000000001
 43
0.00000001
 40
0.0
 40
0.0
 40
0.0
 40
0.0
 40
0.5
 40
0.5
 40
1.0
 40
1.0
 40
1.0
 40
1.0
 10
18.93301270189221
 20
-2.169673727012587
 30
0.0
 10
18.93301270189221
 20
-2.003351319760458
 30
0.0
 10
18.93301270189221
 20
-1.793196580742784
 30
0.0
 10
18.93301270189221
 20
-1.304607037664363
 30
0.0
 10
18.93301270189221
 20
-1.026595468391096
 30
0.0
 10
18.93301270189221
 20
-0.7349181015816056
 30
0.0
  0
SPLINE
  5
C3
330
1F
100
AcDbEntity
  8
0
  6
Continuous
 62
     1
370
    15
100
AcDbSpline
210
0.0
220
0.0
230
1.0
 70
     8
 71
     3
 72
    10
 73
     6
 74
     0
 42
0.000000001
 43
0.00000001
 40
0.0
 40
0.0
 40
0.0
 40
0.0
 40
0.2744666167001477
 40
0.6368827269437901
 40
1.0
 40
1.0
 40
1.0
 40
1.0
 10
6.765615183901854
 20
-2.27823310320287
 30
0.0
 10
6.50648136727577
 20
-2.302058264608707
 30
0.0
 10
5.905177450025699
 20
-2.357343071003222
 30
0.0
 10
4.961181037838005
 20
-2.322949034478749
 30
0.0
 10
4.275956216610698
 20
-2.216328737489657
 30
0.0
 10
3.933012701892155
 20
-2.162967069527479
 30
0.0
  0
SPLINE
  5
C4
330
1F
100
AcDbEntity
  8
0
  6
Continuous
 62
     1
370
    15
100
AcDbSpline
210
0.0
220
0.0
230
1.0
 70
     8
 71
     3
 72
    17
 73
    13
 74
     0
 42
0.000000001
 43
0.00000001
 40
0.0
 40
0.0
 40
0.0
 40
0.0
 40
0.0147089175808986
 40
0.1228920206300888
 40
0.2313254603759572
 40
0.3394587859538663
 40
0.4475098751719119
 40
0.5557950706937523
 40
0.664167865694319
 40
0.7760488195377495
 40
0.8879146884235247
 40
1.0
 40
1.0
 40
1.0
 40
1.0
 10
13.1103649047583
 20
-2.062743767865839
 30
0.0
 10
13.0653784991467
 20
-2.071505672860944
 30
0.0
 10
12.68952009514868
 20
-2.144710801892045
 30
0.0
 10
11.98194232633105
 20
-2.196924776682943
 30
0.0
 10
10.98802511835075
 20
-2.207021186006294
 30
0.0
 10
9.995181114768835
 20
-2.112974207584448
 30
0.0
 10
9.002874707967328
 20
-1.92950483342884
 30
0.0
 10
8.009433206798366
 20
-1.662077441839078
 30
0.0
 10
7.004085949975833
 20
-1.319245490756937
 30
0.0
 10
5.988311855662284
 20
-0.9120108628254635
 30
0.0
 10
4.961174202191813
 20
-0.4578385760655008
 30
0.0
 10
4.275957009556079
 20
-0.141513105838034
 30
0.0
 10
3.933012701892203
 20
0.0168046079460068
 30
0.0
  0
SPLINE
  5
C5
330
1F
100
AcDbEntity
  8
0
  6
Continuous
 62
     4
370
    15
100
AcDbSpline
210
0.0
220
0.0
230
1.0
 70
    24
 71
     3
 72
    10
 73
     6
 74
     0
 42
0.000000001
 43
0.00000001
 40
0.0
 40
0.0
 40
0.0
 40
0.0
 40
0.5
 40
0.5
 40
1.0
 40
1.0
 40
1.0
 40
1.0
 10
3.933012701892206
 20
0.016804607946004
 30
0.0
 10
3.93301270189221
 20
-0.404884652816705
 30
0.0
 10
3.933012701892206
 20
-0.8369857615223059
 30
0.0
 10
3.93301270189221
 20
-1.59892397601885
 30
0.0
 10
3.933012701892206
 20
-1.925481401872044
 30
0.0
 10
3.933012701892206
 20
-2.162967069527487
 30
0.0
  0
SPLINE
  5
C6
330
1F
100
AcDbEntity
  8
0
  6
Continuous
 62
     4
370
    15
100
AcDbSpline
210
0.0
220
0.0
230
1.0
 70
    24
 71
     3
 72
    14
 73
    10
 74
     0
 42
0.000000001
 43
0.00000001
 40
0.0
 40
0.0
 40
0.0
 40
0.0
 40
0.25
 40
0.25
 40
0.5
 40
0.5
 40
0.75
 40
0.75
 40
1.0
 40
1.0
 40
1.0
 40
1.0
 10
3.933012701892169
 20
1.924943841114422
 30
0.0
 10
3.933012701892169
 20
1.874900611150532
 30
0.0
 10
3.933012701892169
 20
1.794026870600548
 30
0.0
 10
3.933012701892169
 20
1.569442190467693
 30
0.0
 10
3.933012701892169
 20
1.425718239811911
 30
0.0
 10
3.933012701892169
 20
1.086586884305595
 30
0.0
 10
3.933012701892169
 20
0.8913601828197554
 30
0.0
 10
3.933012701892169
 20
0.4705333811527833
 30
0.0
 10
3.933012701892169
 20
0.2451959025471689
 30
0.0
 10
3.933012701892169
 20
0.0168046079460223
 30
0.0
  0
LINE
  5
C7
330
1F
100
AcDbEntity
  8
0
  6
Continuous
 62
     1
370
    15
100
AcDbLine
 10
18.93301270189221
 20
1.925000000000005
 30
0.0
 11
17.92252399139735
 21
1.868606928895722
 31
0.0
  0
SPLINE
  5
C8
330
1F
100
AcDbEntity
  8
0
  6
Continuous
 62
     1
370
    15
100
AcDbSpline
210
0.0
220
0.0
230
1.0
 70
     8
 71
     3
 72
    10
 73
     6
 74
     0
 42
0.000000001
 43
0.00000001
 40
0.0
 40
0.0
 40
0.0
 40
0.0
 40
0.5000000000000001
 40
0.5000000000000001
 40
1.0
 40
1.0
 40
1.0
 40
1.0
 10
18.93301270189221
 20
1.925000000000005
 30
0.0
 10
18.59080069339906
 20
1.832091318275873
 30
0.0
 10
18.25113399096721
 20
1.72572923626821
 30
0.0
 10
17.57769678580361
 20
1.48184027996156
 30
0.0
 10
17.24373458136576
 20
1.345097049347483
 30
0.0
 10
16.91663678245292
 20
1.184709345480483
 30
0.0
  0
LINE
  5
C9
330
1F
100
AcDbEntity
  8
0
  6
Continuous
 62
     1
370
    15
100
AcDbLine
 10
18.93301270189221
 20
0.0000000000000055
 30
0.0
 11
18.93301270189221
 21
1.925000000000004
 31
0.0
  0
SPLINE
  5
CA
330
1F
100
AcDbEntity
  8
0
  6
Continuous
 62
     1
370
    15
100
AcDbSpline
210
0.0
220
0.0
230
1.0
 70
     8
 71
     3
 72
    12
 73
     8
 74
     0
 42
0.000000001
 43
0.00000001
 40
0.0
 40
0.0
 40
0.0
 40
0.0
 40
0.0639499527610772
 40
0.297919308991539
 40
0.5317788704893179
 40
0.7657368295744186
 40
1.0
 40
1.0
 40
1.0
 40
1.0
 10
8.631999863959592
 20
-2.164404097103477
 30
0.0
 10
8.531808408507427
 20
-2.203028730966665
 30
0.0
 10
8.065053268176289
 20
-2.382966693916589
 30
0.0
 10
7.232246356688693
 20
-2.587580869258086
 30
0.0
 10
6.133180155589501
 20
-2.749713548074399
 30
0.0
 10
5.033623666114345
 20
-2.767180492244119
 30
0.0
 10
4.300042419005543
 20
-2.657673897291104
 30
0.0
 10
3.933012701888646
 20
-2.602884908714247
 30
0.0
  0
SPLINE
  5
CB
330
1F
100
AcDbEntity
  8
0
  6
Continuous
 62
     4
370
    15
100
AcDbSpline
210
0.0
220
0.0
230
1.0
 70
    24
 71
     3
 72
     8
 73
     4
 74
     0
 42
0.000000001
 43
0.00000001
 40
0.0
 40
0.0
 40
0.0
 40
0.0
 40
1.0
 40
1.0
 40
1.0
 40
1.0
 10
3.93301270189221
 20
-2.162967069527487
 30
0.0
 10
3.93301270189221
 20
-2.308783143970242
 30
0.0
 10
3.93301270189221
 20
-2.456361226031165
 30
0.0
 10
3.93301270189221
 20
-2.602884908714167
 30
0.0
  0
LINE
  5
CC
330
1F
100
AcDbEntity
  8
0
  6
Continuous
 62
     1
370
    15
100
AcDbLine
 10
3.93301270189221
 20
-2.746732132213709
 30
0.0
 11
4.164698672463031
 21
-2.747164061444084
 31
0.0
  0
SPLINE
  5
CD
330
1F
100
AcDbEntity
  8
0
  6
Continuous
 62
     1
370
    15
100
AcDbSpline
210
0.0
220
0.0
230
1.0
 70
     8
 71
     3
 72
    15
 73
    11
 74
     0
 42
0.000000001
 43
0.00000001
 40
0.0
 40
0.0
 40
0.0
 40
0.0
 40
0.0304130332998396
 40
0.1349072628391871
 40
0.3447516384619237
 40
0.450153028881425
 40
0.5866026586313321
 40
0.7234545018871035
 40
0.8615195646865191
 40
1.0
 40
1.0
 40
1.0
 40
1.0
 10
15.15070263285269
 20
1.844272218138477
 30
0.0
 10
15.18901978075169
 20
1.861088729465582
 30
0.0
 10
15.35898840873742
 20
1.935684035079377
 30
0.0
 10
15.79430773659084
 20
2.106719732161892
 30
0.0
 10
16.3227880586964
 20
2.29349683994857
 30
0.0
 10
16.89254817387278
 20
2.456119101329472
 30
0.0
 10
17.37047722547365
 20
2.569541128203669
 30
0.0
 10
17.88809521128889
 20
2.662424939412342
 30
0.0
 10
18.41011229850515
 20
2.725562437778124
 30
0.0
 10
18.75853812174044
 20
2.740297263256883
 30
0.0
 10
18.93301270189211
 20
2.747675741881524
 30
0.0
  0
SPLINE
  5
CE
330
1F
100
AcDbEntity
  8
0
  6
Continuous
 62
     1
370
    15
100
AcDbSpline
210
0.0
220
0.0
230
1.0
 70
    24
 71
     3
 72
    10
 73
     6
 74
     0
 42
0.000000001
 43
0.00000001
 40
0.0
 40
0.0
 40
0.0
 40
0.0
 40
0.5
 40
0.5
 40
1.0
 40
1.0
 40
1.0
 40
1.0
 10
18.93301270189221
 20
1.925000000000005
 30
0.0
 10
18.93301270189221
 20
2.041688706220119
 30
0.0
 10
18.93301270189221
 20
2.177291789384578
 30
0.0
 10
18.93301270189221
 20
2.461786692642359
 30
0.0
 10
18.93301270189221
 20
2.609951948454055
 30
0.0
 10
18.93301270189221
 20
2.747675741881527
 30
0.0
  0
LINE
  5
CF
330
1F
100
AcDbEntity
  8
중심선
100
AcDbLine
 10
-44.06698729810778
 20
-0.0000000000000004
 30
0.0
 11
21.93301270189222
 21
-0.0000000000000004
 31
0.0
  0
CIRCLE
  5
D0
330
1F
100
AcDbEntity
  8
외형선
100
AcDbCircle
 10
0.0
 20
0.0
 30
0.0
 40
3.000000000000004
  0
INSERT
  5
D1
330
1F
100
AcDbEntity
  8
0
  6
Continuous
 62
     7
100
AcDbBlockReference
 66
     1
  2
블럭10
 10
-30.00526073761939
 20
-52.04717430164392
 30
0.0
  0
ATTRIB
  5
D2
330
D1
100
AcDbEntity
  8
FORMAT
 62
     2
100
AcDbText
 10
-42.96519993247717
 20
-49.97180738881173
 30
0.0
 40
4.233333333333333
  1
SEME35055E [ 2 FLUTE ]
 41
0.75
  7
SLDTEXTSTYLE0
 11
-42.96519993247717
 21
-52.0884740554784
 31
0.0
100
AcDbAttribute
  2
AUTOATTR0
 70
     0
 74
     1
  0
SEQEND
  5
D3
330
D1
100
AcDbEntity
  8
0
  6
Continuous
 62
     7
  0
HATCH
  5
D4
330
1F
100
AcDbEntity
  8
중심선
100
AcDbHatch
 10
0.0
 20
0.0
 30
0.0
210
0.0
220
0.0
230
1.0
  2
SOLID
 70
     1
 71
     0
 91
        1
 92
        0
 93
        4
 72
     1
 10
-24.29035143323854
 20
-35.79999999999999
 11
-27.73662667707583
 21
-35.79999999999999
 72
     1
 10
-27.73662667707583
 20
-35.79999999999999
 11
-29.86485653627985
 21
-38.33632558057258
 72
     1
 10
-29.86485653627986
 20
-38.33632558057258
 11
-26.41854820732942
 21
-38.33628615127009
 72
     1
 10
-26.41854820732942
 20
-38.33628615127009
 11
-24.29035143323854
 21
-35.79999999999999
 97
        0
 75
     0
 76
     1
 98
        1
 10
-6.066987298107785
 20
0.0000000000000031
  0
HATCH
  5
D5
330
1F
100
AcDbEntity
  8
중심선
100
AcDbHatch
 10
0.0
 20
0.0
 30
0.0
210
0.0
220
0.0
230
1.0
  2
SOLID
 70
     1
 71
     0
 91
        1
 92
        0
 93
        4
 72
     1
 10
-19.2775874422026
 20
-35.79999999999999
 11
-22.72386268603988
 21
-35.79999999999999
 72
     1
 10
-22.72386268603988
 20
-35.79999999999999
 11
-27.25500069439726
 21
-41.20000000000001
 72
     1
 10
-27.25500069439726
 20
-41.20000000000001
 11
-23.80872545055998
 21
-41.20000000000001
 72
     1
 10
-23.80872545055999
 20
-41.20000000000001
 11
-19.2775874422026
 21
-35.79999999999999
 97
        0
 75
     0
 76
     1
 98
        1
 10
-6.066987298107785
 20
0.0000000000000031
  0
HATCH
  5
D6
330
1F
100
AcDbEntity
  8
중심선
100
AcDbHatch
 10
0.0
 20
0.0
 30
0.0
210
0.0
220
0.0
230
1.0
  2
SOLID
 70
     1
 71
     0
 91
        1
 92
        0
 93
        4
 72
     1
 10
-14.2648234511667
 20
-35.80000000000003
 11
-17.71109869500382
 21
-35.79999999999999
 72
     1
 10
-17.71109869500382
 20
-35.79999999999999
 11
-24.75953559689306
 21
-44.20000000000001
 72
     1
 10
-24.75953559689306
 20
-44.20000000000001
 11
-21.31326035305578
 21
-44.20000000000001
 72
     1
 10
-21.31326035305578
 20
-44.20000000000001
 11
-14.2648234511667
 21
-35.80000000000003
 97
        0
 75
     0
 76
     1
 98
        1
 10
-6.066987298107785
 20
0.0000000000000031
  0
HATCH
  5
D7
330
1F
100
AcDbEntity
  8
중심선
100
AcDbHatch
 10
0.0
 20
0.0
 30
0.0
210
0.0
220
0.0
230
1.0
  2
SOLID
 70
     1
 71
     0
 91
        1
 92
        0
 93
        6
 72
     3
 10
-9.464933020154499
 20
-40.00000000005127
 11
3.960054785062285
 21
1.540882976769353E-10
 40
0.3939339440162626
 50
17.09539180608455
 51
320.0019657685083
 73
     0
 72
     1
 10
-7.781933364453902
 20
-38.58789400463829
 11
-5.476631490752863
 21
-36.65356729459037
 72
     3
 10
-9.464933020207349
 20
-40.00000000000014
 11
6.600054785286829
 21
-1.278976924368180E-13
 40
0.636358354079598
 50
39.99873849337413
 51
368.4976242363722
 73
     1
 72
     1
 10
-3.039600528306734
 20
-39.03999999993001
 11
-10.78486571337142
 21
-39.03999999992998
 72
     1
 10
-10.78486571337142
 20
-39.03999999992998
 11
-10.78489075781736
 21
-40.95999999992991
 72
     1
 10
-10.78489075781736
 20
-40.95999999992991
 11
-6.34351098834532
 21
-40.95999999992987
 97
        0
 75
     0
 76
     1
 98
        1
 10
-6.066987298107785
 20
0.0000000000000031
  0
DIMENSION
  5
D8
330
1F
100
AcDbEntity
  8
치수문자_일반주서
100
AcDbDimension
  2
_D
 10
3.933012701892203
 20
14.9983096304593
 30
0.0
 11
11.4330127018922
 21
14.9983096304593
 31
0.0
 70
   160
  1
<>
 71
     2
 42
15.00000000000001
  3
SLDDIMSTYLE0
100
AcDbAlignedDimension
 13
18.93301270189221
 23
2.747675741881527
 33
0.0
 14
3.933012701892203
 24
1.924943841114422
 34
0.0
100
AcDbRotatedDimension
  0
DIMENSION
  5
E5
330
1F
100
AcDbEntity
  8
치수문자_일반주서
100
AcDbDimension
  2
_D_1
 10
-41.06698729810779
 20
24.70915911661226
 30
0.0
 11
-11.06698729810779
 21
24.70915911661226
 31
0.0
 70
   160
  1
<>
 71
     2
 42
60.0
  3
SLDDIMSTYLE1
100
AcDbAlignedDimension
 13
18.93301270189221
 23
1.925000000000004
 33
0.0
 14
-41.06698729810779
 24
2.449999999999998
 34
0.0
 50
0.0000000000000068
100
AcDbRotatedDimension
  0
DIMENSION
  5
F0
330
1F
100
AcDbEntity
  8
치수문자_일반주서
100
AcDbDimension
  2
_D_2
 10
34.49920301413852
 20
-2.74767574188146
 30
0.0
 11
34.49920301413844
 21
15.25792574188159
 31
0.0
 70
   160
  1
%%c<>
 71
     2
 42
5.495351483763046
 52
-270.0
  3
SLDDIMSTYLE2
100
AcDbAlignedDimension
 13
18.93301270189221
 23
2.747675741881527
 33
0.0
 14
18.93301270189221
 24
-2.747675741881519
 34
0.0
 50
90.0000000000002
100
AcDbRotatedDimension
  0
DIMENSION
  5
FE
330
1F
100
AcDbEntity
  8
치수문자_일반주서
100
AcDbDimension
  2
_D_3
 10
-52.93654674349632
 20
-3.000000000000044
 30
0.0
 11
-52.93654674349633
 21
0.0000000000000007
 31
0.0
 70
   160
  1
%%c<>
 71
     2
 42
5.999999999999997
 52
-270.0
  3
SLDDIMSTYLE0
100
AcDbAlignedDimension
 13
-40.51698729810779
 23
3.0
 33
0.0
 14
-40.51698729810779
 24
-2.999999999999998
 34
0.0
 50
90.0000000000002
100
AcDbRotatedDimension
  0
INSERT
  5
111
330
1F
100
AcDbEntity
  8
외형선
100
AcDbBlockReference
  2
SW_DOWELSYMBOL_0
 10
0.0
 20
0.0
 30
0.0
  0
ENDSEC
  0
SECTION
  2
OBJECTS
  0
DICTIONARY
  5
C
330
0
100
AcDbDictionary
281
     1
  3
ACAD_GROUP
350
D
  3
ACAD_LAYOUT
350
1A
  3
ACAD_MLINESTYLE
350
17
  3
ACAD_PLOTSETTINGS
350
19
  3
ACAD_PLOTSTYLENAME
350
E
  3
ACAD_SCALELIST
350
47
  3
APPDATA
350
133
  3
DWGPROPS
350
165
  0
DICTIONARY
  5
D
102
{ACAD_REACTORS
330
C
102
}
330
C
100
AcDbDictionary
281
     1
  0
DICTIONARY
  5
1A
102
{ACAD_REACTORS
330
C
102
}
330
C
100
AcDbDictionary
281
     1
  3
Layout1
350
1E
  3
Layout2
350
26
  3
Model
350
22
  0
DICTIONARY
  5
17
102
{ACAD_REACTORS
330
C
102
}
330
C
100
AcDbDictionary
281
     1
  3
Standard
350
18
  0
DICTIONARY
  5
19
102
{ACAD_REACTORS
330
C
102
}
330
C
100
AcDbDictionary
281
     1
  0
ACDBDICTIONARYWDFLT
  5
E
102
{ACAD_REACTORS
330
C
102
}
330
C
100
AcDbDictionary
281
     1
  3
Normal
350
F
100
AcDbDictionaryWithDefault
340
F
  0
DICTIONARY
  5
47
102
{ACAD_REACTORS
330
C
102
}
330
C
100
AcDbDictionary
281
     1
  3
A0
350
48
  3
A1
350
49
  3
A2
350
4A
  3
A3
350
4B
  3
A4
350
4C
  3
A5
350
4D
  3
A6
350
4E
  3
A7
350
4F
  3
A8
350
50
  3
A9
350
51
  3
B0
350
52
  3
B1
350
53
  3
B2
350
54
  3
B3
350
55
  3
B4
350
56
  3
B5
350
57
  3
B6
350
58
  3
B7
350
59
  3
B8
350
5A
  3
B9
350
5B
  3
C0
350
5C
  3
C1
350
5D
  3
C2
350
5E
  3
C3
350
5F
  3
C4
350
60
  3
C5
350
61
  3
C6
350
62
  3
C7
350
63
  3
C8
350
64
  3
C9
350
65
  3
D0
350
66
  3
D1
350
67
  3
D2
350
68
  0
DICTIONARY
  5
133
102
{ACAD_REACTORS
330
C
102
}
330
C
100
AcDbDictionary
281
     1
  0
XRECORD
  5
165
102
{ACAD_REACTORS
330
C
102
}
330
C
100
AcDbXrecord
280
     1
  1
DWGPROPS COOKIE
  2

  3

  4

  6

  7

  8
12011908
  9

300
=
301
=
302
=
303
=
304
=
305
=
306
=
307
=
308
=
309
=
 40
0.0
 41
2458250.116475417
 42
2458264.037347813
  1

 90
        0
  0
LAYOUT
  5
1E
102
{ACAD_REACTORS
330
1A
102
}
330
1A
100
AcDbPlotSettings
  1

  2
none_device
  4

  6

 40
0.0
 41
0.0
 42
0.0
 43
0.0
 44
0.0
 45
0.0
 46
0.0
 47
0.0
 48
0.0
 49
0.0
140
0.0
141
0.0
142
1.0
143
1.0
 70
   688
 72
     1
 73
     0
 74
     5
  7

 75
    16
147
1.0
148
0.0
149
0.0
100
AcDbLayout
  1
Layout1
 70
     1
 71
     1
 10
0.0
 20
0.0
 11
420.0
 21
297.0
 12
0.0
 22
0.0
 32
0.0
 14
1.000000000000000E+20
 24
1.000000000000000E+20
 34
1.000000000000000E+20
 15
-1.000000000000000E+20
 25
-1.000000000000000E+20
 35
-1.000000000000000E+20
146
0.0
 13
0.0
 23
0.0
 33
0.0
 16
1.0
 26
0.0
 36
0.0
 17
0.0
 27
1.0
 37
0.0
 76
     0
330
1B
  0
LAYOUT
  5
26
102
{ACAD_REACTORS
330
1A
102
}
330
1A
100
AcDbPlotSettings
  1

  2
none_device
  4

  6

 40
0.0
 41
0.0
 42
0.0
 43
0.0
 44
0.0
 45
0.0
 46
0.0
 47
0.0
 48
0.0
 49
0.0
140
0.0
141
0.0
142
1.0
143
1.0
 70
   688
 72
     1
 73
     0
 74
     5
  7

 75
    16
147
1.0
148
0.0
149
0.0
100
AcDbLayout
  1
Layout2
 70
     1
 71
     2
 10
0.0
 20
0.0
 11
0.0
 21
0.0
 12
0.0
 22
0.0
 32
0.0
 14
0.0
 24
0.0
 34
0.0
 15
0.0
 25
0.0
 35
0.0
146
0.0
 13
0.0
 23
0.0
 33
0.0
 16
1.0
 26
0.0
 36
0.0
 17
0.0
 27
1.0
 37
0.0
 76
     0
330
23
  0
LAYOUT
  5
22
102
{ACAD_REACTORS
330
1A
102
}
330
1A
100
AcDbPlotSettings
  1

  2
none_device
  4
ANSI_A_(11.00_x_8.50_Inches)
  6

 40
6.35
 41
19.05
 42
6.35000508
 43
19.05000254
 44
279.4
 45
215.9
 46
146.5436909038409
 47
117.6373515223348
 48
0.0
 49
0.0
140
0.0
141
0.0
142
0.1052708361337918
143
1.0
 70
  1696
 72
     0
 73
     0
 74
     0
  7

 75
     0
147
0.0235690232323232
148
0.0
149
0.0
100
AcDbLayout
  1
Model
 70
     1
 71
     0
 10
0.0
 20
0.0
 11
420.0
 21
297.0
 12
0.0
 22
0.0
 32
0.0
 14
-57.31154674349634
 24
-49.97180738881173
 34
0.0
 15
35.04953634747187
 25
29.08415911661227
 35
0.0
146
0.0
 13
0.0
 23
0.0
 33
0.0
 16
1.0
 26
0.0
 36
0.0
 17
0.0
 27
1.0
 37
0.0
 76
     0
330
1F
331
29
  0
MLINESTYLE
  5
18
102
{ACAD_REACTORS
330
17
102
}
330
17
100
AcDbMlineStyle
  2
Standard
 70
     0
  3

 62
   256
 51
90.0
 52
90.0
 71
     2
 49
0.5
 62
   256
  6
BYLAYER
 49
-0.5
 62
   256
  6
BYLAYER
  0
ACDBPLACEHOLDER
  5
F
102
{ACAD_REACTORS
330
E
102
}
330
E
  0
SCALE
  5
48
102
{ACAD_REACTORS
330
47
102
}
330
47
100
AcDbScale
 70
     0
300
1:1
140
1.0
141
1.0
290
     1
  0
SCALE
  5
49
102
{ACAD_REACTORS
330
47
102
}
330
47
100
AcDbScale
 70
     0
300
1:2
140
1.0
141
2.0
290
     0
  0
SCALE
  5
4A
102
{ACAD_REACTORS
330
47
102
}
330
47
100
AcDbScale
 70
     0
300
1:4
140
1.0
141
4.0
290
     0
  0
SCALE
  5
4B
102
{ACAD_REACTORS
330
47
102
}
330
47
100
AcDbScale
 70
     0
300
1:5
140
1.0
141
5.0
290
     0
  0
SCALE
  5
4C
102
{ACAD_REACTORS
330
47
102
}
330
47
100
AcDbScale
 70
     0
300
1:8
140
1.0
141
8.0
290
     0
  0
SCALE
  5
4D
102
{ACAD_REACTORS
330
47
102
}
330
47
100
AcDbScale
 70
     0
300
1:10
140
1.0
141
10.0
290
     0
  0
SCALE
  5
4E
102
{ACAD_REACTORS
330
47
102
}
330
47
100
AcDbScale
 70
     0
300
1:16
140
1.0
141
16.0
290
     0
  0
SCALE
  5
4F
102
{ACAD_REACTORS
330
47
102
}
330
47
100
AcDbScale
 70
     0
300
1:20
140
1.0
141
20.0
290
     0
  0
SCALE
  5
50
102
{ACAD_REACTORS
330
47
102
}
330
47
100
AcDbScale
 70
     0
300
1:30
140
1.0
141
30.0
290
     0
  0
SCALE
  5
51
102
{ACAD_REACTORS
330
47
102
}
330
47
100
AcDbScale
 70
     0
300
1:40
140
1.0
141
40.0
290
     0
  0
SCALE
  5
52
102
{ACAD_REACTORS
330
47
102
}
330
47
100
AcDbScale
 70
     0
300
1:50
140
1.0
141
50.0
290
     0
  0
SCALE
  5
53
102
{ACAD_REACTORS
330
47
102
}
330
47
100
AcDbScale
 70
     0
300
1:100
140
1.0
141
100.0
290
     0
  0
SCALE
  5
54
102
{ACAD_REACTORS
330
47
102
}
330
47
100
AcDbScale
 70
     0
300
2:1
140
2.0
141
1.0
290
     0
  0
SCALE
  5
55
102
{ACAD_REACTORS
330
47
102
}
330
47
100
AcDbScale
 70
     0
300
4:1
140
4.0
141
1.0
290
     0
  0
SCALE
  5
56
102
{ACAD_REACTORS
330
47
102
}
330
47
100
AcDbScale
 70
     0
300
8:1
140
8.0
141
1.0
290
     0
  0
SCALE
  5
57
102
{ACAD_REACTORS
330
47
102
}
330
47
100
AcDbScale
 70
     0
300
10:1
140
10.0
141
1.0
290
     0
  0
SCALE
  5
58
102
{ACAD_REACTORS
330
47
102
}
330
47
100
AcDbScale
 70
     0
300
100:1
140
100.0
141
1.0
290
     0
  0
SCALE
  5
59
102
{ACAD_REACTORS
330
47
102
}
330
47
100
AcDbScale
 70
     0
300
1/128" = 1'-0"
140
0.0078125
141
12.0
290
     0
  0
SCALE
  5
5A
102
{ACAD_REACTORS
330
47
102
}
330
47
100
AcDbScale
 70
     0
300
1/64" = 1'-0"
140
0.015625
141
12.0
290
     0
  0
SCALE
  5
5B
102
{ACAD_REACTORS
330
47
102
}
330
47
100
AcDbScale
 70
     0
300
1/32" = 1'-0"
140
0.03125
141
12.0
290
     0
  0
SCALE
  5
5C
102
{ACAD_REACTORS
330
47
102
}
330
47
100
AcDbScale
 70
     0
300
1/16" = 1'-0"
140
0.0625
141
12.0
290
     0
  0
SCALE
  5
5D
102
{ACAD_REACTORS
330
47
102
}
330
47
100
AcDbScale
 70
     0
300
3/32" = 1'-0"
140
0.09375
141
12.0
290
     0
  0
SCALE
  5
5E
102
{ACAD_REACTORS
330
47
102
}
330
47
100
AcDbScale
 70
     0
300
1/8" = 1'-0"
140
0.125
141
12.0
290
     0
  0
SCALE
  5
5F
102
{ACAD_REACTORS
330
47
102
}
330
47
100
AcDbScale
 70
     0
300
3/16" = 1'-0"
140
0.1875
141
12.0
290
     0
  0
SCALE
  5
60
102
{ACAD_REACTORS
330
47
102
}
330
47
100
AcDbScale
 70
     0
300
1/4" = 1'-0"
140
0.25
141
12.0
290
     0
  0
SCALE
  5
61
102
{ACAD_REACTORS
330
47
102
}
330
47
100
AcDbScale
 70
     0
300
3/8" = 1'-0"
140
0.375
141
12.0
290
     0
  0
SCALE
  5
62
102
{ACAD_REACTORS
330
47
102
}
330
47
100
AcDbScale
 70
     0
300
1/2" = 1'-0"
140
0.5
141
12.0
290
     0
  0
SCALE
  5
63
102
{ACAD_REACTORS
330
47
102
}
330
47
100
AcDbScale
 70
     0
300
3/4" = 1'-0"
140
0.75
141
12.0
290
     0
  0
SCALE
  5
64
102
{ACAD_REACTORS
330
47
102
}
330
47
100
AcDbScale
 70
     0
300
1" = 1'-0"
140
1.0
141
12.0
290
     0
  0
SCALE
  5
65
102
{ACAD_REACTORS
330
47
102
}
330
47
100
AcDbScale
 70
     0
300
1-1/2" = 1'-0"
140
1.5
141
12.0
290
     0
  0
SCALE
  5
66
102
{ACAD_REACTORS
330
47
102
}
330
47
100
AcDbScale
 70
     0
300
3" = 1'-0"
140
3.0
141
12.0
290
     0
  0
SCALE
  5
67
102
{ACAD_REACTORS
330
47
102
}
330
47
100
AcDbScale
 70
     0
300
6" = 1'-0"
140
6.0
141
12.0
290
     0
  0
SCALE
  5
68
102
{ACAD_REACTORS
330
47
102
}
330
47
100
AcDbScale
 70
     0
300
1'-0" = 1'-0"
140
12.0
141
12.0
290
     0
  0
ENDSEC
  0
EOF
