  0
SECTION
  2
HEADER
  9
$ACADVER
  1
AC1015
  9
$ACADMAINTVER
 70
     6
  9
$DWGCODEPAGE
  3
ANSI_949
  9
$INSBASE
 10
0.0
 20
0.0
 30
0.0
  9
$EXTMIN
 10
-46.5547687112503
 20
-49.97180738881174
 30
0.0
  9
$EXTMAX
 10
36.11652364557965
 20
28.69589603119115
 30
0.0
  9
$LIMMIN
 10
0.0
 20
0.0
  9
$LIMMAX
 10
420.0
 20
297.0
  9
$ORTHOMODE
 70
     0
  9
$REGENMODE
 70
     1
  9
$FILLMODE
 70
     1
  9
$QTEXTMODE
 70
     0
  9
$MIRRTEXT
 70
     1
  9
$LTSCALE
 40
1.0
  9
$ATTMODE
 70
     1
  9
$TEXTSIZE
 40
3.5
  9
$TRACEWID
 40
1.0
  9
$TEXTSTYLE
  7
Standard
  9
$CLAYER
  8
0
  9
$CELTYPE
  6
ByLayer
  9
$CECOLOR
 62
   256
  9
$CELTSCALE
 40
1.0
  9
$DISPSILH
 70
     0
  9
$DIMSCALE
 40
1.0
  9
$DIMASZ
 40
3.302
  9
$DIMEXO
 40
1.0
  9
$DIMDLI
 40
3.75
  9
$DIMRND
 40
0.0
  9
$DIMDLE
 40
0.0
  9
$DIMEXE
 40
1.0
  9
$DIMTP
 40
0.0
  9
$DIMTM
 40
0.0
  9
$DIMTXT
 40
3.5
  9
$DIMCEN
 40
2.5
  9
$DIMTSZ
 40
0.0
  9
$DIMTOL
 70
     0
  9
$DIMLIM
 70
     0
  9
$DIMTIH
 70
     1
  9
$DIMTOH
 70
     1
  9
$DIMSE1
 70
     0
  9
$DIMSE2
 70
     0
  9
$DIMTAD
 70
     1
  9
$DIMZIN
 70
     0
  9
$DIMBLK
  1

  9
$DIMASO
 70
     1
  9
$DIMSHO
 70
     1
  9
$DIMPOST
  1

  9
$DIMAPOST
  1

  9
$DIMALT
 70
     0
  9
$DIMALTD
 70
     3
  9
$DIMALTF
 40
0.0393700787401575
  9
$DIMLFAC
 40
1.0
  9
$DIMTOFL
 70
     1
  9
$DIMTVP
 40
0.0
  9
$DIMTIX
 70
     0
  9
$DIMSOXD
 70
     0
  9
$DIMSAH
 70
     0
  9
$DIMBLK1
  1

  9
$DIMBLK2
  1

  9
$DIMSTYLE
  2
ISO-25
  9
$DIMCLRD
 70
     0
  9
$DIMCLRE
 70
     0
  9
$DIMCLRT
 70
     0
  9
$DIMTFAC
 40
1.0
  9
$DIMGAP
 40
1.524
  9
$DIMJUST
 70
     0
  9
$DIMSD1
 70
     0
  9
$DIMSD2
 70
     0
  9
$DIMTOLJ
 70
     0
  9
$DIMTZIN
 70
     0
  9
$DIMALTZ
 70
     0
  9
$DIMALTTZ
 70
     0
  9
$DIMUPT
 70
     0
  9
$DIMDEC
 70
     2
  9
$DIMTDEC
 70
     2
  9
$DIMALTU
 70
     2
  9
$DIMALTTD
 70
     3
  9
$DIMTXSTY
  7
Standard
  9
$DIMAUNIT
 70
     0
  9
$DIMADEC
 70
     2
  9
$DIMALTRND
 40
0.0
  9
$DIMAZIN
 70
     0
  9
$DIMDSEP
 70
    44
  9
$DIMATFIT
 70
     3
  9
$DIMFRAC
 70
     0
  9
$DIMLDRBLK
  1

  9
$DIMLUNIT
 70
     2
  9
$DIMLWD
 70
    -2
  9
$DIMLWE
 70
    -2
  9
$DIMTMOVE
 70
     0
  9
$LUNITS
 70
     2
  9
$LUPREC
 70
     2
  9
$SKETCHINC
 40
1.0
  9
$FILLETRAD
 40
10.0
  9
$AUNITS
 70
     0
  9
$AUPREC
 70
     2
  9
$MENU
  1
.
  9
$ELEVATION
 40
0.0
  9
$PELEVATION
 40
0.0
  9
$THICKNESS
 40
0.0
  9
$LIMCHECK
 70
     0
  9
$CHAMFERA
 40
0.0
  9
$CHAMFERB
 40
0.0
  9
$CHAMFERC
 40
0.0
  9
$CHAMFERD
 40
0.0
  9
$SKPOLY
 70
     0
  9
$TDCREATE
 40
2458250.490934629
  9
$TDUCREATE
 40
2458250.115934629
  9
$TDUPDATE
 40
2458264.607542893
  9
$TDUUPDATE
 40
2458264.232542893
  9
$TDINDWG
 40
0.0002554398
  9
$TDUSRTIMER
 40
0.0003201736
  9
$USRTIMER
 70
     1
  9
$ANGBASE
 50
0.0
  9
$ANGDIR
 70
     0
  9
$PDMODE
 70
     0
  9
$PDSIZE
 40
-1.0
  9
$PLINEWID
 40
0.0
  9
$SPLFRAME
 70
     0
  9
$SPLINETYPE
 70
     6
  9
$SPLINESEGS
 70
     8
  9
$HANDSEED
  5
13C
  9
$SURFTAB1
 70
     6
  9
$SURFTAB2
 70
     6
  9
$SURFTYPE
 70
     6
  9
$SURFU
 70
     6
  9
$SURFV
 70
     6
  9
$UCSBASE
  2

  9
$UCSNAME
  2

  9
$UCSORG
 10
0.0
 20
0.0
 30
0.0
  9
$UCSXDIR
 10
1.0
 20
0.0
 30
0.0
  9
$UCSYDIR
 10
0.0
 20
1.0
 30
0.0
  9
$UCSORTHOREF
  2

  9
$UCSORTHOVIEW
 70
     0
  9
$UCSORGTOP
 10
0.0
 20
0.0
 30
0.0
  9
$UCSORGBOTTOM
 10
0.0
 20
0.0
 30
0.0
  9
$UCSORGLEFT
 10
0.0
 20
0.0
 30
0.0
  9
$UCSORGRIGHT
 10
0.0
 20
0.0
 30
0.0
  9
$UCSORGFRONT
 10
0.0
 20
0.0
 30
0.0
  9
$UCSORGBACK
 10
0.0
 20
0.0
 30
0.0
  9
$PUCSBASE
  2

  9
$PUCSNAME
  2

  9
$PUCSORG
 10
0.0
 20
0.0
 30
0.0
  9
$PUCSXDIR
 10
1.0
 20
0.0
 30
0.0
  9
$PUCSYDIR
 10
0.0
 20
1.0
 30
0.0
  9
$PUCSORTHOREF
  2

  9
$PUCSORTHOVIEW
 70
     0
  9
$PUCSORGTOP
 10
0.0
 20
0.0
 30
0.0
  9
$PUCSORGBOTTOM
 10
0.0
 20
0.0
 30
0.0
  9
$PUCSORGLEFT
 10
0.0
 20
0.0
 30
0.0
  9
$PUCSORGRIGHT
 10
0.0
 20
0.0
 30
0.0
  9
$PUCSORGFRONT
 10
0.0
 20
0.0
 30
0.0
  9
$PUCSORGBACK
 10
0.0
 20
0.0
 30
0.0
  9
$USERI1
 70
     0
  9
$USERI2
 70
     0
  9
$USERI3
 70
     0
  9
$USERI4
 70
     0
  9
$USERI5
 70
     0
  9
$USERR1
 40
0.0
  9
$USERR2
 40
0.0
  9
$USERR3
 40
0.0
  9
$USERR4
 40
0.0
  9
$USERR5
 40
0.0
  9
$WORLDVIEW
 70
     1
  9
$SHADEDGE
 70
     3
  9
$SHADEDIF
 70
    70
  9
$TILEMODE
 70
     1
  9
$MAXACTVP
 70
    64
  9
$PINSBASE
 10
0.0
 20
0.0
 30
0.0
  9
$PLIMCHECK
 70
     0
  9
$PEXTMIN
 10
1.000000000000000E+20
 20
1.000000000000000E+20
 30
1.000000000000000E+20
  9
$PEXTMAX
 10
-1.000000000000000E+20
 20
-1.000000000000000E+20
 30
-1.000000000000000E+20
  9
$PLIMMIN
 10
0.0
 20
0.0
  9
$PLIMMAX
 10
0.0
 20
0.0
  9
$UNITMODE
 70
     0
  9
$VISRETAIN
 70
     1
  9
$PLINEGEN
 70
     0
  9
$PSLTSCALE
 70
     1
  9
$TREEDEPTH
 70
  3020
  9
$CMLSTYLE
  2
Standard
  9
$CMLJUST
 70
     0
  9
$CMLSCALE
 40
20.0
  9
$PROXYGRAPHICS
 70
     1
  9
$MEASUREMENT
 70
     1
  9
$CELWEIGHT
370
    -1
  9
$ENDCAPS
280
     0
  9
$JOINSTYLE
280
     0
  9
$LWDISPLAY
290
     1
  9
$INSUNITS
 70
     4
  9
$HYPERLINKBASE
  1

  9
$STYLESHEET
  1

  9
$XEDIT
290
     1
  9
$CEPSNTYPE
380
     0
  9
$PSTYLEMODE
290
     1
  9
$FINGERPRINTGUID
  2
{D467B15B-E333-4C80-BE7A-25B15E8EED86}
  9
$VERSIONGUID
  2
{FAEB1C32-E019-11D5-929B-00C0DF256EC4}
  9
$EXTNAMES
290
     1
  9
$PSVPSCALE
 40
0.0
  9
$OLESTARTUP
290
     0
  0
ENDSEC
  0
SECTION
  2
CLASSES
  0
CLASS
  1
ACDBDICTIONARYWDFLT
  2
AcDbDictionaryWithDefault
  3
ObjectDBX Classes
 90
        0
280
     0
281
     0
  0
CLASS
  1
VISUALSTYLE
  2
AcDbVisualStyle
  3
ObjectDBX Classes
 90
     4095
280
     0
281
     0
  0
CLASS
  1
MATERIAL
  2
AcDbMaterial
  3
ObjectDBX Classes
 90
     1153
280
     0
281
     0
  0
CLASS
  1
SCALE
  2
AcDbScale
  3
ObjectDBX Classes
 90
     1153
280
     0
281
     0
  0
CLASS
  1
SUN
  2
AcDbSun
  3
SCENEOE
 90
     1153
280
     0
281
     0
  0
CLASS
  1
ACDBPLACEHOLDER
  2
AcDbPlaceHolder
  3
ObjectDBX Classes
 90
        0
280
     0
281
     0
  0
CLASS
  1
LAYOUT
  2
AcDbLayout
  3
ObjectDBX Classes
 90
        0
280
     0
281
     0
  0
CLASS
  1
TABLESTYLE
  2
AcDbTableStyle
  3
ObjectDBX Classes
 90
     4095
280
     0
281
     0
  0
CLASS
  1
MLEADERSTYLE
  2
AcDbMLeaderStyle
  3
ACDB_MLEADERSTYLE_CLASS
 90
     4095
280
     0
281
     0
  0
CLASS
  1
DICTIONARYVAR
  2
AcDbDictionaryVar
  3
ObjectDBX Classes
 90
        0
280
     0
281
     0
  0
ENDSEC
  0
SECTION
  2
TABLES
  0
TABLE
  2
VPORT
  5
8
330
0
100
AcDbSymbolTable
 70
     1
  0
VPORT
  5
29
330
8
100
AcDbSymbolTableRecord
100
AcDbViewportTableRecord
  2
*Active
 70
     0
 10
0.0
 20
0.0
 11
1.0
 21
1.0
 12
4.541579557242212
 22
-4.552335233228748
 13
0.0
 23
0.0
 14
10.0
 24
10.0
 15
10.0
 25
10.0
 16
0.0
 26
0.0
 36
1.0
 17
0.0
 27
0.0
 37
0.0
 40
52.73544260310422
 41
2.223011363636364
 42
50.0
 43
0.0
 44
0.0
 50
0.0
 51
0.0
 71
    16
 72
  2000
 73
     1
 74
     3
 75
     0
 76
     0
 77
     0
 78
     0
281
     0
 65
     1
110
0.0
120
0.0
130
0.0
111
1.0
121
0.0
131
0.0
112
0.0
122
1.0
132
0.0
 79
     0
146
0.0
  0
ENDTAB
  0
TABLE
  2
LTYPE
  5
5
330
0
100
AcDbSymbolTable
 70
     6
  0
LTYPE
  5
14
330
5
100
AcDbSymbolTableRecord
100
AcDbLinetypeTableRecord
  2
ByBlock
 70
     0
  3

 72
    65
 73
     0
 40
0.0
  0
LTYPE
  5
15
330
5
100
AcDbSymbolTableRecord
100
AcDbLinetypeTableRecord
  2
ByLayer
 70
     0
  3

 72
    65
 73
     0
 40
0.0
  0
LTYPE
  5
16
330
5
100
AcDbSymbolTableRecord
100
AcDbLinetypeTableRecord
  2
Continuous
 70
     0
  3
Solid line
 72
    65
 73
     0
 40
0.0
  0
LTYPE
  5
6A
330
5
100
AcDbSymbolTableRecord
100
AcDbLinetypeTableRecord
  2
HIDDEN
 70
     0
  3
Hidden __ __ __ __ __ __ __ __ __ __ __ __ __ __
 72
    65
 73
     2
 40
1.905
 49
1.27
 74
     0
 49
-0.635
 74
     0
  0
LTYPE
  5
6B
330
5
100
AcDbSymbolTableRecord
100
AcDbLinetypeTableRecord
  2
PHANTOM
 70
     0
  3
Phantom ______  __  __  ______  __  __  ______
 72
    65
 73
     6
 40
12.7
 49
6.35
 74
     0
 49
-1.27
 74
     0
 49
1.27
 74
     0
 49
-1.27
 74
     0
 49
1.27
 74
     0
 49
-1.27
 74
     0
  0
LTYPE
  5
6C
330
5
100
AcDbSymbolTableRecord
100
AcDbLinetypeTableRecord
  2
CENTER
 70
     0
  3
Center ____ _ ____ _ ____ _ ____ _ ____ _ ____
 72
    65
 73
     4
 40
10.16
 49
6.35
 74
     0
 49
-1.27
 74
     0
 49
1.27
 74
     0
 49
-1.27
 74
     0
  0
LTYPE
  5
6D
330
5
100
AcDbSymbolTableRecord
100
AcDbLinetypeTableRecord
  2
CENTERX2
 70
     0
  3
Center (2x) ________  __  ________  __  _____
 72
    65
 73
     4
 40
20.32
 49
12.7
 74
     0
 49
-2.54
 74
     0
 49
2.54
 74
     0
 49
-2.54
 74
     0
  0
LTYPE
  5
6E
330
5
100
AcDbSymbolTableRecord
100
AcDbLinetypeTableRecord
  2
DOT2
 70
     0
  3
Dot (.5x) ........................................
 72
    65
 73
     2
 40
0.635
 49
0.0
 74
     0
 49
-0.635
 74
     0
  0
ENDTAB
  0
TABLE
  2
LAYER
  5
2
330
0
100
AcDbSymbolTable
 70
    17
  0
LAYER
  5
10
330
2
100
AcDbSymbolTableRecord
100
AcDbLayerTableRecord
  2
0
 70
     0
 62
     7
  6
Continuous
370
    -3
390
F
  0
LAYER
  5
6F
330
2
100
AcDbSymbolTableRecord
100
AcDbLayerTableRecord
  2
FORMAT
 70
     0
 62
     2
  6
Continuous
370
    -3
390
F
  0
LAYER
  5
70
330
2
100
AcDbSymbolTableRecord
100
AcDbLayerTableRecord
  2
외형선
 70
     0
 62
   100
  6
Continuous
370
    30
390
F
  0
LAYER
  5
71
330
2
100
AcDbSymbolTableRecord
100
AcDbLayerTableRecord
  2
숨은선
 70
     0
 62
     2
  6
HIDDEN
370
    15
390
F
  0
LAYER
  5
72
330
2
100
AcDbSymbolTableRecord
100
AcDbLayerTableRecord
  2
중심선
 70
     0
 62
     1
  6
CENTERX2
370
    -3
390
F
  0
LAYER
  5
73
330
2
100
AcDbSymbolTableRecord
100
AcDbLayerTableRecord
  2
파단선
 70
     0
 62
     4
  6
Continuous
370
    -3
390
F
  0
LAYER
  5
74
330
2
100
AcDbSymbolTableRecord
100
AcDbLayerTableRecord
  2
해칭선
 70
     0
 62
     4
  6
Continuous
370
    -3
390
F
  0
LAYER
  5
75
330
2
100
AcDbSymbolTableRecord
100
AcDbLayerTableRecord
  2
가는실선
 70
     0
 62
     4
  6
Continuous
370
    -3
390
F
  0
LAYER
  5
76
330
2
100
AcDbSymbolTableRecord
100
AcDbLayerTableRecord
  2
치수_보조선
 70
     0
 62
     4
  6
Continuous
370
    -3
390
F
  0
LAYER
  5
77
330
2
100
AcDbSymbolTableRecord
100
AcDbLayerTableRecord
  2
치수문자_일반주서
 70
     0
 62
     7
  6
Continuous
370
    15
390
F
  0
LAYER
  5
78
330
2
100
AcDbSymbolTableRecord
100
AcDbLayerTableRecord
  2
개별주서
 70
     0
 62
   100
  6
Continuous
370
    30
390
F
  0
LAYER
  5
79
330
2
100
AcDbSymbolTableRecord
100
AcDbLayerTableRecord
  2
중간선
 70
     0
 62
     2
  6
Continuous
370
    15
390
F
  0
LAYER
  5
7A
330
2
100
AcDbSymbolTableRecord
100
AcDbLayerTableRecord
  2
윤곽선
 70
     0
 62
     3
  6
Continuous
370
    40
390
F
  0
LAYER
  5
7B
330
2
100
AcDbSymbolTableRecord
100
AcDbLayerTableRecord
  2
중심마크
 70
     0
 62
   100
  6
Continuous
370
    30
390
F
  0
LAYER
  5
7C
330
2
100
AcDbSymbolTableRecord
100
AcDbLayerTableRecord
  2
가상선
 70
     0
 62
     4
  6
PHANTOM
370
    -3
390
F
  0
LAYER
  5
7D
330
2
100
AcDbSymbolTableRecord
100
AcDbLayerTableRecord
  2
특수지정선
 70
     0
 62
     5
  6
CENTERX2
370
    60
390
F
  0
LAYER
  5
136
330
2
100
AcDbSymbolTableRecord
100
AcDbLayerTableRecord
  2
Defpoints
 70
     0
 62
     7
  6
Continuous
290
     0
370
    -3
390
F
  0
ENDTAB
  0
TABLE
  2
STYLE
  5
3
330
0
100
AcDbSymbolTable
 70
     2
  0
STYLE
  5
11
330
3
100
AcDbSymbolTableRecord
100
AcDbTextStyleTableRecord
  2
Standard
 70
     0
 40
0.0
 41
1.0
 50
0.0
 71
     0
 42
3.5
  3
txt
  4

  0
STYLE
  5
93
330
3
100
AcDbSymbolTableRecord
100
AcDbTextStyleTableRecord
  2
SLDTEXTSTYLE0
 70
     0
 40
0.0
 41
0.75
 50
0.0
 71
     0
 42
3.5
  3
TXT
  4

  0
ENDTAB
  0
TABLE
  2
VIEW
  5
6
330
0
100
AcDbSymbolTable
 70
     0
  0
ENDTAB
  0
TABLE
  2
UCS
  5
7
330
0
100
AcDbSymbolTable
 70
     0
  0
ENDTAB
  0
TABLE
  2
APPID
  5
9
330
0
100
AcDbSymbolTable
 70
     2
  0
APPID
  5
12
330
9
100
AcDbSymbolTableRecord
100
AcDbRegAppTableRecord
  2
ACAD
 70
     0
  0
APPID
  5
13A
330
9
100
AcDbSymbolTableRecord
100
AcDbRegAppTableRecord
  2
PE_URL
 70
     0
  0
ENDTAB
  0
TABLE
  2
DIMSTYLE
  5
A
330
0
100
AcDbSymbolTable
 70
     3
100
AcDbDimStyleTable
  0
DIMSTYLE
105
27
330
A
100
AcDbSymbolTableRecord
100
AcDbDimStyleTableRecord
  2
ISO-25
 70
     0
 41
2.5
 42
0.625
 43
3.75
 44
1.25
 73
     0
 74
     0
 77
     1
 78
     8
140
2.5
141
2.5
143
0.03937007874016
147
0.625
171
     3
172
     1
178
     0
271
     2
272
     2
274
     3
278
    44
283
     0
284
     8
340
11
  0
DIMSTYLE
105
D5
102
{ACAD_REACTORS
330
D4
330
EC
330
F9
102
}
330
A
100
AcDbSymbolTableRecord
100
AcDbDimStyleTableRecord
  2
SLDDIMSTYLE0
 70
     0
 41
3.302
 44
0.0
 45
0.000000001
 73
     0
 74
     0
 77
     1
 78
    12
 79
     3
140
3.5
147
0.875
172
     1
173
     1
178
     0
271
     2
272
     2
276
     2
284
    12
289
     0
340
93
  0
DIMSTYLE
105
E2
102
{ACAD_REACTORS
330
E1
102
}
330
A
100
AcDbSymbolTableRecord
100
AcDbDimStyleTableRecord
  2
SLDDIMSTYLE1
 70
     0
 41
3.302
 44
0.0
 45
0.000000001
 73
     0
 74
     0
 77
     1
 78
    12
 79
     3
140
3.5
147
0.875
173
     1
178
     0
271
     2
272
     2
276
     2
284
    12
340
93
  0
ENDTAB
  0
TABLE
  2
BLOCK_RECORD
  5
1
330
0
100
AcDbSymbolTable
 70
     7
  0
BLOCK_RECORD
  5
1F
330
1
100
AcDbSymbolTableRecord
100
AcDbBlockTableRecord
  2
*Model_Space
340
22
  0
BLOCK_RECORD
  5
1B
330
1
100
AcDbSymbolTableRecord
100
AcDbBlockTableRecord
  2
*Paper_Space
340
1E
  0
BLOCK_RECORD
  5
23
330
1
100
AcDbSymbolTableRecord
100
AcDbBlockTableRecord
  2
*Paper_Space0
340
26
  0
BLOCK_RECORD
  5
7E
330
1
100
AcDbSymbolTableRecord
100
AcDbBlockTableRecord
  2
블럭10
340
0
102
{BLKREFS
331
CD
102
}
  0
BLOCK_RECORD
  5
D6
330
1
100
AcDbSymbolTableRecord
100
AcDbBlockTableRecord
  2
_D
340
0
  0
BLOCK_RECORD
  5
E3
330
1
100
AcDbSymbolTableRecord
100
AcDbBlockTableRecord
  2
_D_1
340
0
  0
BLOCK_RECORD
  5
ED
330
1
100
AcDbSymbolTableRecord
100
AcDbBlockTableRecord
  2
_D_2
340
0
  0
BLOCK_RECORD
  5
FA
330
1
100
AcDbSymbolTableRecord
100
AcDbBlockTableRecord
  2
_D_3
340
0
  0
BLOCK_RECORD
  5
106
330
1
100
AcDbSymbolTableRecord
100
AcDbBlockTableRecord
  2
SW_DOWELSYMBOL_0
340
0
102
{BLKREFS
331
10C
102
}
  0
ENDTAB
  0
ENDSEC
  0
SECTION
  2
BLOCKS
  0
BLOCK
  5
20
330
1F
100
AcDbEntity
  8
0
100
AcDbBlockBegin
  2
*Model_Space
 70
     0
 10
0.0
 20
0.0
 30
0.0
  3
*Model_Space
  1

  0
ENDBLK
  5
21
330
1F
100
AcDbEntity
  8
0
100
AcDbBlockEnd
  0
BLOCK
  5
1C
330
1B
100
AcDbEntity
 67
     1
  8
0
100
AcDbBlockBegin
  2
*Paper_Space
 70
     0
 10
0.0
 20
0.0
 30
0.0
  3
*Paper_Space
  1

  0
ENDBLK
  5
1D
330
1B
100
AcDbEntity
 67
     1
  8
0
100
AcDbBlockEnd
  0
BLOCK
  5
24
330
23
100
AcDbEntity
  8
0
100
AcDbBlockBegin
  2
*Paper_Space0
 70
     0
 10
0.0
 20
0.0
 30
0.0
  3
*Paper_Space0
  1

  0
ENDBLK
  5
25
330
23
100
AcDbEntity
  8
0
100
AcDbBlockEnd
  0
BLOCK
  5
7F
330
7E
100
AcDbEntity
  8
0
100
AcDbBlockBegin
  2
블럭10
 70
     2
 10
0.0
 20
0.0
 30
0.0
  3
블럭10
  1

  0
ELLIPSE
  5
81
330
7E
100
AcDbEntity
  8
중심선
100
AcDbEllipse
 10
20.54032771741204
 20
12.0471743016438
 30
0.0
 11
6.600054785286829
 21
-1.261213355974178E-13
 31
0.0
210
0.0
220
0.0
230
1.0
 40
0.636358354079598
 41
0.9219305317359503
 42
6.513795318482858
  0
ELLIPSE
  5
82
330
7E
100
AcDbEntity
  8
중심선
100
AcDbEllipse
 10
20.54032771746488
 20
12.04717430159265
 30
0.0
 11
3.960054785062283
 21
1.540847449632565E-10
 31
0.0
210
0.0
220
0.0
230
1.0
 40
0.3939339440162632
 41
1.131841032648279
 42
5.62031148352944
  0
LINE
  5
83
330
7E
100
AcDbEntity
  8
중심선
100
AcDbLine
 10
2.268634060543552
 20
16.24717430164393
 30
0.0
 11
5.714909304380834
 21
16.24717430164393
 31
0.0
  0
LINE
  5
84
330
7E
100
AcDbEntity
  8
중심선
100
AcDbLine
 10
5.245725140726316
 20
7.84717430164391
 30
0.0
 11
8.692000384563599
 21
7.84717430164391
 31
0.0
  0
LINE
  5
85
330
7E
100
AcDbEntity
  8
중심선
100
AcDbLine
 10
15.74043728645272
 20
16.24717430164393
 30
0.0
 11
8.692000384563599
 21
7.84717430164391
 31
0.0
  0
LINE
  5
86
330
7E
100
AcDbEntity
  8
중심선
100
AcDbLine
 10
0.1404042013395286
 20
13.71084872107135
 30
0.0
 11
3.58671253028996
 21
13.71088815037384
 31
0.0
  0
LINE
  5
87
330
7E
100
AcDbEntity
  8
중심선
100
AcDbLine
 10
2.750260043222114
 20
10.84717430164391
 30
0.0
 11
6.196535287059397
 21
10.84717430164391
 31
0.0
  0
LINE
  5
88
330
7E
100
AcDbEntity
  8
중심선
100
AcDbLine
 10
12.29416204261559
 20
16.24717430164393
 30
0.0
 11
5.245725140726316
 21
7.84717430164391
 31
0.0
  0
LINE
  5
89
330
7E
100
AcDbEntity
  8
중심선
100
AcDbLine
 10
10.72767329541681
 20
16.24717430164393
 30
0.0
 11
6.196535287059397
 21
10.84717430164391
 31
0.0
  0
LINE
  5
8A
330
7E
100
AcDbEntity
  8
중심선
100
AcDbLine
 10
7.28139805157953
 20
16.24717430164393
 30
0.0
 11
2.750260043222114
 21
10.84717430164391
 31
0.0
  0
LINE
  5
8B
330
7E
100
AcDbEntity
  8
중심선
100
AcDbLine
 10
5.714909304380834
 20
16.24717430164393
 30
0.0
 11
3.58671253028996
 21
13.71088815037384
 31
0.0
  0
LINE
  5
8C
330
7E
100
AcDbEntity
  8
중심선
100
AcDbLine
 10
2.268634060543552
 20
16.24717430164393
 30
0.0
 11
0.1404042013395286
 21
13.71084872107135
 31
0.0
  0
LINE
  5
8D
330
7E
100
AcDbEntity
  8
중심선
100
AcDbLine
 10
7.28139805157953
 20
16.24717430164393
 30
0.0
 11
10.72767329541681
 21
16.24717430164393
 31
0.0
  0
LINE
  5
8E
330
7E
100
AcDbEntity
  8
중심선
100
AcDbLine
 10
12.29416204261559
 20
16.24717430164393
 30
0.0
 11
15.74043728645272
 21
16.24717430164393
 31
0.0
  0
LINE
  5
8F
330
7E
100
AcDbEntity
  8
중심선
100
AcDbLine
 10
19.22036997980202
 20
11.08717430171403
 30
0.0
 11
23.66174974927406
 21
11.08717430171406
 31
0.0
  0
LINE
  5
90
330
7E
100
AcDbEntity
  8
중심선
100
AcDbLine
 10
19.22039502424796
 20
13.00717430171391
 30
0.0
 11
19.22036997980202
 21
11.08717430171403
 31
0.0
  0
LINE
  5
91
330
7E
100
AcDbEntity
  8
중심선
100
AcDbLine
 10
19.22039502424796
 20
13.00717430171391
 30
0.0
 11
26.96566020931264
 21
13.00717430171391
 31
0.0
  0
LINE
  5
92
330
7E
100
AcDbEntity
  8
중심선
100
AcDbLine
 10
22.22332737316547
 20
13.45928029700563
 30
0.0
 11
24.52862924686651
 21
15.39360700705356
 31
0.0
  0
ATTDEF
  5
94
330
7E
100
AcDbEntity
  8
FORMAT
 62
     2
100
AcDbText
 10
-16.00558753126829
 20
2.075366912832191
 30
0.0
 40
4.233333333333333
  1
SEME350404SE [ 2 FLUTE ]
 41
0.75
  7
SLDTEXTSTYLE0
 11
-16.00558753126829
 21
-0.0412997538344756
 31
0.0
100
AcDbAttributeDefinition
  3

  2
AUTOATTR0
 70
     0
 74
     1
  0
ENDBLK
  5
80
330
7E
100
AcDbEntity
  8
0
100
AcDbBlockEnd
  0
BLOCK
  5
D7
330
D6
100
AcDbEntity
  8
0
100
AcDbBlockBegin
  2
_D
 70
     0
 10
0.0
 20
0.0
 30
0.0
  3
_D
  1

  0
SOLID
  5
D9
330
D6
100
AcDbEntity
  8
치수문자_일반주서
100
AcDbTrace
 10
20.0
 20
14.24894351903706
 30
0.0
 11
23.302
 21
13.74094351903706
 31
0.0
 12
23.302
 22
14.75694351903706
 32
0.0
 13
23.302
 23
14.75694351903706
 33
0.0
  0
SOLID
  5
DA
330
D6
100
AcDbEntity
  8
치수문자_일반주서
100
AcDbTrace
 10
9.999999999999991
 20
14.24894351903706
 30
0.0
 11
6.697999999999992
 21
14.75694351903706
 31
0.0
 12
6.697999999999992
 22
13.74094351903706
 32
0.0
 13
6.697999999999992
 23
13.74094351903706
 33
0.0
  0
LINE
  5
DB
330
D6
100
AcDbEntity
  8
치수문자_일반주서
100
AcDbLine
 10
20.0
 20
2.99830963045929
 30
0.0
 11
20.0
 21
15.24894351903706
 31
0.0
  0
LINE
  5
DC
330
D6
100
AcDbEntity
  8
치수문자_일반주서
100
AcDbLine
 10
9.999999999999991
 20
2.954600273681117
 30
0.0
 11
9.999999999999991
 21
15.24894351903706
 31
0.0
  0
LINE
  5
DD
330
D6
100
AcDbEntity
  8
치수문자_일반주서
100
AcDbLine
 10
20.0
 20
14.24894351903706
 30
0.0
 11
26.35
 21
14.24894351903706
 31
0.0
  0
LINE
  5
DE
330
D6
100
AcDbEntity
  8
치수문자_일반주서
100
AcDbLine
 10
20.0
 20
14.24894351903706
 30
0.0
 11
9.999999999999991
 21
14.24894351903706
 31
0.0
  0
LINE
  5
DF
330
D6
100
AcDbEntity
  8
치수문자_일반주서
100
AcDbLine
 10
9.999999999999991
 20
14.24894351903706
 30
0.0
 11
3.649999999999992
 21
14.24894351903706
 31
0.0
  0
MTEXT
  5
E0
330
D6
100
AcDbEntity
  8
치수문자_일반주서
100
AcDbMText
 10
12.41388880647717
 20
18.76068043361597
 30
0.0
 40
3.5
 41
0.0
 71
     1
 72
     1
  1
10
  7
SLDTEXTSTYLE0
 73
     1
 44
1.0
  0
ENDBLK
  5
D8
330
D6
100
AcDbEntity
  8
0
100
AcDbBlockEnd
  0
BLOCK
  5
E4
330
E3
100
AcDbEntity
  8
0
100
AcDbBlockBegin
  2
_D_1
 70
     0
 10
0.0
 20
0.0
 30
0.0
  3
_D_1
  1

  0
SOLID
  5
E6
330
E3
100
AcDbEntity
  8
치수문자_일반주서
100
AcDbTrace
 10
19.99999999999997
 20
24.18415911661226
 30
0.0
 11
16.69799999999997
 21
24.69215911661225
 31
0.0
 12
16.69799999999997
 22
23.67615911661225
 32
0.0
 13
16.69799999999997
 23
23.67615911661225
 33
0.0
  0
SOLID
  5
E7
330
E3
100
AcDbEntity
  8
치수문자_일반주서
100
AcDbTrace
 10
-30.00000000000004
 20
24.1841591166122
 30
0.0
 11
-26.69800000000004
 21
23.67615911661221
 31
0.0
 12
-26.69800000000004
 22
24.69215911661221
 32
0.0
 13
-26.69800000000004
 23
24.69215911661221
 33
0.0
  0
LINE
  5
E8
330
E3
100
AcDbEntity
  8
치수문자_일반주서
100
AcDbLine
 10
19.99999999999999
 20
2.400000000000002
 30
0.0
 11
19.99999999999997
 21
25.18415911661226
 31
0.0
  0
LINE
  5
E9
330
E3
100
AcDbEntity
  8
치수문자_일반주서
100
AcDbLine
 10
-30.00000000000001
 20
2.569999999999995
 30
0.0
 11
-30.00000000000004
 21
25.1841591166122
 31
0.0
  0
LINE
  5
EA
330
E3
100
AcDbEntity
  8
치수문자_일반주서
100
AcDbLine
 10
19.99999999999997
 20
24.18415911661226
 30
0.0
 11
-30.00000000000004
 21
24.1841591166122
 31
0.0
  0
MTEXT
  5
EB
330
E3
100
AcDbEntity
  8
치수문자_일반주서
100
AcDbMText
 10
-7.586111193522835
 20
28.69589603119113
 30
0.0
 40
3.5
 41
0.0
 71
     1
 72
     1
  1
50
  7
SLDTEXTSTYLE0
 73
     1
 44
1.0
  0
ENDBLK
  5
E5
330
E3
100
AcDbEntity
  8
0
100
AcDbBlockEnd
  0
BLOCK
  5
EE
330
ED
100
AcDbEntity
  8
0
100
AcDbBlockBegin
  2
_D_2
 70
     0
 10
0.0
 20
0.0
 30
0.0
  3
_D_2
  1

  0
LINE
  5
F0
330
ED
100
AcDbEntity
  8
치수문자_일반주서
 62
     0
370
    -2
100
AcDbLine
 10
20.0625
 20
1.99830963045929
 30
0.0
 11
35.56619031224629
 21
1.998309630459344
 31
0.0
  0
LINE
  5
F1
330
ED
100
AcDbEntity
  8
치수문자_일반주서
 62
     0
370
    -2
100
AcDbLine
 10
20.0625
 20
-1.998309630459288
 30
0.0
 11
35.56619031224631
 21
-1.998309630459234
 31
0.0
  0
LINE
  5
F2
330
ED
100
AcDbEntity
  8
치수문자_일반주서
 62
     0
370
    -2
100
AcDbLine
 10
35.56619031224629
 20
1.998309630459344
 30
0.0
 11
35.56619031224624
 21
14.72730963045934
 31
0.0
  0
LINE
  5
F3
330
ED
100
AcDbEntity
  8
치수문자_일반주서
 62
     0
370
    -2
100
AcDbLine
 10
35.56619031224629
 20
1.998309630459344
 30
0.0
 11
35.56619031224631
 21
-1.998309630459234
 31
0.0
  0
LINE
  5
F4
330
ED
100
AcDbEntity
  8
치수문자_일반주서
 62
     0
370
    -2
100
AcDbLine
 10
35.56619031224628
 20
5.300309630459344
 30
0.0
 11
35.56619031224626
 21
8.602309630459343
 31
0.0
  0
LINE
  5
F5
330
ED
100
AcDbEntity
  8
치수문자_일반주서
 62
     0
370
    -2
100
AcDbLine
 10
35.56619031224632
 20
-5.300309630459234
 30
0.0
 11
35.56619031224633
 21
-8.602309630459233
 31
0.0
  0
SOLID
  5
F6
330
ED
100
AcDbEntity
  8
치수문자_일반주서
 62
     0
100
AcDbTrace
 10
35.01585697891294
 20
5.300309630459342
 30
0.0
 11
36.11652364557961
 21
5.300309630459346
 31
0.0
 12
35.56619031224629
 22
1.998309630459344
 32
0.0
 13
35.56619031224629
 23
1.998309630459344
 33
0.0
  0
SOLID
  5
F7
330
ED
100
AcDbEntity
  8
치수문자_일반주서
 62
     0
100
AcDbTrace
 10
36.11652364557965
 20
-5.300309630459232
 30
0.0
 11
35.01585697891299
 21
-5.300309630459235
 31
0.0
 12
35.56619031224631
 22
-1.998309630459234
 32
0.0
 13
35.56619031224631
 23
-1.998309630459234
 33
0.0
  0
MTEXT
  5
F8
330
ED
100
AcDbEntity
  8
치수문자_일반주서
 62
     0
100
AcDbMText
 10
31.19119031224626
 20
11.66480963045933
 30
0.0
 40
3.5
 41
0.0
 71
     2
 72
     1
  1
\A1;%%c4
  7
SLDTEXTSTYLE0
 11
-3.555718918277895E-15
 21
1.0
 31
0.0
 73
     1
 44
1.0
  0
POINT
  5
137
330
ED
100
AcDbEntity
  8
Defpoints
 62
     0
100
AcDbPoint
 10
20.0
 20
1.99830963045929
 30
0.0
  0
POINT
  5
138
330
ED
100
AcDbEntity
  8
Defpoints
 62
     0
100
AcDbPoint
 10
20.0
 20
-1.998309630459288
 30
0.0
  0
POINT
  5
139
330
ED
100
AcDbEntity
  8
Defpoints
 62
     0
100
AcDbPoint
 10
35.56619031224631
 20
-1.998309630459233
 30
0.0
  0
ENDBLK
  5
EF
330
ED
100
AcDbEntity
  8
0
100
AcDbBlockEnd
  0
BLOCK
  5
FB
330
FA
100
AcDbEntity
  8
0
100
AcDbBlockBegin
  2
_D_3
 70
     0
 10
0.0
 20
0.0
 30
0.0
  3
_D_3
  1

  0
SOLID
  5
FD
330
FA
100
AcDbEntity
  8
치수문자_일반주서
100
AcDbTrace
 10
-41.98955944538856
 20
1.999999999999997
 30
0.0
 11
-41.48155944538856
 21
5.301999999999997
 31
0.0
 12
-42.49755944538856
 22
5.301999999999997
 32
0.0
 13
-42.49755944538856
 23
5.301999999999997
 33
0.0
  0
SOLID
  5
FE
330
FA
100
AcDbEntity
  8
치수문자_일반주서
100
AcDbTrace
 10
-41.98955944538856
 20
-2.000000000000003
 30
0.0
 11
-42.49755944538856
 21
-5.302000000000003
 31
0.0
 12
-41.48155944538856
 22
-5.302000000000003
 32
0.0
 13
-41.48155944538856
 23
-5.302000000000003
 33
0.0
  0
LINE
  5
FF
330
FA
100
AcDbEntity
  8
치수문자_일반주서
100
AcDbLine
 10
-30.57000000000001
 20
1.999999999999998
 30
0.0
 11
-42.98955944538856
 21
1.999999999999997
 31
0.0
  0
LINE
  5
100
330
FA
100
AcDbEntity
  8
치수문자_일반주서
100
AcDbLine
 10
-30.57000000000001
 20
-2.000000000000002
 30
0.0
 11
-42.98955944538856
 21
-2.000000000000003
 31
0.0
  0
LINE
  5
101
330
FA
100
AcDbEntity
  8
치수문자_일반주서
100
AcDbLine
 10
-41.98955944538856
 20
1.999999999999997
 30
0.0
 11
-41.98955944538856
 21
8.349999999999996
 31
0.0
  0
LINE
  5
102
330
FA
100
AcDbEntity
  8
치수문자_일반주서
100
AcDbLine
 10
-41.98955944538856
 20
1.999999999999997
 30
0.0
 11
-41.98955944538856
 21
-2.000000000000003
 31
0.0
  0
LINE
  5
103
330
FA
100
AcDbEntity
  8
치수문자_일반주서
100
AcDbLine
 10
-41.98955944538856
 20
-2.000000000000003
 30
0.0
 11
-41.98955944538856
 21
-8.350000000000003
 31
0.0
  0
MTEXT
  5
104
330
FA
100
AcDbEntity
  8
치수문자_일반주서
100
AcDbMText
 10
-46.5012965345904
 20
-3.932274412363802
 30
0.0
 40
3.5
 41
0.0
 71
     1
 72
     1
  1
%%c
  7
SLDTEXTSTYLE0
 11
-7.044195017643634E-15
 21
1.0
 31
0.0
 73
     1
 44
1.0
  0
MTEXT
  5
105
330
FA
100
AcDbEntity
  8
치수문자_일반주서
100
AcDbMText
 10
-46.55476871125029
 20
1.346162986010279
 30
0.0
 40
3.5
 41
0.0
 71
     1
 72
     1
  1
4
  7
SLDTEXTSTYLE0
 11
-7.044195017643634E-15
 21
1.0
 31
0.0
 73
     1
 44
1.0
  0
ENDBLK
  5
FC
330
FA
100
AcDbEntity
  8
0
100
AcDbBlockEnd
  0
BLOCK
  5
107
330
106
100
AcDbEntity
  8
0
100
AcDbBlockBegin
  2
SW_DOWELSYMBOL_0
 70
     0
 10
0.0
 20
0.0
 30
0.0
  3
SW_DOWELSYMBOL_0
  1

  0
CIRCLE
  5
109
330
106
100
AcDbEntity
  8
외형선
 62
     0
100
AcDbCircle
 10
0.0
 20
0.0
 30
0.0
 40
3.000000000000004
  0
HATCH
  5
10A
330
106
100
AcDbEntity
  8
0
  6
Continuous
 62
     0
370
    30
100
AcDbHatch
 10
0.0
 20
0.0
 30
0.0
210
0.0
220
0.0
230
1.0
  2
SOLID
 70
     1
 71
     0
 91
        1
 92
        0
 93
        3
 72
     2
 10
0.0000000000000087
 20
-0.0000000000000035
 40
3.000000000000004
 50
0.0
 51
90.0
 73
     1
 72
     1
 10
0.0000000000000087
 20
3.000000000000001
 11
0.0000000000000087
 21
-0.0000000000000036
 72
     1
 10
0.0000000000000087
 20
-0.0000000000000035
 11
3.000000000000013
 21
-0.0000000000000035
 97
        0
 75
     0
 76
     1
 98
        1
 10
0.0
 20
0.0
  0
HATCH
  5
10B
330
106
100
AcDbEntity
  8
0
  6
Continuous
 62
     0
370
    30
100
AcDbHatch
 10
0.0
 20
0.0
 30
0.0
210
0.0
220
0.0
230
1.0
  2
SOLID
 70
     1
 71
     0
 91
        1
 92
        0
 93
        3
 72
     2
 10
0.0000000000000087
 20
-0.0000000000000035
 40
3.000000000000004
 50
180.0
 51
270.0000000000008
 73
     1
 72
     1
 10
0.0000000000000087
 20
-3.000000000000008
 11
0.0000000000000087
 21
-0.0000000000000036
 72
     1
 10
0.0000000000000087
 20
-0.0000000000000035
 11
-2.999999999999996
 21
-0.0000000000000035
 97
        0
 75
     0
 76
     1
 98
        1
 10
0.0
 20
0.0
  0
ENDBLK
  5
108
330
106
100
AcDbEntity
  8
0
100
AcDbBlockEnd
  0
ENDSEC
  0
SECTION
  2
ENTITIES
  0
LINE
  5
95
330
1F
100
AcDbEntity
  8
0
  6
Continuous
 62
     4
370
    15
100
AcDbLine
 10
9.110008280051172
 20
2.0
 30
0.0
 11
-29.57000000000001
 21
1.999999999999998
 31
0.0
  0
LINE
  5
96
330
1F
100
AcDbEntity
  8
0
  6
Continuous
 62
     4
370
    15
100
AcDbLine
 10
9.999999999999991
 20
2.0
 30
0.0
 11
9.259540449571713
 21
2.0
 31
0.0
1001
PE_URL
1000

  0
LINE
  5
97
330
1F
100
AcDbEntity
  8
0
  6
Continuous
 62
     4
370
    15
100
AcDbLine
 10
9.259540449571723
 20
-2.0
 30
0.0
 11
9.999999999999991
 21
-2.0
 31
0.0
1001
PE_URL
1000

  0
LINE
  5
98
330
1F
100
AcDbEntity
  8
0
  6
Continuous
 62
     4
370
    15
100
AcDbLine
 10
-29.57000000000001
 20
-2.000000000000002
 30
0.0
 11
9.110008280051172
 21
-2.0
 31
0.0
  0
LINE
  5
99
330
1F
100
AcDbEntity
  8
0
  6
Continuous
 62
     4
370
    15
100
AcDbLine
 10
-29.57000000000001
 20
1.999999999999995
 30
0.0
 11
-30.00000000000001
 21
1.569999999999995
 31
0.0
  0
LINE
  5
9A
330
1F
100
AcDbEntity
  8
0
  6
Continuous
 62
     4
370
    15
100
AcDbLine
 10
-30.00000000000001
 20
-1.569999999999999
 30
0.0
 11
-29.57000000000001
 21
-1.999999999999999
 31
0.0
  0
LINE
  5
9B
330
1F
100
AcDbEntity
  8
0
  6
Continuous
 62
     1
370
    15
100
AcDbLine
 10
13.73287407326792
 20
0.5515046528811178
 30
0.0
 11
13.68985887039602
 21
0.5750709019974979
 31
0.0
  0
SPLINE
  5
9C
330
1F
100
AcDbEntity
  8
0
  6
Continuous
 62
     1
370
    15
100
AcDbSpline
210
0.0
220
0.0
230
1.0
 70
     8
 71
     3
 72
     9
 73
     5
 74
     0
 42
0.000000001
 43
0.00000001
 40
0.0
 40
0.0
 40
0.0
 40
0.0
 40
0.5090317064551781
 40
1.0
 40
1.0
 40
1.0
 40
1.0
 10
14.81741435645775
 20
0.5125813095925679
 30
0.0
 10
14.7236349642108
 20
0.5574899273316768
 30
0.0
 10
14.53940401934488
 20
0.6457135432078782
 30
0.0
 10
14.35508036346649
 20
0.7424594803068879
 30
0.0
 10
14.26458329267994
 20
0.7899586679517837
 30
0.0
  0
LINE
  5
9D
330
1F
100
AcDbEntity
  8
0
  6
Continuous
 62
     1
370
    15
100
AcDbLine
 10
10.22928262431578
 20
2.000000000000001
 30
0.0
 11
9.999999999999995
 21
2.000000000000001
 31
0.0
  0
SPLINE
  5
9E
330
1F
100
AcDbEntity
  8
0
  6
Continuous
 62
     1
370
    15
100
AcDbSpline
210
0.0
220
0.0
230
1.0
 70
     8
 71
     3
 72
    10
 73
     6
 74
     0
 42
0.000000001
 43
0.00000001
 40
0.0
 40
0.0
 40
0.0
 40
0.0
 40
0.3816874590299382
 40
0.9149349552916917
 40
1.0
 40
1.0
 40
1.0
 40
1.0
 10
14.15797605400784
 20
1.589282575811486
 30
0.0
 10
13.94865955567838
 20
1.580369519918431
 30
0.0
 10
13.44691139364131
 20
1.559004221682672
 30
0.0
 10
12.89886935896623
 20
1.557167591699418
 30
0.0
 10
12.56002691690593
 20
1.571880616300841
 30
0.0
 10
12.51341028603878
 20
1.573904777243058
 30
0.0
  0
SPLINE
  5
9F
330
1F
100
AcDbEntity
  8
0
  6
Continuous
 62
     1
370
    15
100
AcDbSpline
210
0.0
220
0.0
230
1.0
 70
     8
 71
     3
 72
    21
 73
    17
 74
     0
 42
0.000000001
 43
0.00000001
 40
0.0
 40
0.0
 40
0.0
 40
0.0
 40
0.082637936464409
 40
0.1398185062052025
 40
0.1829076837731206
 40
0.232282393044068
 40
0.2873357320081664
 40
0.3997139670157604
 40
0.5037370898212311
 40
0.6216023590446953
 40
0.7291534612421835
 40
0.7582884905266768
 40
0.7911709653564789
 40
0.8422640635698312
 40
0.9120838054410931
 40
0.9999999999999999
 40
0.9999999999999999
 40
0.9999999999999999
 40
0.9999999999999999
 10
19.26710476853452
 20
1.368841730055203
 30
0.0
 10
19.1710379843001
 20
1.361038269123898
 30
0.0
 10
19.00849866105141
 20
1.347835274260688
 30
0.0
 10
18.79487930047144
 20
1.335230675289083
 30
0.0
 10
18.61776611005329
 20
1.326989168340991
 30
0.0
 10
18.44491309365834
 20
1.32101961992548
 30
0.0
 10
18.19155133343444
 20
1.315648333586007
 30
0.0
 10
17.87603008609993
 20
1.315647195972967
 30
0.0
 10
17.4792123578125
 20
1.326884282181988
 30
0.0
 10
17.09908750523265
 20
1.34842883836889
 30
0.0
 10
16.80273321637302
 20
1.373423373505058
 30
0.0
 10
16.60485078490945
 20
1.393483819933145
 30
0.0
 10
16.47292842572515
 20
1.407743708705482
 30
0.0
 10
16.29350696270471
 20
1.428864686435469
 30
0.0
 10
16.04955307499763
 20
1.46050842798553
 30
0.0
 10
15.86497143615929
 20
1.488629000086045
 30
0.0
 10
15.7620924369954
 20
1.504302370047564
 30
0.0
  0
SPLINE
  5
A0
330
1F
100
AcDbEntity
  8
0
  6
Continuous
 62
     1
370
    15
100
AcDbSpline
210
0.0
220
0.0
230
1.0
 70
     8
 71
     3
 72
    12
 73
     8
 74
     0
 42
0.000000001
 43
0.00000001
 40
0.0
 40
0.0
 40
0.0
 40
0.0
 40
0.2080942819316488
 40
0.4997539718743698
 40
0.6982341486848697
 40
0.7913173247139947
 40
1.0
 40
1.0
 40
1.0
 40
1.0
 10
11.15015098967501
 20
-1.66426551162122
 30
0.0
 10
11.35884389732142
 20
-1.645081047599318
 30
0.0
 10
11.86003551359353
 20
-1.599008123325617
 30
0.0
 10
12.55967419292394
 20
-1.566084530298487
 30
0.0
 10
13.14480768578798
 20
-1.560230225492556
 30
0.0
 10
13.64580121677122
 20
-1.566494605321067
 30
0.0
 10
13.94858762465847
 20
-1.579966348222498
 30
0.0
 10
14.15797605400784
 20
-1.589282575811484
 30
0.0
  0
SPLINE
  5
A1
330
1F
100
AcDbEntity
  8
0
  6
Continuous
 62
     1
370
    15
100
AcDbSpline
210
0.0
220
0.0
230
1.0
 70
     8
 71
     3
 72
    14
 73
    10
 74
     0
 42
0.000000001
 43
0.00000001
 40
0.0
 40
0.0
 40
0.0
 40
0.0
 40
0.1977364977320466
 40
0.3331504881889568
 40
0.4521037018838674
 40
0.5933732938377633
 40
0.7435526365361133
 40
0.8956070660297426
 40
0.9999999999999999
 40
0.9999999999999999
 40
0.9999999999999999
 40
0.9999999999999999
 10
15.7620924369954
 20
-1.504302370047562
 30
0.0
 10
15.85922926827456
 20
-1.489443632579824
 30
0.0
 10
16.02288738467163
 20
-1.464409328351595
 30
0.0
 10
16.24908124266515
 20
-1.434508344089381
 30
0.0
 10
16.44862492202765
 20
-1.41034940457292
 30
0.0
 10
16.65311546805379
 20
-1.38809626403663
 30
0.0
 10
16.87359532107109
 20
-1.367307408863347
 30
0.0
 10
17.07606696105561
 20
-1.351186334087665
 30
0.0
 10
17.20376809819327
 20
-1.343583715627839
 30
0.0
 10
17.25575185110487
 20
-1.340488890880345
 30
0.0
  0
LINE
  5
A2
330
1F
100
AcDbEntity
  8
0
  6
Continuous
 62
     1
370
    15
100
AcDbLine
 10
9.999999999999995
 20
-2.0
 30
0.0
 11
10.22928262431578
 21
-2.0
 31
0.0
  0
SPLINE
  5
A3
330
1F
100
AcDbEntity
  8
0
  6
Continuous
 62
     4
370
    15
100
AcDbSpline
210
0.0
220
0.0
230
1.0
 70
     8
 71
     3
 72
     8
 73
     4
 74
     0
 42
0.000000001
 43
0.00000001
 40
0.0
 40
0.0
 40
0.0
 40
0.0
 40
1.0
 40
1.0
 40
1.0
 40
1.0
 10
9.999999999999991
 20
1.954600273681117
 30
0.0
 10
9.704020464708634
 20
1.990827050403915
 30
0.0
 10
9.402770526202215
 20
2.005492858602011
 30
0.0
 10
9.110008280051172
 20
1.998133093018173
 30
0.0
1001
PE_URL
1000

  0
SPLINE
  5
A4
330
1F
100
AcDbEntity
  8
0
  6
Continuous
 62
     4
370
    15
100
AcDbSpline
210
0.0
220
0.0
230
1.0
 70
     8
 71
     3
 72
     8
 73
     4
 74
     0
 42
0.000000001
 43
0.00000001
 40
0.0
 40
0.0
 40
0.0
 40
0.0
 40
1.0
 40
1.0
 40
1.0
 40
1.0
 10
9.999999999999995
 20
-1.995600512425564
 30
0.0
 10
9.704023373017606
 20
-1.98426504087396
 30
0.0
 10
9.402776107644367
 20
-1.950640741073371
 30
0.0
 10
9.11001691013584
 20
-1.896558000278554
 30
0.0
1001
PE_URL
1000

  0
LINE
  5
A5
330
1F
100
AcDbEntity
  8
0
  6
Continuous
 62
     4
370
    15
100
AcDbLine
 10
9.999999999999991
 20
-1.995600512425564
 30
0.0
 11
9.999999999999991
 21
-2.0
 31
0.0
1001
PE_URL
1000

  0
LINE
  5
A6
330
1F
100
AcDbEntity
  8
0
  6
Continuous
 62
     4
370
    15
100
AcDbLine
 10
9.110008280051172
 20
-1.998133093018172
 30
0.0
 11
9.259540449571723
 21
-1.995664250895062
 31
0.0
1001
PE_URL
1000

  0
LINE
  5
A7
330
1F
100
AcDbEntity
  8
0
  6
Continuous
 62
     4
370
    15
100
AcDbLine
 10
9.110008280051172
 20
-2.0
 30
0.0
 11
9.110008280051172
 21
-1.998103460357556
 31
0.0
1001
PE_URL
1000

  0
LINE
  5
A8
330
1F
100
AcDbEntity
  8
0
  6
Continuous
 62
     4
370
    15
100
AcDbLine
 10
-29.57000000000001
 20
1.999999999999995
 30
0.0
 11
-29.57000000000001
 21
-2.000000000000002
 31
0.0
  0
LINE
  5
A9
330
1F
100
AcDbEntity
  8
0
  6
Continuous
 62
     4
370
    15
100
AcDbLine
 10
9.110008280051172
 20
-1.896530789530173
 30
0.0
 11
9.110008280051172
 21
2.0
 31
0.0
1001
PE_URL
1000

  0
LINE
  5
AA
330
1F
100
AcDbEntity
  8
0
  6
Continuous
 62
     4
370
    15
100
AcDbLine
 10
-30.00000000000001
 20
1.569999999999995
 30
0.0
 11
-30.00000000000001
 21
-1.57
 31
0.0
  0
SPLINE
  5
AB
330
1F
100
AcDbEntity
  8
0
  6
Continuous
 62
     4
370
    15
100
AcDbSpline
210
0.0
220
0.0
230
1.0
 70
     8
 71
     3
 72
     8
 73
     4
 74
     0
 42
0.000000001
 43
0.00000001
 40
0.0
 40
0.0
 40
0.0
 40
0.0
 40
1.0
 40
1.0
 40
1.0
 40
1.0
 10
9.999999999999911
 20
-1.686384178026087
 30
0.0
 10
9.704023373017547
 20
-1.668025662593999
 30
0.0
 10
9.402776107644343
 20
-1.630781800157803
 30
0.0
 10
9.11001691013584
 20
-1.576618103026389
 30
0.0
1001
PE_URL
1000

  0
SPLINE
  5
AC
330
1F
100
AcDbEntity
  8
0
  6
Continuous
 62
     4
370
    15
100
AcDbSpline
210
0.0
220
0.0
230
1.0
 70
     8
 71
     3
 72
     8
 73
     4
 74
     0
 42
0.000000001
 43
0.00000001
 40
0.0
 40
0.0
 40
0.0
 40
0.0
 40
1.0
 40
1.0
 40
1.0
 40
1.0
 10
9.999999999999995
 20
-0.402964409160161
 30
0.0
 10
9.704021528423478
 20
-0.2705789250388715
 30
0.0
 10
9.402772567616797
 20
-0.1329495628447104
 30
0.0
 10
9.110011436507717
 20
0.003349056871013
 30
0.0
1001
PE_URL
1000

  0
SPLINE
  5
AD
330
1F
100
AcDbEntity
  8
0
  6
Continuous
 62
     4
370
    15
100
AcDbSpline
210
0.0
220
0.0
230
1.0
 70
    24
 71
     3
 72
    10
 73
     6
 74
     0
 42
0.000000001
 43
0.00000001
 40
0.0
 40
0.0
 40
0.0
 40
0.0
 40
0.4999999999999999
 40
0.4999999999999999
 40
1.0
 40
1.0
 40
1.0
 40
1.0
 10
9.999999999999977
 20
-0.4029644091601541
 30
0.0
 10
9.999999999999977
 20
-0.6905273506684738
 30
0.0
 10
9.999999999999977
 20
-0.9674478495303843
 30
0.0
 10
9.999999999999977
 20
-1.416066655456297
 30
0.0
 10
9.999999999999977
 20
-1.58583393180219
 30
0.0
 10
9.999999999999977
 20
-1.686384178026091
 30
0.0
1001
PE_URL
1000

  0
SPLINE
  5
AE
330
1F
100
AcDbEntity
  8
0
  6
Continuous
 62
     4
370
    15
100
AcDbSpline
210
0.0
220
0.0
230
1.0
 70
     8
 71
     3
 72
     8
 73
     4
 74
     0
 42
0.000000001
 43
0.00000001
 40
0.0
 40
0.0
 40
0.0
 40
0.0
 40
1.0
 40
1.0
 40
1.0
 40
1.0
 10
9.999999999999995
 20
1.354871791458512
 30
0.0
 10
9.70402116673531
 20
1.385017499846714
 30
0.0
 10
9.402771873487696
 20
1.400246603291055
 30
0.0
 10
9.110010363238022
 20
1.399996932156664
 30
0.0
1001
PE_URL
1000

  0
SPLINE
  5
AF
330
1F
100
AcDbEntity
  8
0
  6
Continuous
 62
     4
370
    15
100
AcDbSpline
210
0.0
220
0.0
230
1.0
 70
    24
 71
     3
 72
    14
 73
    10
 74
     0
 42
0.000000001
 43
0.00000001
 40
0.0
 40
0.0
 40
0.0
 40
0.0
 40
0.25
 40
0.25
 40
0.5
 40
0.5
 40
0.75
 40
0.75
 40
1.0
 40
1.0
 40
1.0
 40
1.0
 10
9.999999999999998
 20
1.354871791458512
 30
0.0
 10
9.999999999999998
 20
1.274771571803043
 30
0.0
 10
9.999999999999998
 20
1.172728783544634
 30
0.0
 10
9.999999999999998
 20
0.9284244619473421
 30
0.0
 10
9.999999999999998
 20
0.7862034868410661
 30
0.0
 10
9.999999999999998
 20
0.4737853136221147
 30
0.0
 10
9.999999999999998
 20
0.3037545849737788
 30
0.0
 10
9.999999999999998
 20
-0.0465138831298335
 30
0.0
 10
9.999999999999998
 20
-0.2265622319911766
 30
0.0
 10
9.999999999999998
 20
-0.4029644091601624
 30
0.0
1001
PE_URL
1000

  0
SPLINE
  5
B0
330
1F
100
AcDbEntity
  8
0
  6
Continuous
 62
     4
370
    15
100
AcDbSpline
210
0.0
220
0.0
230
1.0
 70
    24
 71
     3
 72
     8
 73
     4
 74
     0
 42
0.000000001
 43
0.00000001
 40
0.0
 40
0.0
 40
0.0
 40
0.0
 40
1.0
 40
1.0
 40
1.0
 40
1.0
 10
9.999999999999995
 20
-1.686384178026092
 30
0.0
 10
9.999999999999995
 20
-1.791084129280574
 30
0.0
 10
9.999999999999995
 20
-1.894825911618446
 30
0.0
 10
9.999999999999995
 20
-1.995600512415366
 30
0.0
1001
PE_URL
1000

  0
SPLINE
  5
B1
330
1F
100
AcDbEntity
  8
0
  6
Continuous
 62
     4
370
    15
100
AcDbSpline
210
0.0
220
0.0
230
1.0
 70
    24
 71
     3
 72
    10
 73
     6
 74
     0
 42
0.000000001
 43
0.00000001
 40
0.0
 40
0.0
 40
0.0
 40
0.0
 40
0.5
 40
0.5
 40
1.0
 40
1.0
 40
1.0
 40
1.0
 10
9.999999999999995
 20
1.954600273681114
 30
0.0
 10
9.999999999999995
 20
1.864120928036185
 30
0.0
 10
9.999999999999995
 20
1.761368900762917
 30
0.0
 10
9.999999999999995
 20
1.553693769412596
 30
0.0
 10
9.999999999999991
 20
1.449340661536143
 30
0.0
 10
9.999999999999995
 20
1.354871791458512
 30
0.0
1001
PE_URL
1000

  0
SPLINE
  5
B2
330
1F
100
AcDbEntity
  8
0
  6
Continuous
 62
     1
370
    15
100
AcDbSpline
210
0.0
220
0.0
230
1.0
 70
     8
 71
     3
 72
    38
 73
    34
 74
     0
 42
0.000000001
 43
0.00000001
 40
0.0
 40
0.0
 40
0.0
 40
0.0
 40
0.0625
 40
0.0625
 40
0.125
 40
0.125
 40
0.1875
 40
0.1875
 40
0.25
 40
0.25
 40
0.3125
 40
0.3125
 40
0.375
 40
0.375
 40
0.4375
 40
0.4375
 40
0.5
 40
0.5
 40
0.5625
 40
0.5625
 40
0.625
 40
0.625
 40
0.6875
 40
0.6875
 40
0.75
 40
0.75
 40
0.8125
 40
0.8125
 40
0.875
 40
0.875
 40
0.9375
 40
0.9375
 40
1.0
 40
1.0
 40
1.0
 40
1.0
 10
20.0
 20
-1.998309630459287
 30
0.0
 10
19.79420518908406
 20
-1.993385092665272
 30
0.0
 10
19.58399407600183
 20
-1.977582085326065
 30
0.0
 10
19.16486514638316
 20
-1.924597952784956
 30
0.0
 10
18.95877298364447
 20
-1.887653584059174
 30
0.0
 10
18.5432973150165
 20
-1.793636318515299
 30
0.0
 10
18.33243280039792
 20
-1.736343566227533
 30
0.0
 10
17.91467988844623
 20
-1.603866776717588
 30
0.0
 10
17.70983184781117
 20
-1.529029677587601
 30
0.0
 10
17.29180640490504
 20
-1.3626205427236
 30
0.0
 10
17.0809906355506
 20
-1.271255291850074
 30
0.0
 10
16.66597473888635
 20
-1.076738654026421
 30
0.0
 10
16.45948249803061
 20
-0.9732930388016168
 30
0.0
 10
16.04027124851916
 20
-0.7559112085306267
 30
0.0
 10
15.83080150910166
 20
-0.6425121844913312
 30
0.0
 10
15.41859474750547
 20
-0.4112558745748901
 30
0.0
 10
15.20825131100908
 20
-0.2919776370925615
 30
0.0
 10
14.78923117303932
 20
-0.0518341463962721
 30
0.0
 10
14.58348378319683
 20
0.0684482006475987
 30
0.0
 10
14.16757404900276
 20
0.3078202754610638
 30
0.0
 10
13.95667429724771
 20
0.4270377726275898
 30
0.0
 10
13.53922009876829
 20
0.6587343065619071
 30
0.0
 10
13.33431649306356
 20
0.7709449523457351
 30
0.0
 10
12.91604475891435
 20
0.9873166756115389
 30
0.0
 10
12.70529123246428
 20
1.090953341763859
 30
0.0
 10
12.29076071841998
 20
1.284201364090293
 30
0.0
 10
12.08381317769288
 20
1.374359488353104
 30
0.0
 10
11.6645460973852
 20
1.539520007356574
 30
0.0
 10
11.45576312961832
 20
1.614010458176983
 30
0.0
 10
11.04296425676993
 20
1.744300408901617
 30
0.0
 10
10.83250189303488
 20
1.800740779895281
 30
0.0
 10
10.41361699555981
 20
1.893200232854253
 30
0.0
 10
10.20815900142748
 20
1.929122398462041
 30
0.0
 10
9.999999999999991
 20
1.954600273681119
 30
0.0
  0
SPLINE
  5
B3
330
1F
100
AcDbEntity
  8
0
  6
Continuous
 62
     1
370
    15
100
AcDbSpline
210
0.0
220
0.0
230
1.0
 70
     8
 71
     3
 72
    13
 73
     9
 74
     0
 42
0.000000001
 43
0.00000001
 40
0.0
 40
0.0
 40
0.0
 40
0.0
 40
0.1250539794811523
 40
0.3003550770800352
 40
0.4754842841868812
 40
0.6503323074295942
 40
0.825102607349753
 40
1.0
 40
1.0
 40
1.0
 40
1.0
 10
15.02944750345524
 20
-0.1882276497733826
 30
0.0
 10
14.81979525515219
 20
-0.1041028397504903
 30
0.0
 10
14.31625176569004
 20
0.0979484176633319
 30
0.0
 10
13.51890744902276
 20
0.4183528266829949
 30
0.0
 10
12.63821772511817
 20
0.7447895333451034
 30
0.0
 10
11.75858640746345
 20
1.022166570532034
 30
0.0
 10
10.87938992543782
 20
1.239989465841182
 30
0.0
 10
10.29320099529169
 20
1.316568404942393
 30
0.0
 10
9.999999999999995
 20
1.354871791458512
 30
0.0
  0
SPLINE
  5
B4
330
1F
100
AcDbEntity
  8
0
  6
Continuous
 62
     4
370
    15
100
AcDbSpline
210
0.0
220
0.0
230
1.0
 70
    24
 71
     3
 72
    10
 73
     6
 74
     0
 42
0.000000001
 43
0.00000001
 40
0.0
 40
0.0
 40
0.0
 40
0.0
 40
0.5
 40
0.5
 40
1.0
 40
1.0
 40
1.0
 40
1.0
 10
9.999999999999995
 20
1.954600273681115
 30
0.0
 10
9.999999999999995
 20
1.864120928036185
 30
0.0
 10
9.999999999999995
 20
1.761368900762917
 30
0.0
 10
9.999999999999995
 20
1.553693769412596
 30
0.0
 10
9.999999999999991
 20
1.449340661536143
 30
0.0
 10
9.999999999999995
 20
1.354871791458512
 30
0.0
1001
PE_URL
1000

  0
SPLINE
  5
B5
330
1F
100
AcDbEntity
  8
0
  6
Continuous
 62
     1
370
    15
100
AcDbSpline
210
0.0
220
0.0
230
1.0
 70
     8
 71
     3
 72
    19
 73
    15
 74
     0
 42
0.000000001
 43
0.00000001
 40
0.0
 40
0.0
 40
0.0
 40
0.0
 40
0.0819954510710099
 40
0.1637636068369506
 40
0.2455604879006354
 40
0.3276173443710213
 40
0.409540003681607
 40
0.4912922636864654
 40
0.5731306534627882
 40
0.6633454510523705
 40
0.7534788932888518
 40
0.8434792751273875
 40
0.9334428825613701
 40
1.0
 40
1.0
 40
1.0
 40
1.0
 10
19.99999999999999
 20
-1.897881738463798
 30
0.0
 10
19.73285057278828
 20
-1.839530236532832
 30
0.0
 10
19.19929226933157
 20
-1.722988985820122
 30
0.0
 10
18.39990557942199
 20
-1.429228719686205
 30
0.0
 10
17.60028539063959
 20
-1.066545142298156
 30
0.0
 10
16.79928330093001
 20
-0.6463618209618929
 30
0.0
 10
15.99893287537292
 20
-0.1917037166921687
 30
0.0
 10
15.19971443900778
 20
0.27361399984587
 30
0.0
 10
14.37330877339911
 20
0.739218242286556
 30
0.0
 10
13.51884731347493
 20
1.175961213854236
 30
0.0
 10
12.63816262466556
 20
1.552448650978816
 30
0.0
 10
11.75856722556053
 20
1.82490901731838
 30
0.0
 10
10.95583977076167
 20
1.981418194850712
 30
0.0
 10
10.44605695215066
 20
1.985750624520454
 30
0.0
 10
10.22928262431578
 20
1.987592898318753
 30
0.0
  0
SPLINE
  5
B6
330
1F
100
AcDbEntity
  8
0
  6
Continuous
 62
     1
370
    15
100
AcDbSpline
210
0.0
220
0.0
230
1.0
 70
     8
 71
     3
 72
    13
 73
     9
 74
     0
 42
0.000000001
 43
0.00000001
 40
0.0
 40
0.0
 40
0.0
 40
0.0
 40
0.1750483777778415
 40
0.3498477223839708
 40
0.5245211031340694
 40
0.6991932264595904
 40
0.8739888151739436
 40
1.0
 40
1.0
 40
1.0
 40
1.0
 10
20.0
 20
-1.577944528736431
 30
0.0
 10
19.69706862325244
 20
-1.512213353036745
 30
0.0
 10
19.09163683611373
 20
-1.380844514318682
 30
0.0
 10
18.18418989683255
 20
-1.060614819550418
 30
0.0
 10
17.2774735819082
 20
-0.6755191578143278
 30
0.0
 10
16.37076141607459
 20
-0.2434365092052932
 30
0.0
 10
15.54817155735949
 20
0.1668800467663011
 30
0.0
 10
15.02761478623733
 20
0.4112628914577667
 30
0.0
 10
14.80954796970163
 20
0.5136374871102705
 30
0.0
  0
LINE
  5
B7
330
1F
100
AcDbEntity
  8
0
  6
Continuous
 62
     1
370
    15
100
AcDbLine
 10
19.99999999999999
 20
-1.897881738463799
 30
0.0
 11
19.99999999999999
 21
-1.577944528736431
 31
0.0
  0
LINE
  5
B8
330
1F
100
AcDbEntity
  8
0
  6
Continuous
 62
     4
370
    15
100
AcDbLine
 10
9.999999999999991
 20
1.954600273681118
 30
0.0
 11
9.999999999999995
 21
2.000000000000001
 31
0.0
1001
PE_URL
1000

  0
LINE
  5
B9
330
1F
100
AcDbEntity
  8
0
  6
Continuous
 62
     1
370
    15
100
AcDbLine
 10
20.0
 20
-1.998309630459288
 30
0.0
 11
19.99999999999999
 21
-1.8978817384638
 31
0.0
  0
SPLINE
  5
BA
330
1F
100
AcDbEntity
  8
0
  6
Continuous
 62
     1
370
    15
100
AcDbSpline
210
0.0
220
0.0
230
1.0
 70
     8
 71
     3
 72
     8
 73
     4
 74
     0
 42
0.000000001
 43
0.00000001
 40
0.0
 40
0.0
 40
0.0
 40
0.0
 40
1.0
 40
1.0
 40
1.0
 40
1.0
 10
18.76183360463184
 20
0.5601200555101687
 30
0.0
 10
18.6723536742401
 20
0.6661245607306476
 30
0.0
 10
18.59473363829645
 20
0.7674220582598048
 30
0.0
 10
18.53346069882355
 20
0.8616562015384629
 30
0.0
  0
LINE
  5
BB
330
1F
100
AcDbEntity
  8
0
  6
Continuous
 62
     1
370
    15
100
AcDbLine
 10
18.53346069882355
 20
0.8616562015384638
 30
0.0
 11
19.99999999999999
 21
0.0000000000000018
 31
0.0
  0
LINE
  5
BC
330
1F
100
AcDbEntity
  8
0
  6
Continuous
 62
     1
370
    15
100
AcDbLine
 10
19.99999999999999
 20
0.0000000000000018
 30
0.0
 11
19.99999999999999
 21
-0.5344858920592879
 31
0.0
  0
SPLINE
  5
BD
330
1F
100
AcDbEntity
  8
0
  6
Continuous
 62
     1
370
    15
100
AcDbSpline
210
0.0
220
0.0
230
1.0
 70
     8
 71
     3
 72
    10
 73
     6
 74
     0
 42
0.000000001
 43
0.00000001
 40
0.0
 40
0.0
 40
0.0
 40
0.0
 40
0.5
 40
0.5
 40
1.0
 40
1.0
 40
1.0
 40
1.0
 10
19.99999999999999
 20
-0.5344858920592879
 30
0.0
 10
19.78565912042187
 20
-0.3659754071021852
 30
0.0
 10
19.57490233791323
 20
-0.1905497606416779
 30
0.0
 10
19.16072838259962
 20
0.1744625846972662
 30
0.0
 10
18.95538436723951
 20
0.3659780243935083
 30
0.0
 10
18.76183360463184
 20
0.5601200555101726
 30
0.0
  0
SPLINE
  5
BE
330
1F
100
AcDbEntity
  8
0
  6
Continuous
 62
     1
370
    15
100
AcDbSpline
210
0.0
220
0.0
230
1.0
 70
     8
 71
     3
 72
    12
 73
     8
 74
     0
 42
0.000000001
 43
0.00000001
 40
0.0
 40
0.0
 40
0.0
 40
0.0
 40
0.2131707646113768
 40
0.4264266099179774
 40
0.6395764581770695
 40
0.8526236985680651
 40
1.0
 40
1.0
 40
1.0
 40
1.0
 10
18.76183360463183
 20
0.5601200555101744
 30
0.0
 10
18.43449936347211
 20
0.697260447081253
 30
0.0
 10
17.77970023554158
 20
0.9715959656834031
 30
0.0
 10
16.79749368036934
 20
1.294595663692497
 30
0.0
 10
15.81558739325799
 20
1.513014580009723
 30
0.0
 10
14.93488669342759
 20
1.615622032718087
 30
0.0
 10
14.38150071063452
 20
1.587206797898127
 30
0.0
 10
14.15522254080179
 20
1.575587878138044
 30
0.0
  0
SPLINE
  5
BF
330
1F
100
AcDbEntity
  8
0
  6
Continuous
 62
     1
370
    15
100
AcDbSpline
210
0.0
220
0.0
230
1.0
 70
    24
 71
     3
 72
    10
 73
     6
 74
     0
 42
0.000000001
 43
0.00000001
 40
0.0
 40
0.0
 40
0.0
 40
0.0
 40
0.5
 40
0.5
 40
1.0
 40
1.0
 40
1.0
 40
1.0
 10
19.99999999999999
 20
-1.57794452873643
 30
0.0
 10
19.99999999999999
 20
-1.456982778007608
 30
0.0
 10
19.99999999999999
 20
-1.304142967812935
 30
0.0
 10
20.0
 20
-0.9488051183013587
 30
0.0
 10
19.99999999999999
 20
-0.746614886102618
 30
0.0
 10
19.99999999999999
 20
-0.5344858920593518
 30
0.0
  0
LINE
  5
C0
330
1F
100
AcDbEntity
  8
0
  6
Continuous
 62
     1
370
    15
100
AcDbLine
 10
19.99999999999999
 20
1.400000000000001
 30
0.0
 11
19.26484523026989
 21
1.360228262690175
 31
0.0
  0
SPLINE
  5
C1
330
1F
100
AcDbEntity
  8
0
  6
Continuous
 62
     1
370
    15
100
AcDbSpline
210
0.0
220
0.0
230
1.0
 70
     8
 71
     3
 72
    10
 73
     6
 74
     0
 42
0.000000001
 43
0.00000001
 40
0.0
 40
0.0
 40
0.0
 40
0.0
 40
0.5
 40
0.5
 40
1.0
 40
1.0
 40
1.0
 40
1.0
 10
19.99999999999999
 20
1.400000000000001
 30
0.0
 10
19.75114373948643
 20
1.332405038971868
 30
0.0
 10
19.50388951770503
 20
1.255022631580774
 30
0.0
 10
19.01404564640726
 20
1.077581850852742
 30
0.0
 10
18.77126211905845
 20
0.9782187689425849
 30
0.0
 10
18.53346069882355
 20
0.8616562015384622
 30
0.0
  0
SPLINE
  5
C2
330
1F
100
AcDbEntity
  8
0
  6
Continuous
 62
     1
370
    15
100
AcDbSpline
210
0.0
220
0.0
230
1.0
 70
     8
 71
     3
 72
     9
 73
     5
 74
     0
 42
0.000000001
 43
0.00000001
 40
0.0
 40
0.0
 40
0.0
 40
0.0
 40
0.2049819128175664
 40
1.0
 40
1.0
 40
1.0
 40
1.0
 10
11.15280049329747
 20
-1.652947164048551
 30
0.0
 10
11.07403887779434
 20
-1.664277744571787
 30
0.0
 10
10.68980197405724
 20
-1.719553746085738
 30
0.0
 10
10.30551505294878
 20
-1.701075064284979
 30
0.0
 10
9.999999999999911
 20
-1.686384178026087
 30
0.0
  0
SPLINE
  5
C3
330
1F
100
AcDbEntity
  8
0
  6
Continuous
 62
     1
370
    15
100
AcDbSpline
210
0.0
220
0.0
230
1.0
 70
     8
 71
     3
 72
    13
 73
     9
 74
     0
 42
0.000000001
 43
0.00000001
 40
0.0
 40
0.0
 40
0.0
 40
0.0
 40
0.1612337390188304
 40
0.3314410474545676
 40
0.498559746133397
 40
0.6656676581338018
 40
0.8328020442456454
 40
1.0
 40
1.0
 40
1.0
 40
1.0
 10
15.7633773310989
 20
-1.500970586470928
 30
0.0
 10
15.45360322588675
 20
-1.540556159222657
 30
0.0
 10
14.8168143346124
 20
-1.621930465721806
 30
0.0
 10
13.85899062107223
 20
-1.586607680896956
 30
0.0
 10
12.88996166757886
 20
-1.43690639939407
 30
0.0
 10
11.92683149498377
 20
-1.17448837017742
 30
0.0
 10
10.96353723561638
 20
-0.824635571794142
 30
0.0
 10
10.32121978842073
 20
-0.5435392791679234
 30
0.0
 10
9.999999999999995
 20
-0.402964409160161
 30
0.0
  0
SPLINE
  5
C4
330
1F
100
AcDbEntity
  8
0
  6
Continuous
 62
     4
370
    15
100
AcDbSpline
210
0.0
220
0.0
230
1.0
 70
    24
 71
     3
 72
    10
 73
     6
 74
     0
 42
0.000000001
 43
0.00000001
 40
0.0
 40
0.0
 40
0.0
 40
0.0
 40
0.4999999999999999
 40
0.4999999999999999
 40
1.0
 40
1.0
 40
1.0
 40
1.0
 10
9.999999999999977
 20
-0.4029644091601541
 30
0.0
 10
9.999999999999977
 20
-0.6905273506684738
 30
0.0
 10
9.999999999999977
 20
-0.9674478495303843
 30
0.0
 10
9.999999999999977
 20
-1.416066655456297
 30
0.0
 10
9.999999999999977
 20
-1.58583393180219
 30
0.0
 10
9.999999999999977
 20
-1.686384178026091
 30
0.0
  0
SPLINE
  5
C5
330
1F
100
AcDbEntity
  8
0
  6
Continuous
 62
     4
370
    15
100
AcDbSpline
210
0.0
220
0.0
230
1.0
 70
    24
 71
     3
 72
    14
 73
    10
 74
     0
 42
0.000000001
 43
0.00000001
 40
0.0
 40
0.0
 40
0.0
 40
0.0
 40
0.25
 40
0.25
 40
0.5
 40
0.5
 40
0.75
 40
0.75
 40
1.0
 40
1.0
 40
1.0
 40
1.0
 10
9.999999999999998
 20
1.354871791458512
 30
0.0
 10
9.999999999999998
 20
1.274771571803043
 30
0.0
 10
9.999999999999998
 20
1.172728783544634
 30
0.0
 10
9.999999999999998
 20
0.9284244619473421
 30
0.0
 10
9.999999999999998
 20
0.7862034868410661
 30
0.0
 10
9.999999999999998
 20
0.4737853136221147
 30
0.0
 10
9.999999999999998
 20
0.3037545849737788
 30
0.0
 10
9.999999999999998
 20
-0.0465138831298335
 30
0.0
 10
9.999999999999998
 20
-0.2265622319911766
 30
0.0
 10
9.999999999999998
 20
-0.4029644091601624
 30
0.0
1001
PE_URL
1000

  0
LINE
  5
C6
330
1F
100
AcDbEntity
  8
0
  6
Continuous
 62
     1
370
    15
100
AcDbLine
 10
19.99999999999999
 20
0.0000000000000018
 30
0.0
 11
19.99999999999999
 21
1.400000000000002
 31
0.0
  0
SPLINE
  5
C7
330
1F
100
AcDbEntity
  8
0
  6
Continuous
 62
     1
370
    15
100
AcDbSpline
210
0.0
220
0.0
230
1.0
 70
     8
 71
     3
 72
    10
 73
     6
 74
     0
 42
0.000000001
 43
0.00000001
 40
0.0
 40
0.0
 40
0.0
 40
0.0
 40
0.2992982105914871
 40
0.6495320516177335
 40
1.0
 40
1.0
 40
1.0
 40
1.0
 10
12.50958642701511
 20
-1.575091085020452
 30
0.0
 10
12.25920509191566
 20
-1.658707167616398
 30
0.0
 10
11.71583163855444
 20
-1.840169414147875
 30
0.0
 10
10.87942545232918
 20
-1.990323359091672
 30
0.0
 10
10.29320710342953
 20
-1.993841069553653
 30
0.0
 10
9.999999999996366
 20
-1.995600512425426
 30
0.0
  0
SPLINE
  5
C8
330
1F
100
AcDbEntity
  8
0
  6
Continuous
 62
     4
370
    15
100
AcDbSpline
210
0.0
220
0.0
230
1.0
 70
    24
 71
     3
 72
     8
 73
     4
 74
     0
 42
0.000000001
 43
0.00000001
 40
0.0
 40
0.0
 40
0.0
 40
0.0
 40
1.0
 40
1.0
 40
1.0
 40
1.0
 10
9.999999999999995
 20
-1.686384178026092
 30
0.0
 10
9.999999999999995
 20
-1.791084129280579
 30
0.0
 10
9.999999999999995
 20
-1.894825911618455
 30
0.0
 10
9.999999999999995
 20
-1.995600512415379
 30
0.0
1001
PE_URL
1000

  0
SPLINE
  5
C9
330
1F
100
AcDbEntity
  8
0
  6
Continuous
 62
     1
370
    15
100
AcDbSpline
210
0.0
220
0.0
230
1.0
 70
     8
 71
     3
 72
    11
 73
     7
 74
     0
 42
0.000000001
 43
0.00000001
 40
0.0
 40
0.0
 40
0.0
 40
0.0
 40
0.0373042876310438
 40
0.357876981283667
 40
0.6786616393014555
 40
1.0
 40
1.0
 40
1.0
 40
1.0
 10
17.25786649825699
 20
1.34146573603317
 30
0.0
 10
17.29196053549249
 20
1.35737116743697
 30
0.0
 10
17.61904012608256
 20
1.509959197882817
 30
0.0
 10
18.2391978380868
 20
1.717619468831628
 30
0.0
 10
19.11903842733397
 20
1.941309613266702
 30
0.0
 10
19.70617737913808
 20
1.979298705397012
 30
0.0
 10
20.0
 20
1.998309630459289
 30
0.0
  0
SPLINE
  5
CA
330
1F
100
AcDbEntity
  8
0
  6
Continuous
 62
     1
370
    15
100
AcDbSpline
210
0.0
220
0.0
230
1.0
 70
    24
 71
     3
 72
    10
 73
     6
 74
     0
 42
0.000000001
 43
0.00000001
 40
0.0
 40
0.0
 40
0.0
 40
0.0
 40
0.5
 40
0.5
 40
1.0
 40
1.0
 40
1.0
 40
1.0
 10
19.99999999999999
 20
1.400000000000002
 30
0.0
 10
19.99999999999999
 20
1.484864513614629
 30
0.0
 10
19.99999999999999
 20
1.583484937734236
 30
0.0
 10
19.99999999999999
 20
1.790390321921712
 30
0.0
 10
19.99999999999999
 20
1.898146871602947
 30
0.0
 10
20.0
 20
1.99830963045929
 30
0.0
  0
LINE
  5
CB
330
1F
100
AcDbEntity
  8
중심선
100
AcDbLine
 10
-33.0
 20
-0.0000000000000035
 30
0.0
 11
22.99999999999999
 21
-0.0000000000000035
 31
0.0
  0
CIRCLE
  5
CC
330
1F
100
AcDbEntity
  8
외형선
100
AcDbCircle
 10
0.0000000000000087
 20
-0.0000000000000035
 30
0.0
 40
3.000000000000004
  0
INSERT
  5
CD
330
1F
100
AcDbEntity
  8
0
  6
Continuous
 62
     7
100
AcDbBlockReference
 66
     1
  2
블럭10
 10
-23.93827343951161
 20
-52.04717430164393
 30
0.0
  0
ATTRIB
  5
CE
330
CD
100
AcDbEntity
  8
FORMAT
 62
     2
100
AcDbText
 10
-39.9438609707799
 20
-49.97180738881174
 30
0.0
 40
4.233333333333333
  1
SEME350404SE [ 2 FLUTE ]
 41
0.75
  7
SLDTEXTSTYLE0
 11
-39.9438609707799
 21
-52.08847405547841
 31
0.0
100
AcDbAttribute
  2
AUTOATTR0
 70
     0
 74
     1
  0
SEQEND
  5
CF
330
CD
100
AcDbEntity
  8
0
  6
Continuous
 62
     7
  0
HATCH
  5
D0
330
1F
100
AcDbEntity
  8
중심선
100
AcDbHatch
 10
0.0
 20
0.0
 30
0.0
210
0.0
220
0.0
230
1.0
  2
SOLID
 70
     1
 71
     0
 91
        1
 92
        0
 93
        4
 72
     1
 10
-18.22336413513076
 20
-35.8
 11
-21.66963937896804
 21
-35.8
 72
     1
 10
-21.66963937896804
 20
-35.8
 11
-23.79786923817207
 21
-38.33632558057259
 72
     1
 10
-23.79786923817207
 20
-38.33632558057259
 11
-20.35156090922163
 21
-38.3362861512701
 72
     1
 10
-20.35156090922163
 20
-38.3362861512701
 11
-18.22336413513076
 21
-35.8
 97
        0
 75
     0
 76
     1
 98
        1
 10
0.0
 20
0.0
  0
HATCH
  5
D1
330
1F
100
AcDbEntity
  8
중심선
100
AcDbHatch
 10
0.0
 20
0.0
 30
0.0
210
0.0
220
0.0
230
1.0
  2
SOLID
 70
     1
 71
     0
 91
        1
 92
        0
 93
        4
 72
     1
 10
-13.21060014409481
 20
-35.8
 11
-16.65687538793209
 21
-35.8
 72
     1
 10
-16.65687538793209
 20
-35.8
 11
-21.18801339628948
 21
-41.20000000000002
 72
     1
 10
-21.18801339628948
 20
-41.20000000000002
 11
-17.7417381524522
 21
-41.20000000000002
 72
     1
 10
-17.7417381524522
 20
-41.20000000000002
 11
-13.21060014409481
 21
-35.8
 97
        0
 75
     0
 76
     1
 98
        1
 10
0.0
 20
0.0
  0
HATCH
  5
D2
330
1F
100
AcDbEntity
  8
중심선
100
AcDbHatch
 10
0.0
 20
0.0
 30
0.0
210
0.0
220
0.0
230
1.0
  2
SOLID
 70
     1
 71
     0
 91
        1
 92
        0
 93
        4
 72
     1
 10
-8.197836153058912
 20
-35.80000000000003
 11
-11.64411139689603
 21
-35.8
 72
     1
 10
-11.64411139689603
 20
-35.8
 11
-18.69254829878528
 21
-44.20000000000002
 72
     1
 10
-18.69254829878528
 20
-44.20000000000002
 11
-15.246273054948
 21
-44.20000000000002
 72
     1
 10
-15.246273054948
 20
-44.20000000000002
 11
-8.197836153058912
 21
-35.80000000000003
 97
        0
 75
     0
 76
     1
 98
        1
 10
0.0
 20
0.0
  0
HATCH
  5
D3
330
1F
100
AcDbEntity
  8
중심선
100
AcDbHatch
 10
0.0
 20
0.0
 30
0.0
210
0.0
220
0.0
230
1.0
  2
SOLID
 70
     1
 71
     0
 91
        1
 92
        0
 93
        6
 72
     3
 10
-3.397945722046714
 20
-40.00000000005127
 11
3.960054785062284
 21
1.540850780301639E-10
 40
0.3939339440162633
 50
17.09539180608433
 51
320.0019657685079
 73
     0
 72
     1
 10
-1.714946066346118
 20
-38.5878940046383
 11
0.5903558073549198
 21
-36.65356729459038
 72
     3
 10
-3.39794572209956
 20
-40.00000000000015
 11
6.600054785286829
 21
-1.249000902703301E-13
 40
0.6363583540795982
 50
39.99873849337408
 51
368.4976242363725
 73
     1
 72
     1
 10
3.027386769801049
 20
-39.03999999993002
 11
-4.717878415263637
 21
-39.03999999992999
 72
     1
 10
-4.717878415263637
 20
-39.03999999992999
 11
-4.717903459709571
 21
-40.95999999992991
 72
     1
 10
-4.717903459709571
 20
-40.95999999992991
 11
-0.2765236902375348
 21
-40.95999999992988
 97
        0
 75
     0
 76
     1
 98
        1
 10
0.0
 20
0.0
  0
DIMENSION
  5
D4
330
1F
100
AcDbEntity
  8
치수문자_일반주서
100
AcDbDimension
  2
_D
 10
9.999999999999991
 20
14.24894351903707
 30
0.0
 11
14.99999999999999
 21
14.24894351903707
 31
0.0
 70
   160
  1
<>
 71
     2
 42
-1.0
  3
SLDDIMSTYLE0
100
AcDbAlignedDimension
 13
20.0
 23
1.99830963045929
 33
0.0
 14
9.999999999999991
 24
1.954600273681117
 34
0.0
100
AcDbRotatedDimension
  0
DIMENSION
  5
E1
330
1F
100
AcDbEntity
  8
치수문자_일반주서
100
AcDbDimension
  2
_D_1
 10
-30.00000000000004
 20
24.18415911661221
 30
0.0
 11
-5.000000000000025
 21
24.18415911661224
 31
0.0
 70
   160
  1
<>
 71
     2
 42
-1.0
  3
SLDDIMSTYLE1
100
AcDbAlignedDimension
 13
19.99999999999999
 23
1.400000000000002
 33
0.0
 14
-30.00000000000001
 24
1.569999999999995
 34
0.0
 50
0.0000000000000651
100
AcDbRotatedDimension
  0
DIMENSION
  5
EC
330
1F
100
AcDbEntity
  8
치수문자_일반주서
100
AcDbDimension
  2
_D_2
 10
35.56619031224631
 20
-1.998309630459234
 30
0.0
 11
35.56619031224626
 21
11.66480963045934
 31
0.0
 70
   160
  1
%%c<>
 71
     2
 42
3.996619260918578
  3
SLDDIMSTYLE0
100
AcDbAlignedDimension
 13
20.0
 23
1.99830963045929
 33
0.0
 14
20.0
 24
-1.998309630459288
 34
0.0
 50
90.0000000000002
100
AcDbRotatedDimension
  0
DIMENSION
  5
F9
330
1F
100
AcDbEntity
  8
치수문자_일반주서
100
AcDbDimension
  2
_D_3
 10
-41.98955944538856
 20
-2.000000000000003
 30
0.0
 11
-41.98955944538856
 21
-0.0000000000000023
 31
0.0
 70
   160
  1
%%c<>
 71
     2
 42
-1.0
  3
SLDDIMSTYLE0
100
AcDbAlignedDimension
 13
-29.57000000000001
 23
1.999999999999998
 33
0.0
 14
-29.57000000000001
 24
-2.000000000000002
 34
0.0
 50
90.0000000000002
100
AcDbRotatedDimension
  0
INSERT
  5
10C
330
1F
100
AcDbEntity
  8
외형선
100
AcDbBlockReference
  2
SW_DOWELSYMBOL_0
 10
0.0000000000000087
 20
-0.0000000000000035
 30
0.0
  0
ENDSEC
  0
SECTION
  2
OBJECTS
  0
DICTIONARY
  5
C
330
0
100
AcDbDictionary
281
     1
  3
ACAD_DETAILVIEWSTYLE
350
134
  3
ACAD_GROUP
350
D
  3
ACAD_LAYOUT
350
1A
  3
ACAD_MLINESTYLE
350
17
  3
ACAD_PLOTSETTINGS
350
19
  3
ACAD_PLOTSTYLENAME
350
E
  3
ACAD_SCALELIST
350
47
  3
ACAD_SECTIONVIEWSTYLE
350
135
  3
AcDbVariableDictionary
350
12F
  3
APPDATA
350
12E
  3
DWGPROPS
350
13B
  0
DICTIONARY
  5
134
102
{ACAD_REACTORS
330
C
102
}
330
C
100
AcDbDictionary
281
     1
  0
DICTIONARY
  5
D
102
{ACAD_REACTORS
330
C
102
}
330
C
100
AcDbDictionary
281
     1
  0
DICTIONARY
  5
1A
102
{ACAD_REACTORS
330
C
102
}
330
C
100
AcDbDictionary
281
     1
  3
Layout1
350
1E
  3
Layout2
350
26
  3
Model
350
22
  0
DICTIONARY
  5
17
102
{ACAD_REACTORS
330
C
102
}
330
C
100
AcDbDictionary
281
     1
  3
Standard
350
18
  0
DICTIONARY
  5
19
102
{ACAD_REACTORS
330
C
102
}
330
C
100
AcDbDictionary
281
     1
  0
ACDBDICTIONARYWDFLT
  5
E
102
{ACAD_REACTORS
330
C
102
}
330
C
100
AcDbDictionary
281
     1
  3
Normal
350
F
100
AcDbDictionaryWithDefault
340
F
  0
DICTIONARY
  5
47
102
{ACAD_REACTORS
330
C
102
}
330
C
100
AcDbDictionary
281
     1
  3
A0
350
48
  3
A1
350
49
  3
A2
350
4A
  3
A3
350
4B
  3
A4
350
4C
  3
A5
350
4D
  3
A6
350
4E
  3
A7
350
4F
  3
A8
350
50
  3
A9
350
51
  3
B0
350
52
  3
B1
350
53
  3
B2
350
54
  3
B3
350
55
  3
B4
350
56
  3
B5
350
57
  3
B6
350
58
  3
B7
350
59
  3
B8
350
5A
  3
B9
350
5B
  3
C0
350
5C
  3
C1
350
5D
  3
C2
350
5E
  3
C3
350
5F
  3
C4
350
60
  3
C5
350
61
  3
C6
350
62
  3
C7
350
63
  3
C8
350
64
  3
C9
350
65
  3
D0
350
66
  3
D1
350
67
  3
D2
350
68
  0
DICTIONARY
  5
135
102
{ACAD_REACTORS
330
C
102
}
330
C
100
AcDbDictionary
281
     1
  0
DICTIONARY
  5
12F
102
{ACAD_REACTORS
330
C
102
}
330
C
100
AcDbDictionary
281
     1
  0
DICTIONARY
  5
12E
102
{ACAD_REACTORS
330
C
102
}
330
C
100
AcDbDictionary
281
     1
  0
XRECORD
  5
13B
102
{ACAD_REACTORS
330
C
102
}
330
C
100
AcDbXrecord
280
     1
  1
DWGPROPS COOKIE
  2

  3

  4

  6

  7

  8
12011908
  9

300
=
301
=
302
=
303
=
304
=
305
=
306
=
307
=
308
=
309
=
 40
0.0
 41
2458250.115934629
 42
2458264.232542893
  1

 90
        0
  0
LAYOUT
  5
1E
102
{ACAD_REACTORS
330
1A
102
}
330
1A
100
AcDbPlotSettings
  1

  2
none_device
  4

  6

 40
0.0
 41
0.0
 42
0.0
 43
0.0
 44
0.0
 45
0.0
 46
0.0
 47
0.0
 48
0.0
 49
0.0
140
0.0
141
0.0
142
1.0
143
1.0
 70
   688
 72
     1
 73
     0
 74
     5
  7

 75
    16
147
1.0
148
0.0
149
0.0
100
AcDbLayout
  1
Layout1
 70
     1
 71
     1
 10
0.0
 20
0.0
 11
420.0
 21
297.0
 12
0.0
 22
0.0
 32
0.0
 14
1.000000000000000E+20
 24
1.000000000000000E+20
 34
1.000000000000000E+20
 15
-1.000000000000000E+20
 25
-1.000000000000000E+20
 35
-1.000000000000000E+20
146
0.0
 13
0.0
 23
0.0
 33
0.0
 16
1.0
 26
0.0
 36
0.0
 17
0.0
 27
1.0
 37
0.0
 76
     0
330
1B
  0
LAYOUT
  5
26
102
{ACAD_REACTORS
330
1A
102
}
330
1A
100
AcDbPlotSettings
  1

  2
none_device
  4

  6

 40
0.0
 41
0.0
 42
0.0
 43
0.0
 44
0.0
 45
0.0
 46
0.0
 47
0.0
 48
0.0
 49
0.0
140
0.0
141
0.0
142
1.0
143
1.0
 70
   688
 72
     1
 73
     0
 74
     5
  7

 75
    16
147
1.0
148
0.0
149
0.0
100
AcDbLayout
  1
Layout2
 70
     1
 71
     2
 10
0.0
 20
0.0
 11
0.0
 21
0.0
 12
0.0
 22
0.0
 32
0.0
 14
0.0
 24
0.0
 34
0.0
 15
0.0
 25
0.0
 35
0.0
146
0.0
 13
0.0
 23
0.0
 33
0.0
 16
1.0
 26
0.0
 36
0.0
 17
0.0
 27
1.0
 37
0.0
 76
     0
330
23
  0
LAYOUT
  5
22
102
{ACAD_REACTORS
330
1A
102
}
330
1A
100
AcDbPlotSettings
  1

  2
none_device
  4
ANSI_A_(11.00_x_8.50_Inches)
  6

 40
6.35
 41
19.05
 42
6.35000508
 43
19.05000254
 44
279.4
 45
215.9
 46
146.7876991524207
 47
118.533871183374
 48
0.0
 49
0.0
140
0.0
141
0.0
142
0.1059667941656066
143
1.0
 70
  1696
 72
     0
 73
     0
 74
     0
  7

 75
     0
147
0.0235690232323232
148
0.0
149
0.0
100
AcDbLayout
  1
Model
 70
     1
 71
     0
 10
0.0
 20
0.0
 11
420.0
 21
297.0
 12
0.0
 22
0.0
 32
0.0
 14
-46.5547687112503
 24
-49.97180738881174
 34
0.0
 15
36.11652364557965
 25
28.69589603119115
 35
0.0
146
0.0
 13
0.0
 23
0.0
 33
0.0
 16
1.0
 26
0.0
 36
0.0
 17
0.0
 27
1.0
 37
0.0
 76
     0
330
1F
331
29
  0
MLINESTYLE
  5
18
102
{ACAD_REACTORS
330
17
102
}
330
17
100
AcDbMlineStyle
  2
Standard
 70
     0
  3

 62
   256
 51
90.0
 52
90.0
 71
     2
 49
0.5
 62
   256
  6
BYLAYER
 49
-0.5
 62
   256
  6
BYLAYER
  0
ACDBPLACEHOLDER
  5
F
102
{ACAD_REACTORS
330
E
102
}
330
E
  0
SCALE
  5
48
102
{ACAD_REACTORS
330
47
102
}
330
47
100
AcDbScale
 70
     0
300
1:1
140
1.0
141
1.0
290
     1
  0
SCALE
  5
49
102
{ACAD_REACTORS
330
47
102
}
330
47
100
AcDbScale
 70
     0
300
1:2
140
1.0
141
2.0
290
     0
  0
SCALE
  5
4A
102
{ACAD_REACTORS
330
47
102
}
330
47
100
AcDbScale
 70
     0
300
1:4
140
1.0
141
4.0
290
     0
  0
SCALE
  5
4B
102
{ACAD_REACTORS
330
47
102
}
330
47
100
AcDbScale
 70
     0
300
1:5
140
1.0
141
5.0
290
     0
  0
SCALE
  5
4C
102
{ACAD_REACTORS
330
47
102
}
330
47
100
AcDbScale
 70
     0
300
1:8
140
1.0
141
8.0
290
     0
  0
SCALE
  5
4D
102
{ACAD_REACTORS
330
47
102
}
330
47
100
AcDbScale
 70
     0
300
1:10
140
1.0
141
10.0
290
     0
  0
SCALE
  5
4E
102
{ACAD_REACTORS
330
47
102
}
330
47
100
AcDbScale
 70
     0
300
1:16
140
1.0
141
16.0
290
     0
  0
SCALE
  5
4F
102
{ACAD_REACTORS
330
47
102
}
330
47
100
AcDbScale
 70
     0
300
1:20
140
1.0
141
20.0
290
     0
  0
SCALE
  5
50
102
{ACAD_REACTORS
330
47
102
}
330
47
100
AcDbScale
 70
     0
300
1:30
140
1.0
141
30.0
290
     0
  0
SCALE
  5
51
102
{ACAD_REACTORS
330
47
102
}
330
47
100
AcDbScale
 70
     0
300
1:40
140
1.0
141
40.0
290
     0
  0
SCALE
  5
52
102
{ACAD_REACTORS
330
47
102
}
330
47
100
AcDbScale
 70
     0
300
1:50
140
1.0
141
50.0
290
     0
  0
SCALE
  5
53
102
{ACAD_REACTORS
330
47
102
}
330
47
100
AcDbScale
 70
     0
300
1:100
140
1.0
141
100.0
290
     0
  0
SCALE
  5
54
102
{ACAD_REACTORS
330
47
102
}
330
47
100
AcDbScale
 70
     0
300
2:1
140
2.0
141
1.0
290
     0
  0
SCALE
  5
55
102
{ACAD_REACTORS
330
47
102
}
330
47
100
AcDbScale
 70
     0
300
4:1
140
4.0
141
1.0
290
     0
  0
SCALE
  5
56
102
{ACAD_REACTORS
330
47
102
}
330
47
100
AcDbScale
 70
     0
300
8:1
140
8.0
141
1.0
290
     0
  0
SCALE
  5
57
102
{ACAD_REACTORS
330
47
102
}
330
47
100
AcDbScale
 70
     0
300
10:1
140
10.0
141
1.0
290
     0
  0
SCALE
  5
58
102
{ACAD_REACTORS
330
47
102
}
330
47
100
AcDbScale
 70
     0
300
100:1
140
100.0
141
1.0
290
     0
  0
SCALE
  5
59
102
{ACAD_REACTORS
330
47
102
}
330
47
100
AcDbScale
 70
     0
300
1/128" = 1'-0"
140
0.0078125
141
12.0
290
     0
  0
SCALE
  5
5A
102
{ACAD_REACTORS
330
47
102
}
330
47
100
AcDbScale
 70
     0
300
1/64" = 1'-0"
140
0.015625
141
12.0
290
     0
  0
SCALE
  5
5B
102
{ACAD_REACTORS
330
47
102
}
330
47
100
AcDbScale
 70
     0
300
1/32" = 1'-0"
140
0.03125
141
12.0
290
     0
  0
SCALE
  5
5C
102
{ACAD_REACTORS
330
47
102
}
330
47
100
AcDbScale
 70
     0
300
1/16" = 1'-0"
140
0.0625
141
12.0
290
     0
  0
SCALE
  5
5D
102
{ACAD_REACTORS
330
47
102
}
330
47
100
AcDbScale
 70
     0
300
3/32" = 1'-0"
140
0.09375
141
12.0
290
     0
  0
SCALE
  5
5E
102
{ACAD_REACTORS
330
47
102
}
330
47
100
AcDbScale
 70
     0
300
1/8" = 1'-0"
140
0.125
141
12.0
290
     0
  0
SCALE
  5
5F
102
{ACAD_REACTORS
330
47
102
}
330
47
100
AcDbScale
 70
     0
300
3/16" = 1'-0"
140
0.1875
141
12.0
290
     0
  0
SCALE
  5
60
102
{ACAD_REACTORS
330
47
102
}
330
47
100
AcDbScale
 70
     0
300
1/4" = 1'-0"
140
0.25
141
12.0
290
     0
  0
SCALE
  5
61
102
{ACAD_REACTORS
330
47
102
}
330
47
100
AcDbScale
 70
     0
300
3/8" = 1'-0"
140
0.375
141
12.0
290
     0
  0
SCALE
  5
62
102
{ACAD_REACTORS
330
47
102
}
330
47
100
AcDbScale
 70
     0
300
1/2" = 1'-0"
140
0.5
141
12.0
290
     0
  0
SCALE
  5
63
102
{ACAD_REACTORS
330
47
102
}
330
47
100
AcDbScale
 70
     0
300
3/4" = 1'-0"
140
0.75
141
12.0
290
     0
  0
SCALE
  5
64
102
{ACAD_REACTORS
330
47
102
}
330
47
100
AcDbScale
 70
     0
300
1" = 1'-0"
140
1.0
141
12.0
290
     0
  0
SCALE
  5
65
102
{ACAD_REACTORS
330
47
102
}
330
47
100
AcDbScale
 70
     0
300
1-1/2" = 1'-0"
140
1.5
141
12.0
290
     0
  0
SCALE
  5
66
102
{ACAD_REACTORS
330
47
102
}
330
47
100
AcDbScale
 70
     0
300
3" = 1'-0"
140
3.0
141
12.0
290
     0
  0
SCALE
  5
67
102
{ACAD_REACTORS
330
47
102
}
330
47
100
AcDbScale
 70
     0
300
6" = 1'-0"
140
6.0
141
12.0
290
     0
  0
SCALE
  5
68
102
{ACAD_REACTORS
330
47
102
}
330
47
100
AcDbScale
 70
     0
300
1'-0" = 1'-0"
140
12.0
141
12.0
290
     0
  0
ENDSEC
  0
EOF
