  0
SECTION
  2
HEADER
  9
$ACADVER
  1
AC1015
  9
$ACADMAINTVER
 70
     6
  9
$DWGCODEPAGE
  3
ANSI_949
  9
$INSBASE
 10
0.0
 20
0.0
 30
0.0
  9
$EXTMIN
 10
-48.60476871125031
 20
-49.97180738881174
 30
0.0
  9
$EXTMAX
 10
33.86252364557959
 20
28.34589603119114
 30
0.0
  9
$LIMMIN
 10
0.0
 20
0.0
  9
$LIMMAX
 10
420.0
 20
297.0
  9
$ORTHOMODE
 70
     1
  9
$REGENMODE
 70
     1
  9
$FILLMODE
 70
     1
  9
$QTEXTMODE
 70
     0
  9
$MIRRTEXT
 70
     1
  9
$LTSCALE
 40
1.0
  9
$ATTMODE
 70
     1
  9
$TEXTSIZE
 40
3.5
  9
$TRACEWID
 40
1.0
  9
$TEXTSTYLE
  7
Standard
  9
$CLAYER
  8
0
  9
$CELTYPE
  6
ByLayer
  9
$CECOLOR
 62
   256
  9
$CELTSCALE
 40
1.0
  9
$DISPSILH
 70
     0
  9
$DIMSCALE
 40
1.0
  9
$DIMASZ
 40
3.302
  9
$DIMEXO
 40
1.0
  9
$DIMDLI
 40
3.75
  9
$DIMRND
 40
0.0
  9
$DIMDLE
 40
0.0
  9
$DIMEXE
 40
1.0
  9
$DIMTP
 40
0.0
  9
$DIMTM
 40
0.0
  9
$DIMTXT
 40
3.5
  9
$DIMCEN
 40
2.5
  9
$DIMTSZ
 40
0.0
  9
$DIMTOL
 70
     0
  9
$DIMLIM
 70
     0
  9
$DIMTIH
 70
     1
  9
$DIMTOH
 70
     1
  9
$DIMSE1
 70
     0
  9
$DIMSE2
 70
     0
  9
$DIMTAD
 70
     1
  9
$DIMZIN
 70
     0
  9
$DIMBLK
  1

  9
$DIMASO
 70
     1
  9
$DIMSHO
 70
     1
  9
$DIMPOST
  1

  9
$DIMAPOST
  1

  9
$DIMALT
 70
     0
  9
$DIMALTD
 70
     3
  9
$DIMALTF
 40
0.0393700787401575
  9
$DIMLFAC
 40
1.0
  9
$DIMTOFL
 70
     1
  9
$DIMTVP
 40
0.0
  9
$DIMTIX
 70
     0
  9
$DIMSOXD
 70
     0
  9
$DIMSAH
 70
     0
  9
$DIMBLK1
  1

  9
$DIMBLK2
  1

  9
$DIMSTYLE
  2
ISO-25
  9
$DIMCLRD
 70
     0
  9
$DIMCLRE
 70
     0
  9
$DIMCLRT
 70
     0
  9
$DIMTFAC
 40
1.0
  9
$DIMGAP
 40
1.524
  9
$DIMJUST
 70
     0
  9
$DIMSD1
 70
     0
  9
$DIMSD2
 70
     0
  9
$DIMTOLJ
 70
     0
  9
$DIMTZIN
 70
     0
  9
$DIMALTZ
 70
     0
  9
$DIMALTTZ
 70
     0
  9
$DIMUPT
 70
     0
  9
$DIMDEC
 70
     2
  9
$DIMTDEC
 70
     2
  9
$DIMALTU
 70
     2
  9
$DIMALTTD
 70
     3
  9
$DIMTXSTY
  7
Standard
  9
$DIMAUNIT
 70
     0
  9
$DIMADEC
 70
     2
  9
$DIMALTRND
 40
0.0
  9
$DIMAZIN
 70
     0
  9
$DIMDSEP
 70
    44
  9
$DIMATFIT
 70
     3
  9
$DIMFRAC
 70
     0
  9
$DIMLDRBLK
  1

  9
$DIMLUNIT
 70
     2
  9
$DIMLWD
 70
    -2
  9
$DIMLWE
 70
    -2
  9
$DIMTMOVE
 70
     0
  9
$LUNITS
 70
     2
  9
$LUPREC
 70
     2
  9
$SKETCHINC
 40
1.0
  9
$FILLETRAD
 40
10.0
  9
$AUNITS
 70
     0
  9
$AUPREC
 70
     2
  9
$MENU
  1
.
  9
$ELEVATION
 40
0.0
  9
$PELEVATION
 40
0.0
  9
$THICKNESS
 40
0.0
  9
$LIMCHECK
 70
     0
  9
$CHAMFERA
 40
0.0
  9
$CHAMFERB
 40
0.0
  9
$CHAMFERC
 40
0.0
  9
$CHAMFERD
 40
0.0
  9
$SKPOLY
 70
     0
  9
$TDCREATE
 40
2458250.48832831
  9
$TDUCREATE
 40
2458250.11332831
  9
$TDUPDATE
 40
2458264.60458875
  9
$TDUUPDATE
 40
2458264.22958875
  9
$TDINDWG
 40
0.0010755787
  9
$TDUSRTIMER
 40
0.0010755671
  9
$USRTIMER
 70
     1
  9
$ANGBASE
 50
0.0
  9
$ANGDIR
 70
     0
  9
$PDMODE
 70
     0
  9
$PDSIZE
 40
-1.0
  9
$PLINEWID
 40
0.0
  9
$SPLFRAME
 70
     0
  9
$SPLINETYPE
 70
     6
  9
$SPLINESEGS
 70
     8
  9
$HANDSEED
  5
139
  9
$SURFTAB1
 70
     6
  9
$SURFTAB2
 70
     6
  9
$SURFTYPE
 70
     6
  9
$SURFU
 70
     6
  9
$SURFV
 70
     6
  9
$UCSBASE
  2

  9
$UCSNAME
  2

  9
$UCSORG
 10
0.0
 20
0.0
 30
0.0
  9
$UCSXDIR
 10
1.0
 20
0.0
 30
0.0
  9
$UCSYDIR
 10
0.0
 20
1.0
 30
0.0
  9
$UCSORTHOREF
  2

  9
$UCSORTHOVIEW
 70
     0
  9
$UCSORGTOP
 10
0.0
 20
0.0
 30
0.0
  9
$UCSORGBOTTOM
 10
0.0
 20
0.0
 30
0.0
  9
$UCSORGLEFT
 10
0.0
 20
0.0
 30
0.0
  9
$UCSORGRIGHT
 10
0.0
 20
0.0
 30
0.0
  9
$UCSORGFRONT
 10
0.0
 20
0.0
 30
0.0
  9
$UCSORGBACK
 10
0.0
 20
0.0
 30
0.0
  9
$PUCSBASE
  2

  9
$PUCSNAME
  2

  9
$PUCSORG
 10
0.0
 20
0.0
 30
0.0
  9
$PUCSXDIR
 10
1.0
 20
0.0
 30
0.0
  9
$PUCSYDIR
 10
0.0
 20
1.0
 30
0.0
  9
$PUCSORTHOREF
  2

  9
$PUCSORTHOVIEW
 70
     0
  9
$PUCSORGTOP
 10
0.0
 20
0.0
 30
0.0
  9
$PUCSORGBOTTOM
 10
0.0
 20
0.0
 30
0.0
  9
$PUCSORGLEFT
 10
0.0
 20
0.0
 30
0.0
  9
$PUCSORGRIGHT
 10
0.0
 20
0.0
 30
0.0
  9
$PUCSORGFRONT
 10
0.0
 20
0.0
 30
0.0
  9
$PUCSORGBACK
 10
0.0
 20
0.0
 30
0.0
  9
$USERI1
 70
     0
  9
$USERI2
 70
     0
  9
$USERI3
 70
     0
  9
$USERI4
 70
     0
  9
$USERI5
 70
     0
  9
$USERR1
 40
0.0
  9
$USERR2
 40
0.0
  9
$USERR3
 40
0.0
  9
$USERR4
 40
0.0
  9
$USERR5
 40
0.0
  9
$WORLDVIEW
 70
     1
  9
$SHADEDGE
 70
     3
  9
$SHADEDIF
 70
    70
  9
$TILEMODE
 70
     1
  9
$MAXACTVP
 70
    64
  9
$PINSBASE
 10
0.0
 20
0.0
 30
0.0
  9
$PLIMCHECK
 70
     0
  9
$PEXTMIN
 10
1.000000000000000E+20
 20
1.000000000000000E+20
 30
1.000000000000000E+20
  9
$PEXTMAX
 10
-1.000000000000000E+20
 20
-1.000000000000000E+20
 30
-1.000000000000000E+20
  9
$PLIMMIN
 10
0.0
 20
0.0
  9
$PLIMMAX
 10
0.0
 20
0.0
  9
$UNITMODE
 70
     0
  9
$VISRETAIN
 70
     1
  9
$PLINEGEN
 70
     0
  9
$PSLTSCALE
 70
     1
  9
$TREEDEPTH
 70
  3020
  9
$CMLSTYLE
  2
Standard
  9
$CMLJUST
 70
     0
  9
$CMLSCALE
 40
20.0
  9
$PROXYGRAPHICS
 70
     1
  9
$MEASUREMENT
 70
     1
  9
$CELWEIGHT
370
    -1
  9
$ENDCAPS
280
     0
  9
$JOINSTYLE
280
     0
  9
$LWDISPLAY
290
     1
  9
$INSUNITS
 70
     4
  9
$HYPERLINKBASE
  1

  9
$STYLESHEET
  1

  9
$XEDIT
290
     1
  9
$CEPSNTYPE
380
     0
  9
$PSTYLEMODE
290
     1
  9
$FINGERPRINTGUID
  2
{73139AEE-6AD9-45F2-B825-4853C1160448}
  9
$VERSIONGUID
  2
{FAEB1C32-E019-11D5-929B-00C0DF256EC4}
  9
$EXTNAMES
290
     1
  9
$PSVPSCALE
 40
0.0
  9
$OLESTARTUP
290
     0
  0
ENDSEC
  0
SECTION
  2
CLASSES
  0
CLASS
  1
ACDBDICTIONARYWDFLT
  2
AcDbDictionaryWithDefault
  3
ObjectDBX Classes
 90
        0
280
     0
281
     0
  0
CLASS
  1
VISUALSTYLE
  2
AcDbVisualStyle
  3
ObjectDBX Classes
 90
     4095
280
     0
281
     0
  0
CLASS
  1
MATERIAL
  2
AcDbMaterial
  3
ObjectDBX Classes
 90
     1153
280
     0
281
     0
  0
CLASS
  1
SCALE
  2
AcDbScale
  3
ObjectDBX Classes
 90
     1153
280
     0
281
     0
  0
CLASS
  1
SUN
  2
AcDbSun
  3
SCENEOE
 90
     1153
280
     0
281
     0
  0
CLASS
  1
ACDBPLACEHOLDER
  2
AcDbPlaceHolder
  3
ObjectDBX Classes
 90
        0
280
     0
281
     0
  0
CLASS
  1
LAYOUT
  2
AcDbLayout
  3
ObjectDBX Classes
 90
        0
280
     0
281
     0
  0
CLASS
  1
TABLESTYLE
  2
AcDbTableStyle
  3
ObjectDBX Classes
 90
     4095
280
     0
281
     0
  0
CLASS
  1
MLEADERSTYLE
  2
AcDbMLeaderStyle
  3
ACDB_MLEADERSTYLE_CLASS
 90
     4095
280
     0
281
     0
  0
ENDSEC
  0
SECTION
  2
TABLES
  0
TABLE
  2
VPORT
  5
8
330
0
100
AcDbSymbolTable
 70
     1
  0
VPORT
  5
29
330
8
100
AcDbSymbolTableRecord
100
AcDbViewportTableRecord
  2
*Active
 70
     0
 10
0.0
 20
0.0
 11
1.0
 21
1.0
 12
-9.894818130629336
 22
8.336134295204227
 13
0.0
 23
0.0
 14
10.0
 24
10.0
 15
10.0
 25
10.0
 16
0.0
 26
0.0
 36
1.0
 17
0.0
 27
0.0
 37
0.0
 40
52.50696260310418
 41
2.223011363636364
 42
50.0
 43
0.0
 44
0.0
 50
0.0
 51
0.0
 71
    16
 72
  2000
 73
     1
 74
     3
 75
     0
 76
     0
 77
     0
 78
     0
281
     0
 65
     1
110
0.0
120
0.0
130
0.0
111
1.0
121
0.0
131
0.0
112
0.0
122
1.0
132
0.0
 79
     0
146
0.0
  0
ENDTAB
  0
TABLE
  2
LTYPE
  5
5
330
0
100
AcDbSymbolTable
 70
     6
  0
LTYPE
  5
14
330
5
100
AcDbSymbolTableRecord
100
AcDbLinetypeTableRecord
  2
ByBlock
 70
     0
  3

 72
    65
 73
     0
 40
0.0
  0
LTYPE
  5
15
330
5
100
AcDbSymbolTableRecord
100
AcDbLinetypeTableRecord
  2
ByLayer
 70
     0
  3

 72
    65
 73
     0
 40
0.0
  0
LTYPE
  5
16
330
5
100
AcDbSymbolTableRecord
100
AcDbLinetypeTableRecord
  2
Continuous
 70
     0
  3
Solid line
 72
    65
 73
     0
 40
0.0
  0
LTYPE
  5
6A
330
5
100
AcDbSymbolTableRecord
100
AcDbLinetypeTableRecord
  2
HIDDEN
 70
     0
  3
Hidden __ __ __ __ __ __ __ __ __ __ __ __ __ __
 72
    65
 73
     2
 40
1.905
 49
1.27
 74
     0
 49
-0.635
 74
     0
  0
LTYPE
  5
6B
330
5
100
AcDbSymbolTableRecord
100
AcDbLinetypeTableRecord
  2
PHANTOM
 70
     0
  3
Phantom ______  __  __  ______  __  __  ______
 72
    65
 73
     6
 40
12.7
 49
6.35
 74
     0
 49
-1.27
 74
     0
 49
1.27
 74
     0
 49
-1.27
 74
     0
 49
1.27
 74
     0
 49
-1.27
 74
     0
  0
LTYPE
  5
6C
330
5
100
AcDbSymbolTableRecord
100
AcDbLinetypeTableRecord
  2
CENTER
 70
     0
  3
Center ____ _ ____ _ ____ _ ____ _ ____ _ ____
 72
    65
 73
     4
 40
10.16
 49
6.35
 74
     0
 49
-1.27
 74
     0
 49
1.27
 74
     0
 49
-1.27
 74
     0
  0
LTYPE
  5
6D
330
5
100
AcDbSymbolTableRecord
100
AcDbLinetypeTableRecord
  2
CENTERX2
 70
     0
  3
Center (2x) ________  __  ________  __  _____
 72
    65
 73
     4
 40
20.32
 49
12.7
 74
     0
 49
-2.54
 74
     0
 49
2.54
 74
     0
 49
-2.54
 74
     0
  0
LTYPE
  5
6E
330
5
100
AcDbSymbolTableRecord
100
AcDbLinetypeTableRecord
  2
DOT2
 70
     0
  3
Dot (.5x) ........................................
 72
    65
 73
     2
 40
0.635
 49
0.0
 74
     0
 49
-0.635
 74
     0
  0
ENDTAB
  0
TABLE
  2
LAYER
  5
2
330
0
100
AcDbSymbolTable
 70
    17
  0
LAYER
  5
10
330
2
100
AcDbSymbolTableRecord
100
AcDbLayerTableRecord
  2
0
 70
     0
 62
     7
  6
Continuous
370
    -3
390
F
  0
LAYER
  5
6F
330
2
100
AcDbSymbolTableRecord
100
AcDbLayerTableRecord
  2
FORMAT
 70
     0
 62
     2
  6
Continuous
370
    -3
390
F
  0
LAYER
  5
70
330
2
100
AcDbSymbolTableRecord
100
AcDbLayerTableRecord
  2
외형선
 70
     0
 62
   100
  6
Continuous
370
    30
390
F
  0
LAYER
  5
71
330
2
100
AcDbSymbolTableRecord
100
AcDbLayerTableRecord
  2
숨은선
 70
     0
 62
     2
  6
HIDDEN
370
    15
390
F
  0
LAYER
  5
72
330
2
100
AcDbSymbolTableRecord
100
AcDbLayerTableRecord
  2
중심선
 70
     0
 62
     1
  6
CENTERX2
370
    -3
390
F
  0
LAYER
  5
73
330
2
100
AcDbSymbolTableRecord
100
AcDbLayerTableRecord
  2
파단선
 70
     0
 62
     4
  6
Continuous
370
    -3
390
F
  0
LAYER
  5
74
330
2
100
AcDbSymbolTableRecord
100
AcDbLayerTableRecord
  2
해칭선
 70
     0
 62
     4
  6
Continuous
370
    -3
390
F
  0
LAYER
  5
75
330
2
100
AcDbSymbolTableRecord
100
AcDbLayerTableRecord
  2
가는실선
 70
     0
 62
     4
  6
Continuous
370
    -3
390
F
  0
LAYER
  5
76
330
2
100
AcDbSymbolTableRecord
100
AcDbLayerTableRecord
  2
치수_보조선
 70
     0
 62
     4
  6
Continuous
370
    -3
390
F
  0
LAYER
  5
77
330
2
100
AcDbSymbolTableRecord
100
AcDbLayerTableRecord
  2
치수문자_일반주서
 70
     0
 62
     7
  6
Continuous
370
    15
390
F
  0
LAYER
  5
78
330
2
100
AcDbSymbolTableRecord
100
AcDbLayerTableRecord
  2
개별주서
 70
     0
 62
   100
  6
Continuous
370
    30
390
F
  0
LAYER
  5
79
330
2
100
AcDbSymbolTableRecord
100
AcDbLayerTableRecord
  2
중간선
 70
     0
 62
     2
  6
Continuous
370
    15
390
F
  0
LAYER
  5
7A
330
2
100
AcDbSymbolTableRecord
100
AcDbLayerTableRecord
  2
윤곽선
 70
     0
 62
     3
  6
Continuous
370
    40
390
F
  0
LAYER
  5
7B
330
2
100
AcDbSymbolTableRecord
100
AcDbLayerTableRecord
  2
중심마크
 70
     0
 62
   100
  6
Continuous
370
    30
390
F
  0
LAYER
  5
7C
330
2
100
AcDbSymbolTableRecord
100
AcDbLayerTableRecord
  2
가상선
 70
     0
 62
     4
  6
PHANTOM
370
    -3
390
F
  0
LAYER
  5
7D
330
2
100
AcDbSymbolTableRecord
100
AcDbLayerTableRecord
  2
특수지정선
 70
     0
 62
     5
  6
CENTERX2
370
    60
390
F
  0
LAYER
  5
12F
330
2
100
AcDbSymbolTableRecord
100
AcDbLayerTableRecord
  2
Defpoints
 70
     0
 62
     7
  6
Continuous
290
     0
370
    -3
390
F
  0
ENDTAB
  0
TABLE
  2
STYLE
  5
3
330
0
100
AcDbSymbolTable
 70
     2
  0
STYLE
  5
11
330
3
100
AcDbSymbolTableRecord
100
AcDbTextStyleTableRecord
  2
Standard
 70
     0
 40
0.0
 41
1.0
 50
0.0
 71
     0
 42
3.5
  3
txt
  4

  0
STYLE
  5
93
330
3
100
AcDbSymbolTableRecord
100
AcDbTextStyleTableRecord
  2
SLDTEXTSTYLE0
 70
     0
 40
0.0
 41
0.75
 50
0.0
 71
     0
 42
3.5
  3
TXT
  4

  0
ENDTAB
  0
TABLE
  2
VIEW
  5
6
330
0
100
AcDbSymbolTable
 70
     0
  0
ENDTAB
  0
TABLE
  2
UCS
  5
7
330
0
100
AcDbSymbolTable
 70
     0
  0
ENDTAB
  0
TABLE
  2
APPID
  5
9
330
0
100
AcDbSymbolTable
 70
     2
  0
APPID
  5
12
330
9
100
AcDbSymbolTableRecord
100
AcDbRegAppTableRecord
  2
ACAD
 70
     0
  0
APPID
  5
133
330
9
100
AcDbSymbolTableRecord
100
AcDbRegAppTableRecord
  2
PE_URL
 70
     0
  0
ENDTAB
  0
TABLE
  2
DIMSTYLE
  5
A
330
0
100
AcDbSymbolTable
 70
     3
100
AcDbDimStyleTable
  0
DIMSTYLE
105
27
330
A
100
AcDbSymbolTableRecord
100
AcDbDimStyleTableRecord
  2
ISO-25
 70
     0
 41
2.5
 42
0.625
 43
3.75
 44
1.25
 73
     0
 74
     0
 77
     1
 78
     8
140
2.5
141
2.5
143
0.03937007874016
147
0.625
171
     3
172
     1
178
     0
271
     2
272
     2
274
     3
278
    44
283
     0
284
     8
340
11
  0
DIMSTYLE
105
D5
102
{ACAD_REACTORS
330
D4
330
EC
330
F9
102
}
330
A
100
AcDbSymbolTableRecord
100
AcDbDimStyleTableRecord
  2
SLDDIMSTYLE0
 70
     0
 41
3.302
 44
0.0
 45
0.000000001
 73
     0
 74
     0
 77
     1
 78
    12
 79
     3
140
3.5
147
0.875
172
     1
173
     1
178
     0
271
     2
272
     2
276
     2
284
    12
289
     0
340
93
  0
DIMSTYLE
105
E2
102
{ACAD_REACTORS
330
E1
102
}
330
A
100
AcDbSymbolTableRecord
100
AcDbDimStyleTableRecord
  2
SLDDIMSTYLE1
 70
     0
 41
3.302
 44
0.0
 45
0.000000001
 73
     0
 74
     0
 77
     1
 78
    12
 79
     3
140
3.5
147
0.875
173
     1
178
     0
271
     2
272
     2
276
     2
284
    12
340
93
  0
ENDTAB
  0
TABLE
  2
BLOCK_RECORD
  5
1
330
0
100
AcDbSymbolTable
 70
     7
  0
BLOCK_RECORD
  5
1F
330
1
100
AcDbSymbolTableRecord
100
AcDbBlockTableRecord
  2
*Model_Space
340
22
  0
BLOCK_RECORD
  5
1B
330
1
100
AcDbSymbolTableRecord
100
AcDbBlockTableRecord
  2
*Paper_Space
340
1E
  0
BLOCK_RECORD
  5
23
330
1
100
AcDbSymbolTableRecord
100
AcDbBlockTableRecord
  2
*Paper_Space0
340
26
  0
BLOCK_RECORD
  5
7E
330
1
100
AcDbSymbolTableRecord
100
AcDbBlockTableRecord
  2
블럭10
340
0
102
{BLKREFS
331
CD
102
}
  0
BLOCK_RECORD
  5
D6
330
1
100
AcDbSymbolTableRecord
100
AcDbBlockTableRecord
  2
_D
340
0
  0
BLOCK_RECORD
  5
E3
330
1
100
AcDbSymbolTableRecord
100
AcDbBlockTableRecord
  2
_D_1
340
0
  0
BLOCK_RECORD
  5
ED
330
1
100
AcDbSymbolTableRecord
100
AcDbBlockTableRecord
  2
_D_2
340
0
  0
BLOCK_RECORD
  5
FA
330
1
100
AcDbSymbolTableRecord
100
AcDbBlockTableRecord
  2
_D_3
340
0
  0
BLOCK_RECORD
  5
106
330
1
100
AcDbSymbolTableRecord
100
AcDbBlockTableRecord
  2
SW_DOWELSYMBOL_0
340
0
102
{BLKREFS
331
10C
102
}
  0
ENDTAB
  0
ENDSEC
  0
SECTION
  2
BLOCKS
  0
BLOCK
  5
20
330
1F
100
AcDbEntity
  8
0
100
AcDbBlockBegin
  2
*Model_Space
 70
     0
 10
0.0
 20
0.0
 30
0.0
  3
*Model_Space
  1

  0
ENDBLK
  5
21
330
1F
100
AcDbEntity
  8
0
100
AcDbBlockEnd
  0
BLOCK
  5
1C
330
1B
100
AcDbEntity
 67
     1
  8
0
100
AcDbBlockBegin
  2
*Paper_Space
 70
     0
 10
0.0
 20
0.0
 30
0.0
  3
*Paper_Space
  1

  0
ENDBLK
  5
1D
330
1B
100
AcDbEntity
 67
     1
  8
0
100
AcDbBlockEnd
  0
BLOCK
  5
24
330
23
100
AcDbEntity
  8
0
100
AcDbBlockBegin
  2
*Paper_Space0
 70
     0
 10
0.0
 20
0.0
 30
0.0
  3
*Paper_Space0
  1

  0
ENDBLK
  5
25
330
23
100
AcDbEntity
  8
0
100
AcDbBlockEnd
  0
BLOCK
  5
7F
330
7E
100
AcDbEntity
  8
0
100
AcDbBlockBegin
  2
블럭10
 70
     2
 10
0.0
 20
0.0
 30
0.0
  3
블럭10
  1

  0
ELLIPSE
  5
81
330
7E
100
AcDbEntity
  8
중심선
100
AcDbEllipse
 10
20.54032771741204
 20
12.0471743016438
 30
0.0
 11
6.600054785286829
 21
-1.261213355974178E-13
 31
0.0
210
0.0
220
0.0
230
1.0
 40
0.636358354079598
 41
0.9219305317359503
 42
6.513795318482858
  0
ELLIPSE
  5
82
330
7E
100
AcDbEntity
  8
중심선
100
AcDbEllipse
 10
20.54032771746488
 20
12.04717430159265
 30
0.0
 11
3.960054785062283
 21
1.540847449632565E-10
 31
0.0
210
0.0
220
0.0
230
1.0
 40
0.3939339440162632
 41
1.131841032648279
 42
5.62031148352944
  0
LINE
  5
83
330
7E
100
AcDbEntity
  8
중심선
100
AcDbLine
 10
2.268634060543552
 20
16.24717430164393
 30
0.0
 11
5.714909304380834
 21
16.24717430164393
 31
0.0
  0
LINE
  5
84
330
7E
100
AcDbEntity
  8
중심선
100
AcDbLine
 10
5.245725140726316
 20
7.84717430164391
 30
0.0
 11
8.692000384563599
 21
7.84717430164391
 31
0.0
  0
LINE
  5
85
330
7E
100
AcDbEntity
  8
중심선
100
AcDbLine
 10
15.74043728645272
 20
16.24717430164393
 30
0.0
 11
8.692000384563599
 21
7.84717430164391
 31
0.0
  0
LINE
  5
86
330
7E
100
AcDbEntity
  8
중심선
100
AcDbLine
 10
0.1404042013395286
 20
13.71084872107135
 30
0.0
 11
3.58671253028996
 21
13.71088815037384
 31
0.0
  0
LINE
  5
87
330
7E
100
AcDbEntity
  8
중심선
100
AcDbLine
 10
2.750260043222114
 20
10.84717430164391
 30
0.0
 11
6.196535287059397
 21
10.84717430164391
 31
0.0
  0
LINE
  5
88
330
7E
100
AcDbEntity
  8
중심선
100
AcDbLine
 10
12.29416204261559
 20
16.24717430164393
 30
0.0
 11
5.245725140726316
 21
7.84717430164391
 31
0.0
  0
LINE
  5
89
330
7E
100
AcDbEntity
  8
중심선
100
AcDbLine
 10
10.72767329541681
 20
16.24717430164393
 30
0.0
 11
6.196535287059397
 21
10.84717430164391
 31
0.0
  0
LINE
  5
8A
330
7E
100
AcDbEntity
  8
중심선
100
AcDbLine
 10
7.28139805157953
 20
16.24717430164393
 30
0.0
 11
2.750260043222114
 21
10.84717430164391
 31
0.0
  0
LINE
  5
8B
330
7E
100
AcDbEntity
  8
중심선
100
AcDbLine
 10
5.714909304380834
 20
16.24717430164393
 30
0.0
 11
3.58671253028996
 21
13.71088815037384
 31
0.0
  0
LINE
  5
8C
330
7E
100
AcDbEntity
  8
중심선
100
AcDbLine
 10
2.268634060543552
 20
16.24717430164393
 30
0.0
 11
0.1404042013395286
 21
13.71084872107135
 31
0.0
  0
LINE
  5
8D
330
7E
100
AcDbEntity
  8
중심선
100
AcDbLine
 10
7.28139805157953
 20
16.24717430164393
 30
0.0
 11
10.72767329541681
 21
16.24717430164393
 31
0.0
  0
LINE
  5
8E
330
7E
100
AcDbEntity
  8
중심선
100
AcDbLine
 10
12.29416204261559
 20
16.24717430164393
 30
0.0
 11
15.74043728645272
 21
16.24717430164393
 31
0.0
  0
LINE
  5
8F
330
7E
100
AcDbEntity
  8
중심선
100
AcDbLine
 10
19.22036997980202
 20
11.08717430171403
 30
0.0
 11
23.66174974927406
 21
11.08717430171406
 31
0.0
  0
LINE
  5
90
330
7E
100
AcDbEntity
  8
중심선
100
AcDbLine
 10
19.22039502424796
 20
13.00717430171391
 30
0.0
 11
19.22036997980202
 21
11.08717430171403
 31
0.0
  0
LINE
  5
91
330
7E
100
AcDbEntity
  8
중심선
100
AcDbLine
 10
19.22039502424796
 20
13.00717430171391
 30
0.0
 11
26.96566020931264
 21
13.00717430171391
 31
0.0
  0
LINE
  5
92
330
7E
100
AcDbEntity
  8
중심선
100
AcDbLine
 10
22.22332737316547
 20
13.45928029700563
 30
0.0
 11
24.52862924686651
 21
15.39360700705356
 31
0.0
  0
ATTDEF
  5
94
330
7E
100
AcDbEntity
  8
FORMAT
 62
     2
100
AcDbText
 10
-16.00558753126829
 20
2.075366912832191
 30
0.0
 40
4.233333333333333
  1
SEME350303SE [ 2 FLUTE ]
 41
0.75
  7
SLDTEXTSTYLE0
 11
-16.00558753126829
 21
-0.0412997538344756
 31
0.0
100
AcDbAttributeDefinition
  3

  2
AUTOATTR0
 70
     0
 74
     1
  0
ENDBLK
  5
80
330
7E
100
AcDbEntity
  8
0
100
AcDbBlockEnd
  0
BLOCK
  5
D7
330
D6
100
AcDbEntity
  8
0
100
AcDbBlockBegin
  2
_D
 70
     0
 10
0.0
 20
0.0
 30
0.0
  3
_D
  1

  0
SOLID
  5
D9
330
D6
100
AcDbEntity
  8
치수문자_일반주서
100
AcDbTrace
 10
18.0
 20
13.74936611142225
 30
0.0
 11
21.302
 21
13.24136611142224
 31
0.0
 12
21.302
 22
14.25736611142225
 32
0.0
 13
21.302
 23
14.25736611142225
 33
0.0
  0
SOLID
  5
DA
330
D6
100
AcDbEntity
  8
치수문자_일반주서
100
AcDbTrace
 10
9.999999999999995
 20
13.74936611142225
 30
0.0
 11
6.697999999999995
 21
14.25736611142225
 31
0.0
 12
6.697999999999995
 22
13.24136611142224
 32
0.0
 13
6.697999999999995
 23
13.24136611142224
 33
0.0
  0
LINE
  5
DB
330
D6
100
AcDbEntity
  8
치수문자_일반주서
100
AcDbLine
 10
18.0
 20
2.498732222844468
 30
0.0
 11
18.0
 21
14.74936611142225
 31
0.0
  0
LINE
  5
DC
330
D6
100
AcDbEntity
  8
치수문자_일반주서
100
AcDbLine
 10
9.999999999999995
 20
2.499649772953122
 30
0.0
 11
9.999999999999995
 21
14.74936611142225
 31
0.0
  0
LINE
  5
DD
330
D6
100
AcDbEntity
  8
치수문자_일반주서
100
AcDbLine
 10
18.0
 20
13.74936611142225
 30
0.0
 11
24.35
 21
13.74936611142225
 31
0.0
  0
LINE
  5
DE
330
D6
100
AcDbEntity
  8
치수문자_일반주서
100
AcDbLine
 10
18.0
 20
13.74936611142225
 30
0.0
 11
9.999999999999995
 21
13.74936611142225
 31
0.0
  0
LINE
  5
DF
330
D6
100
AcDbEntity
  8
치수문자_일반주서
100
AcDbLine
 10
9.999999999999995
 20
13.74936611142225
 30
0.0
 11
3.649999999999995
 21
13.74936611142225
 31
0.0
  0
MTEXT
  5
E0
330
D6
100
AcDbEntity
  8
치수문자_일반주서
100
AcDbMText
 10
12.70694440323858
 20
18.26110302600114
 30
0.0
 40
3.5
 41
0.0
 71
     1
 72
     1
  1
8
  7
SLDTEXTSTYLE0
 73
     1
 44
1.0
  0
ENDBLK
  5
D8
330
D6
100
AcDbEntity
  8
0
100
AcDbBlockEnd
  0
BLOCK
  5
E4
330
E3
100
AcDbEntity
  8
0
100
AcDbBlockBegin
  2
_D_1
 70
     0
 10
0.0
 20
0.0
 30
0.0
  3
_D_1
  1

  0
SOLID
  5
E6
330
E3
100
AcDbEntity
  8
치수문자_일반주서
100
AcDbTrace
 10
17.99999999999996
 20
23.83415911661225
 30
0.0
 11
14.69799999999996
 21
24.34215911661224
 31
0.0
 12
14.69799999999996
 22
23.32615911661225
 32
0.0
 13
14.69799999999996
 23
23.32615911661225
 33
0.0
  0
SOLID
  5
E7
330
E3
100
AcDbEntity
  8
치수문자_일반주서
100
AcDbTrace
 10
-32.00000000000004
 20
23.83415911661218
 30
0.0
 11
-28.69800000000004
 21
23.32615911661218
 31
0.0
 12
-28.69800000000004
 22
24.34215911661218
 32
0.0
 13
-28.69800000000004
 23
24.34215911661218
 33
0.0
  0
LINE
  5
E8
330
E3
100
AcDbEntity
  8
치수문자_일반주서
100
AcDbLine
 10
17.99999999999999
 20
2.050000000000002
 30
0.0
 11
17.99999999999996
 21
24.83415911661225
 31
0.0
  0
LINE
  5
E9
330
E3
100
AcDbEntity
  8
치수문자_일반주서
100
AcDbLine
 10
-32.0
 20
2.119999999999996
 30
0.0
 11
-32.00000000000004
 21
24.83415911661218
 31
0.0
  0
LINE
  5
EA
330
E3
100
AcDbEntity
  8
치수문자_일반주서
100
AcDbLine
 10
17.99999999999996
 20
23.83415911661225
 30
0.0
 11
-32.00000000000004
 21
23.83415911661218
 31
0.0
  0
MTEXT
  5
EB
330
E3
100
AcDbEntity
  8
치수문자_일반주서
100
AcDbMText
 10
-9.586111193522836
 20
28.34589603119111
 30
0.0
 40
3.5
 41
0.0
 71
     1
 72
     1
  1
50
  7
SLDTEXTSTYLE0
 73
     1
 44
1.0
  0
ENDBLK
  5
E5
330
E3
100
AcDbEntity
  8
0
100
AcDbBlockEnd
  0
BLOCK
  5
EE
330
ED
100
AcDbEntity
  8
0
100
AcDbBlockBegin
  2
_D_2
 70
     0
 10
0.0
 20
0.0
 30
0.0
  3
_D_2
  1

  0
LINE
  5
F0
330
ED
100
AcDbEntity
  8
치수문자_일반주서
 62
     0
370
    -2
100
AcDbLine
 10
18.0625
 20
1.498732222844468
 30
0.0
 11
33.31219031224624
 21
1.49873222284452
 31
0.0
  0
LINE
  5
F1
330
ED
100
AcDbEntity
  8
치수문자_일반주서
 62
     0
370
    -2
100
AcDbLine
 10
18.0625
 20
-1.498732222844466
 30
0.0
 11
33.31219031224625
 21
-1.498732222844412
 31
0.0
  0
LINE
  5
F2
330
ED
100
AcDbEntity
  8
치수문자_일반주서
 62
     0
370
    -2
100
AcDbLine
 10
33.31219031224624
 20
1.49873222284452
 30
0.0
 11
33.31219031224622
 21
14.22773222284452
 31
0.0
  0
LINE
  5
F3
330
ED
100
AcDbEntity
  8
치수문자_일반주서
 62
     0
370
    -2
100
AcDbLine
 10
33.31219031224624
 20
1.49873222284452
 30
0.0
 11
33.31219031224625
 21
-1.498732222844412
 31
0.0
  0
LINE
  5
F4
330
ED
100
AcDbEntity
  8
치수문자_일반주서
 62
     0
370
    -2
100
AcDbLine
 10
33.31219031224624
 20
4.80073222284452
 30
0.0
 11
33.31219031224623
 21
8.10273222284452
 31
0.0
  0
LINE
  5
F5
330
ED
100
AcDbEntity
  8
치수문자_일반주서
 62
     0
370
    -2
100
AcDbLine
 10
33.31219031224626
 20
-4.800732222844411
 30
0.0
 11
33.31219031224627
 21
-8.102732222844411
 31
0.0
  0
SOLID
  5
F6
330
ED
100
AcDbEntity
  8
치수문자_일반주서
 62
     0
100
AcDbTrace
 10
32.7618569789129
 20
4.800732222844519
 30
0.0
 11
33.86252364557957
 21
4.800732222844521
 31
0.0
 12
33.31219031224624
 22
1.49873222284452
 32
0.0
 13
33.31219031224624
 23
1.49873222284452
 33
0.0
  0
SOLID
  5
F7
330
ED
100
AcDbEntity
  8
치수문자_일반주서
 62
     0
100
AcDbTrace
 10
33.86252364557959
 20
-4.80073222284441
 30
0.0
 11
32.76185697891292
 21
-4.800732222844412
 31
0.0
 12
33.31219031224625
 22
-1.498732222844412
 32
0.0
 13
33.31219031224625
 23
-1.498732222844412
 33
0.0
  0
MTEXT
  5
F8
330
ED
100
AcDbEntity
  8
치수문자_일반주서
 62
     0
100
AcDbMText
 10
28.93719031224622
 20
11.16523222284451
 30
0.0
 40
3.5
 41
0.0
 71
     2
 72
     1
  1
\A1;%%c3
  7
SLDTEXTSTYLE0
 11
-2.370479278851930E-15
 21
1.0
 31
0.0
 73
     1
 44
1.0
  0
POINT
  5
130
330
ED
100
AcDbEntity
  8
Defpoints
 62
     0
100
AcDbPoint
 10
18.0
 20
1.498732222844468
 30
0.0
  0
POINT
  5
131
330
ED
100
AcDbEntity
  8
Defpoints
 62
     0
100
AcDbPoint
 10
18.0
 20
-1.498732222844466
 30
0.0
  0
POINT
  5
132
330
ED
100
AcDbEntity
  8
Defpoints
 62
     0
100
AcDbPoint
 10
33.31219031224627
 20
-1.498732222844412
 30
0.0
  0
ENDBLK
  5
EF
330
ED
100
AcDbEntity
  8
0
100
AcDbBlockEnd
  0
BLOCK
  5
FB
330
FA
100
AcDbEntity
  8
0
100
AcDbBlockBegin
  2
_D_3
 70
     0
 10
0.0
 20
0.0
 30
0.0
  3
_D_3
  1

  0
SOLID
  5
FD
330
FA
100
AcDbEntity
  8
치수문자_일반주서
100
AcDbTrace
 10
-44.03955944538855
 20
1.499999999999997
 30
0.0
 11
-43.53155944538855
 21
4.801999999999996
 31
0.0
 12
-44.54755944538855
 22
4.801999999999996
 32
0.0
 13
-44.54755944538855
 23
4.801999999999996
 33
0.0
  0
SOLID
  5
FE
330
FA
100
AcDbEntity
  8
치수문자_일반주서
100
AcDbTrace
 10
-44.03955944538855
 20
-1.500000000000004
 30
0.0
 11
-44.54755944538855
 21
-4.802000000000003
 31
0.0
 12
-43.53155944538855
 22
-4.802000000000003
 32
0.0
 13
-43.53155944538855
 23
-4.802000000000003
 33
0.0
  0
LINE
  5
FF
330
FA
100
AcDbEntity
  8
치수문자_일반주서
100
AcDbLine
 10
-32.62
 20
1.499999999999998
 30
0.0
 11
-45.03955944538856
 21
1.499999999999996
 31
0.0
  0
LINE
  5
100
330
FA
100
AcDbEntity
  8
치수문자_일반주서
100
AcDbLine
 10
-32.62
 20
-1.500000000000002
 30
0.0
 11
-45.03955944538856
 21
-1.500000000000004
 31
0.0
  0
LINE
  5
101
330
FA
100
AcDbEntity
  8
치수문자_일반주서
100
AcDbLine
 10
-44.03955944538855
 20
1.499999999999997
 30
0.0
 11
-44.03955944538855
 21
7.849999999999996
 31
0.0
  0
LINE
  5
102
330
FA
100
AcDbEntity
  8
치수문자_일반주서
100
AcDbLine
 10
-44.03955944538855
 20
1.499999999999997
 30
0.0
 11
-44.03955944538855
 21
-1.500000000000004
 31
0.0
  0
LINE
  5
103
330
FA
100
AcDbEntity
  8
치수문자_일반주서
100
AcDbLine
 10
-44.03955944538855
 20
-1.500000000000004
 30
0.0
 11
-44.03955944538855
 21
-7.850000000000003
 31
0.0
  0
MTEXT
  5
104
330
FA
100
AcDbEntity
  8
치수문자_일반주서
100
AcDbMText
 10
-48.55129653459041
 20
-3.932274412363802
 30
0.0
 40
3.5
 41
0.0
 71
     1
 72
     1
  1
%%c
  7
SLDTEXTSTYLE0
 11
-7.044195017643634E-15
 21
1.0
 31
0.0
 73
     1
 44
1.0
  0
MTEXT
  5
105
330
FA
100
AcDbEntity
  8
치수문자_일반주서
100
AcDbMText
 10
-48.60476871125029
 20
1.346162986010279
 30
0.0
 40
3.5
 41
0.0
 71
     1
 72
     1
  1
3
  7
SLDTEXTSTYLE0
 11
-7.044195017643634E-15
 21
1.0
 31
0.0
 73
     1
 44
1.0
  0
ENDBLK
  5
FC
330
FA
100
AcDbEntity
  8
0
100
AcDbBlockEnd
  0
BLOCK
  5
107
330
106
100
AcDbEntity
  8
0
100
AcDbBlockBegin
  2
SW_DOWELSYMBOL_0
 70
     0
 10
0.0
 20
0.0
 30
0.0
  3
SW_DOWELSYMBOL_0
  1

  0
CIRCLE
  5
109
330
106
100
AcDbEntity
  8
외형선
 62
     0
100
AcDbCircle
 10
0.0
 20
0.0
 30
0.0
 40
3.000000000000004
  0
HATCH
  5
10A
330
106
100
AcDbEntity
  8
0
  6
Continuous
 62
     0
370
    30
100
AcDbHatch
 10
0.0
 20
0.0
 30
0.0
210
0.0
220
0.0
230
1.0
  2
SOLID
 70
     1
 71
     0
 91
        1
 92
        0
 93
        3
 72
     2
 10
0.0000000000000087
 20
-0.0000000000000035
 40
3.000000000000004
 50
0.0
 51
90.0
 73
     1
 72
     1
 10
0.0000000000000087
 20
3.000000000000001
 11
0.0000000000000087
 21
-0.0000000000000036
 72
     1
 10
0.0000000000000087
 20
-0.0000000000000035
 11
3.000000000000013
 21
-0.0000000000000035
 97
        0
 75
     0
 76
     1
 98
        1
 10
0.0
 20
0.0
  0
HATCH
  5
10B
330
106
100
AcDbEntity
  8
0
  6
Continuous
 62
     0
370
    30
100
AcDbHatch
 10
0.0
 20
0.0
 30
0.0
210
0.0
220
0.0
230
1.0
  2
SOLID
 70
     1
 71
     0
 91
        1
 92
        0
 93
        3
 72
     2
 10
0.0000000000000087
 20
-0.0000000000000035
 40
3.000000000000004
 50
180.0
 51
270.0000000000008
 73
     1
 72
     1
 10
0.0000000000000087
 20
-3.000000000000008
 11
0.0000000000000087
 21
-0.0000000000000036
 72
     1
 10
0.0000000000000087
 20
-0.0000000000000035
 11
-2.999999999999996
 21
-0.0000000000000035
 97
        0
 75
     0
 76
     1
 98
        1
 10
0.0
 20
0.0
  0
ENDBLK
  5
108
330
106
100
AcDbEntity
  8
0
100
AcDbBlockEnd
  0
ENDSEC
  0
SECTION
  2
ENTITIES
  0
LINE
  5
95
330
1F
100
AcDbEntity
  8
0
  6
Continuous
 62
     4
370
    15
100
AcDbLine
 10
9.10987555790805
 20
1.5
 30
0.0
 11
-31.62
 21
1.499999999999998
 31
0.0
  0
LINE
  5
96
330
1F
100
AcDbEntity
  8
0
  6
Continuous
 62
     4
370
    15
100
AcDbLine
 10
9.999999999999995
 20
1.5
 30
0.0
 11
9.944213174550676
 21
1.5
 31
0.0
1001
PE_URL
1000

  0
LINE
  5
97
330
1F
100
AcDbEntity
  8
0
  6
Continuous
 62
     4
370
    15
100
AcDbLine
 10
9.94421317455068
 20
-1.5
 30
0.0
 11
9.999999999999995
 21
-1.5
 31
0.0
1001
PE_URL
1000

  0
LINE
  5
98
330
1F
100
AcDbEntity
  8
0
  6
Continuous
 62
     4
370
    15
100
AcDbLine
 10
-31.62
 20
-1.500000000000002
 30
0.0
 11
9.10987555790805
 21
-1.5
 31
0.0
  0
LINE
  5
99
330
1F
100
AcDbEntity
  8
0
  6
Continuous
 62
     4
370
    15
100
AcDbLine
 10
-31.62
 20
1.499999999999996
 30
0.0
 11
-32.0
 21
1.119999999999996
 31
0.0
  0
LINE
  5
9A
330
1F
100
AcDbEntity
  8
0
  6
Continuous
 62
     4
370
    15
100
AcDbLine
 10
-32.0
 20
-1.12
 30
0.0
 11
-31.62
 21
-1.5
 31
0.0
  0
SPLINE
  5
9B
330
1F
100
AcDbEntity
  8
0
  6
Continuous
 62
     4
370
    15
100
AcDbSpline
210
0.0
220
0.0
230
1.0
 70
     8
 71
     3
 72
     9
 73
     5
 74
     0
 42
0.000000001
 43
0.00000001
 40
0.0
 40
0.0
 40
0.0
 40
0.0
 40
0.4999938278305244
 40
1.0
 40
1.0
 40
1.0
 40
1.0
 10
9.300865835154802
 20
1.027681918615875
 30
0.0
 10
9.268938355575424
 20
1.024913441769686
 30
0.0
 10
9.205082608159678
 20
1.019376419726431
 30
0.0
 10
9.141590574929422
 20
1.014570015340027
 30
0.0
 10
9.109844166430705
 20
1.012166783480883
 30
0.0
1001
PE_URL
1000

  0
LINE
  5
9C
330
1F
100
AcDbEntity
  8
0
  6
Continuous
 62
     1
370
    15
100
AcDbLine
 10
14.11487315848197
 20
0.3842659613009506
 30
0.0
 11
13.69676296324167
 21
0.5925786244084488
 31
0.0
  0
LINE
  5
9D
330
1F
100
AcDbEntity
  8
0
  6
Continuous
 62
     1
370
    15
100
AcDbLine
 10
10.67218680727286
 20
1.500000000000001
 30
0.0
 11
9.999999999999995
 21
1.500000000000001
 31
0.0
  0
SPLINE
  5
9E
330
1F
100
AcDbEntity
  8
0
  6
Continuous
 62
     1
370
    15
100
AcDbSpline
210
0.0
220
0.0
230
1.0
 70
     8
 71
     3
 72
    10
 73
     6
 74
     0
 42
0.000000001
 43
0.00000001
 40
0.0
 40
0.0
 40
0.0
 40
0.0
 40
0.4284041703470659
 40
0.9905722163378473
 40
1.0
 40
1.0
 40
1.0
 40
1.0
 10
13.6169842425299
 20
1.191949702868775
 30
0.0
 10
13.43913669397946
 20
1.185075147323034
 30
0.0
 10
13.02791091110451
 20
1.169179541736923
 30
0.0
 10
12.61312249120268
 20
1.163676683076177
 30
0.0
 10
12.37583345072892
 20
1.179802525277817
 30
0.0
 10
12.37191965426133
 20
1.180068501591429
 30
0.0
  0
SPLINE
  5
9F
330
1F
100
AcDbEntity
  8
0
  6
Continuous
 62
     1
370
    15
100
AcDbSpline
210
0.0
220
0.0
230
1.0
 70
     8
 71
     3
 72
    23
 73
    19
 74
     0
 42
0.000000001
 43
0.00000001
 40
0.0
 40
0.0
 40
0.0
 40
0.0
 40
0.1025237781084604
 40
0.1709186556840179
 40
0.2205762465536477
 40
0.2705319616021116
 40
0.3237206022830795
 40
0.3815474743730232
 40
0.4429575129090764
 40
0.5071606772310164
 40
0.5733145660485818
 40
0.6392399300433228
 40
0.698607761608511
 40
0.7488950659187034
 40
0.7952843746664897
 40
0.8407348915835958
 40
0.9043838655167277
 40
1.0
 40
1.0
 40
1.0
 40
1.0
 10
17.45175255489743
 20
1.026747455478461
 30
0.0
 10
17.36144044062633
 20
1.019555571167277
 30
0.0
 10
17.21088000042419
 20
1.007565892080323
 30
0.0
 10
17.01762664822068
 20
0.9974495992008203
 30
0.0
 10
16.87046585481796
 20
0.9918560971869449
 30
0.0
 10
16.73674875190464
 20
0.9885269772035032
 30
0.0
 10
16.59574252794482
 20
0.986863317086904
 30
0.0
 10
16.44450606694231
 20
0.9872286185367237
 30
0.0
 10
16.28370190610936
 20
0.9900777277732143
 30
0.0
 10
16.11593851390321
 20
0.9958440368507679
 30
0.0
 10
15.94402712107544
 20
1.004572569610465
 30
0.0
 10
15.77631681011192
 20
1.01580000904593
 30
0.0
 10
15.62243256315316
 20
1.02844190148598
 30
0.0
 10
15.48568580387172
 20
1.041509168175697
 30
0.0
 10
15.36110861330627
 20
1.054875612529426
 30
0.0
 10
15.22458965258554
 20
1.07117933740397
 30
0.0
 10
15.0454793808483
 20
1.094448616515955
 30
0.0
 10
14.90600937876795
 20
1.115533368301521
 30
0.0
 10
14.82227740126267
 20
1.128191774667616
 30
0.0
  0
SPLINE
  5
A0
330
1F
100
AcDbEntity
  8
0
  6
Continuous
 62
     1
370
    15
100
AcDbSpline
210
0.0
220
0.0
230
1.0
 70
     8
 71
     3
 72
    11
 73
     7
 74
     0
 42
0.000000001
 43
0.00000001
 40
0.0
 40
0.0
 40
0.0
 40
0.0
 40
0.452800873610932
 40
0.6472589607433687
 40
0.763355899068599
 40
1.0
 40
1.0
 40
1.0
 40
1.0
 10
11.36278460667129
 20
-1.248197677130192
 30
0.0
 10
11.70317421099412
 20
-1.219824875069682
 30
0.0
 10
12.18974619965851
 20
-1.17926720072464
 30
0.0
 10
12.76288846366092
 20
-1.170466113122123
 30
0.0
 10
13.1740967006301
 20
-1.172668571871528
 30
0.0
 10
13.43916041050529
 20
-1.184208133564315
 30
0.0
 10
13.6169842425299
 20
-1.191949702868773
 30
0.0
  0
SPLINE
  5
A1
330
1F
100
AcDbEntity
  8
0
  6
Continuous
 62
     1
370
    15
100
AcDbSpline
210
0.0
220
0.0
230
1.0
 70
     8
 71
     3
 72
    14
 73
    10
 74
     0
 42
0.000000001
 43
0.00000001
 40
0.0
 40
0.0
 40
0.0
 40
0.0
 40
0.2244810175410066
 40
0.3739117230507558
 40
0.480617336496168
 40
0.5895269811602575
 40
0.707588073066469
 40
0.8469678054827414
 40
1.0
 40
1.0
 40
1.0
 40
1.0
 10
14.82227740126267
 20
-1.128191774667614
 30
0.0
 10
14.90600937760506
 20
-1.115533458483896
 30
0.0
 10
15.04547937774843
 20
-1.094448856912581
 30
0.0
 10
15.22458965943725
 20
-1.071178806049346
 30
0.0
 10
15.3611085953217
 20
-1.054877007245206
 30
0.0
 10
15.48568587587738
 20
-1.041503584084533
 30
0.0
 10
15.62243224648473
 20
-1.028466459351561
 30
0.0
 10
15.77566765905343
 20
-1.015738904791197
 30
0.0
 10
15.88477127108617
 20
-1.008809484147036
 30
0.0
 10
15.94187005414273
 20
-1.005183009471294
 30
0.0
  0
LINE
  5
A2
330
1F
100
AcDbEntity
  8
0
  6
Continuous
 62
     1
370
    15
100
AcDbLine
 10
9.999999999999995
 20
-1.5
 30
0.0
 11
10.67218680727286
 21
-1.5
 31
0.0
  0
LINE
  5
A3
330
1F
100
AcDbEntity
  8
0
  6
Continuous
 62
     4
370
    15
100
AcDbLine
 10
9.999999999999995
 20
1.5
 30
0.0
 11
9.999999999999995
 21
1.499649772953122
 31
0.0
1001
PE_URL
1000

  0
SPLINE
  5
A4
330
1F
100
AcDbEntity
  8
0
  6
Continuous
 62
     4
370
    15
100
AcDbSpline
210
0.0
220
0.0
230
1.0
 70
     8
 71
     3
 72
    10
 73
     6
 74
     0
 42
0.000000001
 43
0.00000001
 40
0.0
 40
0.0
 40
0.0
 40
0.0
 40
0.5
 40
0.5
 40
1.0
 40
1.0
 40
1.0
 40
1.0
 10
9.10987555790805
 20
1.423383485465771
 30
0.0
 10
9.258120973636256
 20
1.450400699607104
 30
0.0
 10
9.408386504558699
 20
1.470530309135125
 30
0.0
 10
9.706375089234383
 20
1.496060799438218
 30
0.0
 10
9.85191098297294
 20
1.501499442241643
 30
0.0
 10
10.00000000000011
 20
1.499649772953121
 30
0.0
1001
PE_URL
1000

  0
SPLINE
  5
A5
330
1F
100
AcDbEntity
  8
0
  6
Continuous
 62
     4
370
    15
100
AcDbSpline
210
0.0
220
0.0
230
1.0
 70
     8
 71
     3
 72
    10
 73
     6
 74
     0
 42
0.000000001
 43
0.00000001
 40
0.0
 40
0.0
 40
0.0
 40
0.0
 40
0.4999999999999999
 40
0.4999999999999999
 40
1.0
 40
1.0
 40
1.0
 40
1.0
 10
9.999999999999991
 20
-1.450273614495597
 30
0.0
 10
9.85188929503825
 20
-1.428412506911644
 30
0.0
 10
9.706331820623674
 20
-1.399635974530211
 30
0.0
 10
9.408298849921712
 20
-1.328233336859688
 30
0.0
 10
9.258011241161213
 20
-1.285691249319346
 30
0.0
 10
9.10974529338883
 20
-1.237272847667625
 30
0.0
1001
PE_URL
1000

  0
LINE
  5
A6
330
1F
100
AcDbEntity
  8
0
  6
Continuous
 62
     4
370
    15
100
AcDbLine
 10
9.999999999999995
 20
-1.450273614495596
 30
0.0
 11
9.999999999999995
 21
-1.5
 31
0.0
1001
PE_URL
1000

  0
SPLINE
  5
A7
330
1F
100
AcDbEntity
  8
0
  6
Continuous
 62
     4
370
    15
100
AcDbSpline
210
0.0
220
0.0
230
1.0
 70
     8
 71
     3
 72
    11
 73
     7
 74
     0
 42
0.000000001
 43
0.00000001
 40
0.0
 40
0.0
 40
0.0
 40
0.0
 40
0.2655262169702483
 40
0.5315321302822325
 40
0.7990033698250082
 40
1.0
 40
1.0
 40
1.0
 40
1.0
 10
9.10987555790805
 20
-1.423383485465771
 30
0.0
 10
9.18375162337299
 20
-1.435836316359831
 30
0.0
 10
9.331637217878514
 20
-1.460764475276455
 30
0.0
 10
9.554191704912594
 20
-1.484444424726728
 30
0.0
 10
9.758371366959413
 20
-1.498341563157223
 30
0.0
 10
9.888416971649018
 20
-1.498767090641553
 30
0.0
 10
9.94421317455068
 20
-1.498949663654402
 30
0.0
1001
PE_URL
1000

  0
LINE
  5
A8
330
1F
100
AcDbEntity
  8
0
  6
Continuous
 62
     4
370
    15
100
AcDbLine
 10
9.10987555790805
 20
-1.5
 30
0.0
 11
9.10987555790805
 21
-1.423221716408128
 31
0.0
1001
PE_URL
1000

  0
LINE
  5
A9
330
1F
100
AcDbEntity
  8
0
  6
Continuous
 62
     4
370
    15
100
AcDbLine
 10
-31.62
 20
1.499999999999996
 30
0.0
 11
-31.62
 21
-1.500000000000002
 31
0.0
  0
LINE
  5
AA
330
1F
100
AcDbEntity
  8
0
  6
Continuous
 62
     4
370
    15
100
AcDbLine
 10
9.10987555790805
 20
-1.237236502325565
 30
0.0
 11
9.10987555790805
 21
1.5
 31
0.0
1001
PE_URL
1000

  0
LINE
  5
AB
330
1F
100
AcDbEntity
  8
0
  6
Continuous
 62
     4
370
    15
100
AcDbLine
 10
-32.0
 20
1.119999999999996
 30
0.0
 11
-32.0
 21
-1.12
 31
0.0
  0
SPLINE
  5
AC
330
1F
100
AcDbEntity
  8
0
  6
Continuous
 62
     4
370
    15
100
AcDbSpline
210
0.0
220
0.0
230
1.0
 70
     8
 71
     3
 72
    10
 73
     6
 74
     0
 42
0.000000001
 43
0.00000001
 40
0.0
 40
0.0
 40
0.0
 40
0.0
 40
0.5000000000000001
 40
0.5000000000000001
 40
1.0
 40
1.0
 40
1.0
 40
1.0
 10
10.0000000000007
 20
-1.21086875997625
 30
0.0
 10
9.851889295038832
 20
-1.188079958522949
 30
0.0
 10
9.706331820624143
 20
-1.159543193018606
 30
0.0
 10
9.408298849921952
 20
-1.090968716875192
 30
0.0
 10
9.25801124116133
 20
-1.051024276327762
 30
0.0
 10
9.10974529338883
 20
-1.006324373379853
 30
0.0
1001
PE_URL
1000

  0
SPLINE
  5
AD
330
1F
100
AcDbEntity
  8
0
  6
Continuous
 62
     4
370
    15
100
AcDbSpline
210
0.0
220
0.0
230
1.0
 70
     8
 71
     3
 72
    10
 73
     6
 74
     0
 42
0.000000001
 43
0.00000001
 40
0.0
 40
0.0
 40
0.0
 40
0.0
 40
0.5
 40
0.5
 40
1.0
 40
1.0
 40
1.0
 40
1.0
 10
10.00000000000002
 20
-0.0752229223141293
 30
0.0
 10
9.851903061698211
 20
-0.0068737149255254
 30
0.0
 10
9.706359285882582
 20
0.0614504436626766
 30
0.0
 10
9.408354489701832
 20
0.1978927535259786
 30
0.0
 10
9.258080895065458
 20
0.2656640022039423
 30
0.0
 10
9.109827980134627
 20
0.3315058579718542
 30
0.0
1001
PE_URL
1000

  0
SPLINE
  5
AE
330
1F
100
AcDbEntity
  8
0
  6
Continuous
 62
     4
370
    15
100
AcDbSpline
210
0.0
220
0.0
230
1.0
 70
    24
 71
     3
 72
    10
 73
     6
 74
     0
 42
0.000000001
 43
0.00000001
 40
0.0
 40
0.0
 40
0.0
 40
0.0
 40
0.5
 40
0.5
 40
1.0
 40
1.0
 40
1.0
 40
1.0
 10
9.999999999998163
 20
-0.0752229223132729
 30
0.0
 10
9.999999999998163
 20
-0.3029094862191585
 30
0.0
 10
9.999999999998163
 20
-0.5326088603078073
 30
0.0
 10
9.999999999998163
 20
-0.9295733547047608
 30
0.0
 10
9.999999999998163
 20
-1.095129784644867
 30
0.0
 10
9.999999999998163
 20
-1.210868759975859
 30
0.0
1001
PE_URL
1000

  0
SPLINE
  5
AF
330
1F
100
AcDbEntity
  8
0
  6
Continuous
 62
     4
370
    15
100
AcDbSpline
210
0.0
220
0.0
230
1.0
 70
     8
 71
     3
 72
     9
 73
     5
 74
     0
 42
0.000000001
 43
0.00000001
 40
0.0
 40
0.0
 40
0.0
 40
0.0
 40
0.6326806810595256
 40
1.0
 40
1.0
 40
1.0
 40
1.0
 10
9.999999999999995
 20
1.047934978943467
 30
0.0
 10
9.852502977066898
 20
1.049767423137253
 30
0.0
 10
9.619372699268492
 20
1.052663740740498
 30
0.0
 10
9.385882904107756
 20
1.031626285774358
 30
0.0
 10
9.300117591569762
 20
1.023898822143954
 30
0.0
1001
PE_URL
1000

  0
SPLINE
  5
B0
330
1F
100
AcDbEntity
  8
0
  6
Continuous
 62
     4
370
    15
100
AcDbSpline
210
0.0
220
0.0
230
1.0
 70
    24
 71
     3
 72
    10
 73
     6
 74
     0
 42
0.000000001
 43
0.00000001
 40
0.0
 40
0.0
 40
0.0
 40
0.0
 40
0.5
 40
0.5
 40
1.0
 40
1.0
 40
1.0
 40
1.0
 10
9.999999999999908
 20
1.047934978943469
 30
0.0
 10
9.999999999999908
 20
0.9751915075763781
 30
0.0
 10
9.999999999999908
 20
0.8317686992395207
 30
0.0
 10
9.999999999999908
 20
0.4325336173543982
 30
0.0
 10
9.999999999999908
 20
0.1798146516556931
 30
0.0
 10
9.999999999999908
 20
-0.0752229223140787
 30
0.0
1001
PE_URL
1000

  0
SPLINE
  5
B1
330
1F
100
AcDbEntity
  8
0
  6
Continuous
 62
     4
370
    15
100
AcDbSpline
210
0.0
220
0.0
230
1.0
 70
    24
 71
     3
 72
     8
 73
     4
 74
     0
 42
0.000000001
 43
0.00000001
 40
0.0
 40
0.0
 40
0.0
 40
0.0
 40
1.0
 40
1.0
 40
1.0
 40
1.0
 10
9.999999999999995
 20
-1.210868759976141
 30
0.0
 10
9.999999999999995
 20
-1.290671195903155
 30
0.0
 10
9.999999999999995
 20
-1.370985705157448
 30
0.0
 10
9.999999999999995
 20
-1.450273614495282
 30
0.0
1001
PE_URL
1000

  0
SPLINE
  5
B2
330
1F
100
AcDbEntity
  8
0
  6
Continuous
 62
     4
370
    15
100
AcDbSpline
210
0.0
220
0.0
230
1.0
 70
    24
 71
     3
 72
    10
 73
     6
 74
     0
 42
0.000000001
 43
0.00000001
 40
0.0
 40
0.0
 40
0.0
 40
0.0
 40
0.5
 40
0.5
 40
1.0
 40
1.0
 40
1.0
 40
1.0
 10
9.999999999999995
 20
1.499649772942384
 30
0.0
 10
9.999999999999995
 20
1.425880373501391
 30
0.0
 10
9.999999999999995
 20
1.345507710966239
 30
0.0
 10
9.999999999999995
 20
1.189245152478577
 30
0.0
 10
9.999999999999995
 20
1.113761727504968
 30
0.0
 10
9.999999999999995
 20
1.047934978943467
 30
0.0
1001
PE_URL
1000

  0
SPLINE
  5
B3
330
1F
100
AcDbEntity
  8
0
  6
Continuous
 62
     1
370
    15
100
AcDbSpline
210
0.0
220
0.0
230
1.0
 70
     8
 71
     3
 72
    18
 73
    14
 74
     0
 42
0.000000001
 43
0.00000001
 40
0.0
 40
0.0
 40
0.0
 40
0.0
 40
0.1020215459205298
 40
0.2038524727400792
 40
0.3055963811740295
 40
0.4073584286316596
 40
0.5092434473378278
 40
0.6113195298411354
 40
0.7074401661204707
 40
0.8033563564234336
 40
0.8992807629072693
 40
0.9954258139730564
 40
1.0
 40
1.0
 40
1.0
 40
1.0
 10
18.0
 20
-1.423411303847849
 30
0.0
 10
17.75069595430429
 20
-1.366691828271843
 30
0.0
 10
17.2525536675881
 20
-1.253358852924695
 30
0.0
 10
16.50617803413076
 20
-0.9491047991816067
 30
0.0
 10
15.76053754759994
 20
-0.5755071360186416
 30
0.0
 10
15.01473427040453
 20
-0.152451101460145
 30
0.0
 10
14.26798101211899
 20
0.2826473888302619
 30
0.0
 10
13.53451920539296
 20
0.6866467403849548
 30
0.0
 10
12.81607286787209
 20
1.02894416760962
 30
0.0
 10
12.11300300453146
 20
1.292834584379335
 30
0.0
 10
11.40986836097787
 20
1.450013022167344
 30
0.0
 10
10.9294767535431
 20
1.516425254866266
 30
0.0
 10
10.68336406832329
 20
1.498338844094834
 30
0.0
 10
10.67218680727286
 20
1.497517445821612
 30
0.0
  0
SPLINE
  5
B4
330
1F
100
AcDbEntity
  8
0
  6
Continuous
 62
     1
370
    15
100
AcDbSpline
210
0.0
220
0.0
230
1.0
 70
     8
 71
     3
 72
    13
 73
     9
 74
     0
 42
0.000000001
 43
0.00000001
 40
0.0
 40
0.0
 40
0.0
 40
0.0
 40
0.1899479246503216
 40
0.379502524388399
 40
0.5688899438250071
 40
0.7583395840255255
 40
0.9480796321173286
 40
1.0
 40
1.0
 40
1.0
 40
1.0
 10
17.99999999999999
 20
-1.183458396552322
 30
0.0
 10
17.75262998398712
 20
-1.129034997234995
 30
0.0
 10
17.25840218072102
 20
-1.020300893060152
 30
0.0
 10
16.51785687804989
 20
-0.7491796828137852
 30
0.0
 10
15.77803468482546
 20
-0.4237928000540033
 30
0.0
 10
15.0379342870964
 20
-0.0650303260746451
 30
0.0
 10
14.4766611502035
 20
0.2180434103891079
 30
0.0
 10
14.16193031577402
 20
0.3596041268344298
 30
0.0
 10
14.09431088111524
 20
0.3900182285644871
 30
0.0
  0
LINE
  5
B5
330
1F
100
AcDbEntity
  8
0
  6
Continuous
 62
     1
370
    15
100
AcDbLine
 10
17.99999999999992
 20
-1.423411303847849
 30
0.0
 11
17.99999999999999
 21
-1.183458396552322
 31
0.0
  0
SPLINE
  5
B6
330
1F
100
AcDbEntity
  8
0
  6
Continuous
 62
     1
370
    15
100
AcDbSpline
210
0.0
220
0.0
230
1.0
 70
     8
 71
     3
 72
    38
 73
    34
 74
     0
 42
0.000000001
 43
0.00000001
 40
0.0
 40
0.0
 40
0.0
 40
0.0
 40
0.0624999999999999
 40
0.0624999999999999
 40
0.1249999999999999
 40
0.1249999999999999
 40
0.1874999999999998
 40
0.1874999999999998
 40
0.2499999999999997
 40
0.2499999999999997
 40
0.3124999999999996
 40
0.3124999999999996
 40
0.3749999999999994
 40
0.3749999999999994
 40
0.4374999999999996
 40
0.4374999999999996
 40
0.4999999999999996
 40
0.4999999999999996
 40
0.5624999999999996
 40
0.5624999999999996
 40
0.6249999999999998
 40
0.6249999999999998
 40
0.6874999999999998
 40
0.6874999999999998
 40
0.7499999999999999
 40
0.7499999999999999
 40
0.8124999999999999
 40
0.8124999999999999
 40
0.875
 40
0.875
 40
0.9375
 40
0.9375
 40
1.0
 40
1.0
 40
1.0
 40
1.0
 10
9.999999999998288
 20
1.499649772950404
 30
0.0
 10
10.16634556204525
 20
1.497572074795884
 30
0.0
 10
10.33539496895927
 20
1.486154009633692
 30
0.0
 10
10.66957736488525
 20
1.445185709367559
 30
0.0
 10
10.83273420790657
 20
1.415869218160278
 30
0.0
 10
11.16711044701081
 20
1.339711293558621
 30
0.0
 10
11.33613710199286
 20
1.29289592842064
 30
0.0
 10
11.66854747206937
 20
1.184469455789914
 30
0.0
 10
11.83251420845564
 20
1.12290366856305
 30
0.0
 10
12.16793734646263
 20
0.9857419337991822
 30
0.0
 10
12.33661039697846
 20
0.9104423872565264
 30
0.0
 10
12.6666230407712
 20
0.7507388572519363
 30
0.0
 10
12.83281879064547
 20
0.6655893268664151
 30
0.0
 10
13.16864390956733
 20
0.487500451771522
 30
0.0
 10
13.33559018402069
 20
0.3950420349714325
 30
0.0
 10
13.66493083680512
 20
0.2072840855522058
 30
0.0
 10
13.83346894902477
 20
0.1108140743080003
 30
0.0
 10
14.1690485507349
 20
-0.0820377038147253
 30
0.0
 10
14.33342449957784
 20
-0.1778936598001497
 30
0.0
 10
14.66531202106671
 20
-0.3668510473422564
 30
0.0
 10
14.83428345979658
 20
-0.460207311278767
 30
0.0
 10
15.16897162248371
 20
-0.6394845303282307
 30
0.0
 10
15.33219376976106
 20
-0.725009327101556
 30
0.0
 10
15.66600577303725
 20
-0.8873611865971373
 30
0.0
 10
15.83508004882023
 20
-0.9638568398229864
 30
0.0
 10
16.16823656222704
 20
-1.103288979782139
 30
0.0
 10
16.33172875622528
 20
-1.166241820926033
 30
0.0
 10
16.666830626611
 20
-1.278011453348372
 30
0.0
 10
16.83567657366109
 20
-1.326396882934138
 30
0.0
 10
17.16667099766745
 20
-1.405698321988871
 30
0.0
 10
17.33185537120779
 20
-1.436942004137988
 30
0.0
 10
17.66760425007891
 20
-1.481589507765713
 30
0.0
 10
17.83589220356521
 20
-1.494797546308336
 30
0.0
 10
18.0
 20
-1.498732222841675
 30
0.0
  0
SPLINE
  5
B7
330
1F
100
AcDbEntity
  8
0
  6
Continuous
 62
     1
370
    15
100
AcDbSpline
210
0.0
220
0.0
230
1.0
 70
     8
 71
     3
 72
    13
 73
     9
 74
     0
 42
0.000000001
 43
0.00000001
 40
0.0
 40
0.0
 40
0.0
 40
0.0
 40
0.168198943184083
 40
0.3415811034596248
 40
0.5147050158552292
 40
0.6877880981119565
 40
0.8436654258806244
 40
1.0
 40
1.0
 40
1.0
 40
1.0
 10
14.27356030485192
 20
-0.142586981418949
 30
0.0
 10
14.03389492934624
 20
-0.0457841928098709
 30
0.0
 10
13.54717865232006
 20
0.1508044582547739
 30
0.0
 10
12.81397590054433
 20
0.43885665267027
 30
0.0
 10
12.07393787937932
 20
0.6940392828168914
 30
0.0
 10
11.35882471149936
 20
0.8852516345945713
 30
0.0
 10
10.66763735161256
 20
1.011082569756187
 30
0.0
 10
10.22276296242783
 20
1.035638854672809
 30
0.0
 10
9.999999999999991
 20
1.047934978943468
 30
0.0
  0
SPLINE
  5
B8
330
1F
100
AcDbEntity
  8
0
  6
Continuous
 62
     4
370
    15
100
AcDbSpline
210
0.0
220
0.0
230
1.0
 70
    24
 71
     3
 72
    10
 73
     6
 74
     0
 42
0.000000001
 43
0.00000001
 40
0.0
 40
0.0
 40
0.0
 40
0.0
 40
0.5
 40
0.5
 40
1.0
 40
1.0
 40
1.0
 40
1.0
 10
9.999999999999995
 20
1.499649772942389
 30
0.0
 10
9.999999999999995
 20
1.425880373501396
 30
0.0
 10
9.999999999999995
 20
1.345507710966242
 30
0.0
 10
9.999999999999995
 20
1.189245152478579
 30
0.0
 10
9.999999999999995
 20
1.113761727504968
 30
0.0
 10
9.999999999999995
 20
1.047934978943467
 30
0.0
1001
PE_URL
1000

  0
LINE
  5
B9
330
1F
100
AcDbEntity
  8
0
  6
Continuous
 62
     1
370
    15
100
AcDbLine
 10
18.0
 20
-1.498732222844466
 30
0.0
 11
18.00000000000005
 21
-1.423411303847845
 31
0.0
  0
SPLINE
  5
BA
330
1F
100
AcDbEntity
  8
0
  6
Continuous
 62
     1
370
    15
100
AcDbSpline
210
0.0
220
0.0
230
1.0
 70
     8
 71
     3
 72
     8
 73
     4
 74
     0
 42
0.000000001
 43
0.00000001
 40
0.0
 40
0.0
 40
0.0
 40
0.0
 40
1.0
 40
1.0
 40
1.0
 40
1.0
 10
17.07164556936047
 20
0.41981062506149
 30
0.0
 10
17.00438551366917
 20
0.4994278928804062
 30
0.0
 10
16.94604748673769
 20
0.5755240816840973
 30
0.0
 10
16.90003162498956
 20
0.6462796946959475
 30
0.0
  0
LINE
  5
BB
330
1F
100
AcDbEntity
  8
0
  6
Continuous
 62
     1
370
    15
100
AcDbLine
 10
16.90003162498956
 20
0.6462796946959487
 30
0.0
 11
17.99999999999999
 21
0.0000000000000015
 31
0.0
  0
LINE
  5
BC
330
1F
100
AcDbEntity
  8
0
  6
Continuous
 62
     1
370
    15
100
AcDbLine
 10
17.99999999999999
 20
0.0000000000000015
 30
0.0
 11
17.99999999999999
 21
-0.4008644190444656
 31
0.0
  0
SPLINE
  5
BD
330
1F
100
AcDbEntity
  8
0
  6
Continuous
 62
     1
370
    15
100
AcDbSpline
210
0.0
220
0.0
230
1.0
 70
     8
 71
     3
 72
    10
 73
     6
 74
     0
 42
0.000000001
 43
0.00000001
 40
0.0
 40
0.0
 40
0.0
 40
0.0
 40
0.5
 40
0.5
 40
1.0
 40
1.0
 40
1.0
 40
1.0
 10
17.99999999999999
 20
-0.4008644190444658
 30
0.0
 10
17.83929495688477
 20
-0.2745204871375548
 30
0.0
 10
17.68127660516033
 20
-0.1429921789881866
 30
0.0
 10
17.37073775038447
 20
0.1306733655047708
 30
0.0
 10
17.21675763493334
 20
0.2742501368963179
 30
0.0
 10
17.07164556936047
 20
0.4198106250614904
 30
0.0
  0
SPLINE
  5
BE
330
1F
100
AcDbEntity
  8
0
  6
Continuous
 62
     1
370
    15
100
AcDbSpline
210
0.0
220
0.0
230
1.0
 70
     8
 71
     3
 72
    12
 73
     8
 74
     0
 42
0.000000001
 43
0.00000001
 40
0.0
 40
0.0
 40
0.0
 40
0.0
 40
0.1876292114322747
 40
0.3744415453456681
 40
0.5886004144979636
 40
0.8030922398823531
 40
1.0
 40
1.0
 40
1.0
 40
1.0
 10
17.07164555721307
 20
0.4198106303640055
 30
0.0
 10
16.85548996849796
 20
0.5105664960100789
 30
0.0
 10
16.42411986330087
 20
0.6916831053178238
 30
0.0
 10
15.74672652548999
 20
0.9260808017394331
 30
0.0
 10
15.03793720836661
 20
1.10413510135996
 30
0.0
 10
14.31749377904644
 20
1.205949639042198
 30
0.0
 10
13.84353063623108
 20
1.193934918517802
 30
0.0
 10
13.61667814507894
 20
1.18818432520106
 30
0.0
  0
SPLINE
  5
BF
330
1F
100
AcDbEntity
  8
0
  6
Continuous
 62
     1
370
    15
100
AcDbSpline
210
0.0
220
0.0
230
1.0
 70
    24
 71
     3
 72
    10
 73
     6
 74
     0
 42
0.000000001
 43
0.00000001
 40
0.0
 40
0.0
 40
0.0
 40
0.0
 40
0.4999999999999998
 40
0.4999999999999998
 40
1.0
 40
1.0
 40
1.0
 40
1.0
 10
17.99999999999999
 20
-1.183458396552322
 30
0.0
 10
17.99999999999999
 20
-1.092737083505706
 30
0.0
 10
17.99999999999999
 20
-0.9781072258597009
 30
0.0
 10
17.99999999999999
 20
-0.7116038387260185
 30
0.0
 10
18.0
 20
-0.5599611645769634
 30
0.0
 10
17.99999999999999
 20
-0.4008644190445139
 30
0.0
  0
LINE
  5
C0
330
1F
100
AcDbEntity
  8
0
  6
Continuous
 62
     1
370
    15
100
AcDbLine
 10
17.99999999999999
 20
1.050000000000001
 30
0.0
 11
17.4493010055948
 21
1.018505889996658
 31
0.0
  0
SPLINE
  5
C1
330
1F
100
AcDbEntity
  8
0
  6
Continuous
 62
     1
370
    15
100
AcDbSpline
210
0.0
220
0.0
230
1.0
 70
     8
 71
     3
 72
    10
 73
     6
 74
     0
 42
0.000000001
 43
0.00000001
 40
0.0
 40
0.0
 40
0.0
 40
0.0
 40
0.5
 40
0.5
 40
1.0
 40
1.0
 40
1.0
 40
1.0
 10
17.99999999999999
 20
1.050000000000001
 30
0.0
 10
17.81333306562236
 20
0.9992646357837646
 30
0.0
 10
17.62803173542256
 20
0.9413115908220789
 30
0.0
 10
17.26067742391579
 20
0.8082368764621221
 30
0.0
 10
17.07849426863595
 20
0.7336544459778028
 30
0.0
 10
16.90003162498839
 20
0.6462796946968229
 30
0.0
  0
SPLINE
  5
C2
330
1F
100
AcDbEntity
  8
0
  6
Continuous
 62
     1
370
    15
100
AcDbSpline
210
0.0
220
0.0
230
1.0
 70
     8
 71
     3
 72
    10
 73
     6
 74
     0
 42
0.000000001
 43
0.00000001
 40
0.0
 40
0.0
 40
0.0
 40
0.0
 40
0.0211570646200725
 40
0.5098895941921303
 40
1.0
 40
1.0
 40
1.0
 40
1.0
 10
11.3630768380748
 20
-1.246302990057236
 30
0.0
 10
11.35346673860421
 20
-1.247880783122846
 30
0.0
 10
11.12186137145147
 20
-1.285905919425543
 30
0.0
 10
10.66764594515299
 20
-1.284407257506481
 30
0.0
 10
10.22275739871425
 20
-1.235404585489877
 30
0.0
 10
10.0000000000007
 20
-1.21086875997625
 30
0.0
  0
SPLINE
  5
C3
330
1F
100
AcDbEntity
  8
0
  6
Continuous
 62
     1
370
    15
100
AcDbSpline
210
0.0
220
0.0
230
1.0
 70
     8
 71
     3
 72
    14
 73
    10
 74
     0
 42
0.000000001
 43
0.00000001
 40
0.0
 40
0.0
 40
0.0
 40
0.0
 40
0.1098279531892443
 40
0.2636194039756468
 40
0.4171104543194763
 40
0.5703788329543434
 40
0.723611997051331
 40
0.8616088443063049
 40
1.0
 40
1.0
 40
1.0
 40
1.0
 10
14.82739870040768
 20
-1.118060653377221
 30
0.0
 10
14.65067689135303
 20
-1.145216295160055
 30
0.0
 10
14.22649255012063
 20
-1.21039782584953
 30
0.0
 10
13.55501150430421
 20
-1.202470165262504
 30
0.0
 10
12.81395638356272
 20
-1.108731041871446
 30
0.0
 10
12.07392453855662
 20
-0.9222520993646175
 30
0.0
 10
11.35881834578625
 20
-0.6707690897683629
 30
0.0
 10
10.66766092611108
 20
-0.3807200983686293
 30
0.0
 10
10.22276521192257
 20
-0.1771521209597947
 30
0.0
 10
9.999999999999995
 20
-0.0752229223141185
 30
0.0
  0
SPLINE
  5
C4
330
1F
100
AcDbEntity
  8
0
  6
Continuous
 62
     4
370
    15
100
AcDbSpline
210
0.0
220
0.0
230
1.0
 70
    24
 71
     3
 72
    10
 73
     6
 74
     0
 42
0.000000001
 43
0.00000001
 40
0.0
 40
0.0
 40
0.0
 40
0.0
 40
0.5
 40
0.5
 40
1.0
 40
1.0
 40
1.0
 40
1.0
 10
9.999999999998163
 20
-0.0752229223132729
 30
0.0
 10
9.999999999998163
 20
-0.3029094862191585
 30
0.0
 10
9.999999999998163
 20
-0.5326088603078073
 30
0.0
 10
9.999999999998163
 20
-0.9295733547047608
 30
0.0
 10
9.999999999998163
 20
-1.095129784644867
 30
0.0
 10
9.999999999998163
 20
-1.210868759975859
 30
0.0
  0
SPLINE
  5
C5
330
1F
100
AcDbEntity
  8
0
  6
Continuous
 62
     4
370
    15
100
AcDbSpline
210
0.0
220
0.0
230
1.0
 70
    24
 71
     3
 72
    10
 73
     6
 74
     0
 42
0.000000001
 43
0.00000001
 40
0.0
 40
0.0
 40
0.0
 40
0.0
 40
0.5
 40
0.5
 40
1.0
 40
1.0
 40
1.0
 40
1.0
 10
9.999999999999908
 20
1.047934978943469
 30
0.0
 10
9.999999999999908
 20
0.975191507576378
 30
0.0
 10
9.999999999999908
 20
0.8317686992395205
 30
0.0
 10
9.999999999999908
 20
0.4325336173543979
 30
0.0
 10
9.999999999999908
 20
0.1798146516556925
 30
0.0
 10
9.999999999999908
 20
-0.0752229223140791
 30
0.0
1001
PE_URL
1000

  0
LINE
  5
C6
330
1F
100
AcDbEntity
  8
0
  6
Continuous
 62
     1
370
    15
100
AcDbLine
 10
17.99999999999999
 20
0.0000000000000015
 30
0.0
 11
17.99999999999999
 21
1.050000000000001
 31
0.0
  0
SPLINE
  5
C7
330
1F
100
AcDbEntity
  8
0
  6
Continuous
 62
     1
370
    15
100
AcDbSpline
210
0.0
220
0.0
230
1.0
 70
     8
 71
     3
 72
    11
 73
     7
 74
     0
 42
0.000000001
 43
0.00000001
 40
0.0
 40
0.0
 40
0.0
 40
0.0
 40
0.1091908897188898
 40
0.4055443010725109
 40
0.702579382263401
 40
1.0
 40
1.0
 40
1.0
 40
1.0
 10
12.37191965426133
 20
-1.180068501591428
 30
0.0
 10
12.28561937103934
 20
-1.213052766574734
 30
0.0
 10
11.9650927398183
 20
-1.335559147129771
 30
0.0
 10
11.40988222659824
 20
-1.452968957784106
 30
0.0
 10
10.70543878360477
 20
-1.52401324257912
 30
0.0
 10
10.23524790923909
 20
-1.474864115808942
 30
0.0
 10
10.00000000000001
 20
-1.450273614495599
 30
0.0
  0
SPLINE
  5
C8
330
1F
100
AcDbEntity
  8
0
  6
Continuous
 62
     4
370
    15
100
AcDbSpline
210
0.0
220
0.0
230
1.0
 70
    24
 71
     3
 72
     8
 73
     4
 74
     0
 42
0.000000001
 43
0.00000001
 40
0.0
 40
0.0
 40
0.0
 40
0.0
 40
1.0
 40
1.0
 40
1.0
 40
1.0
 10
9.999999999999995
 20
-1.210868759976141
 30
0.0
 10
9.999999999999995
 20
-1.290671195903155
 30
0.0
 10
9.999999999999995
 20
-1.370985705157447
 30
0.0
 10
9.999999999999995
 20
-1.450273614495282
 30
0.0
1001
PE_URL
1000

  0
SPLINE
  5
C9
330
1F
100
AcDbEntity
  8
0
  6
Continuous
 62
     1
370
    15
100
AcDbSpline
210
0.0
220
0.0
230
1.0
 70
     8
 71
     3
 72
    15
 73
    11
 74
     0
 42
0.000000001
 43
0.00000001
 40
0.0
 40
0.0
 40
0.0
 40
0.0
 40
0.0947706924797883
 40
0.2055774432463258
 40
0.428225202001396
 40
0.5401221586816414
 40
0.6544916625176478
 40
0.7691002192020441
 40
0.8844287674052964
 40
1.0
 40
1.0
 40
1.0
 40
1.0
 10
15.93610520286932
 20
1.005568814338696
 30
0.0
 10
16.0013085649897
 20
1.033067855301104
 30
0.0
 10
16.1427482878094
 20
1.092719023661868
 30
0.0
 10
16.43659545569945
 20
1.204674720360794
 30
0.0
 10
16.74401510707307
 20
1.301999162449356
 30
0.0
 10
17.05267668363595
 20
1.379935412591355
 30
0.0
 10
17.28667849872655
 20
1.42815993978267
 30
0.0
 10
17.52388987005591
 20
1.464271905559926
 30
0.0
 10
17.76195615222863
 20
1.489360258225574
 30
0.0
 10
17.92059647175348
 20
1.49560604644944
 30
0.0
 10
17.99999999999999
 20
1.498732222841046
 30
0.0
  0
SPLINE
  5
CA
330
1F
100
AcDbEntity
  8
0
  6
Continuous
 62
     1
370
    15
100
AcDbSpline
210
0.0
220
0.0
230
1.0
 70
    24
 71
     3
 72
    10
 73
     6
 74
     0
 42
0.000000001
 43
0.00000001
 40
0.0
 40
0.0
 40
0.0
 40
0.0
 40
0.5
 40
0.5
 40
1.0
 40
1.0
 40
1.0
 40
1.0
 10
17.99999999999999
 20
1.050000000000001
 30
0.0
 10
18.0
 20
1.113648385210972
 30
0.0
 10
18.0
 20
1.187613703300677
 30
0.0
 10
17.99999999999999
 20
1.342792741441284
 30
0.0
 10
17.99999999999999
 20
1.42361015370221
 30
0.0
 10
17.99999999999999
 20
1.498732222844468
 30
0.0
  0
LINE
  5
CB
330
1F
100
AcDbEntity
  8
중심선
100
AcDbLine
 10
-34.99999999999999
 20
-0.0000000000000035
 30
0.0
 11
21.0
 21
-0.0000000000000035
 31
0.0
  0
CIRCLE
  5
CC
330
1F
100
AcDbEntity
  8
외형선
100
AcDbCircle
 10
0.0000000000000087
 20
-0.0000000000000035
 30
0.0
 40
3.000000000000004
  0
INSERT
  5
CD
330
1F
100
AcDbEntity
  8
0
  6
Continuous
 62
     7
100
AcDbBlockReference
 66
     1
  2
블럭10
 10
-23.93827343951161
 20
-52.04717430164393
 30
0.0
  0
ATTRIB
  5
CE
330
CD
100
AcDbEntity
  8
FORMAT
 62
     2
100
AcDbText
 10
-39.9438609707799
 20
-49.97180738881174
 30
0.0
 40
4.233333333333333
  1
SEME350303SE [ 2 FLUTE ]
 41
0.75
  7
SLDTEXTSTYLE0
 11
-39.9438609707799
 21
-52.08847405547841
 31
0.0
100
AcDbAttribute
  2
AUTOATTR0
 70
     0
 74
     1
  0
SEQEND
  5
CF
330
CD
100
AcDbEntity
  8
0
  6
Continuous
 62
     7
  0
HATCH
  5
D0
330
1F
100
AcDbEntity
  8
중심선
100
AcDbHatch
 10
0.0
 20
0.0
 30
0.0
210
0.0
220
0.0
230
1.0
  2
SOLID
 70
     1
 71
     0
 91
        1
 92
        0
 93
        4
 72
     1
 10
-18.22336413513076
 20
-35.8
 11
-21.66963937896804
 21
-35.8
 72
     1
 10
-21.66963937896804
 20
-35.8
 11
-23.79786923817207
 21
-38.33632558057259
 72
     1
 10
-23.79786923817207
 20
-38.33632558057259
 11
-20.35156090922163
 21
-38.3362861512701
 72
     1
 10
-20.35156090922163
 20
-38.3362861512701
 11
-18.22336413513076
 21
-35.8
 97
        0
 75
     0
 76
     1
 98
        1
 10
0.0
 20
0.0
  0
HATCH
  5
D1
330
1F
100
AcDbEntity
  8
중심선
100
AcDbHatch
 10
0.0
 20
0.0
 30
0.0
210
0.0
220
0.0
230
1.0
  2
SOLID
 70
     1
 71
     0
 91
        1
 92
        0
 93
        4
 72
     1
 10
-13.21060014409481
 20
-35.8
 11
-16.65687538793209
 21
-35.8
 72
     1
 10
-16.65687538793209
 20
-35.8
 11
-21.18801339628948
 21
-41.20000000000002
 72
     1
 10
-21.18801339628948
 20
-41.20000000000002
 11
-17.7417381524522
 21
-41.20000000000002
 72
     1
 10
-17.7417381524522
 20
-41.20000000000002
 11
-13.21060014409481
 21
-35.8
 97
        0
 75
     0
 76
     1
 98
        1
 10
0.0
 20
0.0
  0
HATCH
  5
D2
330
1F
100
AcDbEntity
  8
중심선
100
AcDbHatch
 10
0.0
 20
0.0
 30
0.0
210
0.0
220
0.0
230
1.0
  2
SOLID
 70
     1
 71
     0
 91
        1
 92
        0
 93
        4
 72
     1
 10
-8.197836153058912
 20
-35.80000000000003
 11
-11.64411139689603
 21
-35.8
 72
     1
 10
-11.64411139689603
 20
-35.8
 11
-18.69254829878528
 21
-44.20000000000002
 72
     1
 10
-18.69254829878528
 20
-44.20000000000002
 11
-15.246273054948
 21
-44.20000000000002
 72
     1
 10
-15.246273054948
 20
-44.20000000000002
 11
-8.197836153058912
 21
-35.80000000000003
 97
        0
 75
     0
 76
     1
 98
        1
 10
0.0
 20
0.0
  0
HATCH
  5
D3
330
1F
100
AcDbEntity
  8
중심선
100
AcDbHatch
 10
0.0
 20
0.0
 30
0.0
210
0.0
220
0.0
230
1.0
  2
SOLID
 70
     1
 71
     0
 91
        1
 92
        0
 93
        6
 72
     3
 10
-3.397945722046714
 20
-40.00000000005127
 11
3.960054785062284
 21
1.540850780301639E-10
 40
0.3939339440162633
 50
17.09539180608433
 51
320.0019657685079
 73
     0
 72
     1
 10
-1.714946066346118
 20
-38.5878940046383
 11
0.5903558073549198
 21
-36.65356729459038
 72
     3
 10
-3.39794572209956
 20
-40.00000000000015
 11
6.600054785286829
 21
-1.249000902703301E-13
 40
0.6363583540795982
 50
39.99873849337408
 51
368.4976242363725
 73
     1
 72
     1
 10
3.027386769801049
 20
-39.03999999993002
 11
-4.717878415263637
 21
-39.03999999992999
 72
     1
 10
-4.717878415263637
 20
-39.03999999992999
 11
-4.717903459709571
 21
-40.95999999992991
 72
     1
 10
-4.717903459709571
 20
-40.95999999992991
 11
-0.2765236902375348
 21
-40.95999999992988
 97
        0
 75
     0
 76
     1
 98
        1
 10
0.0
 20
0.0
  0
DIMENSION
  5
D4
330
1F
100
AcDbEntity
  8
치수문자_일반주서
100
AcDbDimension
  2
_D
 10
9.999999999999995
 20
13.74936611142225
 30
0.0
 11
13.99999999999999
 21
13.74936611142225
 31
0.0
 70
   160
  1
<>
 71
     2
 42
-1.0
  3
SLDDIMSTYLE0
100
AcDbAlignedDimension
 13
18.0
 23
1.498732222844468
 33
0.0
 14
9.999999999999995
 24
1.499649772953122
 34
0.0
 50
-0.0000000000000127
100
AcDbRotatedDimension
  0
DIMENSION
  5
E1
330
1F
100
AcDbEntity
  8
치수문자_일반주서
100
AcDbDimension
  2
_D_1
 10
-32.00000000000004
 20
23.83415911661219
 30
0.0
 11
-7.000000000000027
 21
23.83415911661223
 31
0.0
 70
   160
  1
<>
 71
     2
 42
-1.0
  3
SLDDIMSTYLE1
100
AcDbAlignedDimension
 13
17.99999999999999
 23
1.050000000000001
 33
0.0
 14
-32.0
 24
1.119999999999996
 34
0.0
 50
0.0000000000000814
100
AcDbRotatedDimension
  0
DIMENSION
  5
EC
330
1F
100
AcDbEntity
  8
치수문자_일반주서
100
AcDbDimension
  2
_D_2
 10
33.31219031224625
 20
-1.498732222844412
 30
0.0
 11
33.31219031224622
 21
11.16523222284452
 31
0.0
 70
   160
  1
%%c<>
 71
     2
 42
2.997464445688934
  3
SLDDIMSTYLE0
100
AcDbAlignedDimension
 13
18.0
 23
1.498732222844468
 33
0.0
 14
18.0
 24
-1.498732222844466
 34
0.0
 50
90.0000000000002
100
AcDbRotatedDimension
  0
DIMENSION
  5
F9
330
1F
100
AcDbEntity
  8
치수문자_일반주서
100
AcDbDimension
  2
_D_3
 10
-44.03955944538855
 20
-1.500000000000004
 30
0.0
 11
-44.03955944538855
 21
-0.000000000000003
 31
0.0
 70
   160
  1
%%c<>
 71
     2
 42
-1.0
  3
SLDDIMSTYLE0
100
AcDbAlignedDimension
 13
-31.62
 23
1.499999999999998
 33
0.0
 14
-31.62
 24
-1.500000000000002
 34
0.0
 50
90.0000000000002
100
AcDbRotatedDimension
  0
INSERT
  5
10C
330
1F
100
AcDbEntity
  8
외형선
100
AcDbBlockReference
  2
SW_DOWELSYMBOL_0
 10
0.0000000000000087
 20
-0.0000000000000035
 30
0.0
  0
ENDSEC
  0
SECTION
  2
OBJECTS
  0
DICTIONARY
  5
C
330
0
100
AcDbDictionary
281
     1
  3
ACAD_GROUP
350
D
  3
ACAD_LAYOUT
350
1A
  3
ACAD_MLINESTYLE
350
17
  3
ACAD_PLOTSETTINGS
350
19
  3
ACAD_PLOTSTYLENAME
350
E
  3
ACAD_SCALELIST
350
47
  3
APPDATA
350
12E
  3
DWGPROPS
350
138
  0
DICTIONARY
  5
D
102
{ACAD_REACTORS
330
C
102
}
330
C
100
AcDbDictionary
281
     1
  0
DICTIONARY
  5
1A
102
{ACAD_REACTORS
330
C
102
}
330
C
100
AcDbDictionary
281
     1
  3
Layout1
350
1E
  3
Layout2
350
26
  3
Model
350
22
  0
DICTIONARY
  5
17
102
{ACAD_REACTORS
330
C
102
}
330
C
100
AcDbDictionary
281
     1
  3
Standard
350
18
  0
DICTIONARY
  5
19
102
{ACAD_REACTORS
330
C
102
}
330
C
100
AcDbDictionary
281
     1
  0
ACDBDICTIONARYWDFLT
  5
E
102
{ACAD_REACTORS
330
C
102
}
330
C
100
AcDbDictionary
281
     1
  3
Normal
350
F
100
AcDbDictionaryWithDefault
340
F
  0
DICTIONARY
  5
47
102
{ACAD_REACTORS
330
C
102
}
330
C
100
AcDbDictionary
281
     1
  3
A0
350
48
  3
A1
350
49
  3
A2
350
4A
  3
A3
350
4B
  3
A4
350
4C
  3
A5
350
4D
  3
A6
350
4E
  3
A7
350
4F
  3
A8
350
50
  3
A9
350
51
  3
B0
350
52
  3
B1
350
53
  3
B2
350
54
  3
B3
350
55
  3
B4
350
56
  3
B5
350
57
  3
B6
350
58
  3
B7
350
59
  3
B8
350
5A
  3
B9
350
5B
  3
C0
350
5C
  3
C1
350
5D
  3
C2
350
5E
  3
C3
350
5F
  3
C4
350
60
  3
C5
350
61
  3
C6
350
62
  3
C7
350
63
  3
C8
350
64
  3
C9
350
65
  3
D0
350
66
  3
D1
350
67
  3
D2
350
68
  0
DICTIONARY
  5
12E
102
{ACAD_REACTORS
330
C
102
}
330
C
100
AcDbDictionary
281
     1
  0
XRECORD
  5
138
102
{ACAD_REACTORS
330
C
102
}
330
C
100
AcDbXrecord
280
     1
  1
DWGPROPS COOKIE
  2

  3

  4

  6

  7

  8
12011908
  9

300
=
301
=
302
=
303
=
304
=
305
=
306
=
307
=
308
=
309
=
 40
0.0
 41
2458250.11332831
 42
2458264.22958875
  1

 90
        0
  0
LAYOUT
  5
1E
102
{ACAD_REACTORS
330
1A
102
}
330
1A
100
AcDbPlotSettings
  1

  2
none_device
  4

  6

 40
0.0
 41
0.0
 42
0.0
 43
0.0
 44
0.0
 45
0.0
 46
0.0
 47
0.0
 48
0.0
 49
0.0
140
0.0
141
0.0
142
1.0
143
1.0
 70
   688
 72
     1
 73
     0
 74
     5
  7

 75
    16
147
1.0
148
0.0
149
0.0
100
AcDbLayout
  1
Layout1
 70
     1
 71
     1
 10
0.0
 20
0.0
 11
420.0
 21
297.0
 12
0.0
 22
0.0
 32
0.0
 14
1.000000000000000E+20
 24
1.000000000000000E+20
 34
1.000000000000000E+20
 15
-1.000000000000000E+20
 25
-1.000000000000000E+20
 35
-1.000000000000000E+20
146
0.0
 13
0.0
 23
0.0
 33
0.0
 16
1.0
 26
0.0
 36
0.0
 17
0.0
 27
1.0
 37
0.0
 76
     0
330
1B
  0
LAYOUT
  5
26
102
{ACAD_REACTORS
330
1A
102
}
330
1A
100
AcDbPlotSettings
  1

  2
none_device
  4

  6

 40
0.0
 41
0.0
 42
0.0
 43
0.0
 44
0.0
 45
0.0
 46
0.0
 47
0.0
 48
0.0
 49
0.0
140
0.0
141
0.0
142
1.0
143
1.0
 70
   688
 72
     1
 73
     0
 74
     5
  7

 75
    16
147
1.0
148
0.0
149
0.0
100
AcDbLayout
  1
Layout2
 70
     1
 71
     2
 10
0.0
 20
0.0
 11
0.0
 21
0.0
 12
0.0
 22
0.0
 32
0.0
 14
0.0
 24
0.0
 34
0.0
 15
0.0
 25
0.0
 35
0.0
146
0.0
 13
0.0
 23
0.0
 33
0.0
 16
1.0
 26
0.0
 36
0.0
 17
0.0
 27
1.0
 37
0.0
 76
     0
330
23
  0
LAYOUT
  5
22
102
{ACAD_REACTORS
330
1A
102
}
330
1A
100
AcDbPlotSettings
  1

  2
none_device
  4
ANSI_A_(11.00_x_8.50_Inches)
  6

 40
6.35
 41
19.05
 42
6.35000508
 43
19.05000254
 44
279.4
 45
215.9
 46
152.3264484857786
 47
119.1381656647273
 48
0.0
 49
0.0
140
0.0
141
0.0
142
0.1064359011089966
143
1.0
 70
  1696
 72
     0
 73
     0
 74
     0
  7

 75
     0
147
0.0235690232323232
148
0.0
149
0.0
100
AcDbLayout
  1
Model
 70
     1
 71
     0
 10
0.0
 20
0.0
 11
420.0
 21
297.0
 12
0.0
 22
0.0
 32
0.0
 14
-48.60476871125031
 24
-49.97180738881174
 34
0.0
 15
33.86252364557959
 25
28.34589603119114
 35
0.0
146
0.0
 13
0.0
 23
0.0
 33
0.0
 16
1.0
 26
0.0
 36
0.0
 17
0.0
 27
1.0
 37
0.0
 76
     0
330
1F
331
29
  0
MLINESTYLE
  5
18
102
{ACAD_REACTORS
330
17
102
}
330
17
100
AcDbMlineStyle
  2
Standard
 70
     0
  3

 62
   256
 51
90.0
 52
90.0
 71
     2
 49
0.5
 62
   256
  6
BYLAYER
 49
-0.5
 62
   256
  6
BYLAYER
  0
ACDBPLACEHOLDER
  5
F
102
{ACAD_REACTORS
330
E
102
}
330
E
  0
SCALE
  5
48
102
{ACAD_REACTORS
330
47
102
}
330
47
100
AcDbScale
 70
     0
300
1:1
140
1.0
141
1.0
290
     1
  0
SCALE
  5
49
102
{ACAD_REACTORS
330
47
102
}
330
47
100
AcDbScale
 70
     0
300
1:2
140
1.0
141
2.0
290
     0
  0
SCALE
  5
4A
102
{ACAD_REACTORS
330
47
102
}
330
47
100
AcDbScale
 70
     0
300
1:4
140
1.0
141
4.0
290
     0
  0
SCALE
  5
4B
102
{ACAD_REACTORS
330
47
102
}
330
47
100
AcDbScale
 70
     0
300
1:5
140
1.0
141
5.0
290
     0
  0
SCALE
  5
4C
102
{ACAD_REACTORS
330
47
102
}
330
47
100
AcDbScale
 70
     0
300
1:8
140
1.0
141
8.0
290
     0
  0
SCALE
  5
4D
102
{ACAD_REACTORS
330
47
102
}
330
47
100
AcDbScale
 70
     0
300
1:10
140
1.0
141
10.0
290
     0
  0
SCALE
  5
4E
102
{ACAD_REACTORS
330
47
102
}
330
47
100
AcDbScale
 70
     0
300
1:16
140
1.0
141
16.0
290
     0
  0
SCALE
  5
4F
102
{ACAD_REACTORS
330
47
102
}
330
47
100
AcDbScale
 70
     0
300
1:20
140
1.0
141
20.0
290
     0
  0
SCALE
  5
50
102
{ACAD_REACTORS
330
47
102
}
330
47
100
AcDbScale
 70
     0
300
1:30
140
1.0
141
30.0
290
     0
  0
SCALE
  5
51
102
{ACAD_REACTORS
330
47
102
}
330
47
100
AcDbScale
 70
     0
300
1:40
140
1.0
141
40.0
290
     0
  0
SCALE
  5
52
102
{ACAD_REACTORS
330
47
102
}
330
47
100
AcDbScale
 70
     0
300
1:50
140
1.0
141
50.0
290
     0
  0
SCALE
  5
53
102
{ACAD_REACTORS
330
47
102
}
330
47
100
AcDbScale
 70
     0
300
1:100
140
1.0
141
100.0
290
     0
  0
SCALE
  5
54
102
{ACAD_REACTORS
330
47
102
}
330
47
100
AcDbScale
 70
     0
300
2:1
140
2.0
141
1.0
290
     0
  0
SCALE
  5
55
102
{ACAD_REACTORS
330
47
102
}
330
47
100
AcDbScale
 70
     0
300
4:1
140
4.0
141
1.0
290
     0
  0
SCALE
  5
56
102
{ACAD_REACTORS
330
47
102
}
330
47
100
AcDbScale
 70
     0
300
8:1
140
8.0
141
1.0
290
     0
  0
SCALE
  5
57
102
{ACAD_REACTORS
330
47
102
}
330
47
100
AcDbScale
 70
     0
300
10:1
140
10.0
141
1.0
290
     0
  0
SCALE
  5
58
102
{ACAD_REACTORS
330
47
102
}
330
47
100
AcDbScale
 70
     0
300
100:1
140
100.0
141
1.0
290
     0
  0
SCALE
  5
59
102
{ACAD_REACTORS
330
47
102
}
330
47
100
AcDbScale
 70
     0
300
1/128" = 1'-0"
140
0.0078125
141
12.0
290
     0
  0
SCALE
  5
5A
102
{ACAD_REACTORS
330
47
102
}
330
47
100
AcDbScale
 70
     0
300
1/64" = 1'-0"
140
0.015625
141
12.0
290
     0
  0
SCALE
  5
5B
102
{ACAD_REACTORS
330
47
102
}
330
47
100
AcDbScale
 70
     0
300
1/32" = 1'-0"
140
0.03125
141
12.0
290
     0
  0
SCALE
  5
5C
102
{ACAD_REACTORS
330
47
102
}
330
47
100
AcDbScale
 70
     0
300
1/16" = 1'-0"
140
0.0625
141
12.0
290
     0
  0
SCALE
  5
5D
102
{ACAD_REACTORS
330
47
102
}
330
47
100
AcDbScale
 70
     0
300
3/32" = 1'-0"
140
0.09375
141
12.0
290
     0
  0
SCALE
  5
5E
102
{ACAD_REACTORS
330
47
102
}
330
47
100
AcDbScale
 70
     0
300
1/8" = 1'-0"
140
0.125
141
12.0
290
     0
  0
SCALE
  5
5F
102
{ACAD_REACTORS
330
47
102
}
330
47
100
AcDbScale
 70
     0
300
3/16" = 1'-0"
140
0.1875
141
12.0
290
     0
  0
SCALE
  5
60
102
{ACAD_REACTORS
330
47
102
}
330
47
100
AcDbScale
 70
     0
300
1/4" = 1'-0"
140
0.25
141
12.0
290
     0
  0
SCALE
  5
61
102
{ACAD_REACTORS
330
47
102
}
330
47
100
AcDbScale
 70
     0
300
3/8" = 1'-0"
140
0.375
141
12.0
290
     0
  0
SCALE
  5
62
102
{ACAD_REACTORS
330
47
102
}
330
47
100
AcDbScale
 70
     0
300
1/2" = 1'-0"
140
0.5
141
12.0
290
     0
  0
SCALE
  5
63
102
{ACAD_REACTORS
330
47
102
}
330
47
100
AcDbScale
 70
     0
300
3/4" = 1'-0"
140
0.75
141
12.0
290
     0
  0
SCALE
  5
64
102
{ACAD_REACTORS
330
47
102
}
330
47
100
AcDbScale
 70
     0
300
1" = 1'-0"
140
1.0
141
12.0
290
     0
  0
SCALE
  5
65
102
{ACAD_REACTORS
330
47
102
}
330
47
100
AcDbScale
 70
     0
300
1-1/2" = 1'-0"
140
1.5
141
12.0
290
     0
  0
SCALE
  5
66
102
{ACAD_REACTORS
330
47
102
}
330
47
100
AcDbScale
 70
     0
300
3" = 1'-0"
140
3.0
141
12.0
290
     0
  0
SCALE
  5
67
102
{ACAD_REACTORS
330
47
102
}
330
47
100
AcDbScale
 70
     0
300
6" = 1'-0"
140
6.0
141
12.0
290
     0
  0
SCALE
  5
68
102
{ACAD_REACTORS
330
47
102
}
330
47
100
AcDbScale
 70
     0
300
1'-0" = 1'-0"
140
12.0
141
12.0
290
     0
  0
ENDSEC
  0
EOF
