  0
SECTION
  2
HEADER
  9
$ACADVER
  1
AC1015
  9
$ACADMAINTVER
 70
     6
  9
$DWGCODEPAGE
  3
ANSI_949
  9
$INSBASE
 10
0.0
 20
0.0
 30
0.0
  9
$EXTMIN
 10
-52.93872642046878
 20
-49.97180738881174
 30
0.0
  9
$EXTMAX
 10
29.54235667049942
 20
28.10415911661227
 30
0.0
  9
$LIMMIN
 10
0.0
 20
0.0
  9
$LIMMAX
 10
420.0
 20
297.0
  9
$ORTHOMODE
 70
     0
  9
$REGENMODE
 70
     1
  9
$FILLMODE
 70
     1
  9
$QTEXTMODE
 70
     0
  9
$MIRRTEXT
 70
     1
  9
$LTSCALE
 40
1.0
  9
$ATTMODE
 70
     1
  9
$TEXTSIZE
 40
3.5
  9
$TRACEWID
 40
1.0
  9
$TEXTSTYLE
  7
Standard
  9
$CLAYER
  8
0
  9
$CELTYPE
  6
ByLayer
  9
$CECOLOR
 62
   256
  9
$CELTSCALE
 40
1.0
  9
$DISPSILH
 70
     0
  9
$DIMSCALE
 40
1.0
  9
$DIMASZ
 40
3.302
  9
$DIMEXO
 40
1.0
  9
$DIMDLI
 40
3.75
  9
$DIMRND
 40
0.0
  9
$DIMDLE
 40
0.0
  9
$DIMEXE
 40
1.0
  9
$DIMTP
 40
0.0
  9
$DIMTM
 40
0.0
  9
$DIMTXT
 40
3.5
  9
$DIMCEN
 40
2.5
  9
$DIMTSZ
 40
0.0
  9
$DIMTOL
 70
     0
  9
$DIMLIM
 70
     0
  9
$DIMTIH
 70
     1
  9
$DIMTOH
 70
     1
  9
$DIMSE1
 70
     0
  9
$DIMSE2
 70
     0
  9
$DIMTAD
 70
     1
  9
$DIMZIN
 70
     0
  9
$DIMBLK
  1

  9
$DIMASO
 70
     1
  9
$DIMSHO
 70
     1
  9
$DIMPOST
  1

  9
$DIMAPOST
  1

  9
$DIMALT
 70
     0
  9
$DIMALTD
 70
     3
  9
$DIMALTF
 40
0.0393700787401575
  9
$DIMLFAC
 40
1.0
  9
$DIMTOFL
 70
     1
  9
$DIMTVP
 40
0.0
  9
$DIMTIX
 70
     0
  9
$DIMSOXD
 70
     0
  9
$DIMSAH
 70
     0
  9
$DIMBLK1
  1

  9
$DIMBLK2
  1

  9
$DIMSTYLE
  2
ISO-25
  9
$DIMCLRD
 70
     0
  9
$DIMCLRE
 70
     0
  9
$DIMCLRT
 70
     0
  9
$DIMTFAC
 40
1.0
  9
$DIMGAP
 40
1.524
  9
$DIMJUST
 70
     0
  9
$DIMSD1
 70
     0
  9
$DIMSD2
 70
     0
  9
$DIMTOLJ
 70
     0
  9
$DIMTZIN
 70
     0
  9
$DIMALTZ
 70
     0
  9
$DIMALTTZ
 70
     0
  9
$DIMUPT
 70
     0
  9
$DIMDEC
 70
     2
  9
$DIMTDEC
 70
     2
  9
$DIMALTU
 70
     2
  9
$DIMALTTD
 70
     3
  9
$DIMTXSTY
  7
Standard
  9
$DIMAUNIT
 70
     0
  9
$DIMADEC
 70
     2
  9
$DIMALTRND
 40
0.0
  9
$DIMAZIN
 70
     0
  9
$DIMDSEP
 70
    44
  9
$DIMATFIT
 70
     3
  9
$DIMFRAC
 70
     0
  9
$DIMLDRBLK
  1

  9
$DIMLUNIT
 70
     2
  9
$DIMLWD
 70
    -2
  9
$DIMLWE
 70
    -2
  9
$DIMTMOVE
 70
     0
  9
$LUNITS
 70
     2
  9
$LUPREC
 70
     2
  9
$SKETCHINC
 40
1.0
  9
$FILLETRAD
 40
10.0
  9
$AUNITS
 70
     0
  9
$AUPREC
 70
     2
  9
$MENU
  1
.
  9
$ELEVATION
 40
0.0
  9
$PELEVATION
 40
0.0
  9
$THICKNESS
 40
0.0
  9
$LIMCHECK
 70
     0
  9
$CHAMFERA
 40
0.0
  9
$CHAMFERB
 40
0.0
  9
$CHAMFERC
 40
0.0
  9
$CHAMFERD
 40
0.0
  9
$SKPOLY
 70
     0
  9
$TDCREATE
 40
2458250.487797002
  9
$TDUCREATE
 40
2458250.112797002
  9
$TDUPDATE
 40
2458264.601284977
  9
$TDUUPDATE
 40
2458264.226284977
  9
$TDINDWG
 40
0.0009330208
  9
$TDUSRTIMER
 40
0.0009822801
  9
$USRTIMER
 70
     1
  9
$ANGBASE
 50
0.0
  9
$ANGDIR
 70
     0
  9
$PDMODE
 70
     0
  9
$PDSIZE
 40
-1.0
  9
$PLINEWID
 40
0.0
  9
$SPLFRAME
 70
     0
  9
$SPLINETYPE
 70
     6
  9
$SPLINESEGS
 70
     8
  9
$HANDSEED
  5
148
  9
$SURFTAB1
 70
     6
  9
$SURFTAB2
 70
     6
  9
$SURFTYPE
 70
     6
  9
$SURFU
 70
     6
  9
$SURFV
 70
     6
  9
$UCSBASE
  2

  9
$UCSNAME
  2

  9
$UCSORG
 10
0.0
 20
0.0
 30
0.0
  9
$UCSXDIR
 10
1.0
 20
0.0
 30
0.0
  9
$UCSYDIR
 10
0.0
 20
1.0
 30
0.0
  9
$UCSORTHOREF
  2

  9
$UCSORTHOVIEW
 70
     0
  9
$UCSORGTOP
 10
0.0
 20
0.0
 30
0.0
  9
$UCSORGBOTTOM
 10
0.0
 20
0.0
 30
0.0
  9
$UCSORGLEFT
 10
0.0
 20
0.0
 30
0.0
  9
$UCSORGRIGHT
 10
0.0
 20
0.0
 30
0.0
  9
$UCSORGFRONT
 10
0.0
 20
0.0
 30
0.0
  9
$UCSORGBACK
 10
0.0
 20
0.0
 30
0.0
  9
$PUCSBASE
  2

  9
$PUCSNAME
  2

  9
$PUCSORG
 10
0.0
 20
0.0
 30
0.0
  9
$PUCSXDIR
 10
1.0
 20
0.0
 30
0.0
  9
$PUCSYDIR
 10
0.0
 20
1.0
 30
0.0
  9
$PUCSORTHOREF
  2

  9
$PUCSORTHOVIEW
 70
     0
  9
$PUCSORGTOP
 10
0.0
 20
0.0
 30
0.0
  9
$PUCSORGBOTTOM
 10
0.0
 20
0.0
 30
0.0
  9
$PUCSORGLEFT
 10
0.0
 20
0.0
 30
0.0
  9
$PUCSORGRIGHT
 10
0.0
 20
0.0
 30
0.0
  9
$PUCSORGFRONT
 10
0.0
 20
0.0
 30
0.0
  9
$PUCSORGBACK
 10
0.0
 20
0.0
 30
0.0
  9
$USERI1
 70
     0
  9
$USERI2
 70
     0
  9
$USERI3
 70
     0
  9
$USERI4
 70
     0
  9
$USERI5
 70
     0
  9
$USERR1
 40
0.0
  9
$USERR2
 40
0.0
  9
$USERR3
 40
0.0
  9
$USERR4
 40
0.0
  9
$USERR5
 40
0.0
  9
$WORLDVIEW
 70
     1
  9
$SHADEDGE
 70
     3
  9
$SHADEDIF
 70
    70
  9
$TILEMODE
 70
     1
  9
$MAXACTVP
 70
    64
  9
$PINSBASE
 10
0.0
 20
0.0
 30
0.0
  9
$PLIMCHECK
 70
     0
  9
$PEXTMIN
 10
1.000000000000000E+20
 20
1.000000000000000E+20
 30
1.000000000000000E+20
  9
$PEXTMAX
 10
-1.000000000000000E+20
 20
-1.000000000000000E+20
 30
-1.000000000000000E+20
  9
$PLIMMIN
 10
0.0
 20
0.0
  9
$PLIMMAX
 10
0.0
 20
0.0
  9
$UNITMODE
 70
     0
  9
$VISRETAIN
 70
     1
  9
$PLINEGEN
 70
     0
  9
$PSLTSCALE
 70
     1
  9
$TREEDEPTH
 70
  3020
  9
$CMLSTYLE
  2
Standard
  9
$CMLJUST
 70
     0
  9
$CMLSCALE
 40
20.0
  9
$PROXYGRAPHICS
 70
     1
  9
$MEASUREMENT
 70
     1
  9
$CELWEIGHT
370
    -1
  9
$ENDCAPS
280
     0
  9
$JOINSTYLE
280
     0
  9
$LWDISPLAY
290
     1
  9
$INSUNITS
 70
     4
  9
$HYPERLINKBASE
  1

  9
$STYLESHEET
  1

  9
$XEDIT
290
     1
  9
$CEPSNTYPE
380
     0
  9
$PSTYLEMODE
290
     1
  9
$FINGERPRINTGUID
  2
{F8188426-0E5F-4998-87B0-BD31C8E12CEF}
  9
$VERSIONGUID
  2
{FAEB1C32-E019-11D5-929B-00C0DF256EC4}
  9
$EXTNAMES
290
     1
  9
$PSVPSCALE
 40
0.0
  9
$OLESTARTUP
290
     0
  0
ENDSEC
  0
SECTION
  2
CLASSES
  0
CLASS
  1
ACDBDICTIONARYWDFLT
  2
AcDbDictionaryWithDefault
  3
ObjectDBX Classes
 90
        0
280
     0
281
     0
  0
CLASS
  1
VISUALSTYLE
  2
AcDbVisualStyle
  3
ObjectDBX Classes
 90
     4095
280
     0
281
     0
  0
CLASS
  1
MATERIAL
  2
AcDbMaterial
  3
ObjectDBX Classes
 90
     1153
280
     0
281
     0
  0
CLASS
  1
SCALE
  2
AcDbScale
  3
ObjectDBX Classes
 90
     1153
280
     0
281
     0
  0
CLASS
  1
SUN
  2
AcDbSun
  3
SCENEOE
 90
     1153
280
     0
281
     0
  0
CLASS
  1
ACDBPLACEHOLDER
  2
AcDbPlaceHolder
  3
ObjectDBX Classes
 90
        0
280
     0
281
     0
  0
CLASS
  1
LAYOUT
  2
AcDbLayout
  3
ObjectDBX Classes
 90
        0
280
     0
281
     0
  0
CLASS
  1
TABLESTYLE
  2
AcDbTableStyle
  3
ObjectDBX Classes
 90
     4095
280
     0
281
     0
  0
CLASS
  1
MLEADERSTYLE
  2
AcDbMLeaderStyle
  3
ACDB_MLEADERSTYLE_CLASS
 90
     4095
280
     0
281
     0
  0
CLASS
  1
DICTIONARYVAR
  2
AcDbDictionaryVar
  3
ObjectDBX Classes
 90
        0
280
     0
281
     0
  0
ENDSEC
  0
SECTION
  2
TABLES
  0
TABLE
  2
VPORT
  5
8
330
0
100
AcDbSymbolTable
 70
     1
  0
VPORT
  5
29
330
8
100
AcDbSymbolTableRecord
100
AcDbViewportTableRecord
  2
*Active
 70
     0
 10
0.0
 20
0.0
 11
1.0
 21
1.0
 12
-12.07278715094083
 22
-11.42256765578219
 13
0.0
 23
0.0
 14
10.0
 24
10.0
 15
10.0
 25
10.0
 16
0.0
 26
0.0
 36
1.0
 17
0.0
 27
0.0
 37
0.0
 40
81.93502906735029
 41
2.223011363636364
 42
50.0
 43
0.0
 44
0.0
 50
0.0
 51
0.0
 71
    16
 72
  2000
 73
     1
 74
     3
 75
     0
 76
     0
 77
     0
 78
     0
281
     0
 65
     1
110
0.0
120
0.0
130
0.0
111
1.0
121
0.0
131
0.0
112
0.0
122
1.0
132
0.0
 79
     0
146
0.0
  0
ENDTAB
  0
TABLE
  2
LTYPE
  5
5
330
0
100
AcDbSymbolTable
 70
     6
  0
LTYPE
  5
14
330
5
100
AcDbSymbolTableRecord
100
AcDbLinetypeTableRecord
  2
ByBlock
 70
     0
  3

 72
    65
 73
     0
 40
0.0
  0
LTYPE
  5
15
330
5
100
AcDbSymbolTableRecord
100
AcDbLinetypeTableRecord
  2
ByLayer
 70
     0
  3

 72
    65
 73
     0
 40
0.0
  0
LTYPE
  5
16
330
5
100
AcDbSymbolTableRecord
100
AcDbLinetypeTableRecord
  2
Continuous
 70
     0
  3
Solid line
 72
    65
 73
     0
 40
0.0
  0
LTYPE
  5
6A
330
5
100
AcDbSymbolTableRecord
100
AcDbLinetypeTableRecord
  2
HIDDEN
 70
     0
  3
Hidden __ __ __ __ __ __ __ __ __ __ __ __ __ __
 72
    65
 73
     2
 40
1.905
 49
1.27
 74
     0
 49
-0.635
 74
     0
  0
LTYPE
  5
6B
330
5
100
AcDbSymbolTableRecord
100
AcDbLinetypeTableRecord
  2
PHANTOM
 70
     0
  3
Phantom ______  __  __  ______  __  __  ______
 72
    65
 73
     6
 40
12.7
 49
6.35
 74
     0
 49
-1.27
 74
     0
 49
1.27
 74
     0
 49
-1.27
 74
     0
 49
1.27
 74
     0
 49
-1.27
 74
     0
  0
LTYPE
  5
6C
330
5
100
AcDbSymbolTableRecord
100
AcDbLinetypeTableRecord
  2
CENTER
 70
     0
  3
Center ____ _ ____ _ ____ _ ____ _ ____ _ ____
 72
    65
 73
     4
 40
10.16
 49
6.35
 74
     0
 49
-1.27
 74
     0
 49
1.27
 74
     0
 49
-1.27
 74
     0
  0
LTYPE
  5
6D
330
5
100
AcDbSymbolTableRecord
100
AcDbLinetypeTableRecord
  2
CENTERX2
 70
     0
  3
Center (2x) ________  __  ________  __  _____
 72
    65
 73
     4
 40
20.32
 49
12.7
 74
     0
 49
-2.54
 74
     0
 49
2.54
 74
     0
 49
-2.54
 74
     0
  0
LTYPE
  5
6E
330
5
100
AcDbSymbolTableRecord
100
AcDbLinetypeTableRecord
  2
DOT2
 70
     0
  3
Dot (.5x) ........................................
 72
    65
 73
     2
 40
0.635
 49
0.0
 74
     0
 49
-0.635
 74
     0
  0
ENDTAB
  0
TABLE
  2
LAYER
  5
2
330
0
100
AcDbSymbolTable
 70
    17
  0
LAYER
  5
10
330
2
100
AcDbSymbolTableRecord
100
AcDbLayerTableRecord
  2
0
 70
     0
 62
     7
  6
Continuous
370
    -3
390
F
  0
LAYER
  5
6F
330
2
100
AcDbSymbolTableRecord
100
AcDbLayerTableRecord
  2
FORMAT
 70
     0
 62
     2
  6
Continuous
370
    -3
390
F
  0
LAYER
  5
70
330
2
100
AcDbSymbolTableRecord
100
AcDbLayerTableRecord
  2
외형선
 70
     0
 62
   100
  6
Continuous
370
    30
390
F
  0
LAYER
  5
71
330
2
100
AcDbSymbolTableRecord
100
AcDbLayerTableRecord
  2
숨은선
 70
     0
 62
     2
  6
HIDDEN
370
    15
390
F
  0
LAYER
  5
72
330
2
100
AcDbSymbolTableRecord
100
AcDbLayerTableRecord
  2
중심선
 70
     0
 62
     1
  6
CENTERX2
370
    -3
390
F
  0
LAYER
  5
73
330
2
100
AcDbSymbolTableRecord
100
AcDbLayerTableRecord
  2
파단선
 70
     0
 62
     4
  6
Continuous
370
    -3
390
F
  0
LAYER
  5
74
330
2
100
AcDbSymbolTableRecord
100
AcDbLayerTableRecord
  2
해칭선
 70
     0
 62
     4
  6
Continuous
370
    -3
390
F
  0
LAYER
  5
75
330
2
100
AcDbSymbolTableRecord
100
AcDbLayerTableRecord
  2
가는실선
 70
     0
 62
     4
  6
Continuous
370
    -3
390
F
  0
LAYER
  5
76
330
2
100
AcDbSymbolTableRecord
100
AcDbLayerTableRecord
  2
치수_보조선
 70
     0
 62
     4
  6
Continuous
370
    -3
390
F
  0
LAYER
  5
77
330
2
100
AcDbSymbolTableRecord
100
AcDbLayerTableRecord
  2
치수문자_일반주서
 70
     0
 62
     7
  6
Continuous
370
    15
390
F
  0
LAYER
  5
78
330
2
100
AcDbSymbolTableRecord
100
AcDbLayerTableRecord
  2
개별주서
 70
     0
 62
   100
  6
Continuous
370
    30
390
F
  0
LAYER
  5
79
330
2
100
AcDbSymbolTableRecord
100
AcDbLayerTableRecord
  2
중간선
 70
     0
 62
     2
  6
Continuous
370
    15
390
F
  0
LAYER
  5
7A
330
2
100
AcDbSymbolTableRecord
100
AcDbLayerTableRecord
  2
윤곽선
 70
     0
 62
     3
  6
Continuous
370
    40
390
F
  0
LAYER
  5
7B
330
2
100
AcDbSymbolTableRecord
100
AcDbLayerTableRecord
  2
중심마크
 70
     0
 62
   100
  6
Continuous
370
    30
390
F
  0
LAYER
  5
7C
330
2
100
AcDbSymbolTableRecord
100
AcDbLayerTableRecord
  2
가상선
 70
     0
 62
     4
  6
PHANTOM
370
    -3
390
F
  0
LAYER
  5
7D
330
2
100
AcDbSymbolTableRecord
100
AcDbLayerTableRecord
  2
특수지정선
 70
     0
 62
     5
  6
CENTERX2
370
    60
390
F
  0
LAYER
  5
13B
330
2
100
AcDbSymbolTableRecord
100
AcDbLayerTableRecord
  2
Defpoints
 70
     0
 62
     7
  6
Continuous
290
     0
370
    -3
390
F
  0
ENDTAB
  0
TABLE
  2
STYLE
  5
3
330
0
100
AcDbSymbolTable
 70
     2
  0
STYLE
  5
11
330
3
100
AcDbSymbolTableRecord
100
AcDbTextStyleTableRecord
  2
Standard
 70
     0
 40
0.0
 41
1.0
 50
0.0
 71
     0
 42
3.5
  3
txt
  4

  0
STYLE
  5
93
330
3
100
AcDbSymbolTableRecord
100
AcDbTextStyleTableRecord
  2
SLDTEXTSTYLE0
 70
     0
 40
0.0
 41
0.75
 50
0.0
 71
     0
 42
3.5
  3
TXT
  4

  0
ENDTAB
  0
TABLE
  2
VIEW
  5
6
330
0
100
AcDbSymbolTable
 70
     0
  0
ENDTAB
  0
TABLE
  2
UCS
  5
7
330
0
100
AcDbSymbolTable
 70
     0
  0
ENDTAB
  0
TABLE
  2
APPID
  5
9
330
0
100
AcDbSymbolTable
 70
     2
  0
APPID
  5
12
330
9
100
AcDbSymbolTableRecord
100
AcDbRegAppTableRecord
  2
ACAD
 70
     0
  0
APPID
  5
140
330
9
100
AcDbSymbolTableRecord
100
AcDbRegAppTableRecord
  2
PE_URL
 70
     0
  0
ENDTAB
  0
TABLE
  2
DIMSTYLE
  5
A
330
0
100
AcDbSymbolTable
 70
     4
100
AcDbDimStyleTable
  0
DIMSTYLE
105
27
330
A
100
AcDbSymbolTableRecord
100
AcDbDimStyleTableRecord
  2
ISO-25
 70
     0
 41
2.5
 42
0.625
 43
3.75
 44
1.25
 73
     0
 74
     0
 77
     1
 78
     8
140
2.5
141
2.5
143
0.03937007874016
147
0.625
171
     3
172
     1
178
     0
271
     2
272
     2
274
     3
278
    44
283
     0
284
     8
340
11
  0
DIMSTYLE
105
D9
102
{ACAD_REACTORS
330
D8
330
FE
102
}
330
A
100
AcDbSymbolTableRecord
100
AcDbDimStyleTableRecord
  2
SLDDIMSTYLE0
 70
     0
 41
3.302
 44
0.0
 45
0.000000001
 73
     0
 74
     0
 77
     1
 78
    12
 79
     3
140
3.5
147
0.875
172
     1
173
     1
178
     0
271
     2
272
     2
276
     2
284
    12
289
     0
340
93
  0
DIMSTYLE
105
E6
102
{ACAD_REACTORS
330
E5
102
}
330
A
100
AcDbSymbolTableRecord
100
AcDbDimStyleTableRecord
  2
SLDDIMSTYLE1
 70
     0
 41
3.302
 44
0.0
 45
0.000000001
 73
     0
 74
     0
 77
     1
 78
    12
 79
     3
140
3.5
147
0.875
173
     1
178
     0
271
     2
272
     2
276
     2
284
    12
340
93
  0
DIMSTYLE
105
F1
102
{ACAD_REACTORS
330
F0
102
}
330
A
100
AcDbSymbolTableRecord
100
AcDbDimStyleTableRecord
  2
SLDDIMSTYLE2
 70
     0
 41
3.302
 44
0.0
 45
0.000000001
 73
     0
 74
     0
 77
     1
 78
     4
 79
     1
140
3.5
147
0.875
172
     1
173
     1
178
     0
271
     2
272
     2
276
     2
284
    12
289
     0
340
93
  0
ENDTAB
  0
TABLE
  2
BLOCK_RECORD
  5
1
330
0
100
AcDbSymbolTable
 70
     7
  0
BLOCK_RECORD
  5
1F
330
1
100
AcDbSymbolTableRecord
100
AcDbBlockTableRecord
  2
*Model_Space
340
22
  0
BLOCK_RECORD
  5
1B
330
1
100
AcDbSymbolTableRecord
100
AcDbBlockTableRecord
  2
*Paper_Space
340
1E
  0
BLOCK_RECORD
  5
23
330
1
100
AcDbSymbolTableRecord
100
AcDbBlockTableRecord
  2
*Paper_Space0
340
26
  0
BLOCK_RECORD
  5
7E
330
1
100
AcDbSymbolTableRecord
100
AcDbBlockTableRecord
  2
블럭10
340
0
102
{BLKREFS
331
D1
102
}
  0
BLOCK_RECORD
  5
DA
330
1
100
AcDbSymbolTableRecord
100
AcDbBlockTableRecord
  2
_D
340
0
  0
BLOCK_RECORD
  5
E7
330
1
100
AcDbSymbolTableRecord
100
AcDbBlockTableRecord
  2
_D_1
340
0
  0
BLOCK_RECORD
  5
F2
330
1
100
AcDbSymbolTableRecord
100
AcDbBlockTableRecord
  2
_D_2
340
0
  0
BLOCK_RECORD
  5
FF
330
1
100
AcDbSymbolTableRecord
100
AcDbBlockTableRecord
  2
_D_3
340
0
  0
BLOCK_RECORD
  5
10B
330
1
100
AcDbSymbolTableRecord
100
AcDbBlockTableRecord
  2
SW_DOWELSYMBOL_0
340
0
102
{BLKREFS
331
111
102
}
  0
ENDTAB
  0
ENDSEC
  0
SECTION
  2
BLOCKS
  0
BLOCK
  5
20
330
1F
100
AcDbEntity
  8
0
100
AcDbBlockBegin
  2
*Model_Space
 70
     0
 10
0.0
 20
0.0
 30
0.0
  3
*Model_Space
  1

  0
ENDBLK
  5
21
330
1F
100
AcDbEntity
  8
0
100
AcDbBlockEnd
  0
BLOCK
  5
1C
330
1B
100
AcDbEntity
 67
     1
  8
0
100
AcDbBlockBegin
  2
*Paper_Space
 70
     0
 10
0.0
 20
0.0
 30
0.0
  3
*Paper_Space
  1

  0
ENDBLK
  5
1D
330
1B
100
AcDbEntity
 67
     1
  8
0
100
AcDbBlockEnd
  0
BLOCK
  5
24
330
23
100
AcDbEntity
  8
0
100
AcDbBlockBegin
  2
*Paper_Space0
 70
     0
 10
0.0
 20
0.0
 30
0.0
  3
*Paper_Space0
  1

  0
ENDBLK
  5
25
330
23
100
AcDbEntity
  8
0
100
AcDbBlockEnd
  0
BLOCK
  5
7F
330
7E
100
AcDbEntity
  8
0
100
AcDbBlockBegin
  2
블럭10
 70
     2
 10
0.0
 20
0.0
 30
0.0
  3
블럭10
  1

  0
ELLIPSE
  5
81
330
7E
100
AcDbEntity
  8
중심선
100
AcDbEllipse
 10
20.54032771741204
 20
12.0471743016438
 30
0.0
 11
6.600054785286829
 21
-1.261213355974178E-13
 31
0.0
210
0.0
220
0.0
230
1.0
 40
0.636358354079598
 41
0.9219305317359503
 42
6.513795318482858
  0
ELLIPSE
  5
82
330
7E
100
AcDbEntity
  8
중심선
100
AcDbEllipse
 10
20.54032771746488
 20
12.04717430159265
 30
0.0
 11
3.960054785062283
 21
1.540847449632565E-10
 31
0.0
210
0.0
220
0.0
230
1.0
 40
0.3939339440162632
 41
1.131841032648279
 42
5.62031148352944
  0
LINE
  5
83
330
7E
100
AcDbEntity
  8
중심선
100
AcDbLine
 10
2.268634060543552
 20
16.24717430164393
 30
0.0
 11
5.714909304380834
 21
16.24717430164393
 31
0.0
  0
LINE
  5
84
330
7E
100
AcDbEntity
  8
중심선
100
AcDbLine
 10
5.245725140726316
 20
7.84717430164391
 30
0.0
 11
8.692000384563599
 21
7.84717430164391
 31
0.0
  0
LINE
  5
85
330
7E
100
AcDbEntity
  8
중심선
100
AcDbLine
 10
15.74043728645272
 20
16.24717430164393
 30
0.0
 11
8.692000384563599
 21
7.84717430164391
 31
0.0
  0
LINE
  5
86
330
7E
100
AcDbEntity
  8
중심선
100
AcDbLine
 10
0.1404042013395286
 20
13.71084872107135
 30
0.0
 11
3.58671253028996
 21
13.71088815037384
 31
0.0
  0
LINE
  5
87
330
7E
100
AcDbEntity
  8
중심선
100
AcDbLine
 10
2.750260043222114
 20
10.84717430164391
 30
0.0
 11
6.196535287059397
 21
10.84717430164391
 31
0.0
  0
LINE
  5
88
330
7E
100
AcDbEntity
  8
중심선
100
AcDbLine
 10
12.29416204261559
 20
16.24717430164393
 30
0.0
 11
5.245725140726316
 21
7.84717430164391
 31
0.0
  0
LINE
  5
89
330
7E
100
AcDbEntity
  8
중심선
100
AcDbLine
 10
10.72767329541681
 20
16.24717430164393
 30
0.0
 11
6.196535287059397
 21
10.84717430164391
 31
0.0
  0
LINE
  5
8A
330
7E
100
AcDbEntity
  8
중심선
100
AcDbLine
 10
7.28139805157953
 20
16.24717430164393
 30
0.0
 11
2.750260043222114
 21
10.84717430164391
 31
0.0
  0
LINE
  5
8B
330
7E
100
AcDbEntity
  8
중심선
100
AcDbLine
 10
5.714909304380834
 20
16.24717430164393
 30
0.0
 11
3.58671253028996
 21
13.71088815037384
 31
0.0
  0
LINE
  5
8C
330
7E
100
AcDbEntity
  8
중심선
100
AcDbLine
 10
2.268634060543552
 20
16.24717430164393
 30
0.0
 11
0.1404042013395286
 21
13.71084872107135
 31
0.0
  0
LINE
  5
8D
330
7E
100
AcDbEntity
  8
중심선
100
AcDbLine
 10
7.28139805157953
 20
16.24717430164393
 30
0.0
 11
10.72767329541681
 21
16.24717430164393
 31
0.0
  0
LINE
  5
8E
330
7E
100
AcDbEntity
  8
중심선
100
AcDbLine
 10
12.29416204261559
 20
16.24717430164393
 30
0.0
 11
15.74043728645272
 21
16.24717430164393
 31
0.0
  0
LINE
  5
8F
330
7E
100
AcDbEntity
  8
중심선
100
AcDbLine
 10
19.22036997980202
 20
11.08717430171403
 30
0.0
 11
23.66174974927406
 21
11.08717430171406
 31
0.0
  0
LINE
  5
90
330
7E
100
AcDbEntity
  8
중심선
100
AcDbLine
 10
19.22039502424796
 20
13.00717430171391
 30
0.0
 11
19.22036997980202
 21
11.08717430171403
 31
0.0
  0
LINE
  5
91
330
7E
100
AcDbEntity
  8
중심선
100
AcDbLine
 10
19.22039502424796
 20
13.00717430171391
 30
0.0
 11
26.96566020931264
 21
13.00717430171391
 31
0.0
  0
LINE
  5
92
330
7E
100
AcDbEntity
  8
중심선
100
AcDbLine
 10
22.22332737316547
 20
13.45928029700563
 30
0.0
 11
24.52862924686651
 21
15.39360700705356
 31
0.0
  0
ATTDEF
  5
94
330
7E
100
AcDbEntity
  8
FORMAT
 62
     2
100
AcDbText
 10
-16.00558753126829
 20
2.075366912832191
 30
0.0
 40
4.233333333333333
  1
SEME350274SE [ 2 FLUTE ]
 41
0.75
  7
SLDTEXTSTYLE0
 11
-16.00558753126829
 21
-0.0412997538344756
 31
0.0
100
AcDbAttributeDefinition
  3

  2
AUTOATTR0
 70
     0
 74
     1
  0
ENDBLK
  5
80
330
7E
100
AcDbEntity
  8
0
100
AcDbBlockEnd
  0
BLOCK
  5
DB
330
DA
100
AcDbEntity
  8
0
100
AcDbBlockBegin
  2
_D
 70
     0
 10
0.0
 20
0.0
 30
0.0
  3
_D
  1

  0
LINE
  5
DD
330
DA
100
AcDbEntity
  8
치수문자_일반주서
 62
     0
370
    -2
100
AcDbLine
 10
13.42583302491977
 20
1.411359000560021
 30
0.0
 11
13.42583302491977
 21
13.5994928891378
 31
0.0
  0
LINE
  5
DE
330
DA
100
AcDbEntity
  8
치수문자_일반주서
 62
     0
370
    -2
100
AcDbLine
 10
5.425833024919767
 20
0.9739764904656409
 30
0.0
 11
5.425833024919767
 21
13.5994928891378
 31
0.0
  0
LINE
  5
DF
330
DA
100
AcDbEntity
  8
치수문자_일반주서
 62
     0
370
    -2
100
AcDbLine
 10
10.12383302491977
 20
13.5994928891378
 30
0.0
 11
8.727833024919766
 21
13.5994928891378
 31
0.0
  0
SOLID
  5
E0
330
DA
100
AcDbEntity
  8
치수문자_일반주서
 62
     0
100
AcDbTrace
 10
10.12383302491977
 20
13.04915955580447
 30
0.0
 11
10.12383302491977
 21
14.14982622247114
 31
0.0
 12
13.42583302491977
 22
13.5994928891378
 32
0.0
 13
13.42583302491977
 23
13.5994928891378
 33
0.0
  0
SOLID
  5
E1
330
DA
100
AcDbEntity
  8
치수문자_일반주서
 62
     0
100
AcDbTrace
 10
8.727833024919766
 20
14.14982622247114
 30
0.0
 11
8.727833024919766
 21
13.04915955580447
 31
0.0
 12
5.425833024919767
 22
13.5994928891378
 32
0.0
 13
5.425833024919767
 23
13.5994928891378
 33
0.0
  0
MTEXT
  5
E2
330
DA
100
AcDbEntity
  8
치수문자_일반주서
 62
     0
100
AcDbMText
 10
9.425833024919763
 20
17.9744928891378
 30
0.0
 40
3.5
 41
0.0
 71
     2
 72
     1
  1
\A1;8
  7
SLDTEXTSTYLE0
 73
     1
 44
1.0
  0
POINT
  5
E3
330
DA
100
AcDbEntity
  8
Defpoints
 62
     0
100
AcDbPoint
 10
13.42583302491977
 20
1.348859000560021
 30
0.0
  0
POINT
  5
E4
330
DA
100
AcDbEntity
  8
Defpoints
 62
     0
100
AcDbPoint
 10
5.425833024919767
 20
0.9114764904656409
 30
0.0
  0
POINT
  5
142
330
DA
100
AcDbEntity
  8
Defpoints
 62
     0
100
AcDbPoint
 10
5.425833024919767
 20
13.5994928891378
 30
0.0
  0
ENDBLK
  5
DC
330
DA
100
AcDbEntity
  8
0
100
AcDbBlockEnd
  0
BLOCK
  5
E8
330
E7
100
AcDbEntity
  8
0
100
AcDbBlockBegin
  2
_D_1
 70
     0
 10
0.0
 20
0.0
 30
0.0
  3
_D_1
  1

  0
LINE
  5
EA
330
E7
100
AcDbEntity
  8
치수문자_일반주서
 62
     0
370
    -2
100
AcDbLine
 10
13.42583302491976
 20
1.007500000000001
 30
0.0
 11
13.42583302491977
 21
23.72915911661226
 31
0.0
  0
LINE
  5
EB
330
E7
100
AcDbEntity
  8
치수문자_일반주서
 62
     0
370
    -2
100
AcDbLine
 10
-36.57416697508023
 20
1.632499999999995
 30
0.0
 11
-36.57416697508023
 21
23.72915911661226
 31
0.0
  0
LINE
  5
EC
330
E7
100
AcDbEntity
  8
치수문자_일반주서
 62
     0
370
    -2
100
AcDbLine
 10
10.12383302491977
 20
23.72915911661226
 30
0.0
 11
-33.27216697508023
 21
23.72915911661226
 31
0.0
  0
SOLID
  5
ED
330
E7
100
AcDbEntity
  8
치수문자_일반주서
 62
     0
100
AcDbTrace
 10
10.12383302491977
 20
23.17882578327893
 30
0.0
 11
10.12383302491977
 21
24.2794924499456
 31
0.0
 12
13.42583302491977
 22
23.72915911661226
 32
0.0
 13
13.42583302491977
 23
23.72915911661226
 33
0.0
  0
SOLID
  5
EE
330
E7
100
AcDbEntity
  8
치수문자_일반주서
 62
     0
100
AcDbTrace
 10
-33.27216697508023
 20
24.2794924499456
 30
0.0
 11
-33.27216697508023
 21
23.17882578327893
 31
0.0
 12
-36.57416697508023
 22
23.72915911661226
 32
0.0
 13
-36.57416697508023
 23
23.72915911661226
 33
0.0
  0
MTEXT
  5
EF
330
E7
100
AcDbEntity
  8
치수문자_일반주서
 62
     0
100
AcDbMText
 10
-11.57416697508023
 20
28.10415911661226
 30
0.0
 40
3.5
 41
0.0
 71
     2
 72
     1
  1
\A1;50
  7
SLDTEXTSTYLE0
 73
     1
 44
1.0
  0
POINT
  5
143
330
E7
100
AcDbEntity
  8
Defpoints
 62
     0
100
AcDbPoint
 10
13.42583302491976
 20
0.9450000000000005
 30
0.0
  0
POINT
  5
144
330
E7
100
AcDbEntity
  8
Defpoints
 62
     0
100
AcDbPoint
 10
-36.57416697508023
 20
1.569999999999995
 30
0.0
  0
POINT
  5
145
330
E7
100
AcDbEntity
  8
Defpoints
 62
     0
100
AcDbPoint
 10
-36.57416697508023
 20
23.72915911661226
 30
0.0
  0
ENDBLK
  5
E9
330
E7
100
AcDbEntity
  8
0
100
AcDbBlockEnd
  0
BLOCK
  5
F3
330
F2
100
AcDbEntity
  8
0
100
AcDbBlockBegin
  2
_D_2
 70
     0
 10
0.0
 20
0.0
 30
0.0
  3
_D_2
  1

  0
LINE
  5
F5
330
F2
100
AcDbEntity
  8
치수문자_일반주서
 62
     0
370
    -2
100
AcDbLine
 10
13.48833302491977
 20
1.348859000560021
 30
0.0
 11
28.99202333716606
 21
1.348859000560079
 31
0.0
  0
LINE
  5
F6
330
F2
100
AcDbEntity
  8
치수문자_일반주서
 62
     0
370
    -2
100
AcDbLine
 10
13.48833302491977
 20
-1.34885900056002
 30
0.0
 11
28.99202333716607
 21
-1.348859000559962
 31
0.0
  0
LINE
  5
F7
330
F2
100
AcDbEntity
  8
치수문자_일반주서
 62
     0
370
    -2
100
AcDbLine
 10
28.99202333716606
 20
1.348859000560079
 30
0.0
 11
28.99202333716599
 21
19.76535900056008
 31
0.0
  0
LINE
  5
F8
330
F2
100
AcDbEntity
  8
치수문자_일반주서
 62
     0
370
    -2
100
AcDbLine
 10
28.99202333716606
 20
1.348859000560079
 30
0.0
 11
28.99202333716607
 21
-1.348859000559962
 31
0.0
  0
LINE
  5
F9
330
F2
100
AcDbEntity
  8
치수문자_일반주서
 62
     0
370
    -2
100
AcDbLine
 10
28.99202333716605
 20
4.650859000560079
 30
0.0
 11
28.99202333716604
 21
7.952859000560078
 31
0.0
  0
LINE
  5
FA
330
F2
100
AcDbEntity
  8
치수문자_일반주서
 62
     0
370
    -2
100
AcDbLine
 10
28.99202333716609
 20
-4.650859000559961
 30
0.0
 11
28.9920233371661
 21
-7.952859000559961
 31
0.0
  0
SOLID
  5
FB
330
F2
100
AcDbEntity
  8
치수문자_일반주서
 62
     0
100
AcDbTrace
 10
28.44169000383271
 20
4.650859000560077
 30
0.0
 11
29.54235667049938
 21
4.650859000560081
 31
0.0
 12
28.99202333716606
 22
1.348859000560079
 32
0.0
 13
28.99202333716606
 23
1.348859000560079
 33
0.0
  0
SOLID
  5
FC
330
F2
100
AcDbEntity
  8
치수문자_일반주서
 62
     0
100
AcDbTrace
 10
29.54235667049942
 20
-4.65085900055996
 30
0.0
 11
28.44169000383275
 21
-4.650859000559963
 31
0.0
 12
28.99202333716607
 22
-1.348859000559962
 32
0.0
 13
28.99202333716607
 23
-1.348859000559962
 33
0.0
  0
MTEXT
  5
FD
330
F2
100
AcDbEntity
  8
치수문자_일반주서
 62
     0
100
AcDbMText
 10
24.61702333716601
 20
13.85910900056006
 30
0.0
 40
3.5
 41
0.0
 71
     2
 72
     1
  1
\A1;%%c2.70
  7
SLDTEXTSTYLE0
 11
-3.950798798086549E-15
 21
1.0
 31
0.0
 73
     1
 44
1.0
  0
POINT
  5
13C
330
F2
100
AcDbEntity
  8
Defpoints
 62
     0
100
AcDbPoint
 10
13.42583302491977
 20
1.348859000560021
 30
0.0
  0
POINT
  5
13D
330
F2
100
AcDbEntity
  8
Defpoints
 62
     0
100
AcDbPoint
 10
13.42583302491977
 20
-1.34885900056002
 30
0.0
  0
POINT
  5
13E
330
F2
100
AcDbEntity
  8
Defpoints
 62
     0
100
AcDbPoint
 10
28.99202333716606
 20
-1.348859000559962
 30
0.0
  0
ENDBLK
  5
F4
330
F2
100
AcDbEntity
  8
0
100
AcDbBlockEnd
  0
BLOCK
  5
100
330
FF
100
AcDbEntity
  8
0
100
AcDbBlockBegin
  2
_D_3
 70
     0
 10
0.0
 20
0.0
 30
0.0
  3
_D_3
  1

  0
LINE
  5
102
330
FF
100
AcDbEntity
  8
치수문자_일반주서
 62
     0
370
    -2
100
AcDbLine
 10
-36.20666697508022
 20
1.999999999999996
 30
0.0
 11
-48.56372642046878
 21
1.99999999999995
 31
0.0
  0
LINE
  5
103
330
FF
100
AcDbEntity
  8
치수문자_일반주서
 62
     0
370
    -2
100
AcDbLine
 10
-36.20666697508022
 20
-2.000000000000003
 30
0.0
 11
-48.56372642046876
 21
-2.000000000000049
 31
0.0
  0
LINE
  5
104
330
FF
100
AcDbEntity
  8
치수문자_일반주서
 62
     0
370
    -2
100
AcDbLine
 10
-48.56372642046876
 20
-1.30200000000005
 30
0.0
 11
-48.56372642046878
 21
1.301999999999951
 31
0.0
  0
SOLID
  5
105
330
FF
100
AcDbEntity
  8
치수문자_일반주서
 62
     0
100
AcDbTrace
 10
-48.01339308713543
 20
-1.302000000000048
 30
0.0
 11
-49.1140597538021
 21
-1.302000000000052
 31
0.0
 12
-48.56372642046878
 22
1.99999999999995
 32
0.0
 13
-48.56372642046878
 23
1.99999999999995
 33
0.0
  0
SOLID
  5
106
330
FF
100
AcDbEntity
  8
치수문자_일반주서
 62
     0
100
AcDbTrace
 10
-49.11405975380211
 20
1.301999999999949
 30
0.0
 11
-48.01339308713544
 21
1.301999999999953
 31
0.0
 12
-48.56372642046876
 22
-2.000000000000049
 32
0.0
 13
-48.56372642046876
 23
-2.000000000000049
 33
0.0
  0
MTEXT
  5
107
330
FF
100
AcDbEntity
  8
치수문자_일반주서
 62
     0
100
AcDbMText
 10
-52.93872642046877
 20
-0.0000000000000192
 30
0.0
 40
3.5
 41
0.0
 71
     2
 72
     1
  1
\A1;%%c4
  7
SLDTEXTSTYLE0
 11
-3.552713678800503E-15
 21
1.0
 31
0.0
 73
     1
 44
1.0
  0
POINT
  5
108
330
FF
100
AcDbEntity
  8
Defpoints
 62
     0
100
AcDbPoint
 10
-36.14416697508022
 20
1.999999999999996
 30
0.0
  0
POINT
  5
109
330
FF
100
AcDbEntity
  8
Defpoints
 62
     0
100
AcDbPoint
 10
-36.14416697508022
 20
-2.000000000000002
 30
0.0
  0
POINT
  5
10A
330
FF
100
AcDbEntity
  8
Defpoints
 62
     0
100
AcDbPoint
 10
-48.56372642046877
 20
-2.000000000000048
 30
0.0
  0
ENDBLK
  5
101
330
FF
100
AcDbEntity
  8
0
100
AcDbBlockEnd
  0
BLOCK
  5
10C
330
10B
100
AcDbEntity
  8
0
100
AcDbBlockBegin
  2
SW_DOWELSYMBOL_0
 70
     0
 10
0.0
 20
0.0
 30
0.0
  3
SW_DOWELSYMBOL_0
  1

  0
CIRCLE
  5
10E
330
10B
100
AcDbEntity
  8
외형선
 62
     0
100
AcDbCircle
 10
0.0
 20
0.0
 30
0.0
 40
3.000000000000004
  0
HATCH
  5
10F
330
10B
100
AcDbEntity
  8
0
  6
Continuous
 62
     0
370
    30
100
AcDbHatch
 10
0.0
 20
0.0
 30
0.0
210
0.0
220
0.0
230
1.0
  2
SOLID
 70
     1
 71
     0
 91
        1
 92
        0
 93
        3
 72
     2
 10
0.0000000000000087
 20
-0.0000000000000035
 40
3.000000000000004
 50
0.0
 51
90.0
 73
     1
 72
     1
 10
0.0000000000000087
 20
3.000000000000001
 11
0.0000000000000087
 21
-0.0000000000000036
 72
     1
 10
0.0000000000000087
 20
-0.0000000000000035
 11
3.000000000000013
 21
-0.0000000000000035
 97
        0
 75
     0
 76
     1
 98
        1
 10
0.0
 20
0.0
  0
HATCH
  5
110
330
10B
100
AcDbEntity
  8
0
  6
Continuous
 62
     0
370
    30
100
AcDbHatch
 10
0.0
 20
0.0
 30
0.0
210
0.0
220
0.0
230
1.0
  2
SOLID
 70
     1
 71
     0
 91
        1
 92
        0
 93
        3
 72
     2
 10
0.0000000000000087
 20
-0.0000000000000035
 40
3.000000000000004
 50
180.0
 51
270.0000000000008
 73
     1
 72
     1
 10
0.0000000000000087
 20
-3.000000000000008
 11
0.0000000000000087
 21
-0.0000000000000036
 72
     1
 10
0.0000000000000087
 20
-0.0000000000000035
 11
-2.999999999999996
 21
-0.0000000000000035
 97
        0
 75
     0
 76
     1
 98
        1
 10
0.0
 20
0.0
  0
ENDBLK
  5
10D
330
10B
100
AcDbEntity
  8
0
100
AcDbBlockEnd
  0
ENDSEC
  0
SECTION
  2
ENTITIES
  0
LINE
  5
95
330
1F
100
AcDbEntity
  8
0
  6
Continuous
 62
     4
370
    15
100
AcDbLine
 10
2.0
 20
1.999999999999999
 30
0.0
 11
-36.14416697508022
 21
1.999999999999996
 31
0.0
  0
LINE
  5
96
330
1F
100
AcDbEntity
  8
0
  6
Continuous
 62
     4
370
    15
100
AcDbLine
 10
-36.14416697508022
 20
-2.000000000000002
 30
0.0
 11
2.0
 21
-2.0
 31
0.0
  0
LINE
  5
97
330
1F
100
AcDbEntity
  8
0
  6
Continuous
 62
     4
370
    15
100
AcDbLine
 10
2.0
 20
-2.0
 30
0.0
 11
4.425833024919767
 21
-1.350000000000001
 31
0.0
  0
LINE
  5
98
330
1F
100
AcDbEntity
  8
0
  6
Continuous
 62
     4
370
    15
100
AcDbLine
 10
4.425833024919767
 20
1.35
 30
0.0
 11
2.0
 21
2.0
 31
0.0
  0
LINE
  5
99
330
1F
100
AcDbEntity
  8
0
  6
Continuous
 62
     4
370
    15
100
AcDbLine
 10
-36.14416697508022
 20
1.999999999999995
 30
0.0
 11
-36.57416697508023
 21
1.569999999999995
 31
0.0
  0
LINE
  5
9A
330
1F
100
AcDbEntity
  8
0
  6
Continuous
 62
     4
370
    15
100
AcDbLine
 10
-36.57416697508023
 20
-1.570000000000001
 30
0.0
 11
-36.14416697508022
 21
-2.000000000000001
 31
0.0
  0
LINE
  5
9B
330
1F
100
AcDbEntity
  8
0
  6
Continuous
 62
     4
370
    15
100
AcDbLine
 10
4.535744165402773
 20
1.35
 30
0.0
 11
4.425833024919767
 21
1.35
 31
0.0
1001
PE_URL
1000

  0
LINE
  5
9C
330
1F
100
AcDbEntity
  8
0
  6
Continuous
 62
     4
370
    15
100
AcDbLine
 10
4.425833024919767
 20
-1.350000000000001
 30
0.0
 11
4.535744165402773
 21
-1.350000000000001
 31
0.0
1001
PE_URL
1000

  0
SPLINE
  5
9D
330
1F
100
AcDbEntity
  8
0
  6
Continuous
 62
     4
370
    15
100
AcDbSpline
210
0.0
220
0.0
230
1.0
 70
     8
 71
     3
 72
     9
 73
     5
 74
     0
 42
0.000000001
 43
0.00000001
 40
0.0
 40
0.0
 40
0.0
 40
0.0
 40
0.5072623819247941
 40
1.0
 40
1.0
 40
1.0
 40
1.0
 10
5.425833024918678
 20
0.9110212222945044
 30
0.0
 10
5.273133529330337
 20
0.9023450542056872
 30
0.0
 10
4.972106879159815
 20
0.8852411482233513
 30
0.0
 10
4.679768095707988
 20
0.8894142736705911
 30
0.0
 10
4.53572177987893
 20
0.8914705295633932
 30
0.0
1001
PE_URL
1000

  0
SPLINE
  5
9E
330
1F
100
AcDbEntity
  8
0
  6
Continuous
 62
     1
370
    15
100
AcDbSpline
210
0.0
220
0.0
230
1.0
 70
     8
 71
     3
 72
     9
 73
     5
 74
     0
 42
0.000000001
 43
0.00000001
 40
0.0
 40
0.0
 40
0.0
 40
0.0
 40
0.4368467073135738
 40
0.9999999999999999
 40
0.9999999999999999
 40
0.9999999999999999
 40
0.9999999999999999
 10
9.9290126075831
 20
0.3459356607379073
 30
0.0
 10
9.874230388093968
 20
0.3718883407382236
 30
0.0
 10
9.748826628441028
 20
0.4312974642724594
 30
0.0
 10
9.623409685118899
 20
0.4966121710081569
 30
0.0
 10
9.552780720528379
 20
0.5333943631672131
 30
0.0
  0
LINE
  5
9F
330
1F
100
AcDbEntity
  8
0
  6
Continuous
 62
     1
370
    15
100
AcDbLine
 10
6.830895865479912
 20
1.350000000000001
 30
0.0
 11
6.175785492257496
 21
1.350000000000001
 31
0.0
  0
SPLINE
  5
A0
330
1F
100
AcDbEntity
  8
0
  6
Continuous
 62
     1
370
    15
100
AcDbSpline
210
0.0
220
0.0
230
1.0
 70
     8
 71
     3
 72
    15
 73
    11
 74
     0
 42
0.000000001
 43
0.00000001
 40
0.0
 40
0.0
 40
0.0
 40
0.0
 40
0.2550615020898517
 40
0.4249745448624561
 40
0.5327698886698208
 40
0.6394414503550326
 40
0.74701823617926
 40
0.8541739077479821
 40
0.9616102674957564
 40
1.0
 40
1.0
 40
1.0
 40
1.0
 10
9.481222967386815
 20
1.072760302048113
 30
0.0
 10
9.386582708774666
 20
1.068249801575887
 30
0.0
 10
9.228896423310875
 20
1.060734563605513
 30
0.0
 10
9.031465619881594
 20
1.056189888338066
 30
0.0
 10
8.88890824776921
 20
1.054440417307095
 30
0.0
 10
8.76948787739496
 20
1.054123635644315
 30
0.0
 10
8.650313359280613
 20
1.05488114998879
 30
0.0
 10
8.530944836301375
 20
1.056892656366015
 30
0.0
 10
8.437199531361404
 20
1.059038858077925
 30
0.0
 10
8.38312762066508
 20
1.061086987443734
 30
0.0
 10
8.368892814290112
 20
1.061626171736978
 30
0.0
  0
SPLINE
  5
A1
330
1F
100
AcDbEntity
  8
0
  6
Continuous
 62
     1
370
    15
100
AcDbSpline
210
0.0
220
0.0
230
1.0
 70
     8
 71
     3
 72
    19
 73
    15
 74
     0
 42
0.000000001
 43
0.00000001
 40
0.0
 40
0.0
 40
0.0
 40
0.0
 40
0.1307577608370263
 40
0.2214883067003217
 40
0.2844593389038988
 40
0.3496521201098097
 40
0.4169968041527212
 40
0.4839889493318976
 40
0.5503455203815218
 40
0.6169737634354645
 40
0.6809160437967253
 40
0.7442881958900376
 40
0.8476243528505759
 40
1.0
 40
1.0
 40
1.0
 40
1.0
 10
7.452336645913974
 20
-1.123378161375414
 30
0.0
 10
7.541110554548103
 20
-1.114914873612843
 30
0.0
 10
7.69148314105216
 20
-1.100579057033773
 30
0.0
 10
7.883836581259166
 20
-1.086176821740284
 30
0.0
 10
8.030981532395549
 20
-1.07680457771484
 30
0.0
 10
8.16310108489557
 20
-1.069675011882565
 30
0.0
 10
8.298107009521964
 20
-1.063745039482131
 30
0.0
 10
8.433843428562476
 20
-1.05917986609454
 30
0.0
 10
8.568971527759416
 20
-1.056030311339358
 30
0.0
 10
8.702130763461572
 20
-1.054380758977544
 30
0.0
 10
8.833329469826644
 20
-1.054116731191957
 30
0.0
 10
8.989359351270226
 20
-1.055420411156437
 30
0.0
 10
9.205023097989264
 20
-1.059755198546378
 30
0.0
 10
9.378092783618218
 20
-1.067904330475828
 30
0.0
 10
9.481222967386818
 20
-1.072760302048114
 30
0.0
  0
SPLINE
  5
A2
330
1F
100
AcDbEntity
  8
0
  6
Continuous
 62
     1
370
    15
100
AcDbSpline
210
0.0
220
0.0
230
1.0
 70
     8
 71
     3
 72
    12
 73
     8
 74
     0
 42
0.000000001
 43
0.00000001
 40
0.0
 40
0.0
 40
0.0
 40
0.0
 40
0.3291030884808396
 40
0.5368669970922532
 40
0.7186294973979371
 40
0.8779200969075829
 40
0.9999999999999999
 40
0.9999999999999999
 40
0.9999999999999999
 40
0.9999999999999999
 10
10.56578557024473
 20
-1.015387802782967
 30
0.0
 10
10.67665671935486
 20
-0.9989021804900685
 30
0.0
 10
10.85752120519633
 20
-0.9720091282964823
 30
0.0
 10
11.0983031334852
 20
-0.9436891731100987
 30
0.0
 10
11.28284365317678
 20
-0.9257156848609507
 30
0.0
 10
11.43847587886887
 20
-0.9130499833403204
 30
0.0
 10
11.53303134446803
 20
-0.9073216142064793
 30
0.0
 10
11.57405668994828
 20
-0.9048362124238842
 30
0.0
  0
SPLINE
  5
A3
330
1F
100
AcDbEntity
  8
0
  6
Continuous
 62
     1
370
    15
100
AcDbSpline
210
0.0
220
0.0
230
1.0
 70
     8
 71
     3
 72
     9
 73
     5
 74
     0
 42
0.000000001
 43
0.00000001
 40
0.0
 40
0.0
 40
0.0
 40
0.0
 40
0.5003383094796788
 40
1.0
 40
1.0
 40
1.0
 40
1.0
 10
5.619547799297267
 20
0.9267616555134375
 30
0.0
 10
5.587177410728669
 20
0.9239036366887086
 30
0.0
 10
5.522480408809592
 20
0.9181914640035889
 30
0.0
 10
5.458034284392435
 20
0.913410224505101
 30
0.0
 10
5.425833024918678
 20
0.9110212222945046
 30
0.0
  0
SPLINE
  5
A4
330
1F
100
AcDbEntity
  8
0
  6
Continuous
 62
     1
370
    15
100
AcDbSpline
210
0.0
220
0.0
230
1.0
 70
     8
 71
     3
 72
    20
 73
    16
 74
     0
 42
0.000000001
 43
0.00000001
 40
0.0
 40
0.0
 40
0.0
 40
0.0
 40
0.1229149473579941
 40
0.2042613455376213
 40
0.2595052775991115
 40
0.3167526329308409
 40
0.3752761768199815
 40
0.4334192141253014
 40
0.4890269668708372
 40
0.5805348903221336
 40
0.669177782429047
 40
0.7174158960928841
 40
0.7705089024537255
 40
0.8593204101008308
 40
0.9999999999999999
 40
0.9999999999999999
 40
0.9999999999999999
 40
0.9999999999999999
 10
12.9241028622781
 20
0.9233673270000612
 30
0.0
 10
12.82671862920628
 20
0.9157999821602358
 30
0.0
 10
12.66488449178876
 20
0.9032244893308083
 30
0.0
 10
12.46111984568348
 20
0.8942422998956101
 30
0.0
 10
12.31053953113897
 20
0.8900453019960114
 30
0.0
 10
12.17620216902971
 20
0.8882290663233086
 30
0.0
 10
12.03937923183571
 20
0.8883965637471916
 30
0.0
 10
11.9039118375009
 20
0.8905831778865965
 30
0.0
 10
11.74275513913868
 20
0.8955994708630166
 30
0.0
 10
11.5574672442413
 20
0.9048365597994886
 30
0.0
 10
11.37788015222424
 20
0.9177211497797604
 30
0.0
 10
11.22854039439561
 20
0.9309053648855029
 30
0.0
 10
11.07900299383479
 20
0.9459802049456911
 30
0.0
 10
10.85752881128372
 20
0.9719975801877894
 30
0.0
 10
10.67665960997071
 20
0.9988977917492791
 30
0.0
 10
10.56578557024473
 20
1.015387802782967
 30
0.0
  0
LINE
  5
A5
330
1F
100
AcDbEntity
  8
0
  6
Continuous
 62
     1
370
    15
100
AcDbLine
 10
6.175754123283008
 20
-1.350000000000001
 30
0.0
 11
6.830895865479912
 21
-1.350000000000001
 31
0.0
  0
LINE
  5
A6
330
1F
100
AcDbEntity
  8
0
  6
Continuous
 62
     4
370
    15
100
AcDbLine
 10
2.0
 20
2.0
 30
0.0
 11
2.0
 21
-2.0
 31
0.0
  0
LINE
  5
A7
330
1F
100
AcDbEntity
  8
0
  6
Continuous
 62
     4
370
    15
100
AcDbLine
 10
-36.14416697508022
 20
1.999999999999995
 30
0.0
 11
-36.14416697508022
 21
-2.000000000000002
 31
0.0
  0
LINE
  5
A8
330
1F
100
AcDbEntity
  8
0
  6
Continuous
 62
     4
370
    15
100
AcDbLine
 10
4.425833024919767
 20
1.35
 30
0.0
 11
4.425833024919767
 21
-1.350000000000001
 31
0.0
1001
PE_URL
1000

  0
LINE
  5
A9
330
1F
100
AcDbEntity
  8
0
  6
Continuous
 62
     4
370
    15
100
AcDbLine
 10
-36.57416697508023
 20
1.569999999999995
 30
0.0
 11
-36.57416697508023
 21
-1.570000000000002
 31
0.0
  0
SPLINE
  5
AA
330
1F
100
AcDbEntity
  8
0
  6
Continuous
 62
     4
370
    15
100
AcDbSpline
210
0.0
220
0.0
230
1.0
 70
     8
 71
     3
 72
    10
 73
     6
 74
     0
 42
0.000000001
 43
0.00000001
 40
0.0
 40
0.0
 40
0.0
 40
0.0
 40
0.5
 40
0.5
 40
1.0
 40
1.0
 40
1.0
 40
1.0
 10
4.535744165402773
 20
1.031448062412795
 30
0.0
 10
4.68318900697272
 20
1.086604906484501
 30
0.0
 10
4.833535110753138
 20
1.135859436072305
 30
0.0
 10
5.131930351684069
 20
1.21974925008044
 30
0.0
 10
5.277537222924346
 20
1.254261278674233
 30
0.0
 10
5.425833024919763
 20
1.281247644596195
 30
0.0
1001
PE_URL
1000

  0
LINE
  5
AB
330
1F
100
AcDbEntity
  8
0
  6
Continuous
 62
     4
370
    15
100
AcDbLine
 10
4.535744165402773
 20
-0.7506884898080962
 30
0.0
 11
4.535744165402773
 21
1.35
 31
0.0
1001
PE_URL
1000

  0
SPLINE
  5
AC
330
1F
100
AcDbEntity
  8
0
  6
Continuous
 62
     4
370
    15
100
AcDbSpline
210
0.0
220
0.0
230
1.0
 70
     8
 71
     3
 72
    10
 73
     6
 74
     0
 42
0.000000001
 43
0.00000001
 40
0.0
 40
0.0
 40
0.0
 40
0.0
 40
0.5000000000000001
 40
0.5000000000000001
 40
1.0
 40
1.0
 40
1.0
 40
1.0
 10
5.425833024919763
 20
-1.113946822599849
 30
0.0
 10
5.277521664581375
 20
-1.065553448422679
 30
0.0
 10
5.131899288198708
 20
-1.010765298225407
 30
0.0
 10
4.833472256422706
 20
-0.8887618502643724
 30
0.0
 10
4.683110452319445
 20
-0.8217969993764025
 30
0.0
 10
4.535651351392897
 20
-0.7507365764633162
 30
0.0
1001
PE_URL
1000

  0
LINE
  5
AD
330
1F
100
AcDbEntity
  8
0
  6
Continuous
 62
     4
370
    15
100
AcDbLine
 10
5.425833024919767
 20
-1.113946822599848
 30
0.0
 11
5.425833024919767
 21
-1.281247644596902
 31
0.0
1001
PE_URL
1000

  0
SPLINE
  5
AE
330
1F
100
AcDbEntity
  8
0
  6
Continuous
 62
     4
370
    15
100
AcDbSpline
210
0.0
220
0.0
230
1.0
 70
     8
 71
     3
 72
    10
 73
     6
 74
     0
 42
0.000000001
 43
0.00000001
 40
0.0
 40
0.0
 40
0.0
 40
0.0
 40
0.5000000000000001
 40
0.5000000000000001
 40
1.0
 40
1.0
 40
1.0
 40
1.0
 10
4.535744165402773
 20
-1.031448062412795
 30
0.0
 10
4.68318900697272
 20
-1.0866049064845
 30
0.0
 10
4.833535110753138
 20
-1.135859436072306
 30
0.0
 10
5.131930351684069
 20
-1.219749250080441
 30
0.0
 10
5.277537222924346
 20
-1.254261278674233
 30
0.0
 10
5.425833024919763
 20
-1.281247644596196
 30
0.0
1001
PE_URL
1000

  0
LINE
  5
AF
330
1F
100
AcDbEntity
  8
0
  6
Continuous
 62
     4
370
    15
100
AcDbLine
 10
4.535744165402773
 20
-1.350000000000001
 30
0.0
 11
4.535744165402773
 21
-1.031150439180428
 31
0.0
1001
PE_URL
1000

  0
SPLINE
  5
B0
330
1F
100
AcDbEntity
  8
0
  6
Continuous
 62
     4
370
    15
100
AcDbSpline
210
0.0
220
0.0
230
1.0
 70
     8
 71
     3
 72
    10
 73
     6
 74
     0
 42
0.000000001
 43
0.00000001
 40
0.0
 40
0.0
 40
0.0
 40
0.0
 40
0.5
 40
0.5
 40
1.0
 40
1.0
 40
1.0
 40
1.0
 10
5.425833024919777
 20
-0.9060623962019972
 30
0.0
 10
5.277521664581384
 20
-0.8613815159024245
 30
0.0
 10
5.131899288198719
 20
-0.8115311731243
 30
0.0
 10
4.833472256422713
 20
-0.701829180782659
 30
0.0
 10
4.683110452319449
 20
-0.6422118038488043
 30
0.0
 10
4.535651351392897
 20
-0.5794843806020304
 30
0.0
  0
SPLINE
  5
B1
330
1F
100
AcDbEntity
  8
0
  6
Continuous
 62
     4
370
    15
100
AcDbSpline
210
0.0
220
0.0
230
1.0
 70
     8
 71
     3
 72
    10
 73
     6
 74
     0
 42
0.000000001
 43
0.00000001
 40
0.0
 40
0.0
 40
0.0
 40
0.0
 40
0.5000000000000001
 40
0.5000000000000001
 40
1.0
 40
1.0
 40
1.0
 40
1.0
 10
5.425833024919767
 20
0.2978423732203762
 30
0.0
 10
5.277531536429676
 20
0.3637117137662085
 30
0.0
 10
5.131918998152567
 20
0.4273984587170231
 30
0.0
 10
4.833512137821673
 20
0.54986915250614
 30
0.0
 10
4.683160295630211
 20
0.6082672206893605
 30
0.0
 10
4.535710242269232
 20
0.6622930449380158
 30
0.0
1001
PE_URL
1000

  0
SPLINE
  5
B2
330
1F
100
AcDbEntity
  8
0
  6
Continuous
 62
     4
370
    15
100
AcDbSpline
210
0.0
220
0.0
230
1.0
 70
    24
 71
     3
 72
    10
 73
     6
 74
     0
 42
0.000000001
 43
0.00000001
 40
0.0
 40
0.0
 40
0.0
 40
0.0
 40
0.5
 40
0.5
 40
1.0
 40
1.0
 40
1.0
 40
1.0
 10
5.425833024919767
 20
0.2978423732203756
 30
0.0
 10
5.425833024919767
 20
0.0923929132488792
 30
0.0
 10
5.425833024919767
 20
-0.1305301707524414
 30
0.0
 10
5.425833024919767
 20
-0.5513545442027701
 30
0.0
 10
5.425833024919767
 20
-0.747444441036653
 30
0.0
 10
5.425833024919767
 20
-0.9060623962019942
 30
0.0
1001
PE_URL
1000

  0
SPLINE
  5
B3
330
1F
100
AcDbEntity
  8
0
  6
Continuous
 62
     4
370
    15
100
AcDbSpline
210
0.0
220
0.0
230
1.0
 70
    24
 71
     3
 72
     8
 73
     4
 74
     0
 42
0.000000001
 43
0.00000001
 40
0.0
 40
0.0
 40
0.0
 40
0.0
 40
1.0
 40
1.0
 40
1.0
 40
1.0
 10
5.425833024919767
 20
-0.906062396201994
 30
0.0
 10
5.425833024919767
 20
-0.9734260217705454
 30
0.0
 10
5.425833024919767
 20
-1.043157621156892
 30
0.0
 10
5.425833024919767
 20
-1.113946822599489
 30
0.0
1001
PE_URL
1000

  0
SPLINE
  5
B4
330
1F
100
AcDbEntity
  8
0
  6
Continuous
 62
     4
370
    15
100
AcDbSpline
210
0.0
220
0.0
230
1.0
 70
    24
 71
     3
 72
    13
 73
     9
 74
     0
 42
0.000000001
 43
0.00000001
 40
0.0
 40
0.0
 40
0.0
 40
0.0
 40
0.0833716371530113
 40
0.2695608590318121
 40
0.450502753707147
 40
0.6366919755859358
 40
0.8158037982030837
 40
1.0
 40
1.0
 40
1.0
 40
1.0
 10
5.425833024919271
 20
0.9059240892527021
 30
0.0
 10
5.425833024919465
 20
0.906087818212475
 30
0.0
 10
5.42583302492009
 20
0.9066171939156743
 30
0.0
 10
5.42583302491966
 20
0.8626505612951354
 30
0.0
 10
5.425833024919791
 20
0.7766607405442035
 30
0.0
 10
5.425833024919763
 20
0.6509248503325449
 30
0.0
 10
5.425833024919763
 20
0.492390547458236
 30
0.0
 10
5.425833024919767
 20
0.3632939862775679
 30
0.0
 10
5.425833024919767
 20
0.2978423732203757
 30
0.0
1001
PE_URL
1000

  0
SPLINE
  5
B5
330
1F
100
AcDbEntity
  8
0
  6
Continuous
 62
     4
370
    15
100
AcDbSpline
210
0.0
220
0.0
230
1.0
 70
    24
 71
     3
 72
    13
 73
     9
 74
     0
 42
0.000000001
 43
0.00000001
 40
0.0
 40
0.0
 40
0.0
 40
0.0
 40
0.0124962565066315
 40
0.2611314413719095
 40
0.5027593990942
 40
0.7513945839594774
 40
0.9367036198370922
 40
1.0
 40
1.0
 40
1.0
 40
1.0
 10
5.425833024919767
 20
1.281247644596195
 30
0.0
 10
5.425833024919763
 20
1.279702439361898
 30
0.0
 10
5.425833024919749
 20
1.247412635624817
 30
0.0
 10
5.425833024919777
 20
1.18535635137108
 30
0.0
 10
5.425833024919763
 20
1.09729628379692
 30
0.0
 10
5.425833024919774
 20
1.022480866142992
 30
0.0
 10
5.425833024919744
 20
0.9708881478795593
 30
0.0
 10
5.425833024919777
 20
0.948420298168937
 30
0.0
 10
5.425833024919788
 20
0.9426998533798548
 30
0.0
1001
PE_URL
1000

  0
SPLINE
  5
B6
330
1F
100
AcDbEntity
  8
0
  6
Continuous
 62
     1
370
    15
100
AcDbSpline
210
0.0
220
0.0
230
1.0
 70
     8
 71
     3
 72
    18
 73
    14
 74
     0
 42
0.000000001
 43
0.00000001
 40
0.0
 40
0.0
 40
0.0
 40
0.0
 40
0.097184468770006
 40
0.1941185526540058
 40
0.2909922578939774
 40
0.3879971922760848
 40
0.4852618412654578
 40
0.5823317028917612
 40
0.6792210650278648
 40
0.7858418812579063
 40
0.8925166063020277
 40
0.999294215631031
 40
1.0
 40
1.0
 40
1.0
 40
1.0
 10
13.42583302491977
 20
-1.281070173463065
 30
0.0
 10
13.21210480882152
 20
-1.232931204376384
 30
0.0
 10
12.7851990234074
 20
-1.136777290858813
 30
0.0
 10
12.14573559215339
 20
-0.8821141508453665
 30
0.0
 10
11.50669466997396
 20
-0.5687075222146616
 30
0.0
 10
10.86680831259812
 20
-0.2109110803887414
 30
0.0
 10
10.22589637347908
 20
0.1612668570268715
 30
0.0
 10
9.58568822954444
 20
0.5224645600767722
 30
0.0
 10
8.925251829850744
 20
0.8545391724706931
 30
0.0
 10
8.243336542426071
 20
1.130517411585862
 30
0.0
 10
7.539705002013502
 20
1.298849674793258
 30
0.0
 10
7.068837220587614
 20
1.369961681102892
 30
0.0
 10
6.832448102886341
 20
1.349734053347325
 30
0.0
 10
6.830895865479912
 20
1.349601229633819
 30
0.0
  0
SPLINE
  5
B7
330
1F
100
AcDbEntity
  8
0
  6
Continuous
 62
     1
370
    15
100
AcDbSpline
210
0.0
220
0.0
230
1.0
 70
     8
 71
     3
 72
    14
 73
    10
 74
     0
 42
0.000000001
 43
0.00000001
 40
0.0
 40
0.0
 40
0.0
 40
0.0
 40
0.1586083942361489
 40
0.3165318557569203
 40
0.474981557402788
 40
0.6337367253778797
 40
0.7916812790806781
 40
0.9499928509697505
 40
1.0
 40
1.0
 40
1.0
 40
1.0
 10
13.42583302491976
 20
-1.065112556897091
 30
0.0
 10
13.24027694490979
 20
-1.02551417347018
 30
0.0
 10
12.86996608818999
 20
-0.9464884078323756
 30
0.0
 10
12.31494547176031
 20
-0.7578860280731884
 30
0.0
 10
11.75925410599072
 20
-0.5316165531054821
 30
0.0
 10
11.20322446903701
 20
-0.2746134624438688
 30
0.0
 10
10.6481585454144
 20
-0.0025163317646545
 30
0.0
 10
10.21988973088765
 20
0.2112869846251319
 30
0.0
 10
9.976157667043227
 20
0.322041065484695
 30
0.0
 10
9.917649504232273
 20
0.348627710231796
 30
0.0
  0
LINE
  5
B8
330
1F
100
AcDbEntity
  8
0
  6
Continuous
 62
     1
370
    15
100
AcDbLine
 10
13.42583302491969
 20
-1.281070173463065
 30
0.0
 11
13.42583302491976
 21
-1.065112556897091
 31
0.0
  0
SPLINE
  5
B9
330
1F
100
AcDbEntity
  8
0
  6
Continuous
 62
     1
370
    15
100
AcDbSpline
210
0.0
220
0.0
230
1.0
 70
     8
 71
     3
 72
    38
 73
    34
 74
     0
 42
0.000000001
 43
0.00000001
 40
0.0
 40
0.0
 40
0.0
 40
0.0
 40
0.0625
 40
0.0625
 40
0.125
 40
0.125
 40
0.1875
 40
0.1875
 40
0.2500000000000001
 40
0.2500000000000001
 40
0.3125000000000002
 40
0.3125000000000002
 40
0.3750000000000002
 40
0.3750000000000002
 40
0.4375000000000002
 40
0.4375000000000002
 40
0.5000000000000002
 40
0.5000000000000002
 40
0.5625000000000002
 40
0.5625000000000002
 40
0.6250000000000002
 40
0.6250000000000002
 40
0.6875000000000001
 40
0.6875000000000001
 40
0.7500000000000001
 40
0.7500000000000001
 40
0.8125000000000001
 40
0.8125000000000001
 40
0.875
 40
0.875
 40
0.9375
 40
0.9375
 40
1.0
 40
1.0
 40
1.0
 40
1.0
 10
5.425833024919861
 20
1.28124764459545
 30
0.0
 10
5.592369112182702
 20
1.311553315623312
 30
0.0
 10
5.761722624784975
 20
1.332158011010473
 30
0.0
 10
6.094558592384271
 20
1.352579621127897
 30
0.0
 10
6.258591467514789
 20
1.352569389029222
 30
0.0
 10
6.594252788993765
 20
1.331934329097486
 30
0.0
 10
6.761735528901127
 20
1.311278630649319
 30
0.0
 10
7.091044532635282
 20
1.250808508509727
 30
0.0
 10
7.260012207009966
 20
1.210518248709633
 30
0.0
 10
7.595153043467336
 20
1.112235327578065
 30
0.0
 10
7.758458413961286
 20
1.054691124115914
 30
0.0
 10
8.092558618817387
 20
0.923633975737948
 30
0.0
 10
8.261837727774672
 20
0.8501869394863059
 30
0.0
 10
8.593364468703973
 20
0.6925466855563619
 30
0.0
 10
8.758513225674143
 20
0.6079685628804639
 30
0.0
 10
9.094342963189025
 20
0.429879210036
 30
0.0
 10
9.260065804422448
 20
0.337251961274216
 30
0.0
 10
9.59100563253953
 20
0.1484121333654894
 30
0.0
 10
9.760220533535735
 20
0.0514254463438158
 30
0.0
 10
10.09466498112377
 20
-0.1411130925906133
 30
0.0
 10
10.25787744458454
 20
-0.2362748781506492
 30
0.0
 10
10.59276901999055
 20
-0.4231686739658372
 30
0.0
 10
10.76185010630922
 20
-0.5143593314363757
 30
0.0
 10
11.09183704237585
 20
-0.6861457583640539
 30
0.0
 10
11.25856272367333
 20
-0.7677758617107067
 30
0.0
 10
11.59432009788155
 20
-0.9184296339214139
 30
0.0
 10
11.75874272853751
 20
-0.986800467100867
 30
0.0
 10
12.09108418176949
 20
-1.108081009317778
 30
0.0
 10
12.2604228482455
 20
-1.161044616910093
 30
0.0
 10
12.59393342930673
 20
-1.247960684033989
 30
0.0
 10
12.75751860703786
 20
-1.282018585912023
 30
0.0
 10
13.09296301147966
 20
-1.330663212020955
 30
0.0
 10
13.26172294275308
 20
-1.344924269222874
 30
0.0
 10
13.42583302491976
 20
-1.348859000559279
 30
0.0
  0
SPLINE
  5
BA
330
1F
100
AcDbEntity
  8
0
  6
Continuous
 62
     1
370
    15
100
AcDbSpline
210
0.0
220
0.0
230
1.0
 70
     8
 71
     3
 72
    14
 73
    10
 74
     0
 42
0.000000001
 43
0.00000001
 40
0.0
 40
0.0
 40
0.0
 40
0.0
 40
0.0770964603302343
 40
0.2435396293320606
 40
0.4099971546397528
 40
0.5764932660407182
 40
0.7430519973722202
 40
0.8930842784443462
 40
0.9999999999999999
 40
0.9999999999999999
 40
0.9999999999999999
 40
0.9999999999999999
 10
10.06463794128183
 20
-0.1240908544068623
 30
0.0
 10
9.950351506605859
 20
-0.0786656773230272
 30
0.0
 10
9.589332650234901
 20
0.0648276911397271
 30
0.0
 10
8.981567214207406
 20
0.3118514099293444
 30
0.0
 10
8.241271579629702
 20
0.578766629618055
 30
0.0
 10
7.50078232637385
 20
0.7896714350708198
 30
0.0
 10
6.784632790826779
 20
0.9144232409623866
 30
0.0
 10
6.156718554354114
 20
0.9595044175284562
 30
0.0
 10
5.775793133200578
 20
0.9308090704111642
 30
0.0
 10
5.617290572974337
 20
0.9188689747071337
 30
0.0
  0
SPLINE
  5
BB
330
1F
100
AcDbEntity
  8
0
  6
Continuous
 62
     4
370
    15
100
AcDbSpline
210
0.0
220
0.0
230
1.0
 70
    24
 71
     3
 72
    13
 73
     9
 74
     0
 42
0.000000001
 43
0.00000001
 40
0.0
 40
0.0
 40
0.0
 40
0.0
 40
0.0124962565066292
 40
0.2611314413719079
 40
0.5027593990941975
 40
0.7513945839594764
 40
0.9367036198370905
 40
1.0
 40
1.0
 40
1.0
 40
1.0
 10
5.425833024919767
 20
1.281247644596196
 30
0.0
 10
5.425833024919767
 20
1.279702439361899
 30
0.0
 10
5.42583302491977
 20
1.247412635624818
 30
0.0
 10
5.425833024919759
 20
1.185356351371081
 30
0.0
 10
5.425833024919767
 20
1.09729628379692
 30
0.0
 10
5.425833024919777
 20
1.022480866142992
 30
0.0
 10
5.425833024919749
 20
0.9708881478795605
 30
0.0
 10
5.425833024919781
 20
0.9484202981689372
 30
0.0
 10
5.425833024919788
 20
0.9426998533798548
 30
0.0
1001
PE_URL
1000

  0
LINE
  5
BC
330
1F
100
AcDbEntity
  8
0
  6
Continuous
 62
     1
370
    15
100
AcDbLine
 10
13.42583302491977
 20
-1.34885900056002
 30
0.0
 11
13.42583302491975
 21
-1.281070173463061
 31
0.0
  0
SPLINE
  5
BD
330
1F
100
AcDbEntity
  8
0
  6
Continuous
 62
     1
370
    15
100
AcDbSpline
210
0.0
220
0.0
230
1.0
 70
     8
 71
     3
 72
     8
 73
     4
 74
     0
 42
0.000000001
 43
0.00000001
 40
0.0
 40
0.0
 40
0.0
 40
0.0
 40
1.0
 40
1.0
 40
1.0
 40
1.0
 10
12.59031403734419
 20
0.3778295625553406
 30
0.0
 10
12.52977998722202
 20
0.449485103592365
 30
0.0
 10
12.47727576298369
 20
0.517971673515687
 30
0.0
 10
12.43586148741038
 20
0.5816517252263521
 30
0.0
  0
LINE
  5
BE
330
1F
100
AcDbEntity
  8
0
  6
Continuous
 62
     1
370
    15
100
AcDbLine
 10
12.43586148741038
 20
0.5816517252263528
 30
0.0
 11
13.42583302491976
 21
0.0000000000000006
 31
0.0
  0
LINE
  5
BF
330
1F
100
AcDbEntity
  8
0
  6
Continuous
 62
     1
370
    15
100
AcDbLine
 10
13.42583302491976
 20
0.0000000000000006
 30
0.0
 11
13.42583302491976
 21
-0.3607779771400199
 31
0.0
  0
SPLINE
  5
C0
330
1F
100
AcDbEntity
  8
0
  6
Continuous
 62
     1
370
    15
100
AcDbSpline
210
0.0
220
0.0
230
1.0
 70
     8
 71
     3
 72
    10
 73
     6
 74
     0
 42
0.000000001
 43
0.00000001
 40
0.0
 40
0.0
 40
0.0
 40
0.0
 40
0.5
 40
0.5
 40
1.0
 40
1.0
 40
1.0
 40
1.0
 10
13.42583302491976
 20
-0.3607779771400199
 30
0.0
 10
13.28119848611624
 20
-0.2470684384239325
 30
0.0
 10
13.1389819695644
 20
-0.1286929610896442
 30
0.0
 10
12.85949700026644
 20
0.1176060289537076
 30
0.0
 10
12.72091489635854
 20
0.2468251232038266
 30
0.0
 10
12.59031403734294
 20
0.3778295625523753
 30
0.0
  0
SPLINE
  5
C1
330
1F
100
AcDbEntity
  8
0
  6
Continuous
 62
     1
370
    15
100
AcDbSpline
210
0.0
220
0.0
230
1.0
 70
     8
 71
     3
 72
    12
 73
     8
 74
     0
 42
0.000000001
 43
0.00000001
 40
0.0
 40
0.0
 40
0.0
 40
0.0
 40
0.2232807270097282
 40
0.4462154845679568
 40
0.6842816226362266
 40
0.9223001338069486
 40
0.9999999999999999
 40
0.9999999999999999
 40
0.9999999999999999
 40
0.9999999999999999
 10
12.59031402638772
 20
0.3778295673379982
 30
0.0
 10
12.35878303684849
 20
0.4745391406970146
 30
0.0
 10
11.89607981085421
 20
0.6678084376788075
 30
0.0
 10
11.18675497960365
 20
0.897650301649343
 30
0.0
 10
10.46205556211515
 20
1.043435873129928
 30
0.0
 10
9.887971053300042
 20
1.099381169394692
 30
0.0
 10
9.56067689238464
 20
1.068513247949828
 30
0.0
 10
9.480128168166434
 20
1.060916498638146
 30
0.0
  0
SPLINE
  5
C2
330
1F
100
AcDbEntity
  8
0
  6
Continuous
 62
     1
370
    15
100
AcDbSpline
210
0.0
220
0.0
230
1.0
 70
    24
 71
     3
 72
    10
 73
     6
 74
     0
 42
0.000000001
 43
0.00000001
 40
0.0
 40
0.0
 40
0.0
 40
0.0
 40
0.5
 40
0.5
 40
1.0
 40
1.0
 40
1.0
 40
1.0
 10
13.42583302491976
 20
-1.065112556897091
 30
0.0
 10
13.42583302491977
 20
-0.9834633751551359
 30
0.0
 10
13.42583302491976
 20
-0.8802965032737317
 30
0.0
 10
13.42583302491976
 20
-0.6404434548534172
 30
0.0
 10
13.42583302491976
 20
-0.5039650481192673
 30
0.0
 10
13.42583302491976
 20
-0.3607779771400628
 30
0.0
  0
SPLINE
  5
C3
330
1F
100
AcDbEntity
  8
0
  6
Continuous
 62
     1
370
    15
100
AcDbSpline
210
0.0
220
0.0
230
1.0
 70
     8
 71
     3
 72
    12
 73
     8
 74
     0
 42
0.000000001
 43
0.00000001
 40
0.0
 40
0.0
 40
0.0
 40
0.0
 40
0.0684839832171558
 40
0.342041922792156
 40
0.6170380234458447
 40
0.89065917074896
 40
1.0
 40
1.0
 40
1.0
 40
1.0
 10
7.453371302129286
 20
-1.117311824161614
 30
0.0
 10
7.407100061117987
 20
-1.1237322937891
 30
0.0
 10
7.175999247438691
 20
-1.155799204524279
 30
0.0
 10
6.759257628062201
 20
-1.150415925601351
 30
0.0
 10
6.202960677583523
 20
-1.097160775244248
 30
0.0
 10
5.758652098354277
 20
-1.002123640881359
 30
0.0
 10
5.499752395377909
 20
-0.9273976720287305
 30
0.0
 10
5.425833024919777
 20
-0.9060623962019975
 30
0.0
  0
SPLINE
  5
C4
330
1F
100
AcDbEntity
  8
0
  6
Continuous
 62
     1
370
    15
100
AcDbSpline
210
0.0
220
0.0
230
1.0
 70
     8
 71
     3
 72
    15
 73
    11
 74
     0
 42
0.000000001
 43
0.00000001
 40
0.0
 40
0.0
 40
0.0
 40
0.0
 40
0.0206947283450263
 40
0.1646455891013998
 40
0.3085880713858943
 40
0.4525426432597012
 40
0.5965297117111382
 40
0.7405695199016401
 40
0.8703137418240677
 40
1.0
 40
1.0
 40
1.0
 40
1.0
 10
10.56843751871841
 20
-1.008825120579489
 30
0.0
 10
10.53296353490465
 20
-1.01636993241317
 30
0.0
 10
10.25073538165648
 20
-1.076395846660757
 30
0.0
 10
9.72178915573822
 20
-1.092201821365043
 30
0.0
 10
8.981561419015126
 20
-1.04054270202525
 30
0.0
 10
8.241267366483877
 20
-0.8760352767259878
 30
0.0
 10
7.500777562455518
 20
-0.6267546182975291
 30
0.0
 10
6.784633942574564
 20
-0.3251139028353219
 30
0.0
 10
6.092885848195467
 20
-0.0050900868862583
 30
0.0
 10
5.648150844091393
 20
0.1968799283625913
 30
0.0
 10
5.425833024919767
 20
0.2978423732203761
 30
0.0
  0
SPLINE
  5
C5
330
1F
100
AcDbEntity
  8
0
  6
Continuous
 62
     4
370
    15
100
AcDbSpline
210
0.0
220
0.0
230
1.0
 70
    24
 71
     3
 72
    10
 73
     6
 74
     0
 42
0.000000001
 43
0.00000001
 40
0.0
 40
0.0
 40
0.0
 40
0.0
 40
0.5
 40
0.5
 40
1.0
 40
1.0
 40
1.0
 40
1.0
 10
5.425833024919552
 20
0.2978423732204711
 30
0.0
 10
5.425833024919552
 20
0.0923929132489779
 30
0.0
 10
5.425833024919552
 20
-0.1305301707523435
 30
0.0
 10
5.425833024919552
 20
-0.551354544202683
 30
0.0
 10
5.425833024919552
 20
-0.7474444410365757
 30
0.0
 10
5.425833024919552
 20
-0.9060623962019293
 30
0.0
1001
PE_URL
1000

  0
SPLINE
  5
C6
330
1F
100
AcDbEntity
  8
0
  6
Continuous
 62
     4
370
    15
100
AcDbSpline
210
0.0
220
0.0
230
1.0
 70
    24
 71
     3
 72
    13
 73
     9
 74
     0
 42
0.000000001
 43
0.00000001
 40
0.0
 40
0.0
 40
0.0
 40
0.0
 40
0.0850591901718155
 40
0.2709056295269833
 40
0.4515144022382117
 40
0.637360841593367
 40
0.8161429114893337
 40
1.0
 40
1.0
 40
1.0
 40
1.0
 10
5.42583302491926
 20
0.9059700168746145
 30
0.0
 10
5.425833024919458
 20
0.9061500193455841
 30
0.0
 10
5.42583302492009
 20
0.9067233105163083
 30
0.0
 10
5.42583302491966
 20
0.86267543995679
 30
0.0
 10
5.425833024919795
 20
0.776653936019315
 30
0.0
 10
5.425833024919759
 20
0.6509266073352173
 30
0.0
 10
5.42583302491977
 20
0.4923901009620884
 30
0.0
 10
5.425833024919767
 20
0.363293836063395
 30
0.0
 10
5.425833024919767
 20
0.2978423732203757
 30
0.0
1001
PE_URL
1000

  0
LINE
  5
C7
330
1F
100
AcDbEntity
  8
0
  6
Continuous
 62
     1
370
    15
100
AcDbLine
 10
13.42583302491976
 20
0.9450000000000005
 30
0.0
 11
12.92121932084245
 21
0.9129780451892562
 31
0.0
  0
SPLINE
  5
C8
330
1F
100
AcDbEntity
  8
0
  6
Continuous
 62
     1
370
    15
100
AcDbSpline
210
0.0
220
0.0
230
1.0
 70
     8
 71
     3
 72
     8
 73
     4
 74
     0
 42
0.000000001
 43
0.00000001
 40
0.0
 40
0.0
 40
0.0
 40
0.0
 40
1.0
 40
1.0
 40
1.0
 40
1.0
 10
13.42583302491976
 20
0.9450000000000005
 30
0.0
 10
13.08983254304002
 20
0.8536763444107748
 30
0.0
 10
12.75709424597493
 20
0.7389262775329033
 30
0.0
 10
12.43586148740932
 20
0.5816517252271399
 30
0.0
  0
LINE
  5
C9
330
1F
100
AcDbEntity
  8
0
  6
Continuous
 62
     1
370
    15
100
AcDbLine
 10
13.42583302491976
 20
0.0000000000000006
 30
0.0
 11
13.42583302491976
 21
0.9450000000000005
 31
0.0
  0
SPLINE
  5
CA
330
1F
100
AcDbEntity
  8
0
  6
Continuous
 62
     1
370
    15
100
AcDbSpline
210
0.0
220
0.0
230
1.0
 70
     8
 71
     3
 72
    12
 73
     8
 74
     0
 42
0.000000001
 43
0.00000001
 40
0.0
 40
0.0
 40
0.0
 40
0.0
 40
0.0426580579599236
 40
0.2817498078469598
 40
0.5210721539103453
 40
0.7606509374956765
 40
1.0
 40
1.0
 40
1.0
 40
1.0
 10
8.368970698420856
 20
-1.061595465122208
 30
0.0
 10
8.327133628566367
 20
-1.078473878783528
 30
0.0
 10
8.050806318883009
 20
-1.189953163900213
 30
0.0
 10
7.539703547818005
 20
-1.303273377893169
 30
0.0
 10
6.835345421841694
 20
-1.370710213542083
 30
0.0
 10
6.130468133231462
 20
-1.313922700535463
 30
0.0
 10
5.660636274981362
 20
-1.180584129653295
 30
0.0
 10
5.425833024919816
 20
-1.113946822599866
 30
0.0
  0
SPLINE
  5
CB
330
1F
100
AcDbEntity
  8
0
  6
Continuous
 62
     4
370
    15
100
AcDbSpline
210
0.0
220
0.0
230
1.0
 70
    24
 71
     3
 72
     8
 73
     4
 74
     0
 42
0.000000001
 43
0.00000001
 40
0.0
 40
0.0
 40
0.0
 40
0.0
 40
1.0
 40
1.0
 40
1.0
 40
1.0
 10
5.425833024919767
 20
-0.906062396201994
 30
0.0
 10
5.425833024919767
 20
-0.9734260217705455
 30
0.0
 10
5.425833024919767
 20
-1.043157621156892
 30
0.0
 10
5.425833024919767
 20
-1.113946822599489
 30
0.0
1001
PE_URL
1000

  0
SPLINE
  5
CC
330
1F
100
AcDbEntity
  8
0
  6
Continuous
 62
     1
370
    15
100
AcDbSpline
210
0.0
220
0.0
230
1.0
 70
     8
 71
     3
 72
    11
 73
     7
 74
     0
 42
0.000000001
 43
0.00000001
 40
0.0
 40
0.0
 40
0.0
 40
0.0
 40
0.2830517111358054
 40
0.5666830264389638
 40
0.8520872873679485
 40
0.9999999999999999
 40
0.9999999999999999
 40
0.9999999999999999
 40
0.9999999999999999
 10
5.425833024919767
 20
-1.281247644596197
 30
0.0
 10
5.496615467762128
 20
-1.29310838510914
 30
0.0
 10
5.638325294449618
 20
-1.31685415333895
 30
0.0
 10
5.851666980522614
 20
-1.338298362102209
 30
0.0
 10
6.03063901742504
 20
-1.349599772637834
 30
0.0
 10
6.138824886079167
 20
-1.34883450258848
 30
0.0
 10
6.175754123283008
 20
-1.348573277721229
 30
0.0
  0
SPLINE
  5
CD
330
1F
100
AcDbEntity
  8
0
  6
Continuous
 62
     1
370
    15
100
AcDbSpline
210
0.0
220
0.0
230
1.0
 70
     8
 71
     3
 72
    14
 73
    10
 74
     0
 42
0.000000001
 43
0.00000001
 40
0.0
 40
0.0
 40
0.0
 40
0.0
 40
0.0975077275457844
 40
0.2080000519279978
 40
0.4300102682482698
 40
0.5415835709595453
 40
0.6556078904177027
 40
0.8847850070926487
 40
1.0
 40
1.0
 40
1.0
 40
1.0
 10
11.5684241255988
 20
0.905092756779674
 30
0.0
 10
11.62879129293766
 20
0.9305230528838246
 30
0.0
 10
11.75756440925641
 20
0.9847700653344434
 30
0.0
 10
12.02312077352914
 20
1.085697635046713
 30
0.0
 10
12.29897668811907
 20
1.172765805103935
 30
0.0
 10
12.57592059763541
 20
1.242595970008264
 30
0.0
 10
12.85685688288045
 20
1.300029070086056
 30
0.0
 10
13.14169148020595
 20
1.337465970337834
 30
0.0
 10
13.35460399934216
 20
1.34600297877501
 30
0.0
 10
13.42583302491977
 20
1.348859000557077
 30
0.0
  0
SPLINE
  5
CE
330
1F
100
AcDbEntity
  8
0
  6
Continuous
 62
     1
370
    15
100
AcDbSpline
210
0.0
220
0.0
230
1.0
 70
    24
 71
     3
 72
    10
 73
     6
 74
     0
 42
0.000000001
 43
0.00000001
 40
0.0
 40
0.0
 40
0.0
 40
0.0
 40
0.5
 40
0.5
 40
1.0
 40
1.0
 40
1.0
 40
1.0
 10
13.42583302491976
 20
0.9450000000000006
 30
0.0
 10
13.42583302491976
 20
1.002283546689874
 30
0.0
 10
13.42583302491976
 20
1.068852332970609
 30
0.0
 10
13.42583302491976
 20
1.208513467297156
 30
0.0
 10
13.42583302491977
 20
1.281249138331989
 30
0.0
 10
13.42583302491977
 20
1.348859000560021
 30
0.0
  0
LINE
  5
CF
330
1F
100
AcDbEntity
  8
중심선
100
AcDbLine
 10
-39.57416697508022
 20
-0.0000000000000044
 30
0.0
 11
14.92583302491976
 21
0.0000000000000007
 31
0.0
  0
CIRCLE
  5
D0
330
1F
100
AcDbEntity
  8
외형선
100
AcDbCircle
 10
0.0000000000000089
 20
-0.0000000000000035
 30
0.0
 40
3.000000000000004
  0
INSERT
  5
D1
330
1F
100
AcDbEntity
  8
0
  6
Continuous
 62
     7
100
AcDbBlockReference
 66
     1
  2
블럭10
 10
-28.51244041459184
 20
-52.04717430164393
 30
0.0
  0
ATTRIB
  5
D2
330
D1
100
AcDbEntity
  8
FORMAT
 62
     2
100
AcDbText
 10
-44.51802794586013
 20
-49.97180738881174
 30
0.0
 40
4.233333333333333
  1
SEME350274SE [ 2 FLUTE ]
 41
0.75
  7
SLDTEXTSTYLE0
 11
-44.51802794586013
 21
-52.08847405547841
 31
0.0
100
AcDbAttribute
  2
AUTOATTR0
 70
     0
 74
     1
  0
SEQEND
  5
D3
330
D1
100
AcDbEntity
  8
0
  6
Continuous
 62
     7
  0
HATCH
  5
D4
330
1F
100
AcDbEntity
  8
중심선
100
AcDbHatch
 10
0.0
 20
0.0
 30
0.0
210
0.0
220
0.0
230
1.0
  2
SOLID
 70
     1
 71
     0
 91
        1
 92
        0
 93
        4
 72
     1
 10
-22.79753111021099
 20
-35.8
 11
-26.24380635404827
 21
-35.8
 72
     1
 10
-26.24380635404827
 20
-35.8
 11
-28.37203621325229
 21
-38.33632558057259
 72
     1
 10
-28.37203621325229
 20
-38.33632558057259
 11
-24.92572788430186
 21
-38.3362861512701
 72
     1
 10
-24.92572788430186
 20
-38.3362861512701
 11
-22.79753111021099
 21
-35.8
 97
        0
 75
     0
 76
     1
 98
        1
 10
-4.574166975080228
 20
-0.0000000000000009
  0
HATCH
  5
D5
330
1F
100
AcDbEntity
  8
중심선
100
AcDbHatch
 10
0.0
 20
0.0
 30
0.0
210
0.0
220
0.0
230
1.0
  2
SOLID
 70
     1
 71
     0
 91
        1
 92
        0
 93
        4
 72
     1
 10
-17.78476711917504
 20
-35.8
 11
-21.23104236301232
 21
-35.8
 72
     1
 10
-21.23104236301232
 20
-35.8
 11
-25.76218037136971
 21
-41.20000000000002
 72
     1
 10
-25.76218037136971
 20
-41.20000000000002
 11
-22.31590512753242
 21
-41.20000000000002
 72
     1
 10
-22.31590512753242
 20
-41.20000000000002
 11
-17.78476711917504
 21
-35.8
 97
        0
 75
     0
 76
     1
 98
        1
 10
-4.574166975080228
 20
-0.0000000000000009
  0
HATCH
  5
D6
330
1F
100
AcDbEntity
  8
중심선
100
AcDbHatch
 10
0.0
 20
0.0
 30
0.0
210
0.0
220
0.0
230
1.0
  2
SOLID
 70
     1
 71
     0
 91
        1
 92
        0
 93
        4
 72
     1
 10
-12.77200312813914
 20
-35.80000000000003
 11
-16.21827837197626
 21
-35.8
 72
     1
 10
-16.21827837197626
 20
-35.8
 11
-23.2667152738655
 21
-44.20000000000002
 72
     1
 10
-23.2667152738655
 20
-44.20000000000002
 11
-19.82044003002822
 21
-44.20000000000002
 72
     1
 10
-19.82044003002822
 20
-44.20000000000002
 11
-12.77200312813914
 21
-35.80000000000003
 97
        0
 75
     0
 76
     1
 98
        1
 10
-4.574166975080228
 20
-0.0000000000000009
  0
HATCH
  5
D7
330
1F
100
AcDbEntity
  8
중심선
100
AcDbHatch
 10
0.0
 20
0.0
 30
0.0
210
0.0
220
0.0
230
1.0
  2
SOLID
 70
     1
 71
     0
 91
        1
 92
        0
 93
        6
 72
     3
 10
-7.972112697126942
 20
-40.00000000005127
 11
3.960054785062284
 21
1.540882976769353E-10
 40
0.3939339440162627
 50
17.09539180608437
 51
320.0019657685081
 73
     0
 72
     1
 10
-6.289113041426346
 20
-38.5878940046383
 11
-3.983811167725309
 21
-36.65356729459038
 72
     3
 10
-7.972112697179789
 20
-40.00000000000015
 11
6.600054785286829
 21
-1.278976924368180E-13
 40
0.636358354079598
 50
39.9987384933741
 51
368.4976242363725
 73
     1
 72
     1
 10
-1.546780205279179
 20
-39.03999999993002
 11
-9.292045390343866
 21
-39.03999999992999
 72
     1
 10
-9.292045390343866
 20
-39.03999999992999
 11
-9.2920704347898
 21
-40.95999999992991
 72
     1
 10
-9.2920704347898
 20
-40.95999999992991
 11
-4.850690665317763
 21
-40.95999999992988
 97
        0
 75
     0
 76
     1
 98
        1
 10
-4.574166975080228
 20
-0.0000000000000009
  0
DIMENSION
  5
D8
330
1F
100
AcDbEntity
  8
치수문자_일반주서
100
AcDbDimension
  2
_D
 10
5.425833024919767
 20
13.5994928891378
 30
0.0
 11
9.425833024919763
 21
13.5994928891378
 31
0.0
 70
   160
  1
<>
 71
     2
 42
8.000000000000002
  3
SLDDIMSTYLE0
100
AcDbAlignedDimension
 13
13.42583302491977
 23
1.348859000560021
 33
0.0
 14
5.425833024919767
 24
0.9114764904656409
 34
0.0
100
AcDbRotatedDimension
  0
DIMENSION
  5
E5
330
1F
100
AcDbEntity
  8
치수문자_일반주서
100
AcDbDimension
  2
_D_1
 10
-36.57416697508023
 20
23.72915911661226
 30
0.0
 11
-11.57416697508023
 21
23.72915911661226
 31
0.0
 70
   160
  1
<>
 71
     2
 42
50.0
  3
SLDDIMSTYLE1
100
AcDbAlignedDimension
 13
13.42583302491976
 23
0.9450000000000005
 33
0.0
 14
-36.57416697508023
 24
1.569999999999995
 34
0.0
100
AcDbRotatedDimension
  0
DIMENSION
  5
F0
330
1F
100
AcDbEntity
  8
치수문자_일반주서
100
AcDbDimension
  2
_D_2
 10
28.99202333716607
 20
-1.348859000559962
 30
0.0
 11
28.99202333716601
 21
13.85910900056008
 31
0.0
 70
   160
  1
%%c<>
 71
     2
 42
2.697718001120041
 52
-270.0
  3
SLDDIMSTYLE2
100
AcDbAlignedDimension
 13
13.42583302491977
 23
1.348859000560021
 33
0.0
 14
13.42583302491977
 24
-1.34885900056002
 34
0.0
 50
90.0000000000002
100
AcDbRotatedDimension
  0
DIMENSION
  5
FE
330
1F
100
AcDbEntity
  8
치수문자_일반주서
100
AcDbDimension
  2
_D_3
 10
-48.56372642046876
 20
-2.000000000000049
 30
0.0
 11
-48.56372642046877
 21
-0.0000000000000038
 31
0.0
 70
   160
  1
%%c<>
 71
     2
 42
3.999999999999998
 52
-270.0
  3
SLDDIMSTYLE0
100
AcDbAlignedDimension
 13
-36.14416697508022
 23
1.999999999999996
 33
0.0
 14
-36.14416697508022
 24
-2.000000000000002
 34
0.0
 50
90.0000000000002
100
AcDbRotatedDimension
  0
INSERT
  5
111
330
1F
100
AcDbEntity
  8
외형선
100
AcDbBlockReference
  2
SW_DOWELSYMBOL_0
 10
0.0000000000000089
 20
-0.0000000000000035
 30
0.0
  0
LINE
  5
141
330
1F
100
AcDbEntity
  8
0
  6
Continuous
 62
     4
370
    15
100
AcDbLine
 10
0.0
 20
2.0
 30
0.0
 11
0.0
 21
-2.0
 31
0.0
  0
ENDSEC
  0
SECTION
  2
OBJECTS
  0
DICTIONARY
  5
C
330
0
100
AcDbDictionary
281
     1
  3
ACAD_DETAILVIEWSTYLE
350
139
  3
ACAD_GROUP
350
D
  3
ACAD_LAYOUT
350
1A
  3
ACAD_MLINESTYLE
350
17
  3
ACAD_PLOTSETTINGS
350
19
  3
ACAD_PLOTSTYLENAME
350
E
  3
ACAD_SCALELIST
350
47
  3
ACAD_SECTIONVIEWSTYLE
350
13A
  3
AcDbVariableDictionary
350
134
  3
APPDATA
350
133
  3
DWGPROPS
350
147
  0
DICTIONARY
  5
139
102
{ACAD_REACTORS
330
C
102
}
330
C
100
AcDbDictionary
281
     1
  0
DICTIONARY
  5
D
102
{ACAD_REACTORS
330
C
102
}
330
C
100
AcDbDictionary
281
     1
  0
DICTIONARY
  5
1A
102
{ACAD_REACTORS
330
C
102
}
330
C
100
AcDbDictionary
281
     1
  3
Layout1
350
1E
  3
Layout2
350
26
  3
Model
350
22
  0
DICTIONARY
  5
17
102
{ACAD_REACTORS
330
C
102
}
330
C
100
AcDbDictionary
281
     1
  3
Standard
350
18
  0
DICTIONARY
  5
19
102
{ACAD_REACTORS
330
C
102
}
330
C
100
AcDbDictionary
281
     1
  0
ACDBDICTIONARYWDFLT
  5
E
102
{ACAD_REACTORS
330
C
102
}
330
C
100
AcDbDictionary
281
     1
  3
Normal
350
F
100
AcDbDictionaryWithDefault
340
F
  0
DICTIONARY
  5
47
102
{ACAD_REACTORS
330
C
102
}
330
C
100
AcDbDictionary
281
     1
  3
A0
350
48
  3
A1
350
49
  3
A2
350
4A
  3
A3
350
4B
  3
A4
350
4C
  3
A5
350
4D
  3
A6
350
4E
  3
A7
350
4F
  3
A8
350
50
  3
A9
350
51
  3
B0
350
52
  3
B1
350
53
  3
B2
350
54
  3
B3
350
55
  3
B4
350
56
  3
B5
350
57
  3
B6
350
58
  3
B7
350
59
  3
B8
350
5A
  3
B9
350
5B
  3
C0
350
5C
  3
C1
350
5D
  3
C2
350
5E
  3
C3
350
5F
  3
C4
350
60
  3
C5
350
61
  3
C6
350
62
  3
C7
350
63
  3
C8
350
64
  3
C9
350
65
  3
D0
350
66
  3
D1
350
67
  3
D2
350
68
  0
DICTIONARY
  5
13A
102
{ACAD_REACTORS
330
C
102
}
330
C
100
AcDbDictionary
281
     1
  0
DICTIONARY
  5
134
102
{ACAD_REACTORS
330
C
102
}
330
C
100
AcDbDictionary
281
     1
  0
DICTIONARY
  5
133
102
{ACAD_REACTORS
330
C
102
}
330
C
100
AcDbDictionary
281
     1
  0
XRECORD
  5
147
102
{ACAD_REACTORS
330
C
102
}
330
C
100
AcDbXrecord
280
     1
  1
DWGPROPS COOKIE
  2

  3

  4

  6

  7

  8
12011908
  9

300
=
301
=
302
=
303
=
304
=
305
=
306
=
307
=
308
=
309
=
 40
0.0
 41
2458250.112797002
 42
2458264.226284977
  1

 90
        0
  0
LAYOUT
  5
1E
102
{ACAD_REACTORS
330
1A
102
}
330
1A
100
AcDbPlotSettings
  1

  2
none_device
  4

  6

 40
0.0
 41
0.0
 42
0.0
 43
0.0
 44
0.0
 45
0.0
 46
0.0
 47
0.0
 48
0.0
 49
0.0
140
0.0
141
0.0
142
1.0
143
1.0
 70
   688
 72
     1
 73
     0
 74
     5
  7

 75
    16
147
1.0
148
0.0
149
0.0
100
AcDbLayout
  1
Layout1
 70
     1
 71
     1
 10
0.0
 20
0.0
 11
420.0
 21
297.0
 12
0.0
 22
0.0
 32
0.0
 14
1.000000000000000E+20
 24
1.000000000000000E+20
 34
1.000000000000000E+20
 15
-1.000000000000000E+20
 25
-1.000000000000000E+20
 35
-1.000000000000000E+20
146
0.0
 13
0.0
 23
0.0
 33
0.0
 16
1.0
 26
0.0
 36
0.0
 17
0.0
 27
1.0
 37
0.0
 76
     0
330
1B
  0
LAYOUT
  5
26
102
{ACAD_REACTORS
330
1A
102
}
330
1A
100
AcDbPlotSettings
  1

  2
none_device
  4

  6

 40
0.0
 41
0.0
 42
0.0
 43
0.0
 44
0.0
 45
0.0
 46
0.0
 47
0.0
 48
0.0
 49
0.0
140
0.0
141
0.0
142
1.0
143
1.0
 70
   688
 72
     1
 73
     0
 74
     5
  7

 75
    16
147
1.0
148
0.0
149
0.0
100
AcDbLayout
  1
Layout2
 70
     1
 71
     2
 10
0.0
 20
0.0
 11
0.0
 21
0.0
 12
0.0
 22
0.0
 32
0.0
 14
0.0
 24
0.0
 34
0.0
 15
0.0
 25
0.0
 35
0.0
146
0.0
 13
0.0
 23
0.0
 33
0.0
 16
1.0
 26
0.0
 36
0.0
 17
0.0
 27
1.0
 37
0.0
 76
     0
330
23
  0
LAYOUT
  5
22
102
{ACAD_REACTORS
330
1A
102
}
330
1A
100
AcDbPlotSettings
  1

  2
none_device
  4
ANSI_A_(11.00_x_8.50_Inches)
  6

 40
6.35
 41
19.05
 42
6.35000508
 43
19.05000254
 44
279.4
 45
215.9
 46
152.2792701481913
 47
119.3204987112158
 48
0.0
 49
0.0
140
0.0
141
0.0
142
0.1065774441823765
143
1.0
 70
  1696
 72
     0
 73
     0
 74
     0
  7

 75
     0
147
0.0235690232323232
148
0.0
149
0.0
100
AcDbLayout
  1
Model
 70
     1
 71
     0
 10
0.0
 20
0.0
 11
420.0
 21
297.0
 12
0.0
 22
0.0
 32
0.0
 14
-52.93872642046878
 24
-49.97180738881174
 34
0.0
 15
29.54235667049942
 25
28.10415911661227
 35
0.0
146
0.0
 13
0.0
 23
0.0
 33
0.0
 16
1.0
 26
0.0
 36
0.0
 17
0.0
 27
1.0
 37
0.0
 76
     0
330
1F
331
29
  0
MLINESTYLE
  5
18
102
{ACAD_REACTORS
330
17
102
}
330
17
100
AcDbMlineStyle
  2
Standard
 70
     0
  3

 62
   256
 51
90.0
 52
90.0
 71
     2
 49
0.5
 62
   256
  6
BYLAYER
 49
-0.5
 62
   256
  6
BYLAYER
  0
ACDBPLACEHOLDER
  5
F
102
{ACAD_REACTORS
330
E
102
}
330
E
  0
SCALE
  5
48
102
{ACAD_REACTORS
330
47
102
}
330
47
100
AcDbScale
 70
     0
300
1:1
140
1.0
141
1.0
290
     1
  0
SCALE
  5
49
102
{ACAD_REACTORS
330
47
102
}
330
47
100
AcDbScale
 70
     0
300
1:2
140
1.0
141
2.0
290
     0
  0
SCALE
  5
4A
102
{ACAD_REACTORS
330
47
102
}
330
47
100
AcDbScale
 70
     0
300
1:4
140
1.0
141
4.0
290
     0
  0
SCALE
  5
4B
102
{ACAD_REACTORS
330
47
102
}
330
47
100
AcDbScale
 70
     0
300
1:5
140
1.0
141
5.0
290
     0
  0
SCALE
  5
4C
102
{ACAD_REACTORS
330
47
102
}
330
47
100
AcDbScale
 70
     0
300
1:8
140
1.0
141
8.0
290
     0
  0
SCALE
  5
4D
102
{ACAD_REACTORS
330
47
102
}
330
47
100
AcDbScale
 70
     0
300
1:10
140
1.0
141
10.0
290
     0
  0
SCALE
  5
4E
102
{ACAD_REACTORS
330
47
102
}
330
47
100
AcDbScale
 70
     0
300
1:16
140
1.0
141
16.0
290
     0
  0
SCALE
  5
4F
102
{ACAD_REACTORS
330
47
102
}
330
47
100
AcDbScale
 70
     0
300
1:20
140
1.0
141
20.0
290
     0
  0
SCALE
  5
50
102
{ACAD_REACTORS
330
47
102
}
330
47
100
AcDbScale
 70
     0
300
1:30
140
1.0
141
30.0
290
     0
  0
SCALE
  5
51
102
{ACAD_REACTORS
330
47
102
}
330
47
100
AcDbScale
 70
     0
300
1:40
140
1.0
141
40.0
290
     0
  0
SCALE
  5
52
102
{ACAD_REACTORS
330
47
102
}
330
47
100
AcDbScale
 70
     0
300
1:50
140
1.0
141
50.0
290
     0
  0
SCALE
  5
53
102
{ACAD_REACTORS
330
47
102
}
330
47
100
AcDbScale
 70
     0
300
1:100
140
1.0
141
100.0
290
     0
  0
SCALE
  5
54
102
{ACAD_REACTORS
330
47
102
}
330
47
100
AcDbScale
 70
     0
300
2:1
140
2.0
141
1.0
290
     0
  0
SCALE
  5
55
102
{ACAD_REACTORS
330
47
102
}
330
47
100
AcDbScale
 70
     0
300
4:1
140
4.0
141
1.0
290
     0
  0
SCALE
  5
56
102
{ACAD_REACTORS
330
47
102
}
330
47
100
AcDbScale
 70
     0
300
8:1
140
8.0
141
1.0
290
     0
  0
SCALE
  5
57
102
{ACAD_REACTORS
330
47
102
}
330
47
100
AcDbScale
 70
     0
300
10:1
140
10.0
141
1.0
290
     0
  0
SCALE
  5
58
102
{ACAD_REACTORS
330
47
102
}
330
47
100
AcDbScale
 70
     0
300
100:1
140
100.0
141
1.0
290
     0
  0
SCALE
  5
59
102
{ACAD_REACTORS
330
47
102
}
330
47
100
AcDbScale
 70
     0
300
1/128" = 1'-0"
140
0.0078125
141
12.0
290
     0
  0
SCALE
  5
5A
102
{ACAD_REACTORS
330
47
102
}
330
47
100
AcDbScale
 70
     0
300
1/64" = 1'-0"
140
0.015625
141
12.0
290
     0
  0
SCALE
  5
5B
102
{ACAD_REACTORS
330
47
102
}
330
47
100
AcDbScale
 70
     0
300
1/32" = 1'-0"
140
0.03125
141
12.0
290
     0
  0
SCALE
  5
5C
102
{ACAD_REACTORS
330
47
102
}
330
47
100
AcDbScale
 70
     0
300
1/16" = 1'-0"
140
0.0625
141
12.0
290
     0
  0
SCALE
  5
5D
102
{ACAD_REACTORS
330
47
102
}
330
47
100
AcDbScale
 70
     0
300
3/32" = 1'-0"
140
0.09375
141
12.0
290
     0
  0
SCALE
  5
5E
102
{ACAD_REACTORS
330
47
102
}
330
47
100
AcDbScale
 70
     0
300
1/8" = 1'-0"
140
0.125
141
12.0
290
     0
  0
SCALE
  5
5F
102
{ACAD_REACTORS
330
47
102
}
330
47
100
AcDbScale
 70
     0
300
3/16" = 1'-0"
140
0.1875
141
12.0
290
     0
  0
SCALE
  5
60
102
{ACAD_REACTORS
330
47
102
}
330
47
100
AcDbScale
 70
     0
300
1/4" = 1'-0"
140
0.25
141
12.0
290
     0
  0
SCALE
  5
61
102
{ACAD_REACTORS
330
47
102
}
330
47
100
AcDbScale
 70
     0
300
3/8" = 1'-0"
140
0.375
141
12.0
290
     0
  0
SCALE
  5
62
102
{ACAD_REACTORS
330
47
102
}
330
47
100
AcDbScale
 70
     0
300
1/2" = 1'-0"
140
0.5
141
12.0
290
     0
  0
SCALE
  5
63
102
{ACAD_REACTORS
330
47
102
}
330
47
100
AcDbScale
 70
     0
300
3/4" = 1'-0"
140
0.75
141
12.0
290
     0
  0
SCALE
  5
64
102
{ACAD_REACTORS
330
47
102
}
330
47
100
AcDbScale
 70
     0
300
1" = 1'-0"
140
1.0
141
12.0
290
     0
  0
SCALE
  5
65
102
{ACAD_REACTORS
330
47
102
}
330
47
100
AcDbScale
 70
     0
300
1-1/2" = 1'-0"
140
1.5
141
12.0
290
     0
  0
SCALE
  5
66
102
{ACAD_REACTORS
330
47
102
}
330
47
100
AcDbScale
 70
     0
300
3" = 1'-0"
140
3.0
141
12.0
290
     0
  0
SCALE
  5
67
102
{ACAD_REACTORS
330
47
102
}
330
47
100
AcDbScale
 70
     0
300
6" = 1'-0"
140
6.0
141
12.0
290
     0
  0
SCALE
  5
68
102
{ACAD_REACTORS
330
47
102
}
330
47
100
AcDbScale
 70
     0
300
1'-0" = 1'-0"
140
12.0
141
12.0
290
     0
  0
ENDSEC
  0
EOF
