  0
SECTION
  2
HEADER
  9
$ACADVER
  1
AC1015
  9
$ACADMAINTVER
 70
     6
  9
$DWGCODEPAGE
  3
ANSI_949
  9
$INSBASE
 10
0.0
 20
0.0
 30
0.0
  9
$EXTMIN
 10
-52.75212388009034
 20
-49.97180738881174
 30
0.0
  9
$EXTMAX
 10
29.98295921087784
 20
28.06915911661226
 30
0.0
  9
$LIMMIN
 10
0.0
 20
0.0
  9
$LIMMAX
 10
420.0
 20
297.0
  9
$ORTHOMODE
 70
     0
  9
$REGENMODE
 70
     1
  9
$FILLMODE
 70
     1
  9
$QTEXTMODE
 70
     0
  9
$MIRRTEXT
 70
     1
  9
$LTSCALE
 40
1.0
  9
$ATTMODE
 70
     1
  9
$TEXTSIZE
 40
3.5
  9
$TRACEWID
 40
1.0
  9
$TEXTSTYLE
  7
Standard
  9
$CLAYER
  8
0
  9
$CELTYPE
  6
ByLayer
  9
$CECOLOR
 62
   256
  9
$CELTSCALE
 40
1.0
  9
$DISPSILH
 70
     0
  9
$DIMSCALE
 40
1.0
  9
$DIMASZ
 40
3.302
  9
$DIMEXO
 40
1.0
  9
$DIMDLI
 40
3.75
  9
$DIMRND
 40
0.0
  9
$DIMDLE
 40
0.0
  9
$DIMEXE
 40
1.0
  9
$DIMTP
 40
0.0
  9
$DIMTM
 40
0.0
  9
$DIMTXT
 40
3.5
  9
$DIMCEN
 40
2.5
  9
$DIMTSZ
 40
0.0
  9
$DIMTOL
 70
     0
  9
$DIMLIM
 70
     0
  9
$DIMTIH
 70
     1
  9
$DIMTOH
 70
     1
  9
$DIMSE1
 70
     0
  9
$DIMSE2
 70
     0
  9
$DIMTAD
 70
     1
  9
$DIMZIN
 70
     0
  9
$DIMBLK
  1

  9
$DIMASO
 70
     1
  9
$DIMSHO
 70
     1
  9
$DIMPOST
  1

  9
$DIMAPOST
  1

  9
$DIMALT
 70
     0
  9
$DIMALTD
 70
     3
  9
$DIMALTF
 40
0.0393700787401575
  9
$DIMLFAC
 40
1.0
  9
$DIMTOFL
 70
     1
  9
$DIMTVP
 40
0.0
  9
$DIMTIX
 70
     0
  9
$DIMSOXD
 70
     0
  9
$DIMSAH
 70
     0
  9
$DIMBLK1
  1

  9
$DIMBLK2
  1

  9
$DIMSTYLE
  2
ISO-25
  9
$DIMCLRD
 70
     0
  9
$DIMCLRE
 70
     0
  9
$DIMCLRT
 70
     0
  9
$DIMTFAC
 40
1.0
  9
$DIMGAP
 40
1.524
  9
$DIMJUST
 70
     0
  9
$DIMSD1
 70
     0
  9
$DIMSD2
 70
     0
  9
$DIMTOLJ
 70
     0
  9
$DIMTZIN
 70
     0
  9
$DIMALTZ
 70
     0
  9
$DIMALTTZ
 70
     0
  9
$DIMUPT
 70
     0
  9
$DIMDEC
 70
     2
  9
$DIMTDEC
 70
     2
  9
$DIMALTU
 70
     2
  9
$DIMALTTD
 70
     3
  9
$DIMTXSTY
  7
Standard
  9
$DIMAUNIT
 70
     0
  9
$DIMADEC
 70
     2
  9
$DIMALTRND
 40
0.0
  9
$DIMAZIN
 70
     0
  9
$DIMDSEP
 70
    44
  9
$DIMATFIT
 70
     3
  9
$DIMFRAC
 70
     0
  9
$DIMLDRBLK
  1

  9
$DIMLUNIT
 70
     2
  9
$DIMLWD
 70
    -2
  9
$DIMLWE
 70
    -2
  9
$DIMTMOVE
 70
     0
  9
$LUNITS
 70
     2
  9
$LUPREC
 70
     2
  9
$SKETCHINC
 40
1.0
  9
$FILLETRAD
 40
10.0
  9
$AUNITS
 70
     0
  9
$AUPREC
 70
     2
  9
$MENU
  1
.
  9
$ELEVATION
 40
0.0
  9
$PELEVATION
 40
0.0
  9
$THICKNESS
 40
0.0
  9
$LIMCHECK
 70
     0
  9
$CHAMFERA
 40
0.0
  9
$CHAMFERB
 40
0.0
  9
$CHAMFERC
 40
0.0
  9
$CHAMFERD
 40
0.0
  9
$SKPOLY
 70
     0
  9
$TDCREATE
 40
2458250.487645671
  9
$TDUCREATE
 40
2458250.112645671
  9
$TDUPDATE
 40
2458264.55917191
  9
$TDUUPDATE
 40
2458264.18417191
  9
$TDINDWG
 40
0.0503100694
  9
$TDUSRTIMER
 40
0.0503100579
  9
$USRTIMER
 70
     1
  9
$ANGBASE
 50
0.0
  9
$ANGDIR
 70
     0
  9
$PDMODE
 70
     0
  9
$PDSIZE
 40
-1.0
  9
$PLINEWID
 40
0.0
  9
$SPLFRAME
 70
     0
  9
$SPLINETYPE
 70
     6
  9
$SPLINESEGS
 70
     8
  9
$HANDSEED
  5
145
  9
$SURFTAB1
 70
     6
  9
$SURFTAB2
 70
     6
  9
$SURFTYPE
 70
     6
  9
$SURFU
 70
     6
  9
$SURFV
 70
     6
  9
$UCSBASE
  2

  9
$UCSNAME
  2

  9
$UCSORG
 10
0.0
 20
0.0
 30
0.0
  9
$UCSXDIR
 10
1.0
 20
0.0
 30
0.0
  9
$UCSYDIR
 10
0.0
 20
1.0
 30
0.0
  9
$UCSORTHOREF
  2

  9
$UCSORTHOVIEW
 70
     0
  9
$UCSORGTOP
 10
0.0
 20
0.0
 30
0.0
  9
$UCSORGBOTTOM
 10
0.0
 20
0.0
 30
0.0
  9
$UCSORGLEFT
 10
0.0
 20
0.0
 30
0.0
  9
$UCSORGRIGHT
 10
0.0
 20
0.0
 30
0.0
  9
$UCSORGFRONT
 10
0.0
 20
0.0
 30
0.0
  9
$UCSORGBACK
 10
0.0
 20
0.0
 30
0.0
  9
$PUCSBASE
  2

  9
$PUCSNAME
  2

  9
$PUCSORG
 10
0.0
 20
0.0
 30
0.0
  9
$PUCSXDIR
 10
1.0
 20
0.0
 30
0.0
  9
$PUCSYDIR
 10
0.0
 20
1.0
 30
0.0
  9
$PUCSORTHOREF
  2

  9
$PUCSORTHOVIEW
 70
     0
  9
$PUCSORGTOP
 10
0.0
 20
0.0
 30
0.0
  9
$PUCSORGBOTTOM
 10
0.0
 20
0.0
 30
0.0
  9
$PUCSORGLEFT
 10
0.0
 20
0.0
 30
0.0
  9
$PUCSORGRIGHT
 10
0.0
 20
0.0
 30
0.0
  9
$PUCSORGFRONT
 10
0.0
 20
0.0
 30
0.0
  9
$PUCSORGBACK
 10
0.0
 20
0.0
 30
0.0
  9
$USERI1
 70
     0
  9
$USERI2
 70
     0
  9
$USERI3
 70
     0
  9
$USERI4
 70
     0
  9
$USERI5
 70
     0
  9
$USERR1
 40
0.0
  9
$USERR2
 40
0.0
  9
$USERR3
 40
0.0
  9
$USERR4
 40
0.0
  9
$USERR5
 40
0.0
  9
$WORLDVIEW
 70
     1
  9
$SHADEDGE
 70
     3
  9
$SHADEDIF
 70
    70
  9
$TILEMODE
 70
     1
  9
$MAXACTVP
 70
    64
  9
$PINSBASE
 10
0.0
 20
0.0
 30
0.0
  9
$PLIMCHECK
 70
     0
  9
$PEXTMIN
 10
1.000000000000000E+20
 20
1.000000000000000E+20
 30
1.000000000000000E+20
  9
$PEXTMAX
 10
-1.000000000000000E+20
 20
-1.000000000000000E+20
 30
-1.000000000000000E+20
  9
$PLIMMIN
 10
0.0
 20
0.0
  9
$PLIMMAX
 10
0.0
 20
0.0
  9
$UNITMODE
 70
     0
  9
$VISRETAIN
 70
     1
  9
$PLINEGEN
 70
     0
  9
$PSLTSCALE
 70
     1
  9
$TREEDEPTH
 70
  3020
  9
$CMLSTYLE
  2
Standard
  9
$CMLJUST
 70
     0
  9
$CMLSCALE
 40
20.0
  9
$PROXYGRAPHICS
 70
     1
  9
$MEASUREMENT
 70
     1
  9
$CELWEIGHT
370
    -1
  9
$ENDCAPS
280
     0
  9
$JOINSTYLE
280
     0
  9
$LWDISPLAY
290
     1
  9
$INSUNITS
 70
     4
  9
$HYPERLINKBASE
  1

  9
$STYLESHEET
  1

  9
$XEDIT
290
     1
  9
$CEPSNTYPE
380
     0
  9
$PSTYLEMODE
290
     1
  9
$FINGERPRINTGUID
  2
{C44D34FE-B989-4F62-B3CC-2BAA967C341D}
  9
$VERSIONGUID
  2
{FAEB1C32-E019-11D5-929B-00C0DF256EC4}
  9
$EXTNAMES
290
     1
  9
$PSVPSCALE
 40
0.0
  9
$OLESTARTUP
290
     0
  0
ENDSEC
  0
SECTION
  2
CLASSES
  0
CLASS
  1
ACDBDICTIONARYWDFLT
  2
AcDbDictionaryWithDefault
  3
ObjectDBX Classes
 90
        0
280
     0
281
     0
  0
CLASS
  1
VISUALSTYLE
  2
AcDbVisualStyle
  3
ObjectDBX Classes
 90
     4095
280
     0
281
     0
  0
CLASS
  1
MATERIAL
  2
AcDbMaterial
  3
ObjectDBX Classes
 90
     1153
280
     0
281
     0
  0
CLASS
  1
SCALE
  2
AcDbScale
  3
ObjectDBX Classes
 90
     1153
280
     0
281
     0
  0
CLASS
  1
SUN
  2
AcDbSun
  3
SCENEOE
 90
     1153
280
     0
281
     0
  0
CLASS
  1
ACDBPLACEHOLDER
  2
AcDbPlaceHolder
  3
ObjectDBX Classes
 90
        0
280
     0
281
     0
  0
CLASS
  1
LAYOUT
  2
AcDbLayout
  3
ObjectDBX Classes
 90
        0
280
     0
281
     0
  0
CLASS
  1
TABLESTYLE
  2
AcDbTableStyle
  3
ObjectDBX Classes
 90
     4095
280
     0
281
     0
  0
CLASS
  1
MLEADERSTYLE
  2
AcDbMLeaderStyle
  3
ACDB_MLEADERSTYLE_CLASS
 90
     4095
280
     0
281
     0
  0
ENDSEC
  0
SECTION
  2
TABLES
  0
TABLE
  2
VPORT
  5
8
330
0
100
AcDbSymbolTable
 70
     1
  0
VPORT
  5
29
330
8
100
AcDbSymbolTableRecord
100
AcDbViewportTableRecord
  2
*Active
 70
     0
 10
0.0
 20
0.0
 11
1.0
 21
1.0
 12
-10.82949043396935
 22
-4.926501731369809
 13
0.0
 23
0.0
 14
10.0
 24
10.0
 15
10.0
 25
10.0
 16
0.0
 26
0.0
 36
1.0
 17
0.0
 27
0.0
 37
0.0
 40
81.89932906735027
 41
2.223011363636364
 42
50.0
 43
0.0
 44
0.0
 50
0.0
 51
0.0
 71
    16
 72
  2000
 73
     1
 74
     3
 75
     0
 76
     0
 77
     0
 78
     0
281
     0
 65
     1
110
0.0
120
0.0
130
0.0
111
1.0
121
0.0
131
0.0
112
0.0
122
1.0
132
0.0
 79
     0
146
0.0
  0
ENDTAB
  0
TABLE
  2
LTYPE
  5
5
330
0
100
AcDbSymbolTable
 70
     6
  0
LTYPE
  5
14
330
5
100
AcDbSymbolTableRecord
100
AcDbLinetypeTableRecord
  2
ByBlock
 70
     0
  3

 72
    65
 73
     0
 40
0.0
  0
LTYPE
  5
15
330
5
100
AcDbSymbolTableRecord
100
AcDbLinetypeTableRecord
  2
ByLayer
 70
     0
  3

 72
    65
 73
     0
 40
0.0
  0
LTYPE
  5
16
330
5
100
AcDbSymbolTableRecord
100
AcDbLinetypeTableRecord
  2
Continuous
 70
     0
  3
Solid line
 72
    65
 73
     0
 40
0.0
  0
LTYPE
  5
6A
330
5
100
AcDbSymbolTableRecord
100
AcDbLinetypeTableRecord
  2
HIDDEN
 70
     0
  3
Hidden __ __ __ __ __ __ __ __ __ __ __ __ __ __
 72
    65
 73
     2
 40
1.905
 49
1.27
 74
     0
 49
-0.635
 74
     0
  0
LTYPE
  5
6B
330
5
100
AcDbSymbolTableRecord
100
AcDbLinetypeTableRecord
  2
PHANTOM
 70
     0
  3
Phantom ______  __  __  ______  __  __  ______
 72
    65
 73
     6
 40
12.7
 49
6.35
 74
     0
 49
-1.27
 74
     0
 49
1.27
 74
     0
 49
-1.27
 74
     0
 49
1.27
 74
     0
 49
-1.27
 74
     0
  0
LTYPE
  5
6C
330
5
100
AcDbSymbolTableRecord
100
AcDbLinetypeTableRecord
  2
CENTER
 70
     0
  3
Center ____ _ ____ _ ____ _ ____ _ ____ _ ____
 72
    65
 73
     4
 40
10.16
 49
6.35
 74
     0
 49
-1.27
 74
     0
 49
1.27
 74
     0
 49
-1.27
 74
     0
  0
LTYPE
  5
6D
330
5
100
AcDbSymbolTableRecord
100
AcDbLinetypeTableRecord
  2
CENTERX2
 70
     0
  3
Center (2x) ________  __  ________  __  _____
 72
    65
 73
     4
 40
20.32
 49
12.7
 74
     0
 49
-2.54
 74
     0
 49
2.54
 74
     0
 49
-2.54
 74
     0
  0
LTYPE
  5
6E
330
5
100
AcDbSymbolTableRecord
100
AcDbLinetypeTableRecord
  2
DOT2
 70
     0
  3
Dot (.5x) ........................................
 72
    65
 73
     2
 40
0.635
 49
0.0
 74
     0
 49
-0.635
 74
     0
  0
ENDTAB
  0
TABLE
  2
LAYER
  5
2
330
0
100
AcDbSymbolTable
 70
    17
  0
LAYER
  5
10
330
2
100
AcDbSymbolTableRecord
100
AcDbLayerTableRecord
  2
0
 70
     0
 62
     7
  6
Continuous
370
    -3
390
F
  0
LAYER
  5
6F
330
2
100
AcDbSymbolTableRecord
100
AcDbLayerTableRecord
  2
FORMAT
 70
     0
 62
     2
  6
Continuous
370
    -3
390
F
  0
LAYER
  5
70
330
2
100
AcDbSymbolTableRecord
100
AcDbLayerTableRecord
  2
외형선
 70
     0
 62
   100
  6
Continuous
370
    30
390
F
  0
LAYER
  5
71
330
2
100
AcDbSymbolTableRecord
100
AcDbLayerTableRecord
  2
숨은선
 70
     0
 62
     2
  6
HIDDEN
370
    15
390
F
  0
LAYER
  5
72
330
2
100
AcDbSymbolTableRecord
100
AcDbLayerTableRecord
  2
중심선
 70
     0
 62
     1
  6
CENTERX2
370
    -3
390
F
  0
LAYER
  5
73
330
2
100
AcDbSymbolTableRecord
100
AcDbLayerTableRecord
  2
파단선
 70
     0
 62
     4
  6
Continuous
370
    -3
390
F
  0
LAYER
  5
74
330
2
100
AcDbSymbolTableRecord
100
AcDbLayerTableRecord
  2
해칭선
 70
     0
 62
     4
  6
Continuous
370
    -3
390
F
  0
LAYER
  5
75
330
2
100
AcDbSymbolTableRecord
100
AcDbLayerTableRecord
  2
가는실선
 70
     0
 62
     4
  6
Continuous
370
    -3
390
F
  0
LAYER
  5
76
330
2
100
AcDbSymbolTableRecord
100
AcDbLayerTableRecord
  2
치수_보조선
 70
     0
 62
     4
  6
Continuous
370
    -3
390
F
  0
LAYER
  5
77
330
2
100
AcDbSymbolTableRecord
100
AcDbLayerTableRecord
  2
치수문자_일반주서
 70
     0
 62
     7
  6
Continuous
370
    15
390
F
  0
LAYER
  5
78
330
2
100
AcDbSymbolTableRecord
100
AcDbLayerTableRecord
  2
개별주서
 70
     0
 62
   100
  6
Continuous
370
    30
390
F
  0
LAYER
  5
79
330
2
100
AcDbSymbolTableRecord
100
AcDbLayerTableRecord
  2
중간선
 70
     0
 62
     2
  6
Continuous
370
    15
390
F
  0
LAYER
  5
7A
330
2
100
AcDbSymbolTableRecord
100
AcDbLayerTableRecord
  2
윤곽선
 70
     0
 62
     3
  6
Continuous
370
    40
390
F
  0
LAYER
  5
7B
330
2
100
AcDbSymbolTableRecord
100
AcDbLayerTableRecord
  2
중심마크
 70
     0
 62
   100
  6
Continuous
370
    30
390
F
  0
LAYER
  5
7C
330
2
100
AcDbSymbolTableRecord
100
AcDbLayerTableRecord
  2
가상선
 70
     0
 62
     4
  6
PHANTOM
370
    -3
390
F
  0
LAYER
  5
7D
330
2
100
AcDbSymbolTableRecord
100
AcDbLayerTableRecord
  2
특수지정선
 70
     0
 62
     5
  6
CENTERX2
370
    60
390
F
  0
LAYER
  5
134
330
2
100
AcDbSymbolTableRecord
100
AcDbLayerTableRecord
  2
Defpoints
 70
     0
 62
     7
  6
Continuous
290
     0
370
    -3
390
F
  0
ENDTAB
  0
TABLE
  2
STYLE
  5
3
330
0
100
AcDbSymbolTable
 70
     2
  0
STYLE
  5
11
330
3
100
AcDbSymbolTableRecord
100
AcDbTextStyleTableRecord
  2
Standard
 70
     0
 40
0.0
 41
1.0
 50
0.0
 71
     0
 42
3.5
  3
txt
  4

  0
STYLE
  5
93
330
3
100
AcDbSymbolTableRecord
100
AcDbTextStyleTableRecord
  2
SLDTEXTSTYLE0
 70
     0
 40
0.0
 41
0.75
 50
0.0
 71
     0
 42
3.5
  3
TXT
  4

  0
ENDTAB
  0
TABLE
  2
VIEW
  5
6
330
0
100
AcDbSymbolTable
 70
     0
  0
ENDTAB
  0
TABLE
  2
UCS
  5
7
330
0
100
AcDbSymbolTable
 70
     0
  0
ENDTAB
  0
TABLE
  2
APPID
  5
9
330
0
100
AcDbSymbolTable
 70
     2
  0
APPID
  5
12
330
9
100
AcDbSymbolTableRecord
100
AcDbRegAppTableRecord
  2
ACAD
 70
     0
  0
APPID
  5
139
330
9
100
AcDbSymbolTableRecord
100
AcDbRegAppTableRecord
  2
PE_URL
 70
     0
  0
ENDTAB
  0
TABLE
  2
DIMSTYLE
  5
A
330
0
100
AcDbSymbolTable
 70
     4
100
AcDbDimStyleTable
  0
DIMSTYLE
105
27
330
A
100
AcDbSymbolTableRecord
100
AcDbDimStyleTableRecord
  2
ISO-25
 70
     0
 41
2.5
 42
0.625
 43
3.75
 44
1.25
 73
     0
 74
     0
 77
     1
 78
     8
140
2.5
141
2.5
143
0.03937007874016
147
0.625
171
     3
172
     1
178
     0
271
     2
272
     2
274
     3
278
    44
283
     0
284
     8
340
11
  0
DIMSTYLE
105
D9
102
{ACAD_REACTORS
330
D8
330
FE
102
}
330
A
100
AcDbSymbolTableRecord
100
AcDbDimStyleTableRecord
  2
SLDDIMSTYLE0
 70
     0
 41
3.302
 44
0.0
 45
0.000000001
 73
     0
 74
     0
 77
     1
 78
    12
 79
     3
140
3.5
147
0.875
172
     1
173
     1
178
     0
271
     2
272
     2
276
     2
284
    12
289
     0
340
93
  0
DIMSTYLE
105
E6
102
{ACAD_REACTORS
330
E5
102
}
330
A
100
AcDbSymbolTableRecord
100
AcDbDimStyleTableRecord
  2
SLDDIMSTYLE1
 70
     0
 41
3.302
 44
0.0
 45
0.000000001
 73
     0
 74
     0
 77
     1
 78
    12
 79
     3
140
3.5
147
0.875
173
     1
178
     0
271
     2
272
     2
276
     2
284
    12
340
93
  0
DIMSTYLE
105
F1
102
{ACAD_REACTORS
330
F0
102
}
330
A
100
AcDbSymbolTableRecord
100
AcDbDimStyleTableRecord
  2
SLDDIMSTYLE2
 70
     0
 41
3.302
 44
0.0
 45
0.000000001
 73
     0
 74
     0
 77
     1
 78
     4
 79
     1
140
3.5
147
0.875
172
     1
173
     1
178
     0
271
     2
272
     2
276
     2
284
    12
289
     0
340
93
  0
ENDTAB
  0
TABLE
  2
BLOCK_RECORD
  5
1
330
0
100
AcDbSymbolTable
 70
     7
  0
BLOCK_RECORD
  5
1F
330
1
100
AcDbSymbolTableRecord
100
AcDbBlockTableRecord
  2
*Model_Space
340
22
  0
BLOCK_RECORD
  5
1B
330
1
100
AcDbSymbolTableRecord
100
AcDbBlockTableRecord
  2
*Paper_Space
340
1E
  0
BLOCK_RECORD
  5
23
330
1
100
AcDbSymbolTableRecord
100
AcDbBlockTableRecord
  2
*Paper_Space0
340
26
  0
BLOCK_RECORD
  5
7E
330
1
100
AcDbSymbolTableRecord
100
AcDbBlockTableRecord
  2
블럭10
340
0
102
{BLKREFS
331
D1
102
}
  0
BLOCK_RECORD
  5
DA
330
1
100
AcDbSymbolTableRecord
100
AcDbBlockTableRecord
  2
_D
340
0
  0
BLOCK_RECORD
  5
E7
330
1
100
AcDbSymbolTableRecord
100
AcDbBlockTableRecord
  2
_D_1
340
0
  0
BLOCK_RECORD
  5
F2
330
1
100
AcDbSymbolTableRecord
100
AcDbBlockTableRecord
  2
_D_2
340
0
  0
BLOCK_RECORD
  5
FF
330
1
100
AcDbSymbolTableRecord
100
AcDbBlockTableRecord
  2
_D_3
340
0
  0
BLOCK_RECORD
  5
10B
330
1
100
AcDbSymbolTableRecord
100
AcDbBlockTableRecord
  2
SW_DOWELSYMBOL_0
340
0
102
{BLKREFS
331
111
102
}
  0
ENDTAB
  0
ENDSEC
  0
SECTION
  2
BLOCKS
  0
BLOCK
  5
20
330
1F
100
AcDbEntity
  8
0
100
AcDbBlockBegin
  2
*Model_Space
 70
     0
 10
0.0
 20
0.0
 30
0.0
  3
*Model_Space
  1

  0
ENDBLK
  5
21
330
1F
100
AcDbEntity
  8
0
100
AcDbBlockEnd
  0
BLOCK
  5
1C
330
1B
100
AcDbEntity
 67
     1
  8
0
100
AcDbBlockBegin
  2
*Paper_Space
 70
     0
 10
0.0
 20
0.0
 30
0.0
  3
*Paper_Space
  1

  0
ENDBLK
  5
1D
330
1B
100
AcDbEntity
 67
     1
  8
0
100
AcDbBlockEnd
  0
BLOCK
  5
24
330
23
100
AcDbEntity
  8
0
100
AcDbBlockBegin
  2
*Paper_Space0
 70
     0
 10
0.0
 20
0.0
 30
0.0
  3
*Paper_Space0
  1

  0
ENDBLK
  5
25
330
23
100
AcDbEntity
  8
0
100
AcDbBlockEnd
  0
BLOCK
  5
7F
330
7E
100
AcDbEntity
  8
0
100
AcDbBlockBegin
  2
블럭10
 70
     2
 10
0.0
 20
0.0
 30
0.0
  3
블럭10
  1

  0
ELLIPSE
  5
81
330
7E
100
AcDbEntity
  8
중심선
100
AcDbEllipse
 10
20.54032771741204
 20
12.0471743016438
 30
0.0
 11
6.600054785286829
 21
-1.261213355974178E-13
 31
0.0
210
0.0
220
0.0
230
1.0
 40
0.636358354079598
 41
0.9219305317359503
 42
6.513795318482858
  0
ELLIPSE
  5
82
330
7E
100
AcDbEntity
  8
중심선
100
AcDbEllipse
 10
20.54032771746488
 20
12.04717430159265
 30
0.0
 11
3.960054785062283
 21
1.540847449632565E-10
 31
0.0
210
0.0
220
0.0
230
1.0
 40
0.3939339440162632
 41
1.131841032648279
 42
5.62031148352944
  0
LINE
  5
83
330
7E
100
AcDbEntity
  8
중심선
100
AcDbLine
 10
2.268634060543552
 20
16.24717430164393
 30
0.0
 11
5.714909304380834
 21
16.24717430164393
 31
0.0
  0
LINE
  5
84
330
7E
100
AcDbEntity
  8
중심선
100
AcDbLine
 10
5.245725140726316
 20
7.84717430164391
 30
0.0
 11
8.692000384563599
 21
7.84717430164391
 31
0.0
  0
LINE
  5
85
330
7E
100
AcDbEntity
  8
중심선
100
AcDbLine
 10
15.74043728645272
 20
16.24717430164393
 30
0.0
 11
8.692000384563599
 21
7.84717430164391
 31
0.0
  0
LINE
  5
86
330
7E
100
AcDbEntity
  8
중심선
100
AcDbLine
 10
0.1404042013395286
 20
13.71084872107135
 30
0.0
 11
3.58671253028996
 21
13.71088815037384
 31
0.0
  0
LINE
  5
87
330
7E
100
AcDbEntity
  8
중심선
100
AcDbLine
 10
2.750260043222114
 20
10.84717430164391
 30
0.0
 11
6.196535287059397
 21
10.84717430164391
 31
0.0
  0
LINE
  5
88
330
7E
100
AcDbEntity
  8
중심선
100
AcDbLine
 10
12.29416204261559
 20
16.24717430164393
 30
0.0
 11
5.245725140726316
 21
7.84717430164391
 31
0.0
  0
LINE
  5
89
330
7E
100
AcDbEntity
  8
중심선
100
AcDbLine
 10
10.72767329541681
 20
16.24717430164393
 30
0.0
 11
6.196535287059397
 21
10.84717430164391
 31
0.0
  0
LINE
  5
8A
330
7E
100
AcDbEntity
  8
중심선
100
AcDbLine
 10
7.28139805157953
 20
16.24717430164393
 30
0.0
 11
2.750260043222114
 21
10.84717430164391
 31
0.0
  0
LINE
  5
8B
330
7E
100
AcDbEntity
  8
중심선
100
AcDbLine
 10
5.714909304380834
 20
16.24717430164393
 30
0.0
 11
3.58671253028996
 21
13.71088815037384
 31
0.0
  0
LINE
  5
8C
330
7E
100
AcDbEntity
  8
중심선
100
AcDbLine
 10
2.268634060543552
 20
16.24717430164393
 30
0.0
 11
0.1404042013395286
 21
13.71084872107135
 31
0.0
  0
LINE
  5
8D
330
7E
100
AcDbEntity
  8
중심선
100
AcDbLine
 10
7.28139805157953
 20
16.24717430164393
 30
0.0
 11
10.72767329541681
 21
16.24717430164393
 31
0.0
  0
LINE
  5
8E
330
7E
100
AcDbEntity
  8
중심선
100
AcDbLine
 10
12.29416204261559
 20
16.24717430164393
 30
0.0
 11
15.74043728645272
 21
16.24717430164393
 31
0.0
  0
LINE
  5
8F
330
7E
100
AcDbEntity
  8
중심선
100
AcDbLine
 10
19.22036997980202
 20
11.08717430171403
 30
0.0
 11
23.66174974927406
 21
11.08717430171406
 31
0.0
  0
LINE
  5
90
330
7E
100
AcDbEntity
  8
중심선
100
AcDbLine
 10
19.22039502424796
 20
13.00717430171391
 30
0.0
 11
19.22036997980202
 21
11.08717430171403
 31
0.0
  0
LINE
  5
91
330
7E
100
AcDbEntity
  8
중심선
100
AcDbLine
 10
19.22039502424796
 20
13.00717430171391
 30
0.0
 11
26.96566020931264
 21
13.00717430171391
 31
0.0
  0
LINE
  5
92
330
7E
100
AcDbEntity
  8
중심선
100
AcDbLine
 10
22.22332737316547
 20
13.45928029700563
 30
0.0
 11
24.52862924686651
 21
15.39360700705356
 31
0.0
  0
ATTDEF
  5
94
330
7E
100
AcDbEntity
  8
FORMAT
 62
     2
100
AcDbText
 10
-16.00558753126829
 20
2.075366912832191
 30
0.0
 40
4.233333333333333
  1
SEME350264SE [ 2 FLUTE ]
 41
0.75
  7
SLDTEXTSTYLE0
 11
-16.00558753126829
 21
-0.0412997538344756
 31
0.0
100
AcDbAttributeDefinition
  3

  2
AUTOATTR0
 70
     0
 74
     1
  0
ENDBLK
  5
80
330
7E
100
AcDbEntity
  8
0
100
AcDbBlockEnd
  0
BLOCK
  5
DB
330
DA
100
AcDbEntity
  8
0
100
AcDbBlockBegin
  2
_D
 70
     0
 10
0.0
 20
0.0
 30
0.0
  3
_D
  1

  0
LINE
  5
DD
330
DA
100
AcDbEntity
  8
치수문자_일반주서
 62
     0
370
    -2
100
AcDbLine
 10
13.61243556529821
 20
1.361401259798539
 30
0.0
 11
13.61243556529821
 21
13.54953514837632
 31
0.0
  0
LINE
  5
DE
330
DA
100
AcDbEntity
  8
치수문자_일반주서
 62
     0
370
    -2
100
AcDbLine
 10
5.612435565298204
 20
0.9241692279686147
 30
0.0
 11
5.612435565298204
 21
13.54953514837632
 31
0.0
  0
LINE
  5
DF
330
DA
100
AcDbEntity
  8
치수문자_일반주서
 62
     0
370
    -2
100
AcDbLine
 10
10.31043556529821
 20
13.54953514837632
 30
0.0
 11
8.914435565298204
 21
13.54953514837632
 31
0.0
  0
SOLID
  5
E0
330
DA
100
AcDbEntity
  8
치수문자_일반주서
 62
     0
100
AcDbTrace
 10
10.31043556529821
 20
12.99920181504299
 30
0.0
 11
10.31043556529821
 21
14.09986848170965
 31
0.0
 12
13.61243556529821
 22
13.54953514837632
 32
0.0
 13
13.61243556529821
 23
13.54953514837632
 33
0.0
  0
SOLID
  5
E1
330
DA
100
AcDbEntity
  8
치수문자_일반주서
 62
     0
100
AcDbTrace
 10
8.914435565298204
 20
14.09986848170965
 30
0.0
 11
8.914435565298204
 21
12.99920181504299
 31
0.0
 12
5.612435565298204
 22
13.54953514837632
 32
0.0
 13
5.612435565298204
 23
13.54953514837632
 33
0.0
  0
MTEXT
  5
E2
330
DA
100
AcDbEntity
  8
치수문자_일반주서
 62
     0
100
AcDbMText
 10
9.6124355652982
 20
17.92453514837632
 30
0.0
 40
3.5
 41
0.0
 71
     2
 72
     1
  1
\A1;8
  7
SLDTEXTSTYLE0
 73
     1
 44
1.0
  0
POINT
  5
E3
330
DA
100
AcDbEntity
  8
Defpoints
 62
     0
100
AcDbPoint
 10
13.61243556529821
 20
1.298901259798539
 30
0.0
  0
POINT
  5
E4
330
DA
100
AcDbEntity
  8
Defpoints
 62
     0
100
AcDbPoint
 10
5.612435565298204
 20
0.8616692279686147
 30
0.0
  0
POINT
  5
13B
330
DA
100
AcDbEntity
  8
Defpoints
 62
     0
100
AcDbPoint
 10
5.612435565298204
 20
13.54953514837632
 30
0.0
  0
ENDBLK
  5
DC
330
DA
100
AcDbEntity
  8
0
100
AcDbBlockEnd
  0
BLOCK
  5
E8
330
E7
100
AcDbEntity
  8
0
100
AcDbBlockBegin
  2
_D_1
 70
     0
 10
0.0
 20
0.0
 30
0.0
  3
_D_1
  1

  0
LINE
  5
EA
330
E7
100
AcDbEntity
  8
치수문자_일반주서
 62
     0
370
    -2
100
AcDbLine
 10
13.61243556529821
 20
0.9725000000000004
 30
0.0
 11
13.61243556529821
 21
23.69415911661226
 31
0.0
  0
LINE
  5
EB
330
E7
100
AcDbEntity
  8
치수문자_일반주서
 62
     0
370
    -2
100
AcDbLine
 10
-36.38756443470179
 20
1.632499999999995
 30
0.0
 11
-36.38756443470179
 21
23.69415911661226
 31
0.0
  0
LINE
  5
EC
330
E7
100
AcDbEntity
  8
치수문자_일반주서
 62
     0
370
    -2
100
AcDbLine
 10
10.31043556529821
 20
23.69415911661226
 30
0.0
 11
-33.08556443470179
 21
23.69415911661226
 31
0.0
  0
SOLID
  5
ED
330
E7
100
AcDbEntity
  8
치수문자_일반주서
 62
     0
100
AcDbTrace
 10
10.31043556529821
 20
23.14382578327893
 30
0.0
 11
10.31043556529821
 21
24.2444924499456
 31
0.0
 12
13.61243556529821
 22
23.69415911661226
 32
0.0
 13
13.61243556529821
 23
23.69415911661226
 33
0.0
  0
SOLID
  5
EE
330
E7
100
AcDbEntity
  8
치수문자_일반주서
 62
     0
100
AcDbTrace
 10
-33.08556443470179
 20
24.2444924499456
 30
0.0
 11
-33.08556443470179
 21
23.14382578327893
 31
0.0
 12
-36.38756443470179
 22
23.69415911661226
 32
0.0
 13
-36.38756443470179
 23
23.69415911661226
 33
0.0
  0
MTEXT
  5
EF
330
E7
100
AcDbEntity
  8
치수문자_일반주서
 62
     0
100
AcDbMText
 10
-11.38756443470178
 20
28.06915911661226
 30
0.0
 40
3.5
 41
0.0
 71
     2
 72
     1
  1
\A1;50
  7
SLDTEXTSTYLE0
 73
     1
 44
1.0
  0
POINT
  5
13C
330
E7
100
AcDbEntity
  8
Defpoints
 62
     0
100
AcDbPoint
 10
13.61243556529821
 20
0.9100000000000004
 30
0.0
  0
POINT
  5
13D
330
E7
100
AcDbEntity
  8
Defpoints
 62
     0
100
AcDbPoint
 10
-36.38756443470179
 20
1.569999999999995
 30
0.0
  0
POINT
  5
13E
330
E7
100
AcDbEntity
  8
Defpoints
 62
     0
100
AcDbPoint
 10
-36.38756443470179
 20
23.69415911661226
 30
0.0
  0
ENDBLK
  5
E9
330
E7
100
AcDbEntity
  8
0
100
AcDbBlockEnd
  0
BLOCK
  5
F3
330
F2
100
AcDbEntity
  8
0
100
AcDbBlockBegin
  2
_D_2
 70
     0
 10
0.0
 20
0.0
 30
0.0
  3
_D_2
  1

  0
LINE
  5
F5
330
F2
100
AcDbEntity
  8
치수문자_일반주서
 62
     0
370
    -2
100
AcDbLine
 10
13.67493556529821
 20
1.298901259798539
 30
0.0
 11
29.43262587754448
 21
1.298901259798598
 31
0.0
  0
LINE
  5
F6
330
F2
100
AcDbEntity
  8
치수문자_일반주서
 62
     0
370
    -2
100
AcDbLine
 10
13.67493556529821
 20
-1.298901259798538
 30
0.0
 11
29.43262587754449
 21
-1.29890125979848
 31
0.0
  0
LINE
  5
F7
330
F2
100
AcDbEntity
  8
치수문자_일반주서
 62
     0
370
    -2
100
AcDbLine
 10
29.43262587754448
 20
1.298901259798598
 30
0.0
 11
29.43262587754441
 21
19.7154012597986
 31
0.0
  0
LINE
  5
F8
330
F2
100
AcDbEntity
  8
치수문자_일반주서
 62
     0
370
    -2
100
AcDbLine
 10
29.43262587754448
 20
1.298901259798598
 30
0.0
 11
29.43262587754449
 21
-1.29890125979848
 31
0.0
  0
LINE
  5
F9
330
F2
100
AcDbEntity
  8
치수문자_일반주서
 62
     0
370
    -2
100
AcDbLine
 10
29.43262587754447
 20
4.600901259798597
 30
0.0
 11
29.43262587754445
 21
7.902901259798597
 31
0.0
  0
LINE
  5
FA
330
F2
100
AcDbEntity
  8
치수문자_일반주서
 62
     0
370
    -2
100
AcDbLine
 10
29.43262587754451
 20
-4.60090125979848
 30
0.0
 11
29.43262587754452
 21
-7.90290125979848
 31
0.0
  0
SOLID
  5
FB
330
F2
100
AcDbEntity
  8
치수문자_일반주서
 62
     0
100
AcDbTrace
 10
28.88229254421113
 20
4.600901259798595
 30
0.0
 11
29.9829592108778
 21
4.6009012597986
 31
0.0
 12
29.43262587754448
 22
1.298901259798598
 32
0.0
 13
29.43262587754448
 23
1.298901259798598
 33
0.0
  0
SOLID
  5
FC
330
F2
100
AcDbEntity
  8
치수문자_일반주서
 62
     0
100
AcDbTrace
 10
29.98295921087784
 20
-4.600901259798477
 30
0.0
 11
28.88229254421117
 21
-4.600901259798483
 31
0.0
 12
29.43262587754449
 22
-1.29890125979848
 32
0.0
 13
29.43262587754449
 23
-1.29890125979848
 33
0.0
  0
MTEXT
  5
FD
330
F2
100
AcDbEntity
  8
치수문자_일반주서
 62
     0
100
AcDbMText
 10
25.05762587754443
 20
13.80915125979858
 30
0.0
 40
3.5
 41
0.0
 71
     2
 72
     1
  1
\A1;%%c2.60
  7
SLDTEXTSTYLE0
 11
-4.102752598012952E-15
 21
1.0
 31
0.0
 73
     1
 44
1.0
  0
POINT
  5
135
330
F2
100
AcDbEntity
  8
Defpoints
 62
     0
100
AcDbPoint
 10
13.61243556529821
 20
1.298901259798539
 30
0.0
  0
POINT
  5
136
330
F2
100
AcDbEntity
  8
Defpoints
 62
     0
100
AcDbPoint
 10
13.61243556529821
 20
-1.298901259798539
 30
0.0
  0
POINT
  5
137
330
F2
100
AcDbEntity
  8
Defpoints
 62
     0
100
AcDbPoint
 10
29.43262587754447
 20
-1.298901259798479
 30
0.0
  0
ENDBLK
  5
F4
330
F2
100
AcDbEntity
  8
0
100
AcDbBlockEnd
  0
BLOCK
  5
100
330
FF
100
AcDbEntity
  8
0
100
AcDbBlockBegin
  2
_D_3
 70
     0
 10
0.0
 20
0.0
 30
0.0
  3
_D_3
  1

  0
LINE
  5
102
330
FF
100
AcDbEntity
  8
치수문자_일반주서
 62
     0
370
    -2
100
AcDbLine
 10
-36.02006443470179
 20
1.999999999999996
 30
0.0
 11
-48.37712388009034
 21
1.99999999999995
 31
0.0
  0
LINE
  5
103
330
FF
100
AcDbEntity
  8
치수문자_일반주서
 62
     0
370
    -2
100
AcDbLine
 10
-36.02006443470179
 20
-2.000000000000003
 30
0.0
 11
-48.37712388009032
 21
-2.000000000000049
 31
0.0
  0
LINE
  5
104
330
FF
100
AcDbEntity
  8
치수문자_일반주서
 62
     0
370
    -2
100
AcDbLine
 10
-48.37712388009032
 20
-1.30200000000005
 30
0.0
 11
-48.37712388009034
 21
1.301999999999951
 31
0.0
  0
SOLID
  5
105
330
FF
100
AcDbEntity
  8
치수문자_일반주서
 62
     0
100
AcDbTrace
 10
-47.82679054675699
 20
-1.302000000000048
 30
0.0
 11
-48.92745721342366
 21
-1.302000000000052
 31
0.0
 12
-48.37712388009034
 22
1.99999999999995
 32
0.0
 13
-48.37712388009034
 23
1.99999999999995
 33
0.0
  0
SOLID
  5
106
330
FF
100
AcDbEntity
  8
치수문자_일반주서
 62
     0
100
AcDbTrace
 10
-48.92745721342367
 20
1.301999999999949
 30
0.0
 11
-47.826790546757
 21
1.301999999999953
 31
0.0
 12
-48.37712388009032
 22
-2.000000000000049
 32
0.0
 13
-48.37712388009032
 23
-2.000000000000049
 33
0.0
  0
MTEXT
  5
107
330
FF
100
AcDbEntity
  8
치수문자_일반주서
 62
     0
100
AcDbMText
 10
-52.75212388009033
 20
-0.0000000000000192
 30
0.0
 40
3.5
 41
0.0
 71
     2
 72
     1
  1
\A1;%%c4
  7
SLDTEXTSTYLE0
 11
-3.552713678800503E-15
 21
1.0
 31
0.0
 73
     1
 44
1.0
  0
POINT
  5
108
330
FF
100
AcDbEntity
  8
Defpoints
 62
     0
100
AcDbPoint
 10
-35.95756443470179
 20
1.999999999999996
 30
0.0
  0
POINT
  5
109
330
FF
100
AcDbEntity
  8
Defpoints
 62
     0
100
AcDbPoint
 10
-35.95756443470179
 20
-2.000000000000002
 30
0.0
  0
POINT
  5
10A
330
FF
100
AcDbEntity
  8
Defpoints
 62
     0
100
AcDbPoint
 10
-48.37712388009033
 20
-2.000000000000048
 30
0.0
  0
ENDBLK
  5
101
330
FF
100
AcDbEntity
  8
0
100
AcDbBlockEnd
  0
BLOCK
  5
10C
330
10B
100
AcDbEntity
  8
0
100
AcDbBlockBegin
  2
SW_DOWELSYMBOL_0
 70
     0
 10
0.0
 20
0.0
 30
0.0
  3
SW_DOWELSYMBOL_0
  1

  0
CIRCLE
  5
10E
330
10B
100
AcDbEntity
  8
외형선
 62
     0
100
AcDbCircle
 10
0.0
 20
0.0
 30
0.0
 40
3.000000000000004
  0
HATCH
  5
10F
330
10B
100
AcDbEntity
  8
0
  6
Continuous
 62
     0
370
    30
100
AcDbHatch
 10
0.0
 20
0.0
 30
0.0
210
0.0
220
0.0
230
1.0
  2
SOLID
 70
     1
 71
     0
 91
        1
 92
        0
 93
        3
 72
     2
 10
0.0000000000000087
 20
-0.0000000000000035
 40
3.000000000000004
 50
0.0
 51
90.0
 73
     1
 72
     1
 10
0.0000000000000087
 20
3.000000000000001
 11
0.0000000000000087
 21
-0.0000000000000036
 72
     1
 10
0.0000000000000087
 20
-0.0000000000000035
 11
3.000000000000013
 21
-0.0000000000000035
 97
        0
 75
     0
 76
     1
 98
        1
 10
0.0
 20
0.0
  0
HATCH
  5
110
330
10B
100
AcDbEntity
  8
0
  6
Continuous
 62
     0
370
    30
100
AcDbHatch
 10
0.0
 20
0.0
 30
0.0
210
0.0
220
0.0
230
1.0
  2
SOLID
 70
     1
 71
     0
 91
        1
 92
        0
 93
        3
 72
     2
 10
0.0000000000000087
 20
-0.0000000000000035
 40
3.000000000000004
 50
180.0
 51
270.0000000000008
 73
     1
 72
     1
 10
0.0000000000000087
 20
-3.000000000000008
 11
0.0000000000000087
 21
-0.0000000000000036
 72
     1
 10
0.0000000000000087
 20
-0.0000000000000035
 11
-2.999999999999996
 21
-0.0000000000000035
 97
        0
 75
     0
 76
     1
 98
        1
 10
0.0
 20
0.0
  0
ENDBLK
  5
10D
330
10B
100
AcDbEntity
  8
0
100
AcDbBlockEnd
  0
ENDSEC
  0
SECTION
  2
ENTITIES
  0
LINE
  5
95
330
1F
100
AcDbEntity
  8
0
  6
Continuous
 62
     4
370
    15
100
AcDbLine
 10
2.0
 20
1.999999999999999
 30
0.0
 11
-35.95756443470179
 21
1.999999999999996
 31
0.0
  0
LINE
  5
96
330
1F
100
AcDbEntity
  8
0
  6
Continuous
 62
     4
370
    15
100
AcDbLine
 10
-35.95756443470179
 20
-2.000000000000002
 30
0.0
 11
2.0
 21
-2.0
 31
0.0
  0
LINE
  5
97
330
1F
100
AcDbEntity
  8
0
  6
Continuous
 62
     4
370
    15
100
AcDbLine
 10
2.0
 20
-2.0
 30
0.0
 11
4.612435565298208
 21
-1.3
 31
0.0
  0
LINE
  5
98
330
1F
100
AcDbEntity
  8
0
  6
Continuous
 62
     4
370
    15
100
AcDbLine
 10
4.612435565298208
 20
1.299999999999999
 30
0.0
 11
2.0
 21
2.0
 31
0.0
  0
LINE
  5
99
330
1F
100
AcDbEntity
  8
0
  6
Continuous
 62
     4
370
    15
100
AcDbLine
 10
-35.95756443470179
 20
1.999999999999995
 30
0.0
 11
-36.38756443470179
 21
1.569999999999995
 31
0.0
  0
LINE
  5
9A
330
1F
100
AcDbEntity
  8
0
  6
Continuous
 62
     4
370
    15
100
AcDbLine
 10
-36.38756443470179
 20
-1.570000000000001
 30
0.0
 11
-35.95756443470179
 21
-2.000000000000001
 31
0.0
  0
LINE
  5
9B
330
1F
100
AcDbEntity
  8
0
  6
Continuous
 62
     4
370
    15
100
AcDbLine
 10
4.722526260723852
 20
1.299999999999999
 30
0.0
 11
4.612435565298208
 21
1.299999999999999
 31
0.0
1001
PE_URL
1000

  0
LINE
  5
9C
330
1F
100
AcDbEntity
  8
0
  6
Continuous
 62
     4
370
    15
100
AcDbLine
 10
4.612435565298208
 20
-1.3
 30
0.0
 11
4.722526260723852
 21
-1.3
 31
0.0
1001
PE_URL
1000

  0
SPLINE
  5
9D
330
1F
100
AcDbEntity
  8
0
  6
Continuous
 62
     4
370
    15
100
AcDbSpline
210
0.0
220
0.0
230
1.0
 70
     8
 71
     3
 72
     9
 73
     5
 74
     0
 42
0.000000001
 43
0.00000001
 40
0.0
 40
0.0
 40
0.0
 40
0.0
 40
0.502043721182002
 40
1.0
 40
1.0
 40
1.0
 40
1.0
 10
5.612435565298208
 20
0.8616691773424543
 30
0.0
 10
5.463451779817277
 20
0.8579787225513441
 30
0.0
 10
5.16669717619398
 20
0.8506278591994005
 30
0.0
 10
4.870194523935602
 20
0.8656378779285109
 30
0.0
 10
4.722549166557352
 20
0.8731122109998471
 30
0.0
1001
PE_URL
1000

  0
SPLINE
  5
9E
330
1F
100
AcDbEntity
  8
0
  6
Continuous
 62
     1
370
    15
100
AcDbSpline
210
0.0
220
0.0
230
1.0
 70
     8
 71
     3
 72
     9
 73
     5
 74
     0
 42
0.000000001
 43
0.00000001
 40
0.0
 40
0.0
 40
0.0
 40
0.0
 40
0.4372297961461343
 40
1.0
 40
1.0
 40
1.0
 40
1.0
 10
10.24531498146926
 20
0.3330354740948929
 30
0.0
 10
10.19251857040675
 20
0.3580461354763743
 30
0.0
 10
10.07176648185314
 20
0.4152486902929317
 30
0.0
 10
9.951054880636871
 20
0.4781085359147254
 30
0.0
 10
9.883121988212865
 20
0.5134841840495247
 30
0.0
  0
LINE
  5
9F
330
1F
100
AcDbEntity
  8
0
  6
Continuous
 62
     1
370
    15
100
AcDbLine
 10
7.261140932762943
 20
1.3
 30
0.0
 11
6.631477151078846
 21
1.3
 31
0.0
  0
SPLINE
  5
A0
330
1F
100
AcDbEntity
  8
0
  6
Continuous
 62
     1
370
    15
100
AcDbSpline
210
0.0
220
0.0
230
1.0
 70
     8
 71
     3
 72
    13
 73
     9
 74
     0
 42
0.000000001
 43
0.00000001
 40
0.0
 40
0.0
 40
0.0
 40
0.0
 40
0.2801075949343098
 40
0.4985968307064773
 40
0.6839834122352833
 40
0.8595933523175816
 40
0.9829765992226537
 40
1.0
 40
1.0
 40
1.0
 40
1.0
 10
9.813896533514317
 20
1.033027067594545
 30
0.0
 10
9.714231944979312
 20
1.028236232111836
 30
0.0
 10
9.536827087432071
 20
1.019708454103263
 30
0.0
 10
9.285996978227988
 20
1.015216853944289
 30
0.0
 10
9.072242790446618
 20
1.014931324964803
 30
0.0
 10
8.8957105354179
 20
1.017655032804262
 30
0.0
 10
8.78090328855192
 20
1.020647766175164
 30
0.0
 10
8.730309982516596
 20
1.022573174776109
 30
0.0
 10
8.724175870353774
 20
1.022806618155145
 30
0.0
  0
SPLINE
  5
A1
330
1F
100
AcDbEntity
  8
0
  6
Continuous
 62
     1
370
    15
100
AcDbSpline
210
0.0
220
0.0
230
1.0
 70
     8
 71
     3
 72
    17
 73
    13
 74
     0
 42
0.000000001
 43
0.00000001
 40
0.0
 40
0.0
 40
0.0
 40
0.0
 40
0.1415500132037835
 40
0.2484524885517361
 40
0.3275422000350983
 40
0.4087583337495887
 40
0.4952352836354812
 40
0.5713111231228747
 40
0.6302933020525079
 40
0.7046106872304834
 40
0.8286367529346839
 40
1.0
 40
1.0
 40
1.0
 40
1.0
 10
7.860085553893432
 20
-1.081780965473383
 30
0.0
 10
7.951409758161448
 20
-1.073084958142197
 30
0.0
 10
8.111704521134946
 20
-1.057821486150944
 30
0.0
 10
8.324253460418463
 20
-1.042401091334481
 30
0.0
 10
8.500308123869685
 20
-1.032192620686675
 30
0.0
 10
8.662024155891563
 20
-1.024716414124373
 30
0.0
 10
8.820956763799291
 20
-1.019401020727577
 30
0.0
 10
8.964925954328553
 20
-1.016427975427291
 30
0.0
 10
9.100022970747633
 20
-1.015091062804137
 30
0.0
 10
9.266920650140461
 20
-1.015238895316545
 30
0.0
 10
9.508376424784316
 20
-1.018902382429284
 30
0.0
 10
9.701728069147999
 20
-1.027841339390825
 30
0.0
 10
9.813896533514317
 20
-1.033027067594545
 30
0.0
  0
SPLINE
  5
A2
330
1F
100
AcDbEntity
  8
0
  6
Continuous
 62
     1
370
    15
100
AcDbSpline
210
0.0
220
0.0
230
1.0
 70
     8
 71
     3
 72
    13
 73
     9
 74
     0
 42
0.000000001
 43
0.00000001
 40
0.0
 40
0.0
 40
0.0
 40
0.0
 40
0.2885951973084468
 40
0.4823475004224523
 40
0.6103694130189347
 40
0.7413470894009437
 40
0.8766596613964499
 40
1.0
 40
1.0
 40
1.0
 40
1.0
 10
10.85834897476648
 20
-0.9777756521685359
 30
0.0
 10
10.95381863439114
 20
-0.9635009390198084
 30
0.0
 10
11.1133831459132
 20
-0.9396427034332423
 30
0.0
 10
11.31386147597986
 20
-0.9153001939838659
 30
0.0
 10
11.46111004119249
 20
-0.8997864936663931
 30
0.0
 10
11.59046321097281
 20
-0.8879758672990965
 30
0.0
 10
11.71865264639635
 20
-0.8779039733759498
 30
0.0
 10
11.80368322210327
 20
-0.8727668193508061
 30
0.0
 10
11.84423061039694
 20
-0.8703171337259572
 30
0.0
  0
SPLINE
  5
A3
330
1F
100
AcDbEntity
  8
0
  6
Continuous
 62
     1
370
    15
100
AcDbSpline
210
0.0
220
0.0
230
1.0
 70
     8
 71
     3
 72
     9
 73
     5
 74
     0
 42
0.000000001
 43
0.00000001
 40
0.0
 40
0.0
 40
0.0
 40
0.0
 40
0.5015512703947861
 40
0.9999999999999999
 40
0.9999999999999999
 40
0.9999999999999999
 40
0.9999999999999999
 10
6.054986649847027
 20
0.8891270953327665
 30
0.0
 10
5.980783220018699
 20
0.8831912483668298
 30
0.0
 10
5.832835374587223
 20
0.8713562729289959
 30
0.0
 10
5.685750055660536
 20
0.8648915234883504
 30
0.0
 10
5.612435565297952
 20
0.8616691773424447
 30
0.0
  0
SPLINE
  5
A4
330
1F
100
AcDbEntity
  8
0
  6
Continuous
 62
     1
370
    15
100
AcDbSpline
210
0.0
220
0.0
230
1.0
 70
     8
 71
     3
 72
    21
 73
    17
 74
     0
 42
0.000000001
 43
0.00000001
 40
0.0
 40
0.0
 40
0.0
 40
0.0
 40
0.1290426707564369
 40
0.2152341486056631
 40
0.2711516092868577
 40
0.3281011620647117
 40
0.3866952112677188
 40
0.4449350048657668
 40
0.5026484262936112
 40
0.5607734950623626
 40
0.6193591983964154
 40
0.6781111726681264
 40
0.7349809591150215
 40
0.7905673691888297
 40
0.8746935531772414
 40
1.0
 40
1.0
 40
1.0
 40
1.0
 10
13.12896062275475
 20
0.8891405005090941
 30
0.0
 10
13.03066938182635
 20
0.8815440249719397
 30
0.0
 10
12.86672646718729
 20
0.8688736351306662
 30
0.0
 10
12.66165362827319
 20
0.8603086638728897
 30
0.0
 10
12.51230174123377
 20
0.8565755639373188
 30
0.0
 10
12.38270680240946
 20
0.8552112912596526
 30
0.0
 10
12.25105861393719
 20
0.8557582836456727
 30
0.0
 10
12.11893916818791
 20
0.8582874640765757
 30
0.0
 10
11.98734185724381
 20
0.8628240070139819
 30
0.0
 10
11.8553219881344
 20
0.8692969399721312
 30
0.0
 10
11.72246228656594
 20
0.8777096195906825
 30
0.0
 10
11.59046405566525
 20
0.8879486512023126
 30
0.0
 10
11.4611098268604
 20
0.8997933994734706
 30
0.0
 10
11.31386156497967
 20
0.9152973263987965
 30
0.0
 10
11.11338310505066
 20
0.9396440200296502
 30
0.0
 10
10.95381861909462
 20
0.9635014318753748
 30
0.0
 10
10.85834897476648
 20
0.9777756521685359
 30
0.0
  0
LINE
  5
A5
330
1F
100
AcDbEntity
  8
0
  6
Continuous
 62
     1
370
    15
100
AcDbLine
 10
6.631477151078846
 20
-1.300000000000001
 30
0.0
 11
7.261140932762951
 21
-1.300000000000001
 31
0.0
  0
LINE
  5
A6
330
1F
100
AcDbEntity
  8
0
  6
Continuous
 62
     4
370
    15
100
AcDbLine
 10
2.0
 20
2.0
 30
0.0
 11
2.0
 21
-2.0
 31
0.0
  0
LINE
  5
A7
330
1F
100
AcDbEntity
  8
0
  6
Continuous
 62
     4
370
    15
100
AcDbLine
 10
-35.95756443470179
 20
1.999999999999995
 30
0.0
 11
-35.95756443470179
 21
-2.000000000000002
 31
0.0
  0
LINE
  5
A8
330
1F
100
AcDbEntity
  8
0
  6
Continuous
 62
     4
370
    15
100
AcDbLine
 10
4.612435565298208
 20
1.299999999999999
 30
0.0
 11
4.612435565298208
 21
-1.300000000000001
 31
0.0
1001
PE_URL
1000

  0
LINE
  5
A9
330
1F
100
AcDbEntity
  8
0
  6
Continuous
 62
     4
370
    15
100
AcDbLine
 10
-36.38756443470179
 20
1.569999999999995
 30
0.0
 11
-36.38756443470179
 21
-1.570000000000002
 31
0.0
  0
SPLINE
  5
AA
330
1F
100
AcDbEntity
  8
0
  6
Continuous
 62
     4
370
    15
100
AcDbSpline
210
0.0
220
0.0
230
1.0
 70
     8
 71
     3
 72
    10
 73
     6
 74
     0
 42
0.000000001
 43
0.00000001
 40
0.0
 40
0.0
 40
0.0
 40
0.0
 40
0.5
 40
0.5
 40
1.0
 40
1.0
 40
1.0
 40
1.0
 10
5.612435565298208
 20
1.169002125127302
 30
0.0
 10
5.464409003228756
 20
1.131569727955031
 30
0.0
 10
5.313909182726276
 20
1.086260368110322
 30
0.0
 10
5.016710487249215
 20
0.9824666572296673
 30
0.0
 10
4.871467481135644
 20
0.9242693292743347
 30
0.0
 10
4.722526260723852
 20
0.8599693964897188
 30
0.0
1001
PE_URL
1000

  0
LINE
  5
AB
330
1F
100
AcDbEntity
  8
0
  6
Continuous
 62
     4
370
    15
100
AcDbLine
 10
4.722526260723852
 20
-0.5572687896859503
 30
0.0
 11
4.722526260723852
 21
1.299999999999999
 31
0.0
1001
PE_URL
1000

  0
SPLINE
  5
AC
330
1F
100
AcDbEntity
  8
0
  6
Continuous
 62
     4
370
    15
100
AcDbSpline
210
0.0
220
0.0
230
1.0
 70
     8
 71
     3
 72
    10
 73
     6
 74
     0
 42
0.000000001
 43
0.00000001
 40
0.0
 40
0.0
 40
0.0
 40
0.0
 40
0.5
 40
0.5
 40
1.0
 40
1.0
 40
1.0
 40
1.0
 10
5.612435565298208
 20
-0.9664671245271045
 30
0.0
 10
5.464424759850134
 20
-0.9092465006971577
 30
0.0
 10
5.313941221948113
 20
-0.8453704677683167
 30
0.0
 10
5.016773353704142
 20
-0.7079765307608415
 30
0.0
 10
4.871546130603017
 20
-0.6347729430700026
 30
0.0
 10
4.722621384416438
 20
-0.5573191249626672
 30
0.0
1001
PE_URL
1000

  0
LINE
  5
AD
330
1F
100
AcDbEntity
  8
0
  6
Continuous
 62
     4
370
    15
100
AcDbLine
 10
5.612435565298208
 20
-0.9664671245271038
 30
0.0
 11
5.612435565298208
 21
-1.169002125127303
 31
0.0
1001
PE_URL
1000

  0
SPLINE
  5
AE
330
1F
100
AcDbEntity
  8
0
  6
Continuous
 62
     4
370
    15
100
AcDbSpline
210
0.0
220
0.0
230
1.0
 70
     8
 71
     3
 72
    10
 73
     6
 74
     0
 42
0.000000001
 43
0.00000001
 40
0.0
 40
0.0
 40
0.0
 40
0.0
 40
0.5
 40
0.5
 40
1.0
 40
1.0
 40
1.0
 40
1.0
 10
5.612435565298208
 20
-1.169002125127303
 30
0.0
 10
5.464409003228759
 20
-1.131569727955032
 30
0.0
 10
5.313909182726276
 20
-1.086260368110323
 30
0.0
 10
5.016710487249215
 20
-0.9824666572296685
 30
0.0
 10
4.871467481135644
 20
-0.9242693292743356
 30
0.0
 10
4.722526260723852
 20
-0.8599693964897197
 30
0.0
1001
PE_URL
1000

  0
LINE
  5
AF
330
1F
100
AcDbEntity
  8
0
  6
Continuous
 62
     4
370
    15
100
AcDbLine
 10
4.722526260723852
 20
-1.3
 30
0.0
 11
4.722526260723852
 21
-0.8596362778178048
 31
0.0
1001
PE_URL
1000

  0
SPLINE
  5
B0
330
1F
100
AcDbEntity
  8
0
  6
Continuous
 62
     4
370
    15
100
AcDbSpline
210
0.0
220
0.0
230
1.0
 70
    24
 71
     3
 72
     8
 73
     4
 74
     0
 42
0.000000001
 43
0.00000001
 40
0.0
 40
0.0
 40
0.0
 40
0.0
 40
1.0
 40
1.0
 40
1.0
 40
1.0
 10
5.612435565298236
 20
-0.7754607048214912
 30
0.0
 10
5.612435565298236
 20
-0.8365971593784899
 30
0.0
 10
5.612435565298236
 20
-0.9006639304663835
 30
0.0
 10
5.612435565298236
 20
-0.9664671245267736
 30
0.0
1001
PE_URL
1000

  0
SPLINE
  5
B1
330
1F
100
AcDbEntity
  8
0
  6
Continuous
 62
     4
370
    15
100
AcDbSpline
210
0.0
220
0.0
230
1.0
 70
     8
 71
     3
 72
    10
 73
     6
 74
     0
 42
0.000000001
 43
0.00000001
 40
0.0
 40
0.0
 40
0.0
 40
0.0
 40
0.5
 40
0.5
 40
1.0
 40
1.0
 40
1.0
 40
1.0
 10
5.612435565298204
 20
-0.7754607048214799
 30
0.0
 10
5.464424759850131
 20
-0.723653007711485
 30
0.0
 10
5.313941221948109
 20
-0.6664727979067234
 30
0.0
 10
5.016773353704142
 20
-0.5446561824316163
 30
0.0
 10
4.871546130603017
 20
-0.4802892343715885
 30
0.0
 10
4.722621384416438
 20
-0.4126902386892062
 30
0.0
  0
SPLINE
  5
B2
330
1F
100
AcDbEntity
  8
0
  6
Continuous
 62
     4
370
    15
100
AcDbSpline
210
0.0
220
0.0
230
1.0
 70
    24
 71
     3
 72
    10
 73
     6
 74
     0
 42
0.000000001
 43
0.00000001
 40
0.0
 40
0.0
 40
0.0
 40
0.0
 40
0.5
 40
0.5
 40
1.0
 40
1.0
 40
1.0
 40
1.0
 10
5.612435565298062
 20
0.4161436985930625
 30
0.0
 10
5.612435565298062
 20
0.2243376485960996
 30
0.0
 10
5.612435565298062
 20
0.0103067668114005
 30
0.0
 10
5.612435565298062
 20
-0.4062180192048176
 30
0.0
 10
5.612435565298062
 20
-0.606919037926354
 30
0.0
 10
5.612435565298062
 20
-0.7754607048214306
 30
0.0
1001
PE_URL
1000

  0
SPLINE
  5
B3
330
1F
100
AcDbEntity
  8
0
  6
Continuous
 62
     4
370
    15
100
AcDbSpline
210
0.0
220
0.0
230
1.0
 70
     8
 71
     3
 72
    10
 73
     6
 74
     0
 42
0.000000001
 43
0.00000001
 40
0.0
 40
0.0
 40
0.0
 40
0.0
 40
0.5
 40
0.5
 40
1.0
 40
1.0
 40
1.0
 40
1.0
 10
5.612435565298187
 20
0.41614369859301
 30
0.0
 10
5.464414754502279
 20
0.478874712918627
 30
0.0
 10
5.313920877265623
 20
0.5392203462292287
 30
0.0
 10
5.016733433894872
 20
0.6516078223284213
 30
0.0
 10
4.871496188800309
 20
0.7035293444234295
 30
0.0
 10
4.722560981561939
 20
0.750979517973677
 30
0.0
1001
PE_URL
1000

  0
SPLINE
  5
B4
330
1F
100
AcDbEntity
  8
0
  6
Continuous
 62
     4
370
    15
100
AcDbSpline
210
0.0
220
0.0
230
1.0
 70
    24
 71
     3
 72
    12
 73
     8
 74
     0
 42
0.000000001
 43
0.00000001
 40
0.0
 40
0.0
 40
0.0
 40
0.0
 40
0.1700227173744955
 40
0.375626713373321
 40
0.5871932391847163
 40
0.7935966195923582
 40
1.0
 40
1.0
 40
1.0
 40
1.0
 10
5.612435565298208
 20
0.858365269047158
 30
0.0
 10
5.612435565298208
 20
0.8569074428702685
 30
0.0
 10
5.612435565298208
 20
0.8536867058772906
 30
0.0
 10
5.612435565298204
 20
0.8001150522692475
 30
0.0
 10
5.612435565298208
 20
0.7085351715218832
 30
0.0
 10
5.612435565298208
 20
0.5811049965745111
 30
0.0
 10
5.612435565298208
 20
0.4711307979201713
 30
0.0
 10
5.612435565298208
 20
0.4161436985930015
 30
0.0
1001
PE_URL
1000

  0
SPLINE
  5
B5
330
1F
100
AcDbEntity
  8
0
  6
Continuous
 62
     4
370
    15
100
AcDbSpline
210
0.0
220
0.0
230
1.0
 70
    24
 71
     3
 72
    11
 73
     7
 74
     0
 42
0.000000001
 43
0.00000001
 40
0.0
 40
0.0
 40
0.0
 40
0.0
 40
0.0928435419913949
 40
0.5779861485018591
 40
0.8419877854287567
 40
1.0
 40
1.0
 40
1.0
 40
1.0
 10
5.612435565298208
 20
1.169002125127304
 30
0.0
 10
5.612435565298208
 20
1.158043244593481
 30
0.0
 10
5.612435565298208
 20
1.089820070253333
 30
0.0
 10
5.612435565298204
 20
0.9952292843460342
 30
0.0
 10
5.612435565298208
 20
0.9066266985484827
 30
0.0
 10
5.612435565298208
 20
0.8739166225918367
 30
0.0
 10
5.612435565298208
 20
0.8616691773424573
 30
0.0
1001
PE_URL
1000

  0
SPLINE
  5
B6
330
1F
100
AcDbEntity
  8
0
  6
Continuous
 62
     1
370
    15
100
AcDbSpline
210
0.0
220
0.0
230
1.0
 70
     8
 71
     3
 72
    17
 73
    13
 74
     0
 42
0.000000001
 43
0.00000001
 40
0.0
 40
0.0
 40
0.0
 40
0.0
 40
0.1009348471156186
 40
0.2016652741067567
 40
0.3023113102195378
 40
0.4029946462768221
 40
0.5038362376893525
 40
0.6048336032989012
 40
0.7056291706667039
 40
0.8164139550541046
 40
0.9271787774269303
 40
1.0
 40
1.0
 40
1.0
 40
1.0
 10
13.61243556529821
 20
-1.23362313000147
 30
0.0
 10
13.39867145561393
 20
-1.185098689520705
 30
0.0
 10
12.97157616587432
 20
-1.088148083559801
 30
0.0
 10
12.33169669595891
 20
-0.8286545073511999
 30
0.0
 10
11.69242928028187
 20
-0.5098317797236391
 30
0.0
 10
11.05288450700477
 20
-0.1481569589804097
 30
0.0
 10
10.41239927874211
 20
0.2250674067567271
 30
0.0
 10
9.771299144343025
 20
0.579607216568183
 30
0.0
 10
9.109677701377711
 20
0.8996279363612137
 30
0.0
 10
8.427167409080315
 20
1.144883756665592
 30
0.0
 10
7.803980780907283
 20
1.286944969378269
 30
0.0
 10
7.415310749343229
 20
1.286075980217714
 30
0.0
 10
7.261140932762947
 20
1.285731287062562
 30
0.0
  0
SPLINE
  5
B7
330
1F
100
AcDbEntity
  8
0
  6
Continuous
 62
     1
370
    15
100
AcDbSpline
210
0.0
220
0.0
230
1.0
 70
     8
 71
     3
 72
    14
 73
    10
 74
     0
 42
0.000000001
 43
0.00000001
 40
0.0
 40
0.0
 40
0.0
 40
0.0
 40
0.1646016139910979
 40
0.3285432361561472
 40
0.4927601209465792
 40
0.6576336624059207
 40
0.8217351736030821
 40
0.9857249149323576
 40
1.0
 40
1.0
 40
1.0
 40
1.0
 10
13.61243556529821
 20
-1.02566394367868
 30
0.0
 10
13.42683697592529
 20
-0.9858214136233795
 30
0.0
 10
13.05638397914064
 20
-0.9062961073786607
 30
0.0
 10
12.50131119056876
 20
-0.7148265667777639
 30
0.0
 10
11.94574129633953
 20
-0.4846739867262536
 30
0.0
 10
11.38937526656089
 20
-0.224382026511605
 30
0.0
 10
10.83394785183716
 20
0.047755555317317
 30
0.0
 10
10.44834382135848
 20
0.2418613801501073
 30
0.0
 10
10.24733680257129
 20
0.3314343810371914
 30
0.0
 10
10.23124056894867
 20
0.3386072049378531
 30
0.0
  0
LINE
  5
B8
330
1F
100
AcDbEntity
  8
0
  6
Continuous
 62
     1
370
    15
100
AcDbLine
 10
13.61243556529814
 20
-1.23362313000147
 30
0.0
 11
13.61243556529821
 21
-1.02566394367868
 31
0.0
  0
SPLINE
  5
B9
330
1F
100
AcDbEntity
  8
0
  6
Continuous
 62
     1
370
    15
100
AcDbSpline
210
0.0
220
0.0
230
1.0
 70
     8
 71
     3
 72
    38
 73
    34
 74
     0
 42
0.000000001
 43
0.00000001
 40
0.0
 40
0.0
 40
0.0
 40
0.0
 40
0.0625
 40
0.0625
 40
0.1250000000000001
 40
0.1250000000000001
 40
0.1875000000000001
 40
0.1875000000000001
 40
0.2500000000000002
 40
0.2500000000000002
 40
0.3125000000000002
 40
0.3125000000000002
 40
0.3750000000000002
 40
0.3750000000000002
 40
0.4375000000000003
 40
0.4375000000000003
 40
0.5000000000000003
 40
0.5000000000000003
 40
0.5625000000000003
 40
0.5625000000000003
 40
0.6250000000000004
 40
0.6250000000000004
 40
0.6875000000000003
 40
0.6875000000000003
 40
0.7500000000000002
 40
0.7500000000000002
 40
0.8125000000000002
 40
0.8125000000000002
 40
0.8750000000000001
 40
0.8750000000000001
 40
0.9375000000000001
 40
0.9375000000000001
 40
1.0
 40
1.0
 40
1.0
 40
1.0
 10
13.61243556529821
 20
-1.298901259798537
 30
0.0
 10
13.44827769819913
 20
-1.294965382762452
 30
0.0
 10
13.279286494382
 20
-1.280290153101252
 30
0.0
 10
12.94392634998927
 20
-1.230091977204193
 30
0.0
 10
12.78054722944969
 20
-1.194917296693805
 30
0.0
 10
12.44620799654819
 20
-1.10507356913609
 30
0.0
 10
12.2768222065182
 20
-1.050371177235441
 30
0.0
 10
11.94600069569976
 20
-0.9255922004820373
 30
0.0
 10
11.77981909395311
 20
-0.8550013977207952
 30
0.0
 10
11.44394912921916
 20
-0.7003805543372549
 30
0.0
 10
11.27962245947062
 20
-0.6172258373485252
 30
0.0
 10
10.94681004518308
 20
-0.4415290449954644
 30
0.0
 10
10.7772938252183
 20
-0.3487428345599685
 30
0.0
 10
10.44445473037686
 20
-0.1600888426547409
 30
0.0
 10
10.28014931638606
 20
-0.0640749198085959
 30
0.0
 10
9.944283218476961
 20
0.1288199981448022
 30
0.0
 10
9.778066238115143
 20
0.2246604324275935
 30
0.0
 10
9.447278832656268
 20
0.4108168203815297
 30
0.0
 10
9.27789702481026
 20
0.5020030700003559
 30
0.0
 10
8.943538670639668
 20
0.673840207919844
 30
0.0
 10
8.780166575695509
 20
0.754298783326512
 30
0.0
 10
8.444818012069254
 20
0.9029027755880783
 30
0.0
 10
8.275818924142248
 20
0.9704670426191604
 30
0.0
 10
7.947461938091321
 20
1.087504943119928
 30
0.0
 10
7.778519849690721
 20
1.138107830814032
 30
0.0
 10
7.443148240231034
 20
1.219432413444069
 30
0.0
 10
7.279761879592442
 20
1.250082313725902
 30
0.0
 10
6.945441882485454
 20
1.290898622215937
 30
0.0
 10
6.776052170071415
 20
1.300802451931614
 30
0.0
 10
6.445196664406833
 20
1.299094689550802
 30
0.0
 10
6.27905022997304
 20
1.287578161179097
 30
0.0
 10
5.943176514701712
 20
1.243419153289058
 30
0.0
 10
5.778828375776193
 20
1.211078909735057
 30
0.0
 10
5.612435565298208
 20
1.169002125127304
 30
0.0
  0
SPLINE
  5
BA
330
1F
100
AcDbEntity
  8
0
  6
Continuous
 62
     1
370
    15
100
AcDbSpline
210
0.0
220
0.0
230
1.0
 70
     8
 71
     3
 72
    14
 73
    10
 74
     0
 42
0.000000001
 43
0.00000001
 40
0.0
 40
0.0
 40
0.0
 40
0.0
 40
0.1109226534679242
 40
0.281799617552687
 40
0.4526610219803678
 40
0.6235125758861743
 40
0.794360007746494
 40
0.9479649098263574
 40
1.0
 40
1.0
 40
1.0
 40
1.0
 10
10.38768778474372
 20
-0.1248643439560472
 30
0.0
 10
10.22741266328751
 20
-0.060620456876848
 30
0.0
 10
9.820232826549926
 20
0.1025914952628606
 30
0.0
 10
9.166183462799198
 20
0.3642601540681606
 30
0.0
 10
8.425542297508292
 20
0.6193412750261914
 30
0.0
 10
7.684970526195546
 20
0.8100883827130589
 30
0.0
 10
6.969254622361229
 20
0.9043866147227593
 30
0.0
 10
6.425440761539786
 20
0.9241670107236075
 30
0.0
 10
6.128343267553344
 20
0.889111002699803
 30
0.0
 10
6.053165794920055
 20
0.8802404395439851
 30
0.0
  0
SPLINE
  5
BB
330
1F
100
AcDbEntity
  8
0
  6
Continuous
 62
     4
370
    15
100
AcDbSpline
210
0.0
220
0.0
230
1.0
 70
    24
 71
     3
 72
    11
 73
     7
 74
     0
 42
0.000000001
 43
0.00000001
 40
0.0
 40
0.0
 40
0.0
 40
0.0
 40
0.0928435419822161
 40
0.5779861484826663
 40
0.8419877854184105
 40
1.0
 40
1.0
 40
1.0
 40
1.0
 10
5.612435565298208
 20
1.169002125127304
 30
0.0
 10
5.612435565298208
 20
1.158043244594556
 30
0.0
 10
5.612435565298208
 20
1.089820070256618
 30
0.0
 10
5.612435565298204
 20
0.9952292843501246
 30
0.0
 10
5.612435565298208
 20
0.9066266985509004
 30
0.0
 10
5.612435565298208
 20
0.8739166225926737
 30
0.0
 10
5.612435565298208
 20
0.8616691773424574
 30
0.0
1001
PE_URL
1000

  0
LINE
  5
BC
330
1F
100
AcDbEntity
  8
0
  6
Continuous
 62
     1
370
    15
100
AcDbLine
 10
13.61243556529821
 20
-1.298901259798539
 30
0.0
 11
13.61243556529819
 21
-1.233623130001466
 31
0.0
  0
SPLINE
  5
BD
330
1F
100
AcDbEntity
  8
0
  6
Continuous
 62
     1
370
    15
100
AcDbSpline
210
0.0
220
0.0
230
1.0
 70
     8
 71
     3
 72
     8
 73
     4
 74
     0
 42
0.000000001
 43
0.00000001
 40
0.0
 40
0.0
 40
0.0
 40
0.0
 40
1.0
 40
1.0
 40
1.0
 40
1.0
 10
12.80786172541061
 20
0.3638358750532902
 30
0.0
 10
12.74956967714483
 20
0.4328375071630178
 30
0.0
 10
12.69901005380421
 20
0.4987875374595505
 30
0.0
 10
12.65912964028917
 20
0.5601090687364875
 30
0.0
  0
LINE
  5
BE
330
1F
100
AcDbEntity
  8
0
  6
Continuous
 62
     1
370
    15
100
AcDbLine
 10
12.65912964028917
 20
0.5601090687364872
 30
0.0
 11
13.61243556529821
 21
0.0000000000000006
 31
0.0
  0
LINE
  5
BF
330
1F
100
AcDbEntity
  8
0
  6
Continuous
 62
     1
370
    15
100
AcDbLine
 10
13.61243556529821
 20
0.0000000000000006
 30
0.0
 11
13.61243556529821
 21
-0.3474158298385376
 31
0.0
  0
SPLINE
  5
C0
330
1F
100
AcDbEntity
  8
0
  6
Continuous
 62
     1
370
    15
100
AcDbSpline
210
0.0
220
0.0
230
1.0
 70
     8
 71
     3
 72
    10
 73
     6
 74
     0
 42
0.000000001
 43
0.00000001
 40
0.0
 40
0.0
 40
0.0
 40
0.0
 40
0.5
 40
0.5
 40
1.0
 40
1.0
 40
1.0
 40
1.0
 10
13.61243556529821
 20
-0.3474158298385377
 30
0.0
 10
13.47315786126518
 20
-0.2379177555193425
 30
0.0
 10
13.33620862310415
 20
-0.1239265551233611
 30
0.0
 10
13.06707494896537
 20
0.11325025010357
 30
0.0
 10
12.93362551557259
 20
0.2376834519740568
 30
0.0
 10
12.80786172540941
 20
0.363835875050437
 30
0.0
  0
SPLINE
  5
C1
330
1F
100
AcDbEntity
  8
0
  6
Continuous
 62
     1
370
    15
100
AcDbSpline
210
0.0
220
0.0
230
1.0
 70
     8
 71
     3
 72
    13
 73
     9
 74
     0
 42
0.000000001
 43
0.00000001
 40
0.0
 40
0.0
 40
0.0
 40
0.0
 40
0.1023327418390269
 40
0.2877822239925045
 40
0.4739836672377288
 40
0.6593011191938265
 40
0.8444904969770978
 40
0.9999999999999999
 40
0.9999999999999999
 40
0.9999999999999999
 40
0.9999999999999999
 10
12.80786172540681
 20
0.363835875054951
 30
0.0
 10
12.70577085030578
 20
0.4073531119967906
 30
0.0
 10
12.41866880888745
 20
0.5297331733932817
 30
0.0
 10
11.94571290840491
 20
0.7087424996815542
 30
0.0
 10
11.38937713201208
 20
0.8767453082617237
 30
0.0
 10
10.83395484849809
 20
0.9904731056241383
 30
0.0
 10
10.30921132174942
 20
1.0471788769167
 30
0.0
 10
9.969004976088469
 20
1.034453380105689
 30
0.0
 10
9.813720287116833
 20
1.028644920506065
 30
0.0
  0
SPLINE
  5
C2
330
1F
100
AcDbEntity
  8
0
  6
Continuous
 62
     1
370
    15
100
AcDbSpline
210
0.0
220
0.0
230
1.0
 70
    24
 71
     3
 72
    10
 73
     6
 74
     0
 42
0.000000001
 43
0.00000001
 40
0.0
 40
0.0
 40
0.0
 40
0.0
 40
0.5
 40
0.5
 40
1.0
 40
1.0
 40
1.0
 40
1.0
 10
13.61243556529821
 20
-1.02566394367868
 30
0.0
 10
13.61243556529821
 20
-0.9470388057049456
 30
0.0
 10
13.61243556529821
 20
-0.8476929290784082
 30
0.0
 10
13.61243556529821
 20
-0.6167233268958832
 30
0.0
 10
13.61243556529821
 20
-0.4852996759667019
 30
0.0
 10
13.61243556529821
 20
-0.3474158298385789
 30
0.0
  0
SPLINE
  5
C3
330
1F
100
AcDbEntity
  8
0
  6
Continuous
 62
     1
370
    15
100
AcDbSpline
210
0.0
220
0.0
230
1.0
 70
     8
 71
     3
 72
    12
 73
     8
 74
     0
 42
0.000000001
 43
0.00000001
 40
0.0
 40
0.0
 40
0.0
 40
0.0
 40
0.1611897299496677
 40
0.4077380800201132
 40
0.6543644320998756
 40
0.9021784533770678
 40
1.0
 40
1.0
 40
1.0
 40
1.0
 10
7.861601832819661
 20
-1.07403861582019
 30
0.0
 10
7.740674633641325
 20
-1.086439121851262
 30
0.0
 10
7.434782787860692
 20
-1.117806867935121
 30
0.0
 10
6.944363724884882
 20
-1.092293477206112
 30
0.0
 10
6.389154852862335
 20
-1.005980032173754
 30
0.0
 10
5.944292565611491
 20
-0.8888181331742423
 30
0.0
 10
5.685639408387308
 20
-0.8004660516735462
 30
0.0
 10
5.612435565298204
 20
-0.7754607048214801
 30
0.0
  0
SPLINE
  5
C4
330
1F
100
AcDbEntity
  8
0
  6
Continuous
 62
     1
370
    15
100
AcDbSpline
210
0.0
220
0.0
230
1.0
 70
     8
 71
     3
 72
    18
 73
    14
 74
     0
 42
0.000000001
 43
0.00000001
 40
0.0
 40
0.0
 40
0.0
 40
0.0
 40
0.0047742197328074
 40
0.1104579026046111
 40
0.2166469354018939
 40
0.3226118481550013
 40
0.4282513406000185
 40
0.5341771886421406
 40
0.6403938307045404
 40
0.7460937513135807
 40
0.8518274610653341
 40
0.9580774881715343
 40
1.0
 40
1.0
 40
1.0
 40
1.0
 10
10.85888128266616
 20
-0.9764264975454965
 30
0.0
 10
10.85053321220455
 20
-0.9781535805509778
 30
0.0
 10
10.65738953520776
 20
-1.018111935441643
 30
0.0
 10
10.27874397056762
 20
-1.042268757154645
 30
0.0
 10
9.722506492102983
 20
-1.038848400977432
 30
0.0
 10
9.166681030376491
 20
-0.9660651943378176
 30
0.0
 10
8.611644566368817
 20
-0.836162357759566
 30
0.0
 10
8.055881069781302
 20
-0.6552396365725358
 30
0.0
 10
7.499630379325549
 20
-0.4354948676494727
 30
0.0
 10
6.944319096640104
 20
-0.1882378833857856
 30
0.0
 10
6.389072364621761
 20
0.070374335568064
 30
0.0
 10
5.944305909919303
 20
0.2727271792983595
 30
0.0
 10
5.685624416833473
 20
0.3845154120995384
 30
0.0
 10
5.612435565298187
 20
0.4161436985930101
 30
0.0
  0
SPLINE
  5
C5
330
1F
100
AcDbEntity
  8
0
  6
Continuous
 62
     4
370
    15
100
AcDbSpline
210
0.0
220
0.0
230
1.0
 70
    24
 71
     3
 72
    10
 73
     6
 74
     0
 42
0.000000001
 43
0.00000001
 40
0.0
 40
0.0
 40
0.0
 40
0.0
 40
0.5
 40
0.5
 40
1.0
 40
1.0
 40
1.0
 40
1.0
 10
5.612435565298062
 20
0.4161436985930625
 30
0.0
 10
5.612435565298062
 20
0.2243376485960996
 30
0.0
 10
5.612435565298062
 20
0.0103067668114005
 30
0.0
 10
5.612435565298062
 20
-0.4062180192048176
 30
0.0
 10
5.612435565298062
 20
-0.606919037926354
 30
0.0
 10
5.612435565298062
 20
-0.7754607048214306
 30
0.0
1001
PE_URL
1000

  0
SPLINE
  5
C6
330
1F
100
AcDbEntity
  8
0
  6
Continuous
 62
     4
370
    15
100
AcDbSpline
210
0.0
220
0.0
230
1.0
 70
    24
 71
     3
 72
    12
 73
     8
 74
     0
 42
0.000000001
 43
0.00000001
 40
0.0
 40
0.0
 40
0.0
 40
0.0
 40
0.1748733577785374
 40
0.3792757413102485
 40
0.5896058078115803
 40
0.7948029039057902
 40
1.0
 40
1.0
 40
1.0
 40
1.0
 10
5.612435565298208
 20
0.8587364331916665
 30
0.0
 10
5.612435565298208
 20
0.85726639566216
 30
0.0
 10
5.612435565298208
 20
0.8540780908177847
 30
0.0
 10
5.612435565298204
 20
0.8001577659323388
 30
0.0
 10
5.612435565298208
 20
0.7085239574236323
 30
0.0
 10
5.612435565298208
 20
0.5811077711797911
 30
0.0
 10
5.612435565298208
 20
0.4711317227885981
 30
0.0
 10
5.612435565298208
 20
0.4161436985930015
 30
0.0
1001
PE_URL
1000

  0
LINE
  5
C7
330
1F
100
AcDbEntity
  8
0
  6
Continuous
 62
     1
370
    15
100
AcDbLine
 10
13.61243556529821
 20
0.9100000000000006
 30
0.0
 11
13.12598521770746
 21
0.8779543849266307
 31
0.0
  0
SPLINE
  5
C8
330
1F
100
AcDbEntity
  8
0
  6
Continuous
 62
     1
370
    15
100
AcDbSpline
210
0.0
220
0.0
230
1.0
 70
     8
 71
     3
 72
     8
 73
     4
 74
     0
 42
0.000000001
 43
0.00000001
 40
0.0
 40
0.0
 40
0.0
 40
0.0
 40
1.0
 40
1.0
 40
1.0
 40
1.0
 10
13.61243556529821
 20
0.9100000000000006
 30
0.0
 10
13.2888795457103
 20
0.8220587020251907
 30
0.0
 10
12.96846488927726
 20
0.7115586376242775
 30
0.0
 10
12.65912964028815
 20
0.5601090687372463
 30
0.0
  0
SPLINE
  5
C9
330
1F
100
AcDbEntity
  8
0
  6
Continuous
 62
     1
370
    15
100
AcDbSpline
210
0.0
220
0.0
230
1.0
 70
     8
 71
     3
 72
    12
 73
     8
 74
     0
 42
0.000000001
 43
0.00000001
 40
0.0
 40
0.0
 40
0.0
 40
0.0
 40
0.0952703972645504
 40
0.3214040548168661
 40
0.5475409459820711
 40
0.7737250377536199
 40
1.0
 40
1.0
 40
1.0
 40
1.0
 10
8.723536545839563
 20
-1.023036227661948
 30
0.0
 10
8.624737996391763
 20
-1.06043330867709
 30
0.0
 10
8.291431373198291
 20
-1.186596039406608
 30
0.0
 10
7.723646522638438
 20
-1.290172327685827
 30
0.0
 10
7.020095585931792
 20
-1.313606682249377
 30
0.0
 10
6.316376920908693
 20
-1.210532048099328
 30
0.0
 10
5.847114098932247
 20
-1.047832991042734
 30
0.0
 10
5.612435565298258
 20
-0.9664671245271238
 30
0.0
  0
SPLINE
  5
CA
330
1F
100
AcDbEntity
  8
0
  6
Continuous
 62
     4
370
    15
100
AcDbSpline
210
0.0
220
0.0
230
1.0
 70
    24
 71
     3
 72
     8
 73
     4
 74
     0
 42
0.000000001
 43
0.00000001
 40
0.0
 40
0.0
 40
0.0
 40
0.0
 40
1.0
 40
1.0
 40
1.0
 40
1.0
 10
5.612435565298236
 20
-0.7754607048214912
 30
0.0
 10
5.612435565298236
 20
-0.8365971593784901
 30
0.0
 10
5.612435565298236
 20
-0.9006639304663838
 30
0.0
 10
5.612435565298236
 20
-0.9664671245267742
 30
0.0
1001
PE_URL
1000

  0
SPLINE
  5
CB
330
1F
100
AcDbEntity
  8
0
  6
Continuous
 62
     1
370
    15
100
AcDbSpline
210
0.0
220
0.0
230
1.0
 70
     8
 71
     3
 72
     9
 73
     5
 74
     0
 42
0.000000001
 43
0.00000001
 40
0.0
 40
0.0
 40
0.0
 40
0.0
 40
0.6277138660068917
 40
1.0
 40
1.0
 40
1.0
 40
1.0
 10
5.612435565298208
 20
-1.169002125127305
 30
0.0
 10
5.825683414880235
 20
-1.217281621907638
 30
0.0
 10
6.165404840724419
 20
-1.294194845264413
 30
0.0
 10
6.505036859739461
 20
-1.289218341544459
 30
0.0
 10
6.631477151078846
 20
-1.287365658213755
 30
0.0
  0
SPLINE
  5
CC
330
1F
100
AcDbEntity
  8
0
  6
Continuous
 62
     1
370
    15
100
AcDbSpline
210
0.0
220
0.0
230
1.0
 70
     8
 71
     3
 72
    10
 73
     6
 74
     0
 42
0.000000001
 43
0.00000001
 40
0.0
 40
0.0
 40
0.0
 40
0.0
 40
0.202975646427512
 40
0.6013428509137646
 40
1.0
 40
1.0
 40
1.0
 40
1.0
 10
11.84423061039694
 20
0.8703171337259573
 30
0.0
 10
11.96384602487111
 20
0.922931747352457
 30
0.0
 10
12.31822289529441
 20
1.078809668249655
 30
0.0
 10
12.90760113773468
 20
1.24275580801906
 30
0.0
 10
13.3774337835984
 20
1.280181570909151
 30
0.0
 10
13.61243556529821
 20
1.298901259798538
 30
0.0
  0
LINE
  5
CD
330
1F
100
AcDbEntity
  8
0
  6
Continuous
 62
     1
370
    15
100
AcDbLine
 10
13.61243556529821
 20
0.0000000000000006
 30
0.0
 11
13.61243556529821
 21
0.9100000000000004
 31
0.0
  0
SPLINE
  5
CE
330
1F
100
AcDbEntity
  8
0
  6
Continuous
 62
     1
370
    15
100
AcDbSpline
210
0.0
220
0.0
230
1.0
 70
    24
 71
     3
 72
    10
 73
     6
 74
     0
 42
0.000000001
 43
0.00000001
 40
0.0
 40
0.0
 40
0.0
 40
0.0
 40
0.5
 40
0.5
 40
1.0
 40
1.0
 40
1.0
 40
1.0
 10
13.61243556529821
 20
0.9100000000000004
 30
0.0
 10
13.61243556529821
 20
0.9651619338495083
 30
0.0
 10
13.61243556529821
 20
1.029265209527253
 30
0.0
 10
13.6124355652982
 20
1.163753709249113
 30
0.0
 10
13.61243556529821
 20
1.233795466541915
 30
0.0
 10
13.61243556529821
 20
1.298901259798539
 30
0.0
  0
LINE
  5
CF
330
1F
100
AcDbEntity
  8
중심선
100
AcDbLine
 10
-39.38756443470178
 20
-0.0000000000000044
 30
0.0
 11
15.11243556529821
 21
0.0000000000000007
 31
0.0
  0
CIRCLE
  5
D0
330
1F
100
AcDbEntity
  8
외형선
100
AcDbCircle
 10
0.0
 20
0.0
 30
0.0
 40
3.000000000000004
  0
INSERT
  5
D1
330
1F
100
AcDbEntity
  8
0
  6
Continuous
 62
     7
100
AcDbBlockReference
 66
     1
  2
블럭10
 10
-28.3258378742134
 20
-52.04717430164393
 30
0.0
  0
ATTRIB
  5
D2
330
D1
100
AcDbEntity
  8
FORMAT
 62
     2
100
AcDbText
 10
-44.33142540548169
 20
-49.97180738881174
 30
0.0
 40
4.233333333333333
  1
SEME350264SE [ 2 FLUTE ]
 41
0.75
  7
SLDTEXTSTYLE0
 11
-44.33142540548169
 21
-52.08847405547841
 31
0.0
100
AcDbAttribute
  2
AUTOATTR0
 70
     0
 74
     1
  0
SEQEND
  5
D3
330
D1
100
AcDbEntity
  8
0
  6
Continuous
 62
     7
  0
HATCH
  5
D4
330
1F
100
AcDbEntity
  8
중심선
100
AcDbHatch
 10
0.0
 20
0.0
 30
0.0
210
0.0
220
0.0
230
1.0
  2
SOLID
 70
     1
 71
     0
 91
        1
 92
        0
 93
        4
 72
     1
 10
-22.61092856983255
 20
-35.8
 11
-26.05720381366983
 21
-35.8
 72
     1
 10
-26.05720381366983
 20
-35.8
 11
-28.18543367287385
 21
-38.33632558057259
 72
     1
 10
-28.18543367287385
 20
-38.33632558057259
 11
-24.73912534392342
 21
-38.3362861512701
 72
     1
 10
-24.73912534392342
 20
-38.3362861512701
 11
-22.61092856983255
 21
-35.8
 97
        0
 75
     0
 76
     1
 98
        1
 10
-4.387564434701787
 20
-0.0000000000000009
  0
HATCH
  5
D5
330
1F
100
AcDbEntity
  8
중심선
100
AcDbHatch
 10
0.0
 20
0.0
 30
0.0
210
0.0
220
0.0
230
1.0
  2
SOLID
 70
     1
 71
     0
 91
        1
 92
        0
 93
        4
 72
     1
 10
-17.5981645787966
 20
-35.8
 11
-21.04443982263388
 21
-35.8
 72
     1
 10
-21.04443982263388
 20
-35.8
 11
-25.57557783099126
 21
-41.20000000000002
 72
     1
 10
-25.57557783099126
 20
-41.20000000000002
 11
-22.12930258715398
 21
-41.20000000000002
 72
     1
 10
-22.12930258715398
 20
-41.20000000000002
 11
-17.5981645787966
 21
-35.8
 97
        0
 75
     0
 76
     1
 98
        1
 10
-4.387564434701787
 20
-0.0000000000000009
  0
HATCH
  5
D6
330
1F
100
AcDbEntity
  8
중심선
100
AcDbHatch
 10
0.0
 20
0.0
 30
0.0
210
0.0
220
0.0
230
1.0
  2
SOLID
 70
     1
 71
     0
 91
        1
 92
        0
 93
        4
 72
     1
 10
-12.5854005877607
 20
-35.80000000000003
 11
-16.03167583159782
 21
-35.8
 72
     1
 10
-16.03167583159782
 20
-35.8
 11
-23.08011273348706
 21
-44.20000000000002
 72
     1
 10
-23.08011273348706
 20
-44.20000000000002
 11
-19.63383748964978
 21
-44.20000000000002
 72
     1
 10
-19.63383748964978
 20
-44.20000000000002
 11
-12.5854005877607
 21
-35.80000000000003
 97
        0
 75
     0
 76
     1
 98
        1
 10
-4.387564434701787
 20
-0.0000000000000009
  0
HATCH
  5
D7
330
1F
100
AcDbEntity
  8
중심선
100
AcDbHatch
 10
0.0
 20
0.0
 30
0.0
210
0.0
220
0.0
230
1.0
  2
SOLID
 70
     1
 71
     0
 91
        1
 92
        0
 93
        6
 72
     3
 10
-7.785510156748501
 20
-40.00000000005127
 11
3.960054785062284
 21
1.540882976769353E-10
 40
0.3939339440162627
 50
17.09539180608437
 51
320.0019657685081
 73
     0
 72
     1
 10
-6.102510501047905
 20
-38.5878940046383
 11
-3.797208627346867
 21
-36.65356729459038
 72
     3
 10
-7.785510156801347
 20
-40.00000000000015
 11
6.600054785286829
 21
-1.278976924368180E-13
 40
0.636358354079598
 50
39.9987384933741
 51
368.4976242363725
 73
     1
 72
     1
 10
-1.360177664900737
 20
-39.03999999993002
 11
-9.105442849965424
 21
-39.03999999992999
 72
     1
 10
-9.105442849965424
 20
-39.03999999992999
 11
-9.105467894411358
 21
-40.95999999992991
 72
     1
 10
-9.105467894411358
 20
-40.95999999992991
 11
-4.664088124939322
 21
-40.95999999992988
 97
        0
 75
     0
 76
     1
 98
        1
 10
-4.387564434701787
 20
-0.0000000000000009
  0
DIMENSION
  5
D8
330
1F
100
AcDbEntity
  8
치수문자_일반주서
100
AcDbDimension
  2
_D
 10
5.612435565298204
 20
13.54953514837632
 30
0.0
 11
9.6124355652982
 21
13.54953514837632
 31
0.0
 70
   160
  1
<>
 71
     2
 42
8.000000000000002
  3
SLDDIMSTYLE0
100
AcDbAlignedDimension
 13
13.61243556529821
 23
1.298901259798539
 33
0.0
 14
5.612435565298204
 24
0.8616692279686147
 34
0.0
100
AcDbRotatedDimension
  0
DIMENSION
  5
E5
330
1F
100
AcDbEntity
  8
치수문자_일반주서
100
AcDbDimension
  2
_D_1
 10
-36.38756443470179
 20
23.69415911661226
 30
0.0
 11
-11.38756443470178
 21
23.69415911661226
 31
0.0
 70
   160
  1
<>
 71
     2
 42
49.99999999999999
  3
SLDDIMSTYLE1
100
AcDbAlignedDimension
 13
13.61243556529821
 23
0.9100000000000004
 33
0.0
 14
-36.38756443470179
 24
1.569999999999995
 34
0.0
100
AcDbRotatedDimension
  0
DIMENSION
  5
F0
330
1F
100
AcDbEntity
  8
치수문자_일반주서
100
AcDbDimension
  2
_D_2
 10
29.43262587754449
 20
-1.29890125979848
 30
0.0
 11
29.43262587754443
 21
13.8091512597986
 31
0.0
 70
   160
  1
%%c<>
 71
     2
 42
2.597802519597077
 52
-270.0
  3
SLDDIMSTYLE2
100
AcDbAlignedDimension
 13
13.61243556529821
 23
1.298901259798539
 33
0.0
 14
13.61243556529821
 24
-1.298901259798539
 34
0.0
 50
90.0000000000002
100
AcDbRotatedDimension
  0
DIMENSION
  5
FE
330
1F
100
AcDbEntity
  8
치수문자_일반주서
100
AcDbDimension
  2
_D_3
 10
-48.37712388009032
 20
-2.000000000000049
 30
0.0
 11
-48.37712388009033
 21
-0.0000000000000038
 31
0.0
 70
   160
  1
%%c<>
 71
     2
 42
3.999999999999998
 52
-270.0
  3
SLDDIMSTYLE0
100
AcDbAlignedDimension
 13
-35.95756443470179
 23
1.999999999999996
 33
0.0
 14
-35.95756443470179
 24
-2.000000000000002
 34
0.0
 50
90.0000000000002
100
AcDbRotatedDimension
  0
INSERT
  5
111
330
1F
100
AcDbEntity
  8
외형선
100
AcDbBlockReference
  2
SW_DOWELSYMBOL_0
 10
0.0
 20
0.0
 30
0.0
  0
ENDSEC
  0
SECTION
  2
OBJECTS
  0
DICTIONARY
  5
C
330
0
100
AcDbDictionary
281
     1
  3
ACAD_GROUP
350
D
  3
ACAD_LAYOUT
350
1A
  3
ACAD_MLINESTYLE
350
17
  3
ACAD_PLOTSETTINGS
350
19
  3
ACAD_PLOTSTYLENAME
350
E
  3
ACAD_SCALELIST
350
47
  3
APPDATA
350
133
  3
DWGPROPS
350
144
  0
DICTIONARY
  5
D
102
{ACAD_REACTORS
330
C
102
}
330
C
100
AcDbDictionary
281
     1
  0
DICTIONARY
  5
1A
102
{ACAD_REACTORS
330
C
102
}
330
C
100
AcDbDictionary
281
     1
  3
Layout1
350
1E
  3
Layout2
350
26
  3
Model
350
22
  0
DICTIONARY
  5
17
102
{ACAD_REACTORS
330
C
102
}
330
C
100
AcDbDictionary
281
     1
  3
Standard
350
18
  0
DICTIONARY
  5
19
102
{ACAD_REACTORS
330
C
102
}
330
C
100
AcDbDictionary
281
     1
  0
ACDBDICTIONARYWDFLT
  5
E
102
{ACAD_REACTORS
330
C
102
}
330
C
100
AcDbDictionary
281
     1
  3
Normal
350
F
100
AcDbDictionaryWithDefault
340
F
  0
DICTIONARY
  5
47
102
{ACAD_REACTORS
330
C
102
}
330
C
100
AcDbDictionary
281
     1
  3
A0
350
48
  3
A1
350
49
  3
A2
350
4A
  3
A3
350
4B
  3
A4
350
4C
  3
A5
350
4D
  3
A6
350
4E
  3
A7
350
4F
  3
A8
350
50
  3
A9
350
51
  3
B0
350
52
  3
B1
350
53
  3
B2
350
54
  3
B3
350
55
  3
B4
350
56
  3
B5
350
57
  3
B6
350
58
  3
B7
350
59
  3
B8
350
5A
  3
B9
350
5B
  3
C0
350
5C
  3
C1
350
5D
  3
C2
350
5E
  3
C3
350
5F
  3
C4
350
60
  3
C5
350
61
  3
C6
350
62
  3
C7
350
63
  3
C8
350
64
  3
C9
350
65
  3
D0
350
66
  3
D1
350
67
  3
D2
350
68
  0
DICTIONARY
  5
133
102
{ACAD_REACTORS
330
C
102
}
330
C
100
AcDbDictionary
281
     1
  0
XRECORD
  5
144
102
{ACAD_REACTORS
330
C
102
}
330
C
100
AcDbXrecord
280
     1
  1
DWGPROPS COOKIE
  2

  3

  4

  6

  7

  8
12011908
  9

300
=
301
=
302
=
303
=
304
=
305
=
306
=
307
=
308
=
309
=
 40
0.0
 41
2458250.112645671
 42
2458264.18417191
  1

 90
        0
  0
LAYOUT
  5
1E
102
{ACAD_REACTORS
330
1A
102
}
330
1A
100
AcDbPlotSettings
  1

  2
none_device
  4

  6

 40
0.0
 41
0.0
 42
0.0
 43
0.0
 44
0.0
 45
0.0
 46
0.0
 47
0.0
 48
0.0
 49
0.0
140
0.0
141
0.0
142
1.0
143
1.0
 70
   688
 72
     1
 73
     0
 74
     5
  7

 75
    16
147
1.0
148
0.0
149
0.0
100
AcDbLayout
  1
Layout1
 70
     1
 71
     1
 10
0.0
 20
0.0
 11
420.0
 21
297.0
 12
0.0
 22
0.0
 32
0.0
 14
1.000000000000000E+20
 24
1.000000000000000E+20
 34
1.000000000000000E+20
 15
-1.000000000000000E+20
 25
-1.000000000000000E+20
 35
-1.000000000000000E+20
146
0.0
 13
0.0
 23
0.0
 33
0.0
 16
1.0
 26
0.0
 36
0.0
 17
0.0
 27
1.0
 37
0.0
 76
     0
330
1B
  0
LAYOUT
  5
26
102
{ACAD_REACTORS
330
1A
102
}
330
1A
100
AcDbPlotSettings
  1

  2
none_device
  4

  6

 40
0.0
 41
0.0
 42
0.0
 43
0.0
 44
0.0
 45
0.0
 46
0.0
 47
0.0
 48
0.0
 49
0.0
140
0.0
141
0.0
142
1.0
143
1.0
 70
   688
 72
     1
 73
     0
 74
     5
  7

 75
    16
147
1.0
148
0.0
149
0.0
100
AcDbLayout
  1
Layout2
 70
     1
 71
     2
 10
0.0
 20
0.0
 11
0.0
 21
0.0
 12
0.0
 22
0.0
 32
0.0
 14
0.0
 24
0.0
 34
0.0
 15
0.0
 25
0.0
 35
0.0
146
0.0
 13
0.0
 23
0.0
 33
0.0
 16
1.0
 26
0.0
 36
0.0
 17
0.0
 27
1.0
 37
0.0
 76
     0
330
23
  0
LAYOUT
  5
22
102
{ACAD_REACTORS
330
1A
102
}
330
1A
100
AcDbPlotSettings
  1

  2
none_device
  4
ANSI_A_(11.00_x_8.50_Inches)
  6

 40
6.35
 41
19.05
 42
6.35000508
 43
19.05000254
 44
279.4
 45
215.9
 46
152.2876648584294
 47
119.3813842075645
 48
0.0
 49
0.0
140
0.0
141
0.0
142
0.1066247089017645
143
1.0
 70
  1696
 72
     0
 73
     0
 74
     0
  7

 75
     0
147
0.0235690232323232
148
0.0
149
0.0
100
AcDbLayout
  1
Model
 70
     1
 71
     0
 10
0.0
 20
0.0
 11
420.0
 21
297.0
 12
0.0
 22
0.0
 32
0.0
 14
-52.75212388009034
 24
-49.97180738881174
 34
0.0
 15
29.98295921087784
 25
28.06915911661226
 35
0.0
146
0.0
 13
0.0
 23
0.0
 33
0.0
 16
1.0
 26
0.0
 36
0.0
 17
0.0
 27
1.0
 37
0.0
 76
     0
330
1F
331
29
  0
MLINESTYLE
  5
18
102
{ACAD_REACTORS
330
17
102
}
330
17
100
AcDbMlineStyle
  2
Standard
 70
     0
  3

 62
   256
 51
90.0
 52
90.0
 71
     2
 49
0.5
 62
   256
  6
BYLAYER
 49
-0.5
 62
   256
  6
BYLAYER
  0
ACDBPLACEHOLDER
  5
F
102
{ACAD_REACTORS
330
E
102
}
330
E
  0
SCALE
  5
48
102
{ACAD_REACTORS
330
47
102
}
330
47
100
AcDbScale
 70
     0
300
1:1
140
1.0
141
1.0
290
     1
  0
SCALE
  5
49
102
{ACAD_REACTORS
330
47
102
}
330
47
100
AcDbScale
 70
     0
300
1:2
140
1.0
141
2.0
290
     0
  0
SCALE
  5
4A
102
{ACAD_REACTORS
330
47
102
}
330
47
100
AcDbScale
 70
     0
300
1:4
140
1.0
141
4.0
290
     0
  0
SCALE
  5
4B
102
{ACAD_REACTORS
330
47
102
}
330
47
100
AcDbScale
 70
     0
300
1:5
140
1.0
141
5.0
290
     0
  0
SCALE
  5
4C
102
{ACAD_REACTORS
330
47
102
}
330
47
100
AcDbScale
 70
     0
300
1:8
140
1.0
141
8.0
290
     0
  0
SCALE
  5
4D
102
{ACAD_REACTORS
330
47
102
}
330
47
100
AcDbScale
 70
     0
300
1:10
140
1.0
141
10.0
290
     0
  0
SCALE
  5
4E
102
{ACAD_REACTORS
330
47
102
}
330
47
100
AcDbScale
 70
     0
300
1:16
140
1.0
141
16.0
290
     0
  0
SCALE
  5
4F
102
{ACAD_REACTORS
330
47
102
}
330
47
100
AcDbScale
 70
     0
300
1:20
140
1.0
141
20.0
290
     0
  0
SCALE
  5
50
102
{ACAD_REACTORS
330
47
102
}
330
47
100
AcDbScale
 70
     0
300
1:30
140
1.0
141
30.0
290
     0
  0
SCALE
  5
51
102
{ACAD_REACTORS
330
47
102
}
330
47
100
AcDbScale
 70
     0
300
1:40
140
1.0
141
40.0
290
     0
  0
SCALE
  5
52
102
{ACAD_REACTORS
330
47
102
}
330
47
100
AcDbScale
 70
     0
300
1:50
140
1.0
141
50.0
290
     0
  0
SCALE
  5
53
102
{ACAD_REACTORS
330
47
102
}
330
47
100
AcDbScale
 70
     0
300
1:100
140
1.0
141
100.0
290
     0
  0
SCALE
  5
54
102
{ACAD_REACTORS
330
47
102
}
330
47
100
AcDbScale
 70
     0
300
2:1
140
2.0
141
1.0
290
     0
  0
SCALE
  5
55
102
{ACAD_REACTORS
330
47
102
}
330
47
100
AcDbScale
 70
     0
300
4:1
140
4.0
141
1.0
290
     0
  0
SCALE
  5
56
102
{ACAD_REACTORS
330
47
102
}
330
47
100
AcDbScale
 70
     0
300
8:1
140
8.0
141
1.0
290
     0
  0
SCALE
  5
57
102
{ACAD_REACTORS
330
47
102
}
330
47
100
AcDbScale
 70
     0
300
10:1
140
10.0
141
1.0
290
     0
  0
SCALE
  5
58
102
{ACAD_REACTORS
330
47
102
}
330
47
100
AcDbScale
 70
     0
300
100:1
140
100.0
141
1.0
290
     0
  0
SCALE
  5
59
102
{ACAD_REACTORS
330
47
102
}
330
47
100
AcDbScale
 70
     0
300
1/128" = 1'-0"
140
0.0078125
141
12.0
290
     0
  0
SCALE
  5
5A
102
{ACAD_REACTORS
330
47
102
}
330
47
100
AcDbScale
 70
     0
300
1/64" = 1'-0"
140
0.015625
141
12.0
290
     0
  0
SCALE
  5
5B
102
{ACAD_REACTORS
330
47
102
}
330
47
100
AcDbScale
 70
     0
300
1/32" = 1'-0"
140
0.03125
141
12.0
290
     0
  0
SCALE
  5
5C
102
{ACAD_REACTORS
330
47
102
}
330
47
100
AcDbScale
 70
     0
300
1/16" = 1'-0"
140
0.0625
141
12.0
290
     0
  0
SCALE
  5
5D
102
{ACAD_REACTORS
330
47
102
}
330
47
100
AcDbScale
 70
     0
300
3/32" = 1'-0"
140
0.09375
141
12.0
290
     0
  0
SCALE
  5
5E
102
{ACAD_REACTORS
330
47
102
}
330
47
100
AcDbScale
 70
     0
300
1/8" = 1'-0"
140
0.125
141
12.0
290
     0
  0
SCALE
  5
5F
102
{ACAD_REACTORS
330
47
102
}
330
47
100
AcDbScale
 70
     0
300
3/16" = 1'-0"
140
0.1875
141
12.0
290
     0
  0
SCALE
  5
60
102
{ACAD_REACTORS
330
47
102
}
330
47
100
AcDbScale
 70
     0
300
1/4" = 1'-0"
140
0.25
141
12.0
290
     0
  0
SCALE
  5
61
102
{ACAD_REACTORS
330
47
102
}
330
47
100
AcDbScale
 70
     0
300
3/8" = 1'-0"
140
0.375
141
12.0
290
     0
  0
SCALE
  5
62
102
{ACAD_REACTORS
330
47
102
}
330
47
100
AcDbScale
 70
     0
300
1/2" = 1'-0"
140
0.5
141
12.0
290
     0
  0
SCALE
  5
63
102
{ACAD_REACTORS
330
47
102
}
330
47
100
AcDbScale
 70
     0
300
3/4" = 1'-0"
140
0.75
141
12.0
290
     0
  0
SCALE
  5
64
102
{ACAD_REACTORS
330
47
102
}
330
47
100
AcDbScale
 70
     0
300
1" = 1'-0"
140
1.0
141
12.0
290
     0
  0
SCALE
  5
65
102
{ACAD_REACTORS
330
47
102
}
330
47
100
AcDbScale
 70
     0
300
1-1/2" = 1'-0"
140
1.5
141
12.0
290
     0
  0
SCALE
  5
66
102
{ACAD_REACTORS
330
47
102
}
330
47
100
AcDbScale
 70
     0
300
3" = 1'-0"
140
3.0
141
12.0
290
     0
  0
SCALE
  5
67
102
{ACAD_REACTORS
330
47
102
}
330
47
100
AcDbScale
 70
     0
300
6" = 1'-0"
140
6.0
141
12.0
290
     0
  0
SCALE
  5
68
102
{ACAD_REACTORS
330
47
102
}
330
47
100
AcDbScale
 70
     0
300
1'-0" = 1'-0"
140
12.0
141
12.0
290
     0
  0
ENDSEC
  0
EOF
