  0
SECTION
  2
HEADER
  9
$ACADVER
  1
AC1015
  9
$ACADMAINTVER
 70
     6
  9
$DWGCODEPAGE
  3
ANSI_949
  9
$INSBASE
 10
0.0
 20
0.0
 30
0.0
  9
$EXTMIN
 10
-52.56552133971189
 20
-49.97180738881174
 30
0.0
  9
$EXTMAX
 10
30.40402328971783
 20
28.03415911661226
 30
0.0
  9
$LIMMIN
 10
0.0
 20
0.0
  9
$LIMMAX
 10
420.0
 20
297.0
  9
$ORTHOMODE
 70
     0
  9
$REGENMODE
 70
     1
  9
$FILLMODE
 70
     1
  9
$QTEXTMODE
 70
     0
  9
$MIRRTEXT
 70
     1
  9
$LTSCALE
 40
1.0
  9
$ATTMODE
 70
     1
  9
$TEXTSIZE
 40
3.5
  9
$TRACEWID
 40
1.0
  9
$TEXTSTYLE
  7
Standard
  9
$CLAYER
  8
0
  9
$CELTYPE
  6
ByLayer
  9
$CECOLOR
 62
   256
  9
$CELTSCALE
 40
1.0
  9
$DISPSILH
 70
     0
  9
$DIMSCALE
 40
1.0
  9
$DIMASZ
 40
3.302
  9
$DIMEXO
 40
1.0
  9
$DIMDLI
 40
3.75
  9
$DIMRND
 40
0.0
  9
$DIMDLE
 40
0.0
  9
$DIMEXE
 40
1.0
  9
$DIMTP
 40
0.0
  9
$DIMTM
 40
0.0
  9
$DIMTXT
 40
3.5
  9
$DIMCEN
 40
2.5
  9
$DIMTSZ
 40
0.0
  9
$DIMTOL
 70
     0
  9
$DIMLIM
 70
     0
  9
$DIMTIH
 70
     1
  9
$DIMTOH
 70
     1
  9
$DIMSE1
 70
     0
  9
$DIMSE2
 70
     0
  9
$DIMTAD
 70
     1
  9
$DIMZIN
 70
     0
  9
$DIMBLK
  1

  9
$DIMASO
 70
     1
  9
$DIMSHO
 70
     1
  9
$DIMPOST
  1

  9
$DIMAPOST
  1

  9
$DIMALT
 70
     0
  9
$DIMALTD
 70
     3
  9
$DIMALTF
 40
0.0393700787401575
  9
$DIMLFAC
 40
1.0
  9
$DIMTOFL
 70
     1
  9
$DIMTVP
 40
0.0
  9
$DIMTIX
 70
     0
  9
$DIMSOXD
 70
     0
  9
$DIMSAH
 70
     0
  9
$DIMBLK1
  1

  9
$DIMBLK2
  1

  9
$DIMSTYLE
  2
ISO-25
  9
$DIMCLRD
 70
     0
  9
$DIMCLRE
 70
     0
  9
$DIMCLRT
 70
     0
  9
$DIMTFAC
 40
1.0
  9
$DIMGAP
 40
1.524
  9
$DIMJUST
 70
     0
  9
$DIMSD1
 70
     0
  9
$DIMSD2
 70
     0
  9
$DIMTOLJ
 70
     0
  9
$DIMTZIN
 70
     0
  9
$DIMALTZ
 70
     0
  9
$DIMALTTZ
 70
     0
  9
$DIMUPT
 70
     0
  9
$DIMDEC
 70
     2
  9
$DIMTDEC
 70
     2
  9
$DIMALTU
 70
     2
  9
$DIMALTTD
 70
     3
  9
$DIMTXSTY
  7
Standard
  9
$DIMAUNIT
 70
     0
  9
$DIMADEC
 70
     2
  9
$DIMALTRND
 40
0.0
  9
$DIMAZIN
 70
     0
  9
$DIMDSEP
 70
    44
  9
$DIMATFIT
 70
     3
  9
$DIMFRAC
 70
     0
  9
$DIMLDRBLK
  1

  9
$DIMLUNIT
 70
     2
  9
$DIMLWD
 70
    -2
  9
$DIMLWE
 70
    -2
  9
$DIMTMOVE
 70
     0
  9
$LUNITS
 70
     2
  9
$LUPREC
 70
     2
  9
$SKETCHINC
 40
1.0
  9
$FILLETRAD
 40
10.0
  9
$AUNITS
 70
     0
  9
$AUPREC
 70
     2
  9
$MENU
  1
.
  9
$ELEVATION
 40
0.0
  9
$PELEVATION
 40
0.0
  9
$THICKNESS
 40
0.0
  9
$LIMCHECK
 70
     0
  9
$CHAMFERA
 40
0.0
  9
$CHAMFERB
 40
0.0
  9
$CHAMFERC
 40
0.0
  9
$CHAMFERD
 40
0.0
  9
$SKPOLY
 70
     0
  9
$TDCREATE
 40
2458250.48736081
  9
$TDUCREATE
 40
2458250.11236081
  9
$TDUPDATE
 40
2458264.508742257
  9
$TDUUPDATE
 40
2458264.133742257
  9
$TDINDWG
 40
0.0015901852
  9
$TDUSRTIMER
 40
0.0015901736
  9
$USRTIMER
 70
     1
  9
$ANGBASE
 50
0.0
  9
$ANGDIR
 70
     0
  9
$PDMODE
 70
     0
  9
$PDSIZE
 40
-1.0
  9
$PLINEWID
 40
0.0
  9
$SPLFRAME
 70
     0
  9
$SPLINETYPE
 70
     6
  9
$SPLINESEGS
 70
     8
  9
$HANDSEED
  5
14A
  9
$SURFTAB1
 70
     6
  9
$SURFTAB2
 70
     6
  9
$SURFTYPE
 70
     6
  9
$SURFU
 70
     6
  9
$SURFV
 70
     6
  9
$UCSBASE
  2

  9
$UCSNAME
  2

  9
$UCSORG
 10
0.0
 20
0.0
 30
0.0
  9
$UCSXDIR
 10
1.0
 20
0.0
 30
0.0
  9
$UCSYDIR
 10
0.0
 20
1.0
 30
0.0
  9
$UCSORTHOREF
  2

  9
$UCSORTHOVIEW
 70
     0
  9
$UCSORGTOP
 10
0.0
 20
0.0
 30
0.0
  9
$UCSORGBOTTOM
 10
0.0
 20
0.0
 30
0.0
  9
$UCSORGLEFT
 10
0.0
 20
0.0
 30
0.0
  9
$UCSORGRIGHT
 10
0.0
 20
0.0
 30
0.0
  9
$UCSORGFRONT
 10
0.0
 20
0.0
 30
0.0
  9
$UCSORGBACK
 10
0.0
 20
0.0
 30
0.0
  9
$PUCSBASE
  2

  9
$PUCSNAME
  2

  9
$PUCSORG
 10
0.0
 20
0.0
 30
0.0
  9
$PUCSXDIR
 10
1.0
 20
0.0
 30
0.0
  9
$PUCSYDIR
 10
0.0
 20
1.0
 30
0.0
  9
$PUCSORTHOREF
  2

  9
$PUCSORTHOVIEW
 70
     0
  9
$PUCSORGTOP
 10
0.0
 20
0.0
 30
0.0
  9
$PUCSORGBOTTOM
 10
0.0
 20
0.0
 30
0.0
  9
$PUCSORGLEFT
 10
0.0
 20
0.0
 30
0.0
  9
$PUCSORGRIGHT
 10
0.0
 20
0.0
 30
0.0
  9
$PUCSORGFRONT
 10
0.0
 20
0.0
 30
0.0
  9
$PUCSORGBACK
 10
0.0
 20
0.0
 30
0.0
  9
$USERI1
 70
     0
  9
$USERI2
 70
     0
  9
$USERI3
 70
     0
  9
$USERI4
 70
     0
  9
$USERI5
 70
     0
  9
$USERR1
 40
0.0
  9
$USERR2
 40
0.0
  9
$USERR3
 40
0.0
  9
$USERR4
 40
0.0
  9
$USERR5
 40
0.0
  9
$WORLDVIEW
 70
     1
  9
$SHADEDGE
 70
     3
  9
$SHADEDIF
 70
    70
  9
$TILEMODE
 70
     1
  9
$MAXACTVP
 70
    64
  9
$PINSBASE
 10
0.0
 20
0.0
 30
0.0
  9
$PLIMCHECK
 70
     0
  9
$PEXTMIN
 10
1.000000000000000E+20
 20
1.000000000000000E+20
 30
1.000000000000000E+20
  9
$PEXTMAX
 10
-1.000000000000000E+20
 20
-1.000000000000000E+20
 30
-1.000000000000000E+20
  9
$PLIMMIN
 10
0.0
 20
0.0
  9
$PLIMMAX
 10
0.0
 20
0.0
  9
$UNITMODE
 70
     0
  9
$VISRETAIN
 70
     1
  9
$PLINEGEN
 70
     0
  9
$PSLTSCALE
 70
     1
  9
$TREEDEPTH
 70
  3020
  9
$CMLSTYLE
  2
Standard
  9
$CMLJUST
 70
     0
  9
$CMLSCALE
 40
20.0
  9
$PROXYGRAPHICS
 70
     1
  9
$MEASUREMENT
 70
     1
  9
$CELWEIGHT
370
    -1
  9
$ENDCAPS
280
     0
  9
$JOINSTYLE
280
     0
  9
$LWDISPLAY
290
     1
  9
$INSUNITS
 70
     4
  9
$HYPERLINKBASE
  1

  9
$STYLESHEET
  1

  9
$XEDIT
290
     1
  9
$CEPSNTYPE
380
     0
  9
$PSTYLEMODE
290
     1
  9
$FINGERPRINTGUID
  2
{50A91639-B475-4ADD-952F-3BE1315A1C5E}
  9
$VERSIONGUID
  2
{FAEB1C32-E019-11D5-929B-00C0DF256EC4}
  9
$EXTNAMES
290
     1
  9
$PSVPSCALE
 40
0.0
  9
$OLESTARTUP
290
     0
  0
ENDSEC
  0
SECTION
  2
CLASSES
  0
CLASS
  1
ACDBDICTIONARYWDFLT
  2
AcDbDictionaryWithDefault
  3
ObjectDBX Classes
 90
        0
280
     0
281
     0
  0
CLASS
  1
VISUALSTYLE
  2
AcDbVisualStyle
  3
ObjectDBX Classes
 90
     4095
280
     0
281
     0
  0
CLASS
  1
MATERIAL
  2
AcDbMaterial
  3
ObjectDBX Classes
 90
     1153
280
     0
281
     0
  0
CLASS
  1
SCALE
  2
AcDbScale
  3
ObjectDBX Classes
 90
     1153
280
     0
281
     0
  0
CLASS
  1
SUN
  2
AcDbSun
  3
SCENEOE
 90
     1153
280
     0
281
     0
  0
CLASS
  1
ACDBPLACEHOLDER
  2
AcDbPlaceHolder
  3
ObjectDBX Classes
 90
        0
280
     0
281
     0
  0
CLASS
  1
LAYOUT
  2
AcDbLayout
  3
ObjectDBX Classes
 90
        0
280
     0
281
     0
  0
CLASS
  1
TABLESTYLE
  2
AcDbTableStyle
  3
ObjectDBX Classes
 90
     4095
280
     0
281
     0
  0
CLASS
  1
MLEADERSTYLE
  2
AcDbMLeaderStyle
  3
ACDB_MLEADERSTYLE_CLASS
 90
     4095
280
     0
281
     0
  0
ENDSEC
  0
SECTION
  2
TABLES
  0
TABLE
  2
VPORT
  5
8
330
0
100
AcDbSymbolTable
 70
     1
  0
VPORT
  5
29
330
8
100
AcDbSymbolTableRecord
100
AcDbViewportTableRecord
  2
*Active
 70
     0
 10
0.0
 20
0.0
 11
1.0
 21
1.0
 12
8.61195198176852
 22
12.92663840246377
 13
0.0
 23
0.0
 14
10.0
 24
10.0
 15
10.0
 25
10.0
 16
0.0
 26
0.0
 36
1.0
 17
0.0
 27
0.0
 37
0.0
 40
65.49090325388026
 41
2.223011363636364
 42
50.0
 43
0.0
 44
0.0
 50
0.0
 51
0.0
 71
    16
 72
  2000
 73
     1
 74
     3
 75
     0
 76
     0
 77
     0
 78
     0
281
     0
 65
     1
110
0.0
120
0.0
130
0.0
111
1.0
121
0.0
131
0.0
112
0.0
122
1.0
132
0.0
 79
     0
146
0.0
  0
ENDTAB
  0
TABLE
  2
LTYPE
  5
5
330
0
100
AcDbSymbolTable
 70
     6
  0
LTYPE
  5
14
330
5
100
AcDbSymbolTableRecord
100
AcDbLinetypeTableRecord
  2
ByBlock
 70
     0
  3

 72
    65
 73
     0
 40
0.0
  0
LTYPE
  5
15
330
5
100
AcDbSymbolTableRecord
100
AcDbLinetypeTableRecord
  2
ByLayer
 70
     0
  3

 72
    65
 73
     0
 40
0.0
  0
LTYPE
  5
16
330
5
100
AcDbSymbolTableRecord
100
AcDbLinetypeTableRecord
  2
Continuous
 70
     0
  3
Solid line
 72
    65
 73
     0
 40
0.0
  0
LTYPE
  5
6A
330
5
100
AcDbSymbolTableRecord
100
AcDbLinetypeTableRecord
  2
HIDDEN
 70
     0
  3
Hidden __ __ __ __ __ __ __ __ __ __ __ __ __ __
 72
    65
 73
     2
 40
1.905
 49
1.27
 74
     0
 49
-0.635
 74
     0
  0
LTYPE
  5
6B
330
5
100
AcDbSymbolTableRecord
100
AcDbLinetypeTableRecord
  2
PHANTOM
 70
     0
  3
Phantom ______  __  __  ______  __  __  ______
 72
    65
 73
     6
 40
12.7
 49
6.35
 74
     0
 49
-1.27
 74
     0
 49
1.27
 74
     0
 49
-1.27
 74
     0
 49
1.27
 74
     0
 49
-1.27
 74
     0
  0
LTYPE
  5
6C
330
5
100
AcDbSymbolTableRecord
100
AcDbLinetypeTableRecord
  2
CENTER
 70
     0
  3
Center ____ _ ____ _ ____ _ ____ _ ____ _ ____
 72
    65
 73
     4
 40
10.16
 49
6.35
 74
     0
 49
-1.27
 74
     0
 49
1.27
 74
     0
 49
-1.27
 74
     0
  0
LTYPE
  5
6D
330
5
100
AcDbSymbolTableRecord
100
AcDbLinetypeTableRecord
  2
CENTERX2
 70
     0
  3
Center (2x) ________  __  ________  __  _____
 72
    65
 73
     4
 40
20.32
 49
12.7
 74
     0
 49
-2.54
 74
     0
 49
2.54
 74
     0
 49
-2.54
 74
     0
  0
LTYPE
  5
6E
330
5
100
AcDbSymbolTableRecord
100
AcDbLinetypeTableRecord
  2
DOT2
 70
     0
  3
Dot (.5x) ........................................
 72
    65
 73
     2
 40
0.635
 49
0.0
 74
     0
 49
-0.635
 74
     0
  0
ENDTAB
  0
TABLE
  2
LAYER
  5
2
330
0
100
AcDbSymbolTable
 70
    17
  0
LAYER
  5
10
330
2
100
AcDbSymbolTableRecord
100
AcDbLayerTableRecord
  2
0
 70
     0
 62
     7
  6
Continuous
370
    -3
390
F
  0
LAYER
  5
6F
330
2
100
AcDbSymbolTableRecord
100
AcDbLayerTableRecord
  2
FORMAT
 70
     0
 62
     2
  6
Continuous
370
    -3
390
F
  0
LAYER
  5
70
330
2
100
AcDbSymbolTableRecord
100
AcDbLayerTableRecord
  2
외형선
 70
     0
 62
   100
  6
Continuous
370
    30
390
F
  0
LAYER
  5
71
330
2
100
AcDbSymbolTableRecord
100
AcDbLayerTableRecord
  2
숨은선
 70
     0
 62
     2
  6
HIDDEN
370
    15
390
F
  0
LAYER
  5
72
330
2
100
AcDbSymbolTableRecord
100
AcDbLayerTableRecord
  2
중심선
 70
     0
 62
     1
  6
CENTERX2
370
    -3
390
F
  0
LAYER
  5
73
330
2
100
AcDbSymbolTableRecord
100
AcDbLayerTableRecord
  2
파단선
 70
     0
 62
     4
  6
Continuous
370
    -3
390
F
  0
LAYER
  5
74
330
2
100
AcDbSymbolTableRecord
100
AcDbLayerTableRecord
  2
해칭선
 70
     0
 62
     4
  6
Continuous
370
    -3
390
F
  0
LAYER
  5
75
330
2
100
AcDbSymbolTableRecord
100
AcDbLayerTableRecord
  2
가는실선
 70
     0
 62
     4
  6
Continuous
370
    -3
390
F
  0
LAYER
  5
76
330
2
100
AcDbSymbolTableRecord
100
AcDbLayerTableRecord
  2
치수_보조선
 70
     0
 62
     4
  6
Continuous
370
    -3
390
F
  0
LAYER
  5
77
330
2
100
AcDbSymbolTableRecord
100
AcDbLayerTableRecord
  2
치수문자_일반주서
 70
     0
 62
     7
  6
Continuous
370
    15
390
F
  0
LAYER
  5
78
330
2
100
AcDbSymbolTableRecord
100
AcDbLayerTableRecord
  2
개별주서
 70
     0
 62
   100
  6
Continuous
370
    30
390
F
  0
LAYER
  5
79
330
2
100
AcDbSymbolTableRecord
100
AcDbLayerTableRecord
  2
중간선
 70
     0
 62
     2
  6
Continuous
370
    15
390
F
  0
LAYER
  5
7A
330
2
100
AcDbSymbolTableRecord
100
AcDbLayerTableRecord
  2
윤곽선
 70
     0
 62
     3
  6
Continuous
370
    40
390
F
  0
LAYER
  5
7B
330
2
100
AcDbSymbolTableRecord
100
AcDbLayerTableRecord
  2
중심마크
 70
     0
 62
   100
  6
Continuous
370
    30
390
F
  0
LAYER
  5
7C
330
2
100
AcDbSymbolTableRecord
100
AcDbLayerTableRecord
  2
가상선
 70
     0
 62
     4
  6
PHANTOM
370
    -3
390
F
  0
LAYER
  5
7D
330
2
100
AcDbSymbolTableRecord
100
AcDbLayerTableRecord
  2
특수지정선
 70
     0
 62
     5
  6
CENTERX2
370
    60
390
F
  0
LAYER
  5
137
330
2
100
AcDbSymbolTableRecord
100
AcDbLayerTableRecord
  2
Defpoints
 70
     0
 62
     7
  6
Continuous
290
     0
370
    -3
390
F
  0
ENDTAB
  0
TABLE
  2
STYLE
  5
3
330
0
100
AcDbSymbolTable
 70
     2
  0
STYLE
  5
11
330
3
100
AcDbSymbolTableRecord
100
AcDbTextStyleTableRecord
  2
Standard
 70
     0
 40
0.0
 41
1.0
 50
0.0
 71
     0
 42
3.5
  3
txt
  4

  0
STYLE
  5
93
330
3
100
AcDbSymbolTableRecord
100
AcDbTextStyleTableRecord
  2
SLDTEXTSTYLE0
 70
     0
 40
0.0
 41
0.75
 50
0.0
 71
     0
 42
3.5
  3
TXT
  4

  0
ENDTAB
  0
TABLE
  2
VIEW
  5
6
330
0
100
AcDbSymbolTable
 70
     0
  0
ENDTAB
  0
TABLE
  2
UCS
  5
7
330
0
100
AcDbSymbolTable
 70
     0
  0
ENDTAB
  0
TABLE
  2
APPID
  5
9
330
0
100
AcDbSymbolTable
 70
     2
  0
APPID
  5
12
330
9
100
AcDbSymbolTableRecord
100
AcDbRegAppTableRecord
  2
ACAD
 70
     0
  0
APPID
  5
13E
330
9
100
AcDbSymbolTableRecord
100
AcDbRegAppTableRecord
  2
PE_URL
 70
     0
  0
ENDTAB
  0
TABLE
  2
DIMSTYLE
  5
A
330
0
100
AcDbSymbolTable
 70
     4
100
AcDbDimStyleTable
  0
DIMSTYLE
105
27
330
A
100
AcDbSymbolTableRecord
100
AcDbDimStyleTableRecord
  2
ISO-25
 70
     0
 41
2.5
 42
0.625
 43
3.75
 44
1.25
 73
     0
 74
     0
 77
     1
 78
     8
140
2.5
141
2.5
143
0.03937007874016
147
0.625
171
     3
172
     1
178
     0
271
     2
272
     2
274
     3
278
    44
283
     0
284
     8
340
11
  0
DIMSTYLE
105
DC
102
{ACAD_REACTORS
330
DB
330
101
102
}
330
A
100
AcDbSymbolTableRecord
100
AcDbDimStyleTableRecord
  2
SLDDIMSTYLE0
 70
     0
 41
3.302
 44
0.0
 45
0.000000001
 73
     0
 74
     0
 77
     1
 78
    12
 79
     3
140
3.5
147
0.875
172
     1
173
     1
178
     0
271
     2
272
     2
276
     2
284
    12
289
     0
340
93
  0
DIMSTYLE
105
E9
102
{ACAD_REACTORS
330
E8
102
}
330
A
100
AcDbSymbolTableRecord
100
AcDbDimStyleTableRecord
  2
SLDDIMSTYLE1
 70
     0
 41
3.302
 44
0.0
 45
0.000000001
 73
     0
 74
     0
 77
     1
 78
    12
 79
     3
140
3.5
147
0.875
173
     1
178
     0
271
     2
272
     2
276
     2
284
    12
340
93
  0
DIMSTYLE
105
F4
102
{ACAD_REACTORS
330
F3
102
}
330
A
100
AcDbSymbolTableRecord
100
AcDbDimStyleTableRecord
  2
SLDDIMSTYLE2
 70
     0
 41
3.302
 44
0.0
 45
0.000000001
 73
     0
 74
     0
 77
     1
 78
     4
 79
     1
140
3.5
147
0.875
172
     1
173
     1
178
     0
271
     2
272
     2
276
     2
284
    12
289
     0
340
93
  0
ENDTAB
  0
TABLE
  2
BLOCK_RECORD
  5
1
330
0
100
AcDbSymbolTable
 70
     7
  0
BLOCK_RECORD
  5
1F
330
1
100
AcDbSymbolTableRecord
100
AcDbBlockTableRecord
  2
*Model_Space
340
22
  0
BLOCK_RECORD
  5
1B
330
1
100
AcDbSymbolTableRecord
100
AcDbBlockTableRecord
  2
*Paper_Space
340
1E
  0
BLOCK_RECORD
  5
23
330
1
100
AcDbSymbolTableRecord
100
AcDbBlockTableRecord
  2
*Paper_Space0
340
26
  0
BLOCK_RECORD
  5
7E
330
1
100
AcDbSymbolTableRecord
100
AcDbBlockTableRecord
  2
블럭10
340
0
102
{BLKREFS
331
D4
102
}
  0
BLOCK_RECORD
  5
DD
330
1
100
AcDbSymbolTableRecord
100
AcDbBlockTableRecord
  2
_D
340
0
  0
BLOCK_RECORD
  5
EA
330
1
100
AcDbSymbolTableRecord
100
AcDbBlockTableRecord
  2
_D_1
340
0
  0
BLOCK_RECORD
  5
F5
330
1
100
AcDbSymbolTableRecord
100
AcDbBlockTableRecord
  2
_D_2
340
0
  0
BLOCK_RECORD
  5
102
330
1
100
AcDbSymbolTableRecord
100
AcDbBlockTableRecord
  2
_D_3
340
0
  0
BLOCK_RECORD
  5
10E
330
1
100
AcDbSymbolTableRecord
100
AcDbBlockTableRecord
  2
SW_DOWELSYMBOL_0
340
0
102
{BLKREFS
331
114
102
}
  0
ENDTAB
  0
ENDSEC
  0
SECTION
  2
BLOCKS
  0
BLOCK
  5
20
330
1F
100
AcDbEntity
  8
0
100
AcDbBlockBegin
  2
*Model_Space
 70
     0
 10
0.0
 20
0.0
 30
0.0
  3
*Model_Space
  1

  0
ENDBLK
  5
21
330
1F
100
AcDbEntity
  8
0
100
AcDbBlockEnd
  0
BLOCK
  5
1C
330
1B
100
AcDbEntity
 67
     1
  8
0
100
AcDbBlockBegin
  2
*Paper_Space
 70
     0
 10
0.0
 20
0.0
 30
0.0
  3
*Paper_Space
  1

  0
ENDBLK
  5
1D
330
1B
100
AcDbEntity
 67
     1
  8
0
100
AcDbBlockEnd
  0
BLOCK
  5
24
330
23
100
AcDbEntity
  8
0
100
AcDbBlockBegin
  2
*Paper_Space0
 70
     0
 10
0.0
 20
0.0
 30
0.0
  3
*Paper_Space0
  1

  0
ENDBLK
  5
25
330
23
100
AcDbEntity
  8
0
100
AcDbBlockEnd
  0
BLOCK
  5
7F
330
7E
100
AcDbEntity
  8
0
100
AcDbBlockBegin
  2
블럭10
 70
     2
 10
0.0
 20
0.0
 30
0.0
  3
블럭10
  1

  0
ELLIPSE
  5
81
330
7E
100
AcDbEntity
  8
중심선
100
AcDbEllipse
 10
20.54032771741204
 20
12.0471743016438
 30
0.0
 11
6.600054785286829
 21
-1.261213355974178E-13
 31
0.0
210
0.0
220
0.0
230
1.0
 40
0.636358354079598
 41
0.9219305317359503
 42
6.513795318482858
  0
ELLIPSE
  5
82
330
7E
100
AcDbEntity
  8
중심선
100
AcDbEllipse
 10
20.54032771746488
 20
12.04717430159265
 30
0.0
 11
3.960054785062283
 21
1.540847449632565E-10
 31
0.0
210
0.0
220
0.0
230
1.0
 40
0.3939339440162632
 41
1.131841032648279
 42
5.62031148352944
  0
LINE
  5
83
330
7E
100
AcDbEntity
  8
중심선
100
AcDbLine
 10
2.268634060543552
 20
16.24717430164393
 30
0.0
 11
5.714909304380834
 21
16.24717430164393
 31
0.0
  0
LINE
  5
84
330
7E
100
AcDbEntity
  8
중심선
100
AcDbLine
 10
5.245725140726316
 20
7.84717430164391
 30
0.0
 11
8.692000384563599
 21
7.84717430164391
 31
0.0
  0
LINE
  5
85
330
7E
100
AcDbEntity
  8
중심선
100
AcDbLine
 10
15.74043728645272
 20
16.24717430164393
 30
0.0
 11
8.692000384563599
 21
7.84717430164391
 31
0.0
  0
LINE
  5
86
330
7E
100
AcDbEntity
  8
중심선
100
AcDbLine
 10
0.1404042013395286
 20
13.71084872107135
 30
0.0
 11
3.58671253028996
 21
13.71088815037384
 31
0.0
  0
LINE
  5
87
330
7E
100
AcDbEntity
  8
중심선
100
AcDbLine
 10
2.750260043222114
 20
10.84717430164391
 30
0.0
 11
6.196535287059397
 21
10.84717430164391
 31
0.0
  0
LINE
  5
88
330
7E
100
AcDbEntity
  8
중심선
100
AcDbLine
 10
12.29416204261559
 20
16.24717430164393
 30
0.0
 11
5.245725140726316
 21
7.84717430164391
 31
0.0
  0
LINE
  5
89
330
7E
100
AcDbEntity
  8
중심선
100
AcDbLine
 10
10.72767329541681
 20
16.24717430164393
 30
0.0
 11
6.196535287059397
 21
10.84717430164391
 31
0.0
  0
LINE
  5
8A
330
7E
100
AcDbEntity
  8
중심선
100
AcDbLine
 10
7.28139805157953
 20
16.24717430164393
 30
0.0
 11
2.750260043222114
 21
10.84717430164391
 31
0.0
  0
LINE
  5
8B
330
7E
100
AcDbEntity
  8
중심선
100
AcDbLine
 10
5.714909304380834
 20
16.24717430164393
 30
0.0
 11
3.58671253028996
 21
13.71088815037384
 31
0.0
  0
LINE
  5
8C
330
7E
100
AcDbEntity
  8
중심선
100
AcDbLine
 10
2.268634060543552
 20
16.24717430164393
 30
0.0
 11
0.1404042013395286
 21
13.71084872107135
 31
0.0
  0
LINE
  5
8D
330
7E
100
AcDbEntity
  8
중심선
100
AcDbLine
 10
7.28139805157953
 20
16.24717430164393
 30
0.0
 11
10.72767329541681
 21
16.24717430164393
 31
0.0
  0
LINE
  5
8E
330
7E
100
AcDbEntity
  8
중심선
100
AcDbLine
 10
12.29416204261559
 20
16.24717430164393
 30
0.0
 11
15.74043728645272
 21
16.24717430164393
 31
0.0
  0
LINE
  5
8F
330
7E
100
AcDbEntity
  8
중심선
100
AcDbLine
 10
19.22036997980202
 20
11.08717430171403
 30
0.0
 11
23.66174974927406
 21
11.08717430171406
 31
0.0
  0
LINE
  5
90
330
7E
100
AcDbEntity
  8
중심선
100
AcDbLine
 10
19.22039502424796
 20
13.00717430171391
 30
0.0
 11
19.22036997980202
 21
11.08717430171403
 31
0.0
  0
LINE
  5
91
330
7E
100
AcDbEntity
  8
중심선
100
AcDbLine
 10
19.22039502424796
 20
13.00717430171391
 30
0.0
 11
26.96566020931264
 21
13.00717430171391
 31
0.0
  0
LINE
  5
92
330
7E
100
AcDbEntity
  8
중심선
100
AcDbLine
 10
22.22332737316547
 20
13.45928029700563
 30
0.0
 11
24.52862924686651
 21
15.39360700705356
 31
0.0
  0
ATTDEF
  5
94
330
7E
100
AcDbEntity
  8
FORMAT
 62
     2
100
AcDbText
 10
-16.00558753126829
 20
2.075366912832191
 30
0.0
 40
4.233333333333333
  1
SEME350254SE [ 2 FLUTE ]
 41
0.75
  7
SLDTEXTSTYLE0
 11
-16.00558753126829
 21
-0.0412997538344756
 31
0.0
100
AcDbAttributeDefinition
  3

  2
AUTOATTR0
 70
     0
 74
     1
  0
ENDBLK
  5
80
330
7E
100
AcDbEntity
  8
0
100
AcDbBlockEnd
  0
BLOCK
  5
DE
330
DD
100
AcDbEntity
  8
0
100
AcDbBlockBegin
  2
_D
 70
     0
 10
0.0
 20
0.0
 30
0.0
  3
_D
  1

  0
LINE
  5
E0
330
DD
100
AcDbEntity
  8
치수문자_일반주서
 62
     0
370
    -2
100
AcDbLine
 10
13.79903810567665
 20
1.311443519037055
 30
0.0
 11
13.79903810567665
 21
13.49957740761484
 31
0.0
  0
LINE
  5
E1
330
DD
100
AcDbEntity
  8
치수문자_일반주서
 62
     0
370
    -2
100
AcDbLine
 10
5.799038105676653
 20
0.8850916741962512
 30
0.0
 11
5.799038105676653
 21
13.49957740761484
 31
0.0
  0
LINE
  5
E2
330
DD
100
AcDbEntity
  8
치수문자_일반주서
 62
     0
370
    -2
100
AcDbLine
 10
10.49703810567665
 20
13.49957740761484
 30
0.0
 11
9.101038105676652
 21
13.49957740761484
 31
0.0
  0
SOLID
  5
E3
330
DD
100
AcDbEntity
  8
치수문자_일반주서
 62
     0
100
AcDbTrace
 10
10.49703810567665
 20
12.9492440742815
 30
0.0
 11
10.49703810567665
 21
14.04991074094817
 31
0.0
 12
13.79903810567665
 22
13.49957740761484
 32
0.0
 13
13.79903810567665
 23
13.49957740761484
 33
0.0
  0
SOLID
  5
E4
330
DD
100
AcDbEntity
  8
치수문자_일반주서
 62
     0
100
AcDbTrace
 10
9.101038105676652
 20
14.04991074094817
 30
0.0
 11
9.101038105676652
 21
12.9492440742815
 31
0.0
 12
5.799038105676653
 22
13.49957740761484
 32
0.0
 13
5.799038105676653
 23
13.49957740761484
 33
0.0
  0
MTEXT
  5
E5
330
DD
100
AcDbEntity
  8
치수문자_일반주서
 62
     0
100
AcDbMText
 10
9.79903810567665
 20
17.87457740761484
 30
0.0
 40
3.5
 41
0.0
 71
     2
 72
     1
  1
\A1;8
  7
SLDTEXTSTYLE0
 73
     1
 44
1.0
  0
POINT
  5
E6
330
DD
100
AcDbEntity
  8
Defpoints
 62
     0
100
AcDbPoint
 10
13.79903810567665
 20
1.248943519037055
 30
0.0
  0
POINT
  5
E7
330
DD
100
AcDbEntity
  8
Defpoints
 62
     0
100
AcDbPoint
 10
5.799038105676653
 20
0.8225916741962512
 30
0.0
  0
POINT
  5
141
330
DD
100
AcDbEntity
  8
Defpoints
 62
     0
100
AcDbPoint
 10
5.799038105676653
 20
13.49957740761484
 30
0.0
  0
ENDBLK
  5
DF
330
DD
100
AcDbEntity
  8
0
100
AcDbBlockEnd
  0
BLOCK
  5
EB
330
EA
100
AcDbEntity
  8
0
100
AcDbBlockBegin
  2
_D_1
 70
     0
 10
0.0
 20
0.0
 30
0.0
  3
_D_1
  1

  0
LINE
  5
ED
330
EA
100
AcDbEntity
  8
치수문자_일반주서
 62
     0
370
    -2
100
AcDbLine
 10
13.79903810567665
 20
0.9375000000000004
 30
0.0
 11
13.79903810567665
 21
23.65915911661226
 31
0.0
  0
LINE
  5
EE
330
EA
100
AcDbEntity
  8
치수문자_일반주서
 62
     0
370
    -2
100
AcDbLine
 10
-36.20096189432334
 20
1.632499999999995
 30
0.0
 11
-36.20096189432334
 21
23.65915911661226
 31
0.0
  0
LINE
  5
EF
330
EA
100
AcDbEntity
  8
치수문자_일반주서
 62
     0
370
    -2
100
AcDbLine
 10
10.49703810567665
 20
23.65915911661226
 30
0.0
 11
-32.89896189432334
 21
23.65915911661226
 31
0.0
  0
SOLID
  5
F0
330
EA
100
AcDbEntity
  8
치수문자_일반주서
 62
     0
100
AcDbTrace
 10
10.49703810567665
 20
23.10882578327893
 30
0.0
 11
10.49703810567665
 21
24.2094924499456
 31
0.0
 12
13.79903810567665
 22
23.65915911661226
 32
0.0
 13
13.79903810567665
 23
23.65915911661226
 33
0.0
  0
SOLID
  5
F1
330
EA
100
AcDbEntity
  8
치수문자_일반주서
 62
     0
100
AcDbTrace
 10
-32.89896189432334
 20
24.2094924499456
 30
0.0
 11
-32.89896189432334
 21
23.10882578327893
 31
0.0
 12
-36.20096189432334
 22
23.65915911661226
 32
0.0
 13
-36.20096189432334
 23
23.65915911661226
 33
0.0
  0
MTEXT
  5
F2
330
EA
100
AcDbEntity
  8
치수문자_일반주서
 62
     0
100
AcDbMText
 10
-11.20096189432334
 20
28.03415911661226
 30
0.0
 40
3.5
 41
0.0
 71
     2
 72
     1
  1
\A1;50
  7
SLDTEXTSTYLE0
 73
     1
 44
1.0
  0
POINT
  5
142
330
EA
100
AcDbEntity
  8
Defpoints
 62
     0
100
AcDbPoint
 10
13.79903810567665
 20
0.8750000000000004
 30
0.0
  0
POINT
  5
143
330
EA
100
AcDbEntity
  8
Defpoints
 62
     0
100
AcDbPoint
 10
-36.20096189432334
 20
1.569999999999995
 30
0.0
  0
POINT
  5
144
330
EA
100
AcDbEntity
  8
Defpoints
 62
     0
100
AcDbPoint
 10
-36.20096189432334
 20
23.65915911661226
 30
0.0
  0
ENDBLK
  5
EC
330
EA
100
AcDbEntity
  8
0
100
AcDbBlockEnd
  0
BLOCK
  5
F6
330
F5
100
AcDbEntity
  8
0
100
AcDbBlockBegin
  2
_D_2
 70
     0
 10
0.0
 20
0.0
 30
0.0
  3
_D_2
  1

  0
LINE
  5
F8
330
F5
100
AcDbEntity
  8
치수문자_일반주서
 62
     0
370
    -2
100
AcDbLine
 10
13.86153810567665
 20
1.248943519037056
 30
0.0
 11
29.85368995638448
 21
1.248943519037116
 31
0.0
  0
LINE
  5
F9
330
F5
100
AcDbEntity
  8
치수문자_일반주서
 62
     0
370
    -2
100
AcDbLine
 10
13.86153810567665
 20
-1.248943519037055
 30
0.0
 11
29.85368995638449
 21
-1.248943519036995
 31
0.0
  0
LINE
  5
FA
330
F5
100
AcDbEntity
  8
치수문자_일반주서
 62
     0
370
    -2
100
AcDbLine
 10
29.85368995638448
 20
1.248943519037116
 30
0.0
 11
29.85368995638443
 21
19.66544351903712
 31
0.0
  0
LINE
  5
FB
330
F5
100
AcDbEntity
  8
치수문자_일반주서
 62
     0
370
    -2
100
AcDbLine
 10
29.85368995638448
 20
1.248943519037116
 30
0.0
 11
29.85368995638449
 21
-1.248943519036995
 31
0.0
  0
LINE
  5
FC
330
F5
100
AcDbEntity
  8
치수문자_일반주서
 62
     0
370
    -2
100
AcDbLine
 10
29.85368995638447
 20
4.550943519037116
 30
0.0
 11
29.85368995638446
 21
7.852943519037115
 31
0.0
  0
LINE
  5
FD
330
F5
100
AcDbEntity
  8
치수문자_일반주서
 62
     0
370
    -2
100
AcDbLine
 10
29.8536899563845
 20
-4.550943519036995
 30
0.0
 11
29.85368995638451
 21
-7.852943519036995
 31
0.0
  0
SOLID
  5
FE
330
F5
100
AcDbEntity
  8
치수문자_일반주서
 62
     0
100
AcDbTrace
 10
29.30335662305113
 20
4.550943519037114
 30
0.0
 11
30.4040232897178
 21
4.550943519037117
 31
0.0
 12
29.85368995638448
 22
1.248943519037116
 32
0.0
 13
29.85368995638448
 23
1.248943519037116
 33
0.0
  0
SOLID
  5
FF
330
F5
100
AcDbEntity
  8
치수문자_일반주서
 62
     0
100
AcDbTrace
 10
30.40402328971783
 20
-4.550943519036993
 30
0.0
 11
29.30335662305116
 21
-4.550943519036997
 31
0.0
 12
29.85368995638449
 22
-1.248943519036995
 32
0.0
 13
29.85368995638449
 23
-1.248943519036995
 33
0.0
  0
MTEXT
  5
100
330
F5
100
AcDbEntity
  8
치수문자_일반주서
 62
     0
100
AcDbMText
 10
25.47868995638444
 20
13.7591935190371
 30
0.0
 40
3.5
 41
0.0
 71
     2
 72
     1
  1
\A1;%%c2.50
  7
SLDTEXTSTYLE0
 11
-2.844575134622316E-15
 21
1.0
 31
0.0
 73
     1
 44
1.0
  0
POINT
  5
138
330
F5
100
AcDbEntity
  8
Defpoints
 62
     0
100
AcDbPoint
 10
13.79903810567665
 20
1.248943519037055
 30
0.0
  0
POINT
  5
139
330
F5
100
AcDbEntity
  8
Defpoints
 62
     0
100
AcDbPoint
 10
13.79903810567665
 20
-1.248943519037055
 30
0.0
  0
POINT
  5
13A
330
F5
100
AcDbEntity
  8
Defpoints
 62
     0
100
AcDbPoint
 10
29.85368995638449
 20
-1.248943519036995
 30
0.0
  0
ENDBLK
  5
F7
330
F5
100
AcDbEntity
  8
0
100
AcDbBlockEnd
  0
BLOCK
  5
103
330
102
100
AcDbEntity
  8
0
100
AcDbBlockBegin
  2
_D_3
 70
     0
 10
0.0
 20
0.0
 30
0.0
  3
_D_3
  1

  0
LINE
  5
105
330
102
100
AcDbEntity
  8
치수문자_일반주서
 62
     0
370
    -2
100
AcDbLine
 10
-35.83346189432334
 20
1.999999999999996
 30
0.0
 11
-48.19052133971189
 21
1.99999999999995
 31
0.0
  0
LINE
  5
106
330
102
100
AcDbEntity
  8
치수문자_일반주서
 62
     0
370
    -2
100
AcDbLine
 10
-35.83346189432334
 20
-2.000000000000003
 30
0.0
 11
-48.19052133971188
 21
-2.000000000000049
 31
0.0
  0
LINE
  5
107
330
102
100
AcDbEntity
  8
치수문자_일반주서
 62
     0
370
    -2
100
AcDbLine
 10
-48.19052133971188
 20
-1.30200000000005
 30
0.0
 11
-48.19052133971189
 21
1.301999999999951
 31
0.0
  0
SOLID
  5
108
330
102
100
AcDbEntity
  8
치수문자_일반주서
 62
     0
100
AcDbTrace
 10
-47.64018800637854
 20
-1.302000000000048
 30
0.0
 11
-48.74085467304521
 21
-1.302000000000052
 31
0.0
 12
-48.19052133971189
 22
1.99999999999995
 32
0.0
 13
-48.19052133971189
 23
1.99999999999995
 33
0.0
  0
SOLID
  5
109
330
102
100
AcDbEntity
  8
치수문자_일반주서
 62
     0
100
AcDbTrace
 10
-48.74085467304523
 20
1.301999999999949
 30
0.0
 11
-47.64018800637856
 21
1.301999999999953
 31
0.0
 12
-48.19052133971188
 22
-2.000000000000049
 32
0.0
 13
-48.19052133971188
 23
-2.000000000000049
 33
0.0
  0
MTEXT
  5
10A
330
102
100
AcDbEntity
  8
치수문자_일반주서
 62
     0
100
AcDbMText
 10
-52.56552133971189
 20
-0.0000000000000192
 30
0.0
 40
3.5
 41
0.0
 71
     2
 72
     1
  1
\A1;%%c4
  7
SLDTEXTSTYLE0
 11
-3.552713678800503E-15
 21
1.0
 31
0.0
 73
     1
 44
1.0
  0
POINT
  5
10B
330
102
100
AcDbEntity
  8
Defpoints
 62
     0
100
AcDbPoint
 10
-35.77096189432334
 20
1.999999999999996
 30
0.0
  0
POINT
  5
10C
330
102
100
AcDbEntity
  8
Defpoints
 62
     0
100
AcDbPoint
 10
-35.77096189432334
 20
-2.000000000000002
 30
0.0
  0
POINT
  5
10D
330
102
100
AcDbEntity
  8
Defpoints
 62
     0
100
AcDbPoint
 10
-48.19052133971189
 20
-2.000000000000048
 30
0.0
  0
ENDBLK
  5
104
330
102
100
AcDbEntity
  8
0
100
AcDbBlockEnd
  0
BLOCK
  5
10F
330
10E
100
AcDbEntity
  8
0
100
AcDbBlockBegin
  2
SW_DOWELSYMBOL_0
 70
     0
 10
0.0
 20
0.0
 30
0.0
  3
SW_DOWELSYMBOL_0
  1

  0
CIRCLE
  5
111
330
10E
100
AcDbEntity
  8
외형선
 62
     0
100
AcDbCircle
 10
0.0
 20
0.0
 30
0.0
 40
3.000000000000004
  0
HATCH
  5
112
330
10E
100
AcDbEntity
  8
0
  6
Continuous
 62
     0
370
    30
100
AcDbHatch
 10
0.0
 20
0.0
 30
0.0
210
0.0
220
0.0
230
1.0
  2
SOLID
 70
     1
 71
     0
 91
        1
 92
        0
 93
        3
 72
     2
 10
0.0000000000000087
 20
-0.0000000000000035
 40
3.000000000000004
 50
0.0
 51
90.0
 73
     1
 72
     1
 10
0.0000000000000087
 20
3.000000000000001
 11
0.0000000000000087
 21
-0.0000000000000036
 72
     1
 10
0.0000000000000087
 20
-0.0000000000000035
 11
3.000000000000013
 21
-0.0000000000000035
 97
        0
 75
     0
 76
     1
 98
        1
 10
0.0
 20
0.0
  0
HATCH
  5
113
330
10E
100
AcDbEntity
  8
0
  6
Continuous
 62
     0
370
    30
100
AcDbHatch
 10
0.0
 20
0.0
 30
0.0
210
0.0
220
0.0
230
1.0
  2
SOLID
 70
     1
 71
     0
 91
        1
 92
        0
 93
        3
 72
     2
 10
0.0000000000000087
 20
-0.0000000000000035
 40
3.000000000000004
 50
180.0
 51
270.0000000000008
 73
     1
 72
     1
 10
0.0000000000000087
 20
-3.000000000000008
 11
0.0000000000000087
 21
-0.0000000000000036
 72
     1
 10
0.0000000000000087
 20
-0.0000000000000035
 11
-2.999999999999996
 21
-0.0000000000000035
 97
        0
 75
     0
 76
     1
 98
        1
 10
0.0
 20
0.0
  0
ENDBLK
  5
110
330
10E
100
AcDbEntity
  8
0
100
AcDbBlockEnd
  0
ENDSEC
  0
SECTION
  2
ENTITIES
  0
LINE
  5
95
330
1F
100
AcDbEntity
  8
0
  6
Continuous
 62
     4
370
    15
100
AcDbLine
 10
2.0
 20
1.999999999999999
 30
0.0
 11
-35.77096189432334
 21
1.999999999999996
 31
0.0
  0
LINE
  5
96
330
1F
100
AcDbEntity
  8
0
  6
Continuous
 62
     4
370
    15
100
AcDbLine
 10
-35.77096189432334
 20
-2.000000000000002
 30
0.0
 11
2.0
 21
-2.0
 31
0.0
  0
LINE
  5
97
330
1F
100
AcDbEntity
  8
0
  6
Continuous
 62
     4
370
    15
100
AcDbLine
 10
2.0
 20
-2.0
 30
0.0
 11
4.799038105676653
 21
-1.25
 31
0.0
  0
LINE
  5
98
330
1F
100
AcDbEntity
  8
0
  6
Continuous
 62
     4
370
    15
100
AcDbLine
 10
4.799038105676653
 20
1.25
 30
0.0
 11
2.0
 21
2.0
 31
0.0
  0
LINE
  5
99
330
1F
100
AcDbEntity
  8
0
  6
Continuous
 62
     4
370
    15
100
AcDbLine
 10
-35.77096189432334
 20
1.999999999999995
 30
0.0
 11
-36.20096189432334
 21
1.569999999999994
 31
0.0
  0
LINE
  5
9A
330
1F
100
AcDbEntity
  8
0
  6
Continuous
 62
     4
370
    15
100
AcDbLine
 10
-36.20096189432334
 20
-1.570000000000001
 30
0.0
 11
-35.77096189432334
 21
-2.000000000000001
 31
0.0
  0
LINE
  5
9B
330
1F
100
AcDbEntity
  8
0
  6
Continuous
 62
     4
370
    15
100
AcDbLine
 10
4.908935444256013
 20
1.25
 30
0.0
 11
4.799038105676653
 21
1.25
 31
0.0
1001
PE_URL
1000

  0
LINE
  5
9C
330
1F
100
AcDbEntity
  8
0
  6
Continuous
 62
     4
370
    15
100
AcDbLine
 10
4.799038105676653
 20
-1.25
 30
0.0
 11
4.908935444256013
 21
-1.25
 31
0.0
1001
PE_URL
1000

  0
SPLINE
  5
9D
330
1F
100
AcDbEntity
  8
0
  6
Continuous
 62
     4
370
    15
100
AcDbSpline
210
0.0
220
0.0
230
1.0
 70
     8
 71
     3
 72
    10
 73
     6
 74
     0
 42
0.000000001
 43
0.00000001
 40
0.0
 40
0.0
 40
0.0
 40
0.0
 40
0.3127357270110996
 40
0.4983716144464013
 40
1.0
 40
1.0
 40
1.0
 40
1.0
 10
5.799038105676653
 20
0.822591664802128
 30
0.0
 10
5.705641237391728
 20
0.8233550254516206
 30
0.0
 10
5.556805194652856
 20
0.8245715071210749
 30
0.0
 10
5.2587665589663
 20
0.8369797825140516
 30
0.0
 10
5.053427322232777
 20
0.8548999695576514
 30
0.0
 10
4.903551948432996
 20
0.8679797626573351
 30
0.0
1001
PE_URL
1000

  0
LINE
  5
9E
330
1F
100
AcDbEntity
  8
0
  6
Continuous
 62
     4
370
    15
100
AcDbLine
 10
4.903551948432996
 20
-0.8679797626573361
 30
0.0
 11
5.280576148097046
 21
-0.8392549208369763
 31
0.0
1001
PE_URL
1000

  0
LINE
  5
9F
330
1F
100
AcDbEntity
  8
0
  6
Continuous
 62
     1
370
    15
100
AcDbLine
 10
10.23456531682101
 20
0.4827752311649114
 30
0.0
 11
10.2128355971554
 21
0.4939064254501084
 31
0.0
  0
SPLINE
  5
A0
330
1F
100
AcDbEntity
  8
0
  6
Continuous
 62
     1
370
    15
100
AcDbSpline
210
0.0
220
0.0
230
1.0
 70
     8
 71
     3
 72
     9
 73
     5
 74
     0
 42
0.000000001
 43
0.00000001
 40
0.0
 40
0.0
 40
0.0
 40
0.0
 40
0.4761144225924557
 40
1.0
 40
1.0
 40
1.0
 40
1.0
 10
10.56126994700603
 20
0.3202974802938835
 30
0.0
 10
10.5094192503552
 20
0.3448449016310794
 30
0.0
 10
10.40051539407523
 20
0.3964027208702751
 30
0.0
 10
10.29161609106028
 20
0.4530818518858559
 30
0.0
 10
10.23456531682101
 20
0.4827752311649114
 30
0.0
  0
LINE
  5
A1
330
1F
100
AcDbEntity
  8
0
  6
Continuous
 62
     1
370
    15
100
AcDbLine
 10
7.69236309518716
 20
1.25
 30
0.0
 11
7.08639405950214
 21
1.25
 31
0.0
  0
SPLINE
  5
A2
330
1F
100
AcDbEntity
  8
0
  6
Continuous
 62
     1
370
    15
100
AcDbSpline
210
0.0
220
0.0
230
1.0
 70
     8
 71
     3
 72
    15
 73
    11
 74
     0
 42
0.000000001
 43
0.00000001
 40
0.0
 40
0.0
 40
0.0
 40
0.0
 40
0.2395912604994374
 40
0.405025060108695
 40
0.5083090809836915
 40
0.6067872179821671
 40
0.7061760971840361
 40
0.80538069809066
 40
0.9041551522149297
 40
1.0
 40
1.0
 40
1.0
 40
1.0
 10
10.14650819838644
 20
0.9932905215230298
 30
0.0
 10
10.06358296227315
 20
0.9893124958962819
 30
0.0
 10
9.923399223219823
 20
0.982587709419393
 30
0.0
 10
9.747697925265227
 20
0.978302853108951
 30
0.0
 10
9.620681632761233
 20
0.9765409269973325
 30
0.0
 10
9.516509211001464
 20
0.9760396769637707
 30
0.0
 10
9.413750955929379
 20
0.9764248631061074
 30
0.0
 10
9.310934825446743
 20
0.9777338529687353
 30
0.0
 10
9.209403014435214
 20
0.979871201872095
 30
0.0
 10
9.142096880201882
 20
0.9820179804592961
 30
0.0
 10
9.108950393048207
 20
0.983075212012898
 30
0.0
  0
SPLINE
  5
A3
330
1F
100
AcDbEntity
  8
0
  6
Continuous
 62
     1
370
    15
100
AcDbSpline
210
0.0
220
0.0
230
1.0
 70
     8
 71
     3
 72
    21
 73
    17
 74
     0
 42
0.000000001
 43
0.00000001
 40
0.0
 40
0.0
 40
0.0
 40
0.0
 40
0.1334835539356505
 40
0.2242744180883594
 40
0.2811780493952801
 40
0.3356260222498648
 40
0.3905927766973576
 40
0.4456717056039971
 40
0.5006017378960076
 40
0.5551585145831629
 40
0.6099528772145357
 40
0.6648490235499127
 40
0.7192421333517
 40
0.7762897101992458
 40
0.8676649037329368
 40
1.0
 40
1.0
 40
1.0
 40
1.0
 10
8.267895262877861
 20
-1.04017770264287
 30
0.0
 10
8.35157547175827
 20
-1.032208630202679
 30
0.0
 10
8.49217204413612
 20
-1.018819272251591
 30
0.0
 10
8.668022455698013
 20
-1.005713828783057
 30
0.0
 10
8.794630951502556
 20
-0.9976294822825655
 30
0.0
 10
8.898794776789067
 20
-0.9918743319894787
 30
0.0
 10
9.001814999043267
 20
-0.9870332798707273
 30
0.0
 10
9.105118546731841
 20
-0.9830452018692046
 30
0.0
 10
9.208156493528548
 20
-0.9799397836735357
 30
0.0
 10
9.310935005181207
 20
-0.9777224823335413
 30
0.0
 10
9.41375090757629
 20
-0.9764279220926348
 30
0.0
 10
9.516509223799751
 20
-0.9760388672993092
 30
0.0
 10
9.620681629216774
 20
-0.9765411512321038
 30
0.0
 10
9.747697926878992
 20
-0.9783027510164642
 30
0.0
 10
9.923399222489781
 20
-0.9825877556041698
 30
0.0
 10
10.06358296200181
 20
-0.989312513062259
 30
0.0
 10
10.14650819838643
 20
-0.9932905215230299
 30
0.0
  0
SPLINE
  5
A4
330
1F
100
AcDbEntity
  8
0
  6
Continuous
 62
     1
370
    15
100
AcDbSpline
210
0.0
220
0.0
230
1.0
 70
     8
 71
     3
 72
    13
 73
     9
 74
     0
 42
0.000000001
 43
0.00000001
 40
0.0
 40
0.0
 40
0.0
 40
0.0
 40
0.2701819041953786
 40
0.4574730415128443
 40
0.6199737401830924
 40
0.7930300867767351
 40
0.9671449267632355
 40
0.9999999999999999
 40
0.9999999999999999
 40
0.9999999999999999
 40
0.9999999999999999
 10
11.15094683720493
 20
-0.9401581059304714
 30
0.0
 10
11.23492987068594
 20
-0.927561403662035
 30
0.0
 10
11.37713026666158
 20
-0.9062326188311819
 30
0.0
 10
11.5688048134168
 20
-0.8823979981788751
 30
0.0
 10
11.73067242607372
 20
-0.8649391863195047
 30
0.0
 10
11.88875634930975
 20
-0.8509702757403603
 30
0.0
 10
12.00664282727243
 20
-0.8419401449689764
 30
0.0
 10
12.07078684409963
 20
-0.8385730960160354
 30
0.0
 10
12.08096927273255
 20
-0.8380385997783077
 30
0.0
  0
SPLINE
  5
A5
330
1F
100
AcDbEntity
  8
0
  6
Continuous
 62
     1
370
    15
100
AcDbSpline
210
0.0
220
0.0
230
1.0
 70
     8
 71
     3
 72
     9
 73
     5
 74
     0
 42
0.000000001
 43
0.00000001
 40
0.0
 40
0.0
 40
0.0
 40
0.0
 40
0.490515248610964
 40
1.0
 40
1.0
 40
1.0
 40
1.0
 10
6.532356360251056
 20
0.8549381302808785
 30
0.0
 10
6.4117219070791
 20
0.8457463662761406
 30
0.0
 10
6.165787752099067
 20
0.8270073688020212
 30
0.0
 10
5.92282428652908
 20
0.8240820633321712
 30
0.0
 10
5.799038105676535
 20
0.8225916648021276
 30
0.0
  0
SPLINE
  5
A6
330
1F
100
AcDbEntity
  8
0
  6
Continuous
 62
     1
370
    15
100
AcDbSpline
210
0.0
220
0.0
230
1.0
 70
     8
 71
     3
 72
    21
 73
    17
 74
     0
 42
0.000000001
 43
0.00000001
 40
0.0
 40
0.0
 40
0.0
 40
0.0
 40
0.1205944115126294
 40
0.2061290639213439
 40
0.2597139739471992
 40
0.3070732943874873
 40
0.3560413092426065
 40
0.4067920991318745
 40
0.4598066617617479
 40
0.5144117176681593
 40
0.5880566649671312
 40
0.6622187123272917
 40
0.7359299076110994
 40
0.80514505614052
 40
0.8849193832280515
 40
1.0
 40
1.0
 40
1.0
 40
1.0
 10
13.33418440940557
 20
0.8549450210804882
 30
0.0
 10
13.24619622416087
 20
0.8481044175124539
 30
0.0
 10
13.09580018148249
 20
0.8364119419453898
 30
0.0
 10
12.907300555712
 20
0.8280478673454176
 30
0.0
 10
12.77162838566074
 20
0.8242774593133878
 30
0.0
 10
12.66249773846839
 20
0.8226815426273668
 30
0.0
 10
12.55544107609628
 20
0.8224204664238347
 30
0.0
 10
12.4442914508797
 20
0.8235671208104307
 30
0.0
 10
12.32910076299197
 20
0.8262967776481898
 30
0.0
 10
12.19737341110811
 20
0.8312920346326191
 30
0.0
 10
12.05005518956686
 20
0.8392185867248604
 30
0.0
 10
11.88876455371005
 20
0.8508081977776931
 30
0.0
 10
11.73067039442157
 20
0.8649793216163474
 30
0.0
 10
11.56880542490339
 20
0.8823859182585763
 30
0.0
 10
11.37713001968558
 20
0.9062374978431331
 30
0.0
 10
11.23492977898252
 20
0.927563215263464
 30
0.0
 10
11.15094683720493
 20
0.940158105930471
 30
0.0
  0
LINE
  5
A7
330
1F
100
AcDbEntity
  8
0
  6
Continuous
 62
     1
370
    15
100
AcDbLine
 10
7.086398365892084
 20
-1.250000000000001
 30
0.0
 11
7.69236309518716
 21
-1.250000000000001
 31
0.0
  0
LINE
  5
A8
330
1F
100
AcDbEntity
  8
0
  6
Continuous
 62
     4
370
    15
100
AcDbLine
 10
2.0
 20
2.0
 30
0.0
 11
2.0
 21
-2.0
 31
0.0
  0
LINE
  5
A9
330
1F
100
AcDbEntity
  8
0
  6
Continuous
 62
     4
370
    15
100
AcDbLine
 10
-35.77096189432334
 20
1.999999999999995
 30
0.0
 11
-35.77096189432334
 21
-2.000000000000002
 31
0.0
  0
LINE
  5
AA
330
1F
100
AcDbEntity
  8
0
  6
Continuous
 62
     4
370
    15
100
AcDbLine
 10
4.799038105676653
 20
1.25
 30
0.0
 11
4.799038105676653
 21
-1.25
 31
0.0
1001
PE_URL
1000

  0
LINE
  5
AB
330
1F
100
AcDbEntity
  8
0
  6
Continuous
 62
     4
370
    15
100
AcDbLine
 10
-36.20096189432334
 20
1.569999999999995
 30
0.0
 11
-36.20096189432334
 21
-1.570000000000002
 31
0.0
  0
SPLINE
  5
AC
330
1F
100
AcDbEntity
  8
0
  6
Continuous
 62
     4
370
    15
100
AcDbSpline
210
0.0
220
0.0
230
1.0
 70
     8
 71
     3
 72
    11
 73
     7
 74
     0
 42
0.000000001
 43
0.00000001
 40
0.0
 40
0.0
 40
0.0
 40
0.0
 40
0.0428664058907869
 40
0.4249661575750594
 40
0.8078728412586214
 40
1.0
 40
1.0
 40
1.0
 40
1.0
 10
5.280576148097046
 20
0.8392549208369754
 30
0.0
 10
5.287995671519717
 20
0.8425245449773154
 30
0.0
 10
5.361550855222392
 20
0.8749387299028016
 30
0.0
 10
5.500899529231605
 20
0.9305155980975615
 30
0.0
 10
5.666255426899669
 20
0.99202457894413
 30
0.0
 10
5.765784122790782
 20
1.024681337566753
 30
0.0
 10
5.799038105676653
 20
1.035592434940446
 30
0.0
1001
PE_URL
1000

  0
LINE
  5
AD
330
1F
100
AcDbEntity
  8
0
  6
Continuous
 62
     4
370
    15
100
AcDbLine
 10
4.908935444256013
 20
-0.3520908155238207
 30
0.0
 11
4.908935444256013
 21
1.25
 31
0.0
1001
PE_URL
1000

  0
SPLINE
  5
AE
330
1F
100
AcDbEntity
  8
0
  6
Continuous
 62
     4
370
    15
100
AcDbSpline
210
0.0
220
0.0
230
1.0
 70
     8
 71
     3
 72
    10
 73
     6
 74
     0
 42
0.000000001
 43
0.00000001
 40
0.0
 40
0.0
 40
0.0
 40
0.0
 40
0.5
 40
0.5
 40
1.0
 40
1.0
 40
1.0
 40
1.0
 10
5.799038105681701
 20
-0.801977726794153
 30
0.0
 10
5.64973710796419
 20
-0.7361645778974557
 30
0.0
 10
5.503743955912579
 20
-0.665197599825016
 30
0.0
 10
5.207855359224025
 20
-0.5143583736945591
 30
0.0
 10
5.057289195098502
 20
-0.4343125422652763
 30
0.0
 10
4.908827895451171
 20
-0.3521422176045254
 30
0.0
1001
PE_URL
1000

  0
LINE
  5
AF
330
1F
100
AcDbEntity
  8
0
  6
Continuous
 62
     4
370
    15
100
AcDbLine
 10
5.799038105676653
 20
-0.8019777267919271
 30
0.0
 11
5.799038105676653
 21
-1.035592434940449
 31
0.0
1001
PE_URL
1000

  0
SPLINE
  5
B0
330
1F
100
AcDbEntity
  8
0
  6
Continuous
 62
     4
370
    15
100
AcDbSpline
210
0.0
220
0.0
230
1.0
 70
     8
 71
     3
 72
    10
 73
     6
 74
     0
 42
0.000000001
 43
0.00000001
 40
0.0
 40
0.0
 40
0.0
 40
0.0
 40
0.5
 40
0.5
 40
1.0
 40
1.0
 40
1.0
 40
1.0
 10
4.908935444256013
 20
-0.669742073269855
 30
0.0
 10
5.05737983348584
 20
-0.7420425609588651
 30
0.0
 10
5.207927438372336
 20
-0.8099139910235316
 30
0.0
 10
5.503779050442022
 20
-0.9325754874435223
 30
0.0
 10
5.649755134082035
 20
-0.98754794848985
 30
0.0
 10
5.799038105676692
 20
-1.03559243494046
 30
0.0
1001
PE_URL
1000

  0
LINE
  5
B1
330
1F
100
AcDbEntity
  8
0
  6
Continuous
 62
     4
370
    15
100
AcDbLine
 10
4.908935444256013
 20
-1.25
 30
0.0
 11
4.908935444256013
 21
-0.6693814553054788
 31
0.0
1001
PE_URL
1000

  0
SPLINE
  5
B2
330
1F
100
AcDbEntity
  8
0
  6
Continuous
 62
     4
370
    15
100
AcDbSpline
210
0.0
220
0.0
230
1.0
 70
    24
 71
     3
 72
     8
 73
     4
 74
     0
 42
0.000000001
 43
0.00000001
 40
0.0
 40
0.0
 40
0.0
 40
0.0
 40
1.0
 40
1.0
 40
1.0
 40
1.0
 10
5.799038105676653
 20
-0.6313204247311324
 30
0.0
 10
5.799038105676653
 20
-0.6851260483726345
 30
0.0
 10
5.799038105676653
 20
-0.7423637547168291
 30
0.0
 10
5.799038105676653
 20
-0.8019777267916235
 30
0.0
1001
PE_URL
1000

  0
SPLINE
  5
B3
330
1F
100
AcDbEntity
  8
0
  6
Continuous
 62
     4
370
    15
100
AcDbSpline
210
0.0
220
0.0
230
1.0
 70
     8
 71
     3
 72
    10
 73
     6
 74
     0
 42
0.000000001
 43
0.00000001
 40
0.0
 40
0.0
 40
0.0
 40
0.0
 40
0.5000000000000001
 40
0.5000000000000001
 40
1.0
 40
1.0
 40
1.0
 40
1.0
 10
5.799038105683804
 20
-0.6313204247339419
 30
0.0
 10
5.649737107965935
 20
-0.5726607946903338
 30
0.0
 10
5.503743955913952
 20
-0.5099949646500476
 30
0.0
 10
5.207855359224729
 20
-0.3778793938387143
 30
0.0
 10
5.057289195098848
 20
-0.3082852357346171
 30
0.0
 10
4.908827895451171
 20
-0.2373314538627165
 30
0.0
  0
SPLINE
  5
B4
330
1F
100
AcDbEntity
  8
0
  6
Continuous
 62
     4
370
    15
100
AcDbSpline
210
0.0
220
0.0
230
1.0
 70
    24
 71
     3
 72
    10
 73
     6
 74
     0
 42
0.000000001
 43
0.00000001
 40
0.0
 40
0.0
 40
0.0
 40
0.0
 40
0.5
 40
0.5
 40
1.0
 40
1.0
 40
1.0
 40
1.0
 10
5.799038105676653
 20
0.5254995114226313
 30
0.0
 10
5.799038105676653
 20
0.3508519921368933
 30
0.0
 10
5.799038105676653
 20
0.1496922086779932
 30
0.0
 10
5.799038105676653
 20
-0.2546736823719533
 30
0.0
 10
5.799038105676653
 20
-0.4561392410901977
 30
0.0
 10
5.799038105676653
 20
-0.6313204247311324
 30
0.0
1001
PE_URL
1000

  0
SPLINE
  5
B5
330
1F
100
AcDbEntity
  8
0
  6
Continuous
 62
     4
370
    15
100
AcDbSpline
210
0.0
220
0.0
230
1.0
 70
     8
 71
     3
 72
    10
 73
     6
 74
     0
 42
0.000000001
 43
0.00000001
 40
0.0
 40
0.0
 40
0.0
 40
0.0
 40
0.5
 40
0.5
 40
1.0
 40
1.0
 40
1.0
 40
1.0
 10
5.799038105676663
 20
0.5254995114226259
 30
0.0
 10
5.649748551936879
 20
0.5838934306801516
 30
0.0
 10
5.503766235879416
 20
0.6381564214264098
 30
0.0
 10
5.207901119072387
 20
0.7374944262795402
 30
0.0
 10
5.057346737353733
 20
0.7825709870650582
 30
0.0
 10
4.908896173281505
 20
0.8216216321467833
 30
0.0
1001
PE_URL
1000

  0
SPLINE
  5
B6
330
1F
100
AcDbEntity
  8
0
  6
Continuous
 62
     4
370
    15
100
AcDbSpline
210
0.0
220
0.0
230
1.0
 70
    24
 71
     3
 72
    10
 73
     6
 74
     0
 42
0.000000001
 43
0.00000001
 40
0.0
 40
0.0
 40
0.0
 40
0.0
 40
0.5000000000000001
 40
0.5000000000000001
 40
1.0
 40
1.0
 40
1.0
 40
1.0
 10
5.799038105676653
 20
0.8225903345075326
 30
0.0
 10
5.799038105676653
 20
0.8228071730040187
 30
0.0
 10
5.799038105676653
 20
0.7959440242682102
 30
0.0
 10
5.799038105676653
 20
0.6926715760721729
 30
0.0
 10
5.799038105676653
 20
0.6165692396599577
 30
0.0
 10
5.799038105676653
 20
0.5254995114226311
 30
0.0
1001
PE_URL
1000

  0
SPLINE
  5
B7
330
1F
100
AcDbEntity
  8
0
  6
Continuous
 62
     4
370
    15
100
AcDbSpline
210
0.0
220
0.0
230
1.0
 70
    24
 71
     3
 72
     9
 73
     5
 74
     0
 42
0.000000001
 43
0.00000001
 40
0.0
 40
0.0
 40
0.0
 40
0.0
 40
0.3931159673613386
 40
1.0
 40
1.0
 40
1.0
 40
1.0
 10
5.799038105676653
 20
-0.8074583665251824
 30
0.0
 10
5.799038105676653
 20
-0.811185739417073
 30
0.0
 10
5.799038105676653
 20
-0.820667350955035
 30
0.0
 10
5.799038105676653
 20
-0.8218640667810928
 30
0.0
 10
5.799038105676653
 20
-0.8225903345075335
 30
0.0
1001
PE_URL
1000

  0
SPLINE
  5
B8
330
1F
100
AcDbEntity
  8
0
  6
Continuous
 62
     4
370
    15
100
AcDbSpline
210
0.0
220
0.0
230
1.0
 70
    24
 71
     3
 72
    11
 73
     7
 74
     0
 42
0.000000001
 43
0.00000001
 40
0.0
 40
0.0
 40
0.0
 40
0.0
 40
0.1258227784662119
 40
0.451015746978003
 40
0.7856393336063218
 40
1.0
 40
1.0
 40
1.0
 40
1.0
 10
5.799038105676653
 20
1.035592434940446
 30
0.0
 10
5.799038105676653
 20
1.025427505923088
 30
0.0
 10
5.799038105676653
 20
0.9889909949063378
 30
0.0
 10
5.799038105676635
 20
0.9289065178176757
 30
0.0
 10
5.799038105676695
 20
0.8667257748809862
 30
0.0
 10
5.799038105676674
 20
0.834985298409383
 30
0.0
 10
5.799038105676663
 20
0.8225916648021305
 30
0.0
1001
PE_URL
1000

  0
SPLINE
  5
B9
330
1F
100
AcDbEntity
  8
0
  6
Continuous
 62
     1
370
    15
100
AcDbSpline
210
0.0
220
0.0
230
1.0
 70
     8
 71
     3
 72
    17
 73
    13
 74
     0
 42
0.000000001
 43
0.00000001
 40
0.0
 40
0.0
 40
0.0
 40
0.0
 40
0.1049321927708047
 40
0.2097109953818508
 40
0.3144034907681135
 40
0.4190779242873994
 40
0.5238027854838431
 40
0.6286458829451812
 40
0.7336245340468636
 40
0.8297402290105818
 40
0.9256624348210118
 40
1.0
 40
1.0
 40
1.0
 40
1.0
 10
13.79903810567665
 20
-1.186176086539874
 30
0.0
 10
13.58535736608741
 20
-1.137267267876071
 30
0.0
 10
13.15830824598501
 20
-1.039521125590265
 30
0.0
 10
12.51832478499876
 20
-0.7750348780413086
 30
0.0
 10
11.8789524350817
 20
-0.4507958220682139
 30
0.0
 10
11.23971896763787
 20
-0.0855336040237029
 30
0.0
 10
10.60010886080379
 20
0.2867482559575233
 30
0.0
 10
9.959760446049524
 20
0.634175410927814
 30
0.0
 10
9.336627492510537
 20
0.9190304815121393
 30
0.0
 10
8.732035518167066
 20
1.120174936822311
 30
0.0
 10
8.190092068367369
 20
1.235096787511919
 30
0.0
 10
7.84363195430417
 20
1.23992025742048
 30
0.0
 10
7.69236309518716
 20
1.242026245268537
 30
0.0
  0
SPLINE
  5
BA
330
1F
100
AcDbEntity
  8
0
  6
Continuous
 62
     1
370
    15
100
AcDbSpline
210
0.0
220
0.0
230
1.0
 70
     8
 71
     3
 72
    13
 73
     9
 74
     0
 42
0.000000001
 43
0.00000001
 40
0.0
 40
0.0
 40
0.0
 40
0.0
 40
0.171114527468635
 40
0.3416168392908775
 40
0.5121970262701648
 40
0.6834773690916705
 40
0.8543950946811202
 40
1.0
 40
1.0
 40
1.0
 40
1.0
 10
13.79903810567665
 20
-0.9862153304602698
 30
0.0
 10
13.61347068600584
 20
-0.9461239679662511
 30
0.0
 10
13.24299977204485
 20
-0.8660846823446265
 30
0.0
 10
12.6879898560223
 20
-0.6716481975353387
 30
0.0
 10
12.13277757062654
 20
-0.4375220236018194
 30
0.0
 10
11.57652909073895
 20
-0.1749515381256527
 30
0.0
 10
11.04769776620271
 20
0.0879356332265023
 30
0.0
 10
10.70470589445456
 20
0.250784436175193
 30
0.0
 10
10.54692476244603
 20
0.3256971982313895
 30
0.0
  0
LINE
  5
BB
330
1F
100
AcDbEntity
  8
0
  6
Continuous
 62
     1
370
    15
100
AcDbLine
 10
13.79903810567658
 20
-1.186176086539875
 30
0.0
 11
13.79903810567665
 21
-0.9862153304602698
 31
0.0
  0
SPLINE
  5
BC
330
1F
100
AcDbEntity
  8
0
  6
Continuous
 62
     1
370
    15
100
AcDbSpline
210
0.0
220
0.0
230
1.0
 70
     8
 71
     3
 72
    38
 73
    34
 74
     0
 42
0.000000001
 43
0.00000001
 40
0.0
 40
0.0
 40
0.0
 40
0.0
 40
0.0625
 40
0.0625
 40
0.1249999999999999
 40
0.1249999999999999
 40
0.1874999999999999
 40
0.1874999999999999
 40
0.2499999999999999
 40
0.2499999999999999
 40
0.3124999999999998
 40
0.3124999999999998
 40
0.3749999999999998
 40
0.3749999999999998
 40
0.4374999999999997
 40
0.4374999999999997
 40
0.4999999999999997
 40
0.4999999999999997
 40
0.5624999999999996
 40
0.5624999999999996
 40
0.6249999999999996
 40
0.6249999999999996
 40
0.6874999999999994
 40
0.6874999999999994
 40
0.7499999999999993
 40
0.7499999999999993
 40
0.8124999999999993
 40
0.8124999999999993
 40
0.8749999999999992
 40
0.8749999999999992
 40
0.9374999999999996
 40
0.9374999999999996
 40
1.0
 40
1.0
 40
1.0
 40
1.0
 10
5.799038105676692
 20
1.035592434940459
 30
0.0
 10
5.966859375509266
 20
1.089603194764347
 30
0.0
 10
6.133602202559494
 20
1.134198429808034
 30
0.0
 10
6.463988645055057
 20
1.202424052167347
 30
0.0
 10
6.633459160130867
 20
1.226365708378526
 30
0.0
 10
6.967578183930723
 20
1.251777288186405
 30
0.0
 10
7.131091684671967
 20
1.253428547135565
 30
0.0
 10
7.466646737782421
 20
1.234490858326666
 30
0.0
 10
7.6338215571873
 20
1.213857557022375
 30
0.0
 10
7.963807871123104
 20
1.151839013438999
 30
0.0
 10
8.13322946728994
 20
1.109972622438429
 30
0.0
 10
8.467565445246116
 20
1.007574720340534
 30
0.0
 10
8.630977058351446
 20
0.9473873960838363
 30
0.0
 10
8.966430161730008
 20
0.8102446642051855
 30
0.0
 10
9.13406189677241
 20
0.7337894789792917
 30
0.0
 10
9.463634411741094
 20
0.5702172388654161
 30
0.0
 10
9.632999623666423
 20
0.4818540849891581
 30
0.0
 10
9.967538267539522
 20
0.2988144398498425
 30
0.0
 10
10.13087345216928
 20
0.204554851490882
 30
0.0
 10
10.46621015729841
 20
0.0124552226485067
 30
0.0
 10
10.63432366647915
 20
-0.0846420675844808
 30
0.0
 10
10.96346877033336
 20
-0.2742928416819226
 30
0.0
 10
11.1327701410682
 20
-0.3684127332136368
 30
0.0
 10
11.46749713359015
 20
-0.5477177826798283
 30
0.0
 10
11.63078135983098
 20
-0.6325882621740799
 30
0.0
 10
11.96598723492375
 20
-0.7910748113761877
 30
0.0
 10
12.13460730850337
 20
-0.8640423876980671
 30
0.0
 10
12.46331144917803
 20
-0.9923407521236202
 30
0.0
 10
12.63254153126145
 20
-1.048833965694926
 30
0.0
 10
12.96744252816693
 20
-1.141719040924045
 30
0.0
 10
13.13070127339151
 20
-1.178075427410068
 30
0.0
 10
13.4657619054575
 20
-1.22989785819537
 30
0.0
 10
13.63491326201816
 20
-1.245008433776617
 30
0.0
 10
13.79903810567665
 20
-1.248943519037055
 30
0.0
  0
SPLINE
  5
BD
330
1F
100
AcDbEntity
  8
0
  6
Continuous
 62
     1
370
    15
100
AcDbSpline
210
0.0
220
0.0
230
1.0
 70
     8
 71
     3
 72
    13
 73
     9
 74
     0
 42
0.000000001
 43
0.00000001
 40
0.0
 40
0.0
 40
0.0
 40
0.0
 40
0.144347349813642
 40
0.3222449230373736
 40
0.5001379939875069
 40
0.6780267909419732
 40
0.8559115431726745
 40
1.0
 40
1.0
 40
1.0
 40
1.0
 10
10.69558137051243
 20
-0.1194964624343553
 30
0.0
 10
10.49520416423467
 20
-0.0385898197361585
 30
0.0
 10
10.04787667606961
 20
0.14202835498719
 30
0.0
 10
9.353608488696866
 20
0.413838662496132
 30
0.0
 10
8.612777550026761
 20
0.6553160060580575
 30
0.0
 10
7.871980374545155
 20
0.8188699582871816
 30
0.0
 10
7.178060724935829
 20
0.8910137112676442
 30
0.0
 10
6.731198197553812
 20
0.8635011170561887
 30
0.0
 10
6.531219658429992
 20
0.8511887658054653
 30
0.0
  0
SPLINE
  5
BE
330
1F
100
AcDbEntity
  8
0
  6
Continuous
 62
     4
370
    15
100
AcDbSpline
210
0.0
220
0.0
230
1.0
 70
    24
 71
     3
 72
    11
 73
     7
 74
     0
 42
0.000000001
 43
0.00000001
 40
0.0
 40
0.0
 40
0.0
 40
0.0
 40
0.1258227784867637
 40
0.4510157470092432
 40
0.7856393336492105
 40
1.0
 40
1.0
 40
1.0
 40
1.0
 10
5.799038105676653
 20
1.035592434940446
 30
0.0
 10
5.799038105676653
 20
1.025427505921438
 30
0.0
 10
5.799038105676653
 20
0.988990994902202
 30
0.0
 10
5.799038105676635
 20
0.9289065178107014
 30
0.0
 10
5.799038105676702
 20
0.8667257748760965
 30
0.0
 10
5.799038105676674
 20
0.8349852984067337
 30
0.0
 10
5.799038105676663
 20
0.8225916648021305
 30
0.0
1001
PE_URL
1000

  0
LINE
  5
BF
330
1F
100
AcDbEntity
  8
0
  6
Continuous
 62
     1
370
    15
100
AcDbLine
 10
13.79903810567665
 20
-1.248943519037055
 30
0.0
 11
13.79903810567664
 21
-1.186176086539871
 31
0.0
  0
SPLINE
  5
C0
330
1F
100
AcDbEntity
  8
0
  6
Continuous
 62
     1
370
    15
100
AcDbSpline
210
0.0
220
0.0
230
1.0
 70
     8
 71
     3
 72
     8
 73
     4
 74
     0
 42
0.000000001
 43
0.00000001
 40
0.0
 40
0.0
 40
0.0
 40
0.0
 40
1.0
 40
1.0
 40
1.0
 40
1.0
 10
13.02540941347706
 20
0.3498421875512265
 30
0.0
 10
12.96935936706765
 20
0.4161899107336615
 30
0.0
 10
12.92074434462474
 20
0.4796034014034101
 30
0.0
 10
12.88239779316796
 20
0.5385664122466232
 30
0.0
  0
LINE
  5
C1
330
1F
100
AcDbEntity
  8
0
  6
Continuous
 62
     1
370
    15
100
AcDbLine
 10
12.88239779316796
 20
0.5385664122466222
 30
0.0
 11
13.79903810567665
 21
0.0000000000000006
 31
0.0
  0
LINE
  5
C2
330
1F
100
AcDbEntity
  8
0
  6
Continuous
 62
     1
370
    15
100
AcDbLine
 10
13.79903810567665
 20
0.0000000000000006
 30
0.0
 11
13.79903810567665
 21
-0.3340536825370554
 31
0.0
  0
SPLINE
  5
C3
330
1F
100
AcDbEntity
  8
0
  6
Continuous
 62
     1
370
    15
100
AcDbSpline
210
0.0
220
0.0
230
1.0
 70
     8
 71
     3
 72
    10
 73
     6
 74
     0
 42
0.000000001
 43
0.00000001
 40
0.0
 40
0.0
 40
0.0
 40
0.0
 40
0.5
 40
0.5
 40
1.0
 40
1.0
 40
1.0
 40
1.0
 10
13.79903810567665
 20
-0.3340536825370554
 30
0.0
 10
13.66511723641413
 20
-0.2287670726147522
 30
0.0
 10
13.5334352766439
 20
-0.1191601491570768
 30
0.0
 10
13.27465289766431
 20
0.1088944712534344
 30
0.0
 10
13.14633613478663
 20
0.2285417807442849
 30
0.0
 10
13.02540941347588
 20
0.3498421875484968
 30
0.0
  0
SPLINE
  5
C4
330
1F
100
AcDbEntity
  8
0
  6
Continuous
 62
     1
370
    15
100
AcDbSpline
210
0.0
220
0.0
230
1.0
 70
     8
 71
     3
 72
    13
 73
     9
 74
     0
 42
0.000000001
 43
0.00000001
 40
0.0
 40
0.0
 40
0.0
 40
0.0
 40
0.1171872678273452
 40
0.3098478882349357
 40
0.5033103981633756
 40
0.6963574889981411
 40
0.8888796995168948
 40
1.0
 40
1.0
 40
1.0
 40
1.0
 10
13.02540941347696
 20
0.3498421875512776
 30
0.0
 10
12.91296404069467
 20
0.3976298226682594
 30
0.0
 10
12.61565391524899
 20
0.523982267769666
 30
0.0
 10
12.13277498516659
 20
0.7036475047723771
 30
0.0
 10
11.57655817969982
 20
0.865313009855118
 30
0.0
 10
11.02077587638009
 20
0.9675385884628269
 30
0.0
 10
10.54428582845993
 20
1.010446554310202
 30
0.0
 10
10.25287205659037
 20
0.9919851568193743
 30
0.0
 10
10.14622695677144
 20
0.9852290671343359
 30
0.0
  0
SPLINE
  5
C5
330
1F
100
AcDbEntity
  8
0
  6
Continuous
 62
     1
370
    15
100
AcDbSpline
210
0.0
220
0.0
230
1.0
 70
    24
 71
     3
 72
    10
 73
     6
 74
     0
 42
0.000000001
 43
0.00000001
 40
0.0
 40
0.0
 40
0.0
 40
0.0
 40
0.5
 40
0.5
 40
1.0
 40
1.0
 40
1.0
 40
1.0
 10
13.79903810567665
 20
-0.9862153304602695
 30
0.0
 10
13.79903810567665
 20
-0.9106142362547557
 30
0.0
 10
13.79903810567665
 20
-0.8150893548830855
 30
0.0
 10
13.79903810567665
 20
-0.5930031989383494
 30
0.0
 10
13.79903810567665
 20
-0.4666343038141366
 30
0.0
 10
13.79903810567665
 20
-0.3340536825370953
 30
0.0
  0
SPLINE
  5
C6
330
1F
100
AcDbEntity
  8
0
  6
Continuous
 62
     1
370
    15
100
AcDbSpline
210
0.0
220
0.0
230
1.0
 70
     8
 71
     3
 72
    13
 73
     9
 74
     0
 42
0.000000001
 43
0.00000001
 40
0.0
 40
0.0
 40
0.0
 40
0.0
 40
0.0097437005377289
 40
0.2347656234828297
 40
0.4604246454702708
 40
0.6851656038820633
 40
0.9097114451024244
 40
1.0
 40
1.0
 40
1.0
 40
1.0
 10
8.268176305855835
 20
-1.03874783360264
 30
0.0
 10
8.26015966250485
 20
-1.040012232188875
 30
0.0
 10
8.067005914886465
 20
-1.070476768868643
 30
0.0
 10
7.688066282899943
 20
-1.067269695008858
 30
0.0
 10
7.131779282885722
 20
-1.021509600550855
 30
0.0
 10
6.576437784631977
 20
-0.9006606197526125
 30
0.0
 10
6.132637876981761
 20
-0.7593035370197068
 30
0.0
 10
5.873386500873218
 20
-0.6598436427588051
 30
0.0
 10
5.799038105676653
 20
-0.6313204247311329
 30
0.0
  0
SPLINE
  5
C7
330
1F
100
AcDbEntity
  8
0
  6
Continuous
 62
     1
370
    15
100
AcDbSpline
210
0.0
220
0.0
230
1.0
 70
     8
 71
     3
 72
    18
 73
    14
 74
     0
 42
0.000000001
 43
0.00000001
 40
0.0
 40
0.0
 40
0.0
 40
0.0
 40
0.0248430131138008
 40
0.1283717097033739
 40
0.2320442554260551
 40
0.3361215628543695
 40
0.4398322806327334
 40
0.5433561195097127
 40
0.647119379116356
 40
0.7511803756196207
 40
0.8548120770645764
 40
0.9583526577980861
 40
1.0
 40
1.0
 40
1.0
 40
1.0
 10
11.15335151028767
 20
-0.93416708627339
 30
0.0
 10
11.10900655675912
 20
-0.9428395571828276
 30
0.0
 10
10.87986215003602
 20
-0.9876529585563852
 30
0.0
 10
10.46591701351731
 20
-1.007484431201604
 30
0.0
 10
9.910460289882637
 20
-0.9861864457517973
 30
0.0
 10
9.354168808767593
 20
-0.8957485614419882
 30
0.0
 10
8.79862786896675
 20
-0.7476839935427818
 30
0.0
 10
8.24377328279727
 20
-0.5501582161292252
 30
0.0
 10
7.688105192142434
 20
-0.3167844622043813
 30
0.0
 10
7.131848085945842
 20
-0.0632747202917225
 30
0.0
 10
6.576499229367281
 20
0.1948022586413417
 30
0.0
 10
6.132660485034922
 20
0.392575180126925
 30
0.0
 10
5.873405679641545
 20
0.4958694246809034
 30
0.0
 10
5.799038105676653
 20
0.5254995114226301
 30
0.0
  0
SPLINE
  5
C8
330
1F
100
AcDbEntity
  8
0
  6
Continuous
 62
     4
370
    15
100
AcDbSpline
210
0.0
220
0.0
230
1.0
 70
    24
 71
     3
 72
    10
 73
     6
 74
     0
 42
0.000000001
 43
0.00000001
 40
0.0
 40
0.0
 40
0.0
 40
0.0
 40
0.5
 40
0.5
 40
1.0
 40
1.0
 40
1.0
 40
1.0
 10
5.799038105676653
 20
0.5254995114226307
 30
0.0
 10
5.799038105676653
 20
0.3508519921368928
 30
0.0
 10
5.799038105676653
 20
0.1496922086779925
 30
0.0
 10
5.799038105676653
 20
-0.254673682371954
 30
0.0
 10
5.799038105676653
 20
-0.4561392410901984
 30
0.0
 10
5.799038105676653
 20
-0.631320424731133
 30
0.0
1001
PE_URL
1000

  0
SPLINE
  5
C9
330
1F
100
AcDbEntity
  8
0
  6
Continuous
 62
     4
370
    15
100
AcDbSpline
210
0.0
220
0.0
230
1.0
 70
    24
 71
     3
 72
    11
 73
     7
 74
     0
 42
0.000000001
 43
0.00000001
 40
0.0
 40
0.0
 40
0.0
 40
0.0
 40
0.2470007497471412
 40
0.5021436925490461
 40
0.7475881766691379
 40
1.0
 40
1.0
 40
1.0
 40
1.0
 10
5.799038105676653
 20
0.8225187830681209
 30
0.0
 10
5.799038105676649
 20
0.8189914414301442
 30
0.0
 10
5.799038105676653
 20
0.8118204820027382
 30
0.0
 10
5.799038105676653
 20
0.7519754794693903
 30
0.0
 10
5.799038105676649
 20
0.6599441586550714
 30
0.0
 10
5.799038105676653
 20
0.5707305656987235
 30
0.0
 10
5.799038105676653
 20
0.525499511422631
 30
0.0
1001
PE_URL
1000

  0
LINE
  5
CA
330
1F
100
AcDbEntity
  8
0
  6
Continuous
 62
     1
370
    15
100
AcDbLine
 10
13.79903810567665
 20
0.8750000000000006
 30
0.0
 11
13.33114116096377
 21
0.8429685306241786
 31
0.0
  0
SPLINE
  5
CB
330
1F
100
AcDbEntity
  8
0
  6
Continuous
 62
     1
370
    15
100
AcDbSpline
210
0.0
220
0.0
230
1.0
 70
     8
 71
     3
 72
     8
 73
     4
 74
     0
 42
0.000000001
 43
0.00000001
 40
0.0
 40
0.0
 40
0.0
 40
0.0
 40
1.0
 40
1.0
 40
1.0
 40
1.0
 10
13.79903810567665
 20
0.8750000000000006
 30
0.0
 10
13.48792654838059
 20
0.7904410596396064
 30
0.0
 10
13.17983553257958
 20
0.684190997715652
 30
0.0
 10
12.88239779316698
 20
0.538566412247353
 30
0.0
  0
SPLINE
  5
CC
330
1F
100
AcDbEntity
  8
0
  6
Continuous
 62
     1
370
    15
100
AcDbSpline
210
0.0
220
0.0
230
1.0
 70
     8
 71
     3
 72
    13
 73
     9
 74
     0
 42
0.000000001
 43
0.00000001
 40
0.0
 40
0.0
 40
0.0
 40
0.0
 40
0.1139663518061773
 40
0.2909222132052156
 40
0.4679132747451581
 40
0.6453306817511905
 40
0.8229252792186305
 40
1.0
 40
1.0
 40
1.0
 40
1.0
 10
9.108950393048206
 20
-0.983075212012898
 30
0.0
 10
8.983187143746934
 20
-1.027712824815944
 30
0.0
 10
8.662150958532985
 20
-1.141659379242333
 30
0.0
 10
8.14612845726811
 20
-1.235779730330929
 30
0.0
 10
7.560071083585438
 20
-1.263695897517397
 30
0.0
 10
6.972958400422174
 20
-1.195289734939321
 30
0.0
 10
6.385522971294051
 20
-1.044924263920224
 30
0.0
 10
5.994341928946429
 20
-0.8828807310005913
 30
0.0
 10
5.799038105681749
 20
-0.8019777267941741
 30
0.0
  0
SPLINE
  5
CD
330
1F
100
AcDbEntity
  8
0
  6
Continuous
 62
     1
370
    15
100
AcDbSpline
210
0.0
220
0.0
230
1.0
 70
     8
 71
     3
 72
    12
 73
     8
 74
     0
 42
0.000000001
 43
0.00000001
 40
0.0
 40
0.0
 40
0.0
 40
0.0
 40
0.1527261417105955
 40
0.4596750433267655
 40
0.6139912119625373
 40
0.8941321382460022
 40
1.0
 40
1.0
 40
1.0
 40
1.0
 10
5.799038105676653
 20
-1.035592434940447
 30
0.0
 10
5.864661780584905
 20
-1.055818897482402
 30
0.0
 10
6.062175875217598
 20
-1.116696491463257
 30
0.0
 10
6.325028042485677
 20
-1.177854020233429
 30
0.0
 10
6.643466327157387
 20
-1.226679073417523
 30
0.0
 10
6.875453353859596
 20
-1.250929376109887
 30
0.0
 10
7.040996134700546
 20
-1.246921732993354
 30
0.0
 10
7.086398365892084
 20
-1.245822585459492
 30
0.0
  0
SPLINE
  5
CE
330
1F
100
AcDbEntity
  8
0
  6
Continuous
 62
     1
370
    15
100
AcDbSpline
210
0.0
220
0.0
230
1.0
 70
     8
 71
     3
 72
    12
 73
     8
 74
     0
 42
0.000000001
 43
0.00000001
 40
0.0
 40
0.0
 40
0.0
 40
0.0
 40
0.0202281927494774
 40
0.239153828916331
 40
0.4267744771999783
 40
0.8070257193243964
 40
1.0
 40
1.0
 40
1.0
 40
1.0
 10
12.08095475285462
 20
0.8380393804948342
 30
0.0
 10
12.09255016026949
 20
0.8433012323360582
 30
0.0
 10
12.22964031535432
 20
0.9055110417146877
 30
0.0
 10
12.47325453290333
 20
0.9963263991936775
 30
0.0
 10
12.92465437750671
 20
1.137619370889883
 30
0.0
 10
13.36042692686512
 20
1.226805152412937
 30
0.0
 10
13.68856995318759
 20
1.243367773186896
 30
0.0
 10
13.79903810567665
 20
1.248943519037055
 30
0.0
  0
SPLINE
  5
CF
330
1F
100
AcDbEntity
  8
0
  6
Continuous
 62
     4
370
    15
100
AcDbSpline
210
0.0
220
0.0
230
1.0
 70
    24
 71
     3
 72
     8
 73
     4
 74
     0
 42
0.000000001
 43
0.00000001
 40
0.0
 40
0.0
 40
0.0
 40
0.0
 40
1.0
 40
1.0
 40
1.0
 40
1.0
 10
5.799038105677274
 20
-0.6313204247313767
 30
0.0
 10
5.799038105677274
 20
-0.6851260483728523
 30
0.0
 10
5.799038105677274
 20
-0.7423637547170141
 30
0.0
 10
5.799038105677274
 20
-0.801977726791772
 30
0.0
1001
PE_URL
1000

  0
LINE
  5
D0
330
1F
100
AcDbEntity
  8
0
  6
Continuous
 62
     1
370
    15
100
AcDbLine
 10
13.79903810567665
 20
0.0000000000000006
 30
0.0
 11
13.79903810567665
 21
0.8750000000000004
 31
0.0
  0
SPLINE
  5
D1
330
1F
100
AcDbEntity
  8
0
  6
Continuous
 62
     1
370
    15
100
AcDbSpline
210
0.0
220
0.0
230
1.0
 70
    24
 71
     3
 72
    10
 73
     6
 74
     0
 42
0.000000001
 43
0.00000001
 40
0.0
 40
0.0
 40
0.0
 40
0.0
 40
0.5
 40
0.5
 40
1.0
 40
1.0
 40
1.0
 40
1.0
 10
13.79903810567665
 20
0.8750000000000008
 30
0.0
 10
13.79903810567665
 20
0.928040321009143
 30
0.0
 10
13.79903810567665
 20
0.9896780860838971
 30
0.0
 10
13.79903810567665
 20
1.11899395120107
 30
0.0
 10
13.79903810567665
 20
1.186341794751841
 30
0.0
 10
13.79903810567665
 20
1.248943519037056
 30
0.0
  0
LINE
  5
D2
330
1F
100
AcDbEntity
  8
중심선
100
AcDbLine
 10
-39.20096189432333
 20
-0.0000000000000044
 30
0.0
 11
15.29903810567665
 21
0.0000000000000007
 31
0.0
  0
CIRCLE
  5
D3
330
1F
100
AcDbEntity
  8
외형선
100
AcDbCircle
 10
0.0
 20
0.0
 30
0.0
 40
3.000000000000004
  0
INSERT
  5
D4
330
1F
100
AcDbEntity
  8
0
  6
Continuous
 62
     7
100
AcDbBlockReference
 66
     1
  2
블럭10
 10
-28.13923533383495
 20
-52.04717430164393
 30
0.0
  0
ATTRIB
  5
D5
330
D4
100
AcDbEntity
  8
FORMAT
 62
     2
100
AcDbText
 10
-44.14482286510324
 20
-49.97180738881174
 30
0.0
 40
4.233333333333333
  1
SEME350254SE [ 2 FLUTE ]
 41
0.75
  7
SLDTEXTSTYLE0
 11
-44.14482286510324
 21
-52.08847405547841
 31
0.0
100
AcDbAttribute
  2
AUTOATTR0
 70
     0
 74
     1
  0
SEQEND
  5
D6
330
D4
100
AcDbEntity
  8
0
  6
Continuous
 62
     7
  0
HATCH
  5
D7
330
1F
100
AcDbEntity
  8
중심선
100
AcDbHatch
 10
0.0
 20
0.0
 30
0.0
210
0.0
220
0.0
230
1.0
  2
SOLID
 70
     1
 71
     0
 91
        1
 92
        0
 93
        4
 72
     1
 10
-22.4243260294541
 20
-35.8
 11
-25.87060127329138
 21
-35.8
 72
     1
 10
-25.87060127329138
 20
-35.8
 11
-27.99883113249541
 21
-38.33632558057259
 72
     1
 10
-27.99883113249541
 20
-38.33632558057259
 11
-24.55252280354497
 21
-38.3362861512701
 72
     1
 10
-24.55252280354497
 20
-38.3362861512701
 11
-22.4243260294541
 21
-35.8
 97
        0
 75
     0
 76
     1
 98
        1
 10
-4.200961894323342
 20
-0.0000000000000009
  0
HATCH
  5
D8
330
1F
100
AcDbEntity
  8
중심선
100
AcDbHatch
 10
0.0
 20
0.0
 30
0.0
210
0.0
220
0.0
230
1.0
  2
SOLID
 70
     1
 71
     0
 91
        1
 92
        0
 93
        4
 72
     1
 10
-17.41156203841815
 20
-35.8
 11
-20.85783728225543
 21
-35.8
 72
     1
 10
-20.85783728225543
 20
-35.8
 11
-25.38897529061282
 21
-41.20000000000002
 72
     1
 10
-25.38897529061282
 20
-41.20000000000002
 11
-21.94270004677554
 21
-41.20000000000002
 72
     1
 10
-21.94270004677554
 20
-41.20000000000002
 11
-17.41156203841815
 21
-35.8
 97
        0
 75
     0
 76
     1
 98
        1
 10
-4.200961894323342
 20
-0.0000000000000009
  0
HATCH
  5
D9
330
1F
100
AcDbEntity
  8
중심선
100
AcDbHatch
 10
0.0
 20
0.0
 30
0.0
210
0.0
220
0.0
230
1.0
  2
SOLID
 70
     1
 71
     0
 91
        1
 92
        0
 93
        4
 72
     1
 10
-12.39879804738225
 20
-35.80000000000003
 11
-15.84507329121937
 21
-35.8
 72
     1
 10
-15.84507329121937
 20
-35.8
 11
-22.89351019310862
 21
-44.20000000000002
 72
     1
 10
-22.89351019310862
 20
-44.20000000000002
 11
-19.44723494927134
 21
-44.20000000000002
 72
     1
 10
-19.44723494927134
 20
-44.20000000000002
 11
-12.39879804738225
 21
-35.80000000000003
 97
        0
 75
     0
 76
     1
 98
        1
 10
-4.200961894323342
 20
-0.0000000000000009
  0
HATCH
  5
DA
330
1F
100
AcDbEntity
  8
중심선
100
AcDbHatch
 10
0.0
 20
0.0
 30
0.0
210
0.0
220
0.0
230
1.0
  2
SOLID
 70
     1
 71
     0
 91
        1
 92
        0
 93
        6
 72
     3
 10
-7.598907616370056
 20
-40.00000000005127
 11
3.960054785062284
 21
1.540882976769353E-10
 40
0.3939339440162627
 50
17.09539180608437
 51
320.0019657685081
 73
     0
 72
     1
 10
-5.91590796066946
 20
-38.5878940046383
 11
-3.610606086968422
 21
-36.65356729459038
 72
     3
 10
-7.598907616422903
 20
-40.00000000000015
 11
6.600054785286829
 21
-1.278976924368180E-13
 40
0.636358354079598
 50
39.9987384933741
 51
368.4976242363725
 73
     1
 72
     1
 10
-1.173575124522293
 20
-39.03999999993002
 11
-8.91884030958698
 21
-39.03999999992999
 72
     1
 10
-8.91884030958698
 20
-39.03999999992999
 11
-8.918865354032913
 21
-40.95999999992991
 72
     1
 10
-8.918865354032913
 20
-40.95999999992991
 11
-4.477485584560877
 21
-40.95999999992988
 97
        0
 75
     0
 76
     1
 98
        1
 10
-4.200961894323342
 20
-0.0000000000000009
  0
DIMENSION
  5
DB
330
1F
100
AcDbEntity
  8
치수문자_일반주서
100
AcDbDimension
  2
_D
 10
5.799038105676653
 20
13.49957740761484
 30
0.0
 11
9.79903810567665
 21
13.49957740761484
 31
0.0
 70
   160
  1
<>
 71
     2
 42
7.999999999999998
  3
SLDDIMSTYLE0
100
AcDbAlignedDimension
 13
13.79903810567665
 23
1.248943519037055
 33
0.0
 14
5.799038105676653
 24
0.8225916741962512
 34
0.0
100
AcDbRotatedDimension
  0
DIMENSION
  5
E8
330
1F
100
AcDbEntity
  8
치수문자_일반주서
100
AcDbDimension
  2
_D_1
 10
-36.20096189432334
 20
23.65915911661226
 30
0.0
 11
-11.20096189432334
 21
23.65915911661226
 31
0.0
 70
   160
  1
<>
 71
     2
 42
49.99999999999999
  3
SLDDIMSTYLE1
100
AcDbAlignedDimension
 13
13.79903810567665
 23
0.8750000000000004
 33
0.0
 14
-36.20096189432334
 24
1.569999999999995
 34
0.0
100
AcDbRotatedDimension
  0
DIMENSION
  5
F3
330
1F
100
AcDbEntity
  8
치수문자_일반주서
100
AcDbDimension
  2
_D_2
 10
29.85368995638449
 20
-1.248943519036995
 30
0.0
 11
29.85368995638444
 21
13.75919351903712
 31
0.0
 70
   160
  1
%%c<>
 71
     2
 42
2.49788703807411
 52
-270.0
  3
SLDDIMSTYLE2
100
AcDbAlignedDimension
 13
13.79903810567665
 23
1.248943519037055
 33
0.0
 14
13.79903810567665
 24
-1.248943519037055
 34
0.0
 50
90.0000000000002
100
AcDbRotatedDimension
  0
DIMENSION
  5
101
330
1F
100
AcDbEntity
  8
치수문자_일반주서
100
AcDbDimension
  2
_D_3
 10
-48.19052133971188
 20
-2.000000000000049
 30
0.0
 11
-48.19052133971189
 21
-0.0000000000000038
 31
0.0
 70
   160
  1
%%c<>
 71
     2
 42
3.999999999999998
 52
-270.0
  3
SLDDIMSTYLE0
100
AcDbAlignedDimension
 13
-35.77096189432334
 23
1.999999999999996
 33
0.0
 14
-35.77096189432334
 24
-2.000000000000002
 34
0.0
 50
90.0000000000002
100
AcDbRotatedDimension
  0
INSERT
  5
114
330
1F
100
AcDbEntity
  8
외형선
100
AcDbBlockReference
  2
SW_DOWELSYMBOL_0
 10
0.0
 20
0.0
 30
0.0
  0
LINE
  5
140
330
1F
100
AcDbEntity
  8
0
  6
Continuous
 62
     4
370
    15
100
AcDbLine
 10
0.0
 20
2.0
 30
0.0
 11
0.0
 21
-2.0
 31
0.0
  0
ENDSEC
  0
SECTION
  2
OBJECTS
  0
DICTIONARY
  5
C
330
0
100
AcDbDictionary
281
     1
  3
ACAD_GROUP
350
D
  3
ACAD_LAYOUT
350
1A
  3
ACAD_MLINESTYLE
350
17
  3
ACAD_PLOTSETTINGS
350
19
  3
ACAD_PLOTSTYLENAME
350
E
  3
ACAD_SCALELIST
350
47
  3
APPDATA
350
136
  3
DWGPROPS
350
149
  0
DICTIONARY
  5
D
102
{ACAD_REACTORS
330
C
102
}
330
C
100
AcDbDictionary
281
     1
  0
DICTIONARY
  5
1A
102
{ACAD_REACTORS
330
C
102
}
330
C
100
AcDbDictionary
281
     1
  3
Layout1
350
1E
  3
Layout2
350
26
  3
Model
350
22
  0
DICTIONARY
  5
17
102
{ACAD_REACTORS
330
C
102
}
330
C
100
AcDbDictionary
281
     1
  3
Standard
350
18
  0
DICTIONARY
  5
19
102
{ACAD_REACTORS
330
C
102
}
330
C
100
AcDbDictionary
281
     1
  0
ACDBDICTIONARYWDFLT
  5
E
102
{ACAD_REACTORS
330
C
102
}
330
C
100
AcDbDictionary
281
     1
  3
Normal
350
F
100
AcDbDictionaryWithDefault
340
F
  0
DICTIONARY
  5
47
102
{ACAD_REACTORS
330
C
102
}
330
C
100
AcDbDictionary
281
     1
  3
A0
350
48
  3
A1
350
49
  3
A2
350
4A
  3
A3
350
4B
  3
A4
350
4C
  3
A5
350
4D
  3
A6
350
4E
  3
A7
350
4F
  3
A8
350
50
  3
A9
350
51
  3
B0
350
52
  3
B1
350
53
  3
B2
350
54
  3
B3
350
55
  3
B4
350
56
  3
B5
350
57
  3
B6
350
58
  3
B7
350
59
  3
B8
350
5A
  3
B9
350
5B
  3
C0
350
5C
  3
C1
350
5D
  3
C2
350
5E
  3
C3
350
5F
  3
C4
350
60
  3
C5
350
61
  3
C6
350
62
  3
C7
350
63
  3
C8
350
64
  3
C9
350
65
  3
D0
350
66
  3
D1
350
67
  3
D2
350
68
  0
DICTIONARY
  5
136
102
{ACAD_REACTORS
330
C
102
}
330
C
100
AcDbDictionary
281
     1
  0
XRECORD
  5
149
102
{ACAD_REACTORS
330
C
102
}
330
C
100
AcDbXrecord
280
     1
  1
DWGPROPS COOKIE
  2

  3

  4

  6

  7

  8
12011908
  9

300
=
301
=
302
=
303
=
304
=
305
=
306
=
307
=
308
=
309
=
 40
0.0
 41
2458250.11236081
 42
2458264.133742257
  1

 90
        0
  0
LAYOUT
  5
1E
102
{ACAD_REACTORS
330
1A
102
}
330
1A
100
AcDbPlotSettings
  1

  2
none_device
  4

  6

 40
0.0
 41
0.0
 42
0.0
 43
0.0
 44
0.0
 45
0.0
 46
0.0
 47
0.0
 48
0.0
 49
0.0
140
0.0
141
0.0
142
1.0
143
1.0
 70
   688
 72
     1
 73
     0
 74
     5
  7

 75
    16
147
1.0
148
0.0
149
0.0
100
AcDbLayout
  1
Layout1
 70
     1
 71
     1
 10
0.0
 20
0.0
 11
420.0
 21
297.0
 12
0.0
 22
0.0
 32
0.0
 14
1.000000000000000E+20
 24
1.000000000000000E+20
 34
1.000000000000000E+20
 15
-1.000000000000000E+20
 25
-1.000000000000000E+20
 35
-1.000000000000000E+20
146
0.0
 13
0.0
 23
0.0
 33
0.0
 16
1.0
 26
0.0
 36
0.0
 17
0.0
 27
1.0
 37
0.0
 76
     0
330
1B
  0
LAYOUT
  5
26
102
{ACAD_REACTORS
330
1A
102
}
330
1A
100
AcDbPlotSettings
  1

  2
none_device
  4

  6

 40
0.0
 41
0.0
 42
0.0
 43
0.0
 44
0.0
 45
0.0
 46
0.0
 47
0.0
 48
0.0
 49
0.0
140
0.0
141
0.0
142
1.0
143
1.0
 70
   688
 72
     1
 73
     0
 74
     5
  7

 75
    16
147
1.0
148
0.0
149
0.0
100
AcDbLayout
  1
Layout2
 70
     1
 71
     2
 10
0.0
 20
0.0
 11
0.0
 21
0.0
 12
0.0
 22
0.0
 32
0.0
 14
0.0
 24
0.0
 34
0.0
 15
0.0
 25
0.0
 35
0.0
146
0.0
 13
0.0
 23
0.0
 33
0.0
 16
1.0
 26
0.0
 36
0.0
 17
0.0
 27
1.0
 37
0.0
 76
     0
330
23
  0
LAYOUT
  5
22
102
{ACAD_REACTORS
330
1A
102
}
330
1A
100
AcDbPlotSettings
  1

  2
none_device
  4
ANSI_A_(11.00_x_8.50_Inches)
  6

 40
6.35
 41
19.05
 42
6.35000508
 43
19.05000254
 44
279.4
 45
215.9
 46
152.2960670177045
 47
119.4423237305921
 48
0.0
 49
0.0
140
0.0
141
0.0
142
0.1066720155614498
143
1.0
 70
  1696
 72
     0
 73
     0
 74
     0
  7

 75
     0
147
0.0235690232323232
148
0.0
149
0.0
100
AcDbLayout
  1
Model
 70
     1
 71
     0
 10
0.0
 20
0.0
 11
420.0
 21
297.0
 12
0.0
 22
0.0
 32
0.0
 14
-52.56552133971189
 24
-49.97180738881174
 34
0.0
 15
30.40402328971783
 25
28.03415911661226
 35
0.0
146
0.0
 13
0.0
 23
0.0
 33
0.0
 16
1.0
 26
0.0
 36
0.0
 17
0.0
 27
1.0
 37
0.0
 76
     0
330
1F
331
29
  0
MLINESTYLE
  5
18
102
{ACAD_REACTORS
330
17
102
}
330
17
100
AcDbMlineStyle
  2
Standard
 70
     0
  3

 62
   256
 51
90.0
 52
90.0
 71
     2
 49
0.5
 62
   256
  6
BYLAYER
 49
-0.5
 62
   256
  6
BYLAYER
  0
ACDBPLACEHOLDER
  5
F
102
{ACAD_REACTORS
330
E
102
}
330
E
  0
SCALE
  5
48
102
{ACAD_REACTORS
330
47
102
}
330
47
100
AcDbScale
 70
     0
300
1:1
140
1.0
141
1.0
290
     1
  0
SCALE
  5
49
102
{ACAD_REACTORS
330
47
102
}
330
47
100
AcDbScale
 70
     0
300
1:2
140
1.0
141
2.0
290
     0
  0
SCALE
  5
4A
102
{ACAD_REACTORS
330
47
102
}
330
47
100
AcDbScale
 70
     0
300
1:4
140
1.0
141
4.0
290
     0
  0
SCALE
  5
4B
102
{ACAD_REACTORS
330
47
102
}
330
47
100
AcDbScale
 70
     0
300
1:5
140
1.0
141
5.0
290
     0
  0
SCALE
  5
4C
102
{ACAD_REACTORS
330
47
102
}
330
47
100
AcDbScale
 70
     0
300
1:8
140
1.0
141
8.0
290
     0
  0
SCALE
  5
4D
102
{ACAD_REACTORS
330
47
102
}
330
47
100
AcDbScale
 70
     0
300
1:10
140
1.0
141
10.0
290
     0
  0
SCALE
  5
4E
102
{ACAD_REACTORS
330
47
102
}
330
47
100
AcDbScale
 70
     0
300
1:16
140
1.0
141
16.0
290
     0
  0
SCALE
  5
4F
102
{ACAD_REACTORS
330
47
102
}
330
47
100
AcDbScale
 70
     0
300
1:20
140
1.0
141
20.0
290
     0
  0
SCALE
  5
50
102
{ACAD_REACTORS
330
47
102
}
330
47
100
AcDbScale
 70
     0
300
1:30
140
1.0
141
30.0
290
     0
  0
SCALE
  5
51
102
{ACAD_REACTORS
330
47
102
}
330
47
100
AcDbScale
 70
     0
300
1:40
140
1.0
141
40.0
290
     0
  0
SCALE
  5
52
102
{ACAD_REACTORS
330
47
102
}
330
47
100
AcDbScale
 70
     0
300
1:50
140
1.0
141
50.0
290
     0
  0
SCALE
  5
53
102
{ACAD_REACTORS
330
47
102
}
330
47
100
AcDbScale
 70
     0
300
1:100
140
1.0
141
100.0
290
     0
  0
SCALE
  5
54
102
{ACAD_REACTORS
330
47
102
}
330
47
100
AcDbScale
 70
     0
300
2:1
140
2.0
141
1.0
290
     0
  0
SCALE
  5
55
102
{ACAD_REACTORS
330
47
102
}
330
47
100
AcDbScale
 70
     0
300
4:1
140
4.0
141
1.0
290
     0
  0
SCALE
  5
56
102
{ACAD_REACTORS
330
47
102
}
330
47
100
AcDbScale
 70
     0
300
8:1
140
8.0
141
1.0
290
     0
  0
SCALE
  5
57
102
{ACAD_REACTORS
330
47
102
}
330
47
100
AcDbScale
 70
     0
300
10:1
140
10.0
141
1.0
290
     0
  0
SCALE
  5
58
102
{ACAD_REACTORS
330
47
102
}
330
47
100
AcDbScale
 70
     0
300
100:1
140
100.0
141
1.0
290
     0
  0
SCALE
  5
59
102
{ACAD_REACTORS
330
47
102
}
330
47
100
AcDbScale
 70
     0
300
1/128" = 1'-0"
140
0.0078125
141
12.0
290
     0
  0
SCALE
  5
5A
102
{ACAD_REACTORS
330
47
102
}
330
47
100
AcDbScale
 70
     0
300
1/64" = 1'-0"
140
0.015625
141
12.0
290
     0
  0
SCALE
  5
5B
102
{ACAD_REACTORS
330
47
102
}
330
47
100
AcDbScale
 70
     0
300
1/32" = 1'-0"
140
0.03125
141
12.0
290
     0
  0
SCALE
  5
5C
102
{ACAD_REACTORS
330
47
102
}
330
47
100
AcDbScale
 70
     0
300
1/16" = 1'-0"
140
0.0625
141
12.0
290
     0
  0
SCALE
  5
5D
102
{ACAD_REACTORS
330
47
102
}
330
47
100
AcDbScale
 70
     0
300
3/32" = 1'-0"
140
0.09375
141
12.0
290
     0
  0
SCALE
  5
5E
102
{ACAD_REACTORS
330
47
102
}
330
47
100
AcDbScale
 70
     0
300
1/8" = 1'-0"
140
0.125
141
12.0
290
     0
  0
SCALE
  5
5F
102
{ACAD_REACTORS
330
47
102
}
330
47
100
AcDbScale
 70
     0
300
3/16" = 1'-0"
140
0.1875
141
12.0
290
     0
  0
SCALE
  5
60
102
{ACAD_REACTORS
330
47
102
}
330
47
100
AcDbScale
 70
     0
300
1/4" = 1'-0"
140
0.25
141
12.0
290
     0
  0
SCALE
  5
61
102
{ACAD_REACTORS
330
47
102
}
330
47
100
AcDbScale
 70
     0
300
3/8" = 1'-0"
140
0.375
141
12.0
290
     0
  0
SCALE
  5
62
102
{ACAD_REACTORS
330
47
102
}
330
47
100
AcDbScale
 70
     0
300
1/2" = 1'-0"
140
0.5
141
12.0
290
     0
  0
SCALE
  5
63
102
{ACAD_REACTORS
330
47
102
}
330
47
100
AcDbScale
 70
     0
300
3/4" = 1'-0"
140
0.75
141
12.0
290
     0
  0
SCALE
  5
64
102
{ACAD_REACTORS
330
47
102
}
330
47
100
AcDbScale
 70
     0
300
1" = 1'-0"
140
1.0
141
12.0
290
     0
  0
SCALE
  5
65
102
{ACAD_REACTORS
330
47
102
}
330
47
100
AcDbScale
 70
     0
300
1-1/2" = 1'-0"
140
1.5
141
12.0
290
     0
  0
SCALE
  5
66
102
{ACAD_REACTORS
330
47
102
}
330
47
100
AcDbScale
 70
     0
300
3" = 1'-0"
140
3.0
141
12.0
290
     0
  0
SCALE
  5
67
102
{ACAD_REACTORS
330
47
102
}
330
47
100
AcDbScale
 70
     0
300
6" = 1'-0"
140
6.0
141
12.0
290
     0
  0
SCALE
  5
68
102
{ACAD_REACTORS
330
47
102
}
330
47
100
AcDbScale
 70
     0
300
1'-0" = 1'-0"
140
12.0
141
12.0
290
     0
  0
ENDSEC
  0
EOF
