  0
SECTION
  2
HEADER
  9
$ACADVER
  1
AC1015
  9
$ACADMAINTVER
 70
     6
  9
$DWGCODEPAGE
  3
ANSI_949
  9
$INSBASE
 10
0.0
 20
0.0
 30
0.0
  9
$EXTMIN
 10
-54.37891879933345
 20
-49.97180738881174
 30
0.0
  9
$EXTMAX
 10
28.53761300860851
 20
27.99915911661226
 30
0.0
  9
$LIMMIN
 10
0.0
 20
0.0
  9
$LIMMAX
 10
420.0
 20
297.0
  9
$ORTHOMODE
 70
     0
  9
$REGENMODE
 70
     1
  9
$FILLMODE
 70
     1
  9
$QTEXTMODE
 70
     0
  9
$MIRRTEXT
 70
     1
  9
$LTSCALE
 40
1.0
  9
$ATTMODE
 70
     1
  9
$TEXTSIZE
 40
3.5
  9
$TRACEWID
 40
1.0
  9
$TEXTSTYLE
  7
Standard
  9
$CLAYER
  8
0
  9
$CELTYPE
  6
ByLayer
  9
$CECOLOR
 62
   256
  9
$CELTSCALE
 40
1.0
  9
$DISPSILH
 70
     0
  9
$DIMSCALE
 40
1.0
  9
$DIMASZ
 40
3.302
  9
$DIMEXO
 40
1.0
  9
$DIMDLI
 40
3.75
  9
$DIMRND
 40
0.0
  9
$DIMDLE
 40
0.0
  9
$DIMEXE
 40
1.0
  9
$DIMTP
 40
0.0
  9
$DIMTM
 40
0.0
  9
$DIMTXT
 40
3.5
  9
$DIMCEN
 40
2.5
  9
$DIMTSZ
 40
0.0
  9
$DIMTOL
 70
     0
  9
$DIMLIM
 70
     0
  9
$DIMTIH
 70
     1
  9
$DIMTOH
 70
     1
  9
$DIMSE1
 70
     0
  9
$DIMSE2
 70
     0
  9
$DIMTAD
 70
     1
  9
$DIMZIN
 70
     0
  9
$DIMBLK
  1

  9
$DIMASO
 70
     1
  9
$DIMSHO
 70
     1
  9
$DIMPOST
  1

  9
$DIMAPOST
  1

  9
$DIMALT
 70
     0
  9
$DIMALTD
 70
     3
  9
$DIMALTF
 40
0.0393700787401575
  9
$DIMLFAC
 40
1.0
  9
$DIMTOFL
 70
     1
  9
$DIMTVP
 40
0.0
  9
$DIMTIX
 70
     0
  9
$DIMSOXD
 70
     0
  9
$DIMSAH
 70
     0
  9
$DIMBLK1
  1

  9
$DIMBLK2
  1

  9
$DIMSTYLE
  2
ISO-25
  9
$DIMCLRD
 70
     0
  9
$DIMCLRE
 70
     0
  9
$DIMCLRT
 70
     0
  9
$DIMTFAC
 40
1.0
  9
$DIMGAP
 40
1.524
  9
$DIMJUST
 70
     0
  9
$DIMSD1
 70
     0
  9
$DIMSD2
 70
     0
  9
$DIMTOLJ
 70
     0
  9
$DIMTZIN
 70
     0
  9
$DIMALTZ
 70
     0
  9
$DIMALTTZ
 70
     0
  9
$DIMUPT
 70
     0
  9
$DIMDEC
 70
     2
  9
$DIMTDEC
 70
     2
  9
$DIMALTU
 70
     2
  9
$DIMALTTD
 70
     3
  9
$DIMTXSTY
  7
Standard
  9
$DIMAUNIT
 70
     0
  9
$DIMADEC
 70
     2
  9
$DIMALTRND
 40
0.0
  9
$DIMAZIN
 70
     0
  9
$DIMDSEP
 70
    44
  9
$DIMATFIT
 70
     3
  9
$DIMFRAC
 70
     0
  9
$DIMLDRBLK
  1

  9
$DIMLUNIT
 70
     2
  9
$DIMLWD
 70
    -2
  9
$DIMLWE
 70
    -2
  9
$DIMTMOVE
 70
     0
  9
$LUNITS
 70
     2
  9
$LUPREC
 70
     2
  9
$SKETCHINC
 40
1.0
  9
$FILLETRAD
 40
10.0
  9
$AUNITS
 70
     0
  9
$AUPREC
 70
     2
  9
$MENU
  1
.
  9
$ELEVATION
 40
0.0
  9
$PELEVATION
 40
0.0
  9
$THICKNESS
 40
0.0
  9
$LIMCHECK
 70
     0
  9
$CHAMFERA
 40
0.0
  9
$CHAMFERB
 40
0.0
  9
$CHAMFERC
 40
0.0
  9
$CHAMFERD
 40
0.0
  9
$SKPOLY
 70
     0
  9
$TDCREATE
 40
2458250.486982164
  9
$TDUCREATE
 40
2458250.111982164
  9
$TDUPDATE
 40
2458264.505696887
  9
$TDUUPDATE
 40
2458264.130696887
  9
$TDINDWG
 40
0.0013767361
  9
$TDUSRTIMER
 40
0.0013767245
  9
$USRTIMER
 70
     1
  9
$ANGBASE
 50
0.0
  9
$ANGDIR
 70
     0
  9
$PDMODE
 70
     0
  9
$PDSIZE
 40
-1.0
  9
$PLINEWID
 40
0.0
  9
$SPLFRAME
 70
     0
  9
$SPLINETYPE
 70
     6
  9
$SPLINESEGS
 70
     8
  9
$HANDSEED
  5
144
  9
$SURFTAB1
 70
     6
  9
$SURFTAB2
 70
     6
  9
$SURFTYPE
 70
     6
  9
$SURFU
 70
     6
  9
$SURFV
 70
     6
  9
$UCSBASE
  2

  9
$UCSNAME
  2

  9
$UCSORG
 10
0.0
 20
0.0
 30
0.0
  9
$UCSXDIR
 10
1.0
 20
0.0
 30
0.0
  9
$UCSYDIR
 10
0.0
 20
1.0
 30
0.0
  9
$UCSORTHOREF
  2

  9
$UCSORTHOVIEW
 70
     0
  9
$UCSORGTOP
 10
0.0
 20
0.0
 30
0.0
  9
$UCSORGBOTTOM
 10
0.0
 20
0.0
 30
0.0
  9
$UCSORGLEFT
 10
0.0
 20
0.0
 30
0.0
  9
$UCSORGRIGHT
 10
0.0
 20
0.0
 30
0.0
  9
$UCSORGFRONT
 10
0.0
 20
0.0
 30
0.0
  9
$UCSORGBACK
 10
0.0
 20
0.0
 30
0.0
  9
$PUCSBASE
  2

  9
$PUCSNAME
  2

  9
$PUCSORG
 10
0.0
 20
0.0
 30
0.0
  9
$PUCSXDIR
 10
1.0
 20
0.0
 30
0.0
  9
$PUCSYDIR
 10
0.0
 20
1.0
 30
0.0
  9
$PUCSORTHOREF
  2

  9
$PUCSORTHOVIEW
 70
     0
  9
$PUCSORGTOP
 10
0.0
 20
0.0
 30
0.0
  9
$PUCSORGBOTTOM
 10
0.0
 20
0.0
 30
0.0
  9
$PUCSORGLEFT
 10
0.0
 20
0.0
 30
0.0
  9
$PUCSORGRIGHT
 10
0.0
 20
0.0
 30
0.0
  9
$PUCSORGFRONT
 10
0.0
 20
0.0
 30
0.0
  9
$PUCSORGBACK
 10
0.0
 20
0.0
 30
0.0
  9
$USERI1
 70
     0
  9
$USERI2
 70
     0
  9
$USERI3
 70
     0
  9
$USERI4
 70
     0
  9
$USERI5
 70
     0
  9
$USERR1
 40
0.0
  9
$USERR2
 40
0.0
  9
$USERR3
 40
0.0
  9
$USERR4
 40
0.0
  9
$USERR5
 40
0.0
  9
$WORLDVIEW
 70
     1
  9
$SHADEDGE
 70
     3
  9
$SHADEDIF
 70
    70
  9
$TILEMODE
 70
     1
  9
$MAXACTVP
 70
    64
  9
$PINSBASE
 10
0.0
 20
0.0
 30
0.0
  9
$PLIMCHECK
 70
     0
  9
$PEXTMIN
 10
1.000000000000000E+20
 20
1.000000000000000E+20
 30
1.000000000000000E+20
  9
$PEXTMAX
 10
-1.000000000000000E+20
 20
-1.000000000000000E+20
 30
-1.000000000000000E+20
  9
$PLIMMIN
 10
0.0
 20
0.0
  9
$PLIMMAX
 10
0.0
 20
0.0
  9
$UNITMODE
 70
     0
  9
$VISRETAIN
 70
     1
  9
$PLINEGEN
 70
     0
  9
$PSLTSCALE
 70
     1
  9
$TREEDEPTH
 70
  3020
  9
$CMLSTYLE
  2
Standard
  9
$CMLJUST
 70
     0
  9
$CMLSCALE
 40
20.0
  9
$PROXYGRAPHICS
 70
     1
  9
$MEASUREMENT
 70
     1
  9
$CELWEIGHT
370
    -1
  9
$ENDCAPS
280
     0
  9
$JOINSTYLE
280
     0
  9
$LWDISPLAY
290
     1
  9
$INSUNITS
 70
     4
  9
$HYPERLINKBASE
  1

  9
$STYLESHEET
  1

  9
$XEDIT
290
     1
  9
$CEPSNTYPE
380
     0
  9
$PSTYLEMODE
290
     1
  9
$FINGERPRINTGUID
  2
{B8C941E2-EF9D-4C98-AD4A-D619AC5FDAE8}
  9
$VERSIONGUID
  2
{FAEB1C32-E019-11D5-929B-00C0DF256EC4}
  9
$EXTNAMES
290
     1
  9
$PSVPSCALE
 40
0.0
  9
$OLESTARTUP
290
     0
  0
ENDSEC
  0
SECTION
  2
CLASSES
  0
CLASS
  1
ACDBDICTIONARYWDFLT
  2
AcDbDictionaryWithDefault
  3
ObjectDBX Classes
 90
        0
280
     0
281
     0
  0
CLASS
  1
VISUALSTYLE
  2
AcDbVisualStyle
  3
ObjectDBX Classes
 90
     4095
280
     0
281
     0
  0
CLASS
  1
MATERIAL
  2
AcDbMaterial
  3
ObjectDBX Classes
 90
     1153
280
     0
281
     0
  0
CLASS
  1
SCALE
  2
AcDbScale
  3
ObjectDBX Classes
 90
     1153
280
     0
281
     0
  0
CLASS
  1
SUN
  2
AcDbSun
  3
SCENEOE
 90
     1153
280
     0
281
     0
  0
CLASS
  1
ACDBPLACEHOLDER
  2
AcDbPlaceHolder
  3
ObjectDBX Classes
 90
        0
280
     0
281
     0
  0
CLASS
  1
LAYOUT
  2
AcDbLayout
  3
ObjectDBX Classes
 90
        0
280
     0
281
     0
  0
CLASS
  1
TABLESTYLE
  2
AcDbTableStyle
  3
ObjectDBX Classes
 90
     4095
280
     0
281
     0
  0
CLASS
  1
MLEADERSTYLE
  2
AcDbMLeaderStyle
  3
ACDB_MLEADERSTYLE_CLASS
 90
     4095
280
     0
281
     0
  0
ENDSEC
  0
SECTION
  2
TABLES
  0
TABLE
  2
VPORT
  5
8
330
0
100
AcDbSymbolTable
 70
     1
  0
VPORT
  5
29
330
8
100
AcDbSymbolTableRecord
100
AcDbViewportTableRecord
  2
*Active
 70
     0
 10
0.0
 20
0.0
 11
1.0
 21
1.0
 12
12.30024177886392
 22
-17.87616972356742
 13
0.0
 23
0.0
 14
10.0
 24
10.0
 15
10.0
 25
10.0
 16
0.0
 26
0.0
 36
1.0
 17
0.0
 27
0.0
 37
0.0
 40
102.2849113341878
 41
2.223011363636364
 42
50.0
 43
0.0
 44
0.0
 50
0.0
 51
0.0
 71
    16
 72
  2000
 73
     1
 74
     3
 75
     0
 76
     0
 77
     0
 78
     0
281
     0
 65
     1
110
0.0
120
0.0
130
0.0
111
1.0
121
0.0
131
0.0
112
0.0
122
1.0
132
0.0
 79
     0
146
0.0
  0
ENDTAB
  0
TABLE
  2
LTYPE
  5
5
330
0
100
AcDbSymbolTable
 70
     6
  0
LTYPE
  5
14
330
5
100
AcDbSymbolTableRecord
100
AcDbLinetypeTableRecord
  2
ByBlock
 70
     0
  3

 72
    65
 73
     0
 40
0.0
  0
LTYPE
  5
15
330
5
100
AcDbSymbolTableRecord
100
AcDbLinetypeTableRecord
  2
ByLayer
 70
     0
  3

 72
    65
 73
     0
 40
0.0
  0
LTYPE
  5
16
330
5
100
AcDbSymbolTableRecord
100
AcDbLinetypeTableRecord
  2
Continuous
 70
     0
  3
Solid line
 72
    65
 73
     0
 40
0.0
  0
LTYPE
  5
6A
330
5
100
AcDbSymbolTableRecord
100
AcDbLinetypeTableRecord
  2
HIDDEN
 70
     0
  3
Hidden __ __ __ __ __ __ __ __ __ __ __ __ __ __
 72
    65
 73
     2
 40
1.905
 49
1.27
 74
     0
 49
-0.635
 74
     0
  0
LTYPE
  5
6B
330
5
100
AcDbSymbolTableRecord
100
AcDbLinetypeTableRecord
  2
PHANTOM
 70
     0
  3
Phantom ______  __  __  ______  __  __  ______
 72
    65
 73
     6
 40
12.7
 49
6.35
 74
     0
 49
-1.27
 74
     0
 49
1.27
 74
     0
 49
-1.27
 74
     0
 49
1.27
 74
     0
 49
-1.27
 74
     0
  0
LTYPE
  5
6C
330
5
100
AcDbSymbolTableRecord
100
AcDbLinetypeTableRecord
  2
CENTER
 70
     0
  3
Center ____ _ ____ _ ____ _ ____ _ ____ _ ____
 72
    65
 73
     4
 40
10.16
 49
6.35
 74
     0
 49
-1.27
 74
     0
 49
1.27
 74
     0
 49
-1.27
 74
     0
  0
LTYPE
  5
6D
330
5
100
AcDbSymbolTableRecord
100
AcDbLinetypeTableRecord
  2
CENTERX2
 70
     0
  3
Center (2x) ________  __  ________  __  _____
 72
    65
 73
     4
 40
20.32
 49
12.7
 74
     0
 49
-2.54
 74
     0
 49
2.54
 74
     0
 49
-2.54
 74
     0
  0
LTYPE
  5
6E
330
5
100
AcDbSymbolTableRecord
100
AcDbLinetypeTableRecord
  2
DOT2
 70
     0
  3
Dot (.5x) ........................................
 72
    65
 73
     2
 40
0.635
 49
0.0
 74
     0
 49
-0.635
 74
     0
  0
ENDTAB
  0
TABLE
  2
LAYER
  5
2
330
0
100
AcDbSymbolTable
 70
    17
  0
LAYER
  5
10
330
2
100
AcDbSymbolTableRecord
100
AcDbLayerTableRecord
  2
0
 70
     0
 62
     7
  6
Continuous
370
    -3
390
F
  0
LAYER
  5
6F
330
2
100
AcDbSymbolTableRecord
100
AcDbLayerTableRecord
  2
FORMAT
 70
     0
 62
     2
  6
Continuous
370
    -3
390
F
  0
LAYER
  5
70
330
2
100
AcDbSymbolTableRecord
100
AcDbLayerTableRecord
  2
외형선
 70
     0
 62
   100
  6
Continuous
370
    30
390
F
  0
LAYER
  5
71
330
2
100
AcDbSymbolTableRecord
100
AcDbLayerTableRecord
  2
숨은선
 70
     0
 62
     2
  6
HIDDEN
370
    15
390
F
  0
LAYER
  5
72
330
2
100
AcDbSymbolTableRecord
100
AcDbLayerTableRecord
  2
중심선
 70
     0
 62
     1
  6
CENTERX2
370
    -3
390
F
  0
LAYER
  5
73
330
2
100
AcDbSymbolTableRecord
100
AcDbLayerTableRecord
  2
파단선
 70
     0
 62
     4
  6
Continuous
370
    -3
390
F
  0
LAYER
  5
74
330
2
100
AcDbSymbolTableRecord
100
AcDbLayerTableRecord
  2
해칭선
 70
     0
 62
     4
  6
Continuous
370
    -3
390
F
  0
LAYER
  5
75
330
2
100
AcDbSymbolTableRecord
100
AcDbLayerTableRecord
  2
가는실선
 70
     0
 62
     4
  6
Continuous
370
    -3
390
F
  0
LAYER
  5
76
330
2
100
AcDbSymbolTableRecord
100
AcDbLayerTableRecord
  2
치수_보조선
 70
     0
 62
     4
  6
Continuous
370
    -3
390
F
  0
LAYER
  5
77
330
2
100
AcDbSymbolTableRecord
100
AcDbLayerTableRecord
  2
치수문자_일반주서
 70
     0
 62
     7
  6
Continuous
370
    15
390
F
  0
LAYER
  5
78
330
2
100
AcDbSymbolTableRecord
100
AcDbLayerTableRecord
  2
개별주서
 70
     0
 62
   100
  6
Continuous
370
    30
390
F
  0
LAYER
  5
79
330
2
100
AcDbSymbolTableRecord
100
AcDbLayerTableRecord
  2
중간선
 70
     0
 62
     2
  6
Continuous
370
    15
390
F
  0
LAYER
  5
7A
330
2
100
AcDbSymbolTableRecord
100
AcDbLayerTableRecord
  2
윤곽선
 70
     0
 62
     3
  6
Continuous
370
    40
390
F
  0
LAYER
  5
7B
330
2
100
AcDbSymbolTableRecord
100
AcDbLayerTableRecord
  2
중심마크
 70
     0
 62
   100
  6
Continuous
370
    30
390
F
  0
LAYER
  5
7C
330
2
100
AcDbSymbolTableRecord
100
AcDbLayerTableRecord
  2
가상선
 70
     0
 62
     4
  6
PHANTOM
370
    -3
390
F
  0
LAYER
  5
7D
330
2
100
AcDbSymbolTableRecord
100
AcDbLayerTableRecord
  2
특수지정선
 70
     0
 62
     5
  6
CENTERX2
370
    60
390
F
  0
LAYER
  5
136
330
2
100
AcDbSymbolTableRecord
100
AcDbLayerTableRecord
  2
Defpoints
 70
     0
 62
     7
  6
Continuous
290
     0
370
    -3
390
F
  0
ENDTAB
  0
TABLE
  2
STYLE
  5
3
330
0
100
AcDbSymbolTable
 70
     2
  0
STYLE
  5
11
330
3
100
AcDbSymbolTableRecord
100
AcDbTextStyleTableRecord
  2
Standard
 70
     0
 40
0.0
 41
1.0
 50
0.0
 71
     0
 42
3.5
  3
txt
  4

  0
STYLE
  5
93
330
3
100
AcDbSymbolTableRecord
100
AcDbTextStyleTableRecord
  2
SLDTEXTSTYLE0
 70
     0
 40
0.0
 41
0.75
 50
0.0
 71
     0
 42
3.5
  3
TXT
  4

  0
ENDTAB
  0
TABLE
  2
VIEW
  5
6
330
0
100
AcDbSymbolTable
 70
     0
  0
ENDTAB
  0
TABLE
  2
UCS
  5
7
330
0
100
AcDbSymbolTable
 70
     0
  0
ENDTAB
  0
TABLE
  2
APPID
  5
9
330
0
100
AcDbSymbolTable
 70
     2
  0
APPID
  5
12
330
9
100
AcDbSymbolTableRecord
100
AcDbRegAppTableRecord
  2
ACAD
 70
     0
  0
APPID
  5
13B
330
9
100
AcDbSymbolTableRecord
100
AcDbRegAppTableRecord
  2
PE_URL
 70
     0
  0
ENDTAB
  0
TABLE
  2
DIMSTYLE
  5
A
330
0
100
AcDbSymbolTable
 70
     4
100
AcDbDimStyleTable
  0
DIMSTYLE
105
27
330
A
100
AcDbSymbolTableRecord
100
AcDbDimStyleTableRecord
  2
ISO-25
 70
     0
 41
2.5
 42
0.625
 43
3.75
 44
1.25
 73
     0
 74
     0
 77
     1
 78
     8
140
2.5
141
2.5
143
0.03937007874016
147
0.625
171
     3
172
     1
178
     0
271
     2
272
     2
274
     3
278
    44
283
     0
284
     8
340
11
  0
DIMSTYLE
105
DB
102
{ACAD_REACTORS
330
DA
330
100
102
}
330
A
100
AcDbSymbolTableRecord
100
AcDbDimStyleTableRecord
  2
SLDDIMSTYLE0
 70
     0
 41
3.302
 44
0.0
 45
0.000000001
 73
     0
 74
     0
 77
     1
 78
    12
 79
     3
140
3.5
147
0.875
172
     1
173
     1
178
     0
271
     2
272
     2
276
     2
284
    12
289
     0
340
93
  0
DIMSTYLE
105
E8
102
{ACAD_REACTORS
330
E7
102
}
330
A
100
AcDbSymbolTableRecord
100
AcDbDimStyleTableRecord
  2
SLDDIMSTYLE1
 70
     0
 41
3.302
 44
0.0
 45
0.000000001
 73
     0
 74
     0
 77
     1
 78
    12
 79
     3
140
3.5
147
0.875
173
     1
178
     0
271
     2
272
     2
276
     2
284
    12
340
93
  0
DIMSTYLE
105
F3
102
{ACAD_REACTORS
330
F2
102
}
330
A
100
AcDbSymbolTableRecord
100
AcDbDimStyleTableRecord
  2
SLDDIMSTYLE2
 70
     0
 41
3.302
 44
0.0
 45
0.000000001
 73
     0
 74
     0
 77
     1
 78
     4
 79
     1
140
3.5
147
0.875
172
     1
173
     1
178
     0
271
     2
272
     2
276
     2
284
    12
289
     0
340
93
  0
ENDTAB
  0
TABLE
  2
BLOCK_RECORD
  5
1
330
0
100
AcDbSymbolTable
 70
     7
  0
BLOCK_RECORD
  5
1F
330
1
100
AcDbSymbolTableRecord
100
AcDbBlockTableRecord
  2
*Model_Space
340
22
  0
BLOCK_RECORD
  5
1B
330
1
100
AcDbSymbolTableRecord
100
AcDbBlockTableRecord
  2
*Paper_Space
340
1E
  0
BLOCK_RECORD
  5
23
330
1
100
AcDbSymbolTableRecord
100
AcDbBlockTableRecord
  2
*Paper_Space0
340
26
  0
BLOCK_RECORD
  5
7E
330
1
100
AcDbSymbolTableRecord
100
AcDbBlockTableRecord
  2
블럭10
340
0
102
{BLKREFS
331
D3
102
}
  0
BLOCK_RECORD
  5
DC
330
1
100
AcDbSymbolTableRecord
100
AcDbBlockTableRecord
  2
_D
340
0
  0
BLOCK_RECORD
  5
E9
330
1
100
AcDbSymbolTableRecord
100
AcDbBlockTableRecord
  2
_D_1
340
0
  0
BLOCK_RECORD
  5
F4
330
1
100
AcDbSymbolTableRecord
100
AcDbBlockTableRecord
  2
_D_2
340
0
  0
BLOCK_RECORD
  5
101
330
1
100
AcDbSymbolTableRecord
100
AcDbBlockTableRecord
  2
_D_3
340
0
  0
BLOCK_RECORD
  5
10D
330
1
100
AcDbSymbolTableRecord
100
AcDbBlockTableRecord
  2
SW_DOWELSYMBOL_0
340
0
102
{BLKREFS
331
113
102
}
  0
ENDTAB
  0
ENDSEC
  0
SECTION
  2
BLOCKS
  0
BLOCK
  5
20
330
1F
100
AcDbEntity
  8
0
100
AcDbBlockBegin
  2
*Model_Space
 70
     0
 10
0.0
 20
0.0
 30
0.0
  3
*Model_Space
  1

  0
ENDBLK
  5
21
330
1F
100
AcDbEntity
  8
0
100
AcDbBlockEnd
  0
BLOCK
  5
1C
330
1B
100
AcDbEntity
 67
     1
  8
0
100
AcDbBlockBegin
  2
*Paper_Space
 70
     0
 10
0.0
 20
0.0
 30
0.0
  3
*Paper_Space
  1

  0
ENDBLK
  5
1D
330
1B
100
AcDbEntity
 67
     1
  8
0
100
AcDbBlockEnd
  0
BLOCK
  5
24
330
23
100
AcDbEntity
  8
0
100
AcDbBlockBegin
  2
*Paper_Space0
 70
     0
 10
0.0
 20
0.0
 30
0.0
  3
*Paper_Space0
  1

  0
ENDBLK
  5
25
330
23
100
AcDbEntity
  8
0
100
AcDbBlockEnd
  0
BLOCK
  5
7F
330
7E
100
AcDbEntity
  8
0
100
AcDbBlockBegin
  2
블럭10
 70
     2
 10
0.0
 20
0.0
 30
0.0
  3
블럭10
  1

  0
ELLIPSE
  5
81
330
7E
100
AcDbEntity
  8
중심선
100
AcDbEllipse
 10
20.54032771741204
 20
12.0471743016438
 30
0.0
 11
6.600054785286829
 21
-1.261213355974178E-13
 31
0.0
210
0.0
220
0.0
230
1.0
 40
0.636358354079598
 41
0.9219305317359503
 42
6.513795318482858
  0
ELLIPSE
  5
82
330
7E
100
AcDbEntity
  8
중심선
100
AcDbEllipse
 10
20.54032771746488
 20
12.04717430159265
 30
0.0
 11
3.960054785062283
 21
1.540847449632565E-10
 31
0.0
210
0.0
220
0.0
230
1.0
 40
0.3939339440162632
 41
1.131841032648279
 42
5.62031148352944
  0
LINE
  5
83
330
7E
100
AcDbEntity
  8
중심선
100
AcDbLine
 10
2.268634060543552
 20
16.24717430164393
 30
0.0
 11
5.714909304380834
 21
16.24717430164393
 31
0.0
  0
LINE
  5
84
330
7E
100
AcDbEntity
  8
중심선
100
AcDbLine
 10
5.245725140726316
 20
7.84717430164391
 30
0.0
 11
8.692000384563599
 21
7.84717430164391
 31
0.0
  0
LINE
  5
85
330
7E
100
AcDbEntity
  8
중심선
100
AcDbLine
 10
15.74043728645272
 20
16.24717430164393
 30
0.0
 11
8.692000384563599
 21
7.84717430164391
 31
0.0
  0
LINE
  5
86
330
7E
100
AcDbEntity
  8
중심선
100
AcDbLine
 10
0.1404042013395286
 20
13.71084872107135
 30
0.0
 11
3.58671253028996
 21
13.71088815037384
 31
0.0
  0
LINE
  5
87
330
7E
100
AcDbEntity
  8
중심선
100
AcDbLine
 10
2.750260043222114
 20
10.84717430164391
 30
0.0
 11
6.196535287059397
 21
10.84717430164391
 31
0.0
  0
LINE
  5
88
330
7E
100
AcDbEntity
  8
중심선
100
AcDbLine
 10
12.29416204261559
 20
16.24717430164393
 30
0.0
 11
5.245725140726316
 21
7.84717430164391
 31
0.0
  0
LINE
  5
89
330
7E
100
AcDbEntity
  8
중심선
100
AcDbLine
 10
10.72767329541681
 20
16.24717430164393
 30
0.0
 11
6.196535287059397
 21
10.84717430164391
 31
0.0
  0
LINE
  5
8A
330
7E
100
AcDbEntity
  8
중심선
100
AcDbLine
 10
7.28139805157953
 20
16.24717430164393
 30
0.0
 11
2.750260043222114
 21
10.84717430164391
 31
0.0
  0
LINE
  5
8B
330
7E
100
AcDbEntity
  8
중심선
100
AcDbLine
 10
5.714909304380834
 20
16.24717430164393
 30
0.0
 11
3.58671253028996
 21
13.71088815037384
 31
0.0
  0
LINE
  5
8C
330
7E
100
AcDbEntity
  8
중심선
100
AcDbLine
 10
2.268634060543552
 20
16.24717430164393
 30
0.0
 11
0.1404042013395286
 21
13.71084872107135
 31
0.0
  0
LINE
  5
8D
330
7E
100
AcDbEntity
  8
중심선
100
AcDbLine
 10
7.28139805157953
 20
16.24717430164393
 30
0.0
 11
10.72767329541681
 21
16.24717430164393
 31
0.0
  0
LINE
  5
8E
330
7E
100
AcDbEntity
  8
중심선
100
AcDbLine
 10
12.29416204261559
 20
16.24717430164393
 30
0.0
 11
15.74043728645272
 21
16.24717430164393
 31
0.0
  0
LINE
  5
8F
330
7E
100
AcDbEntity
  8
중심선
100
AcDbLine
 10
19.22036997980202
 20
11.08717430171403
 30
0.0
 11
23.66174974927406
 21
11.08717430171406
 31
0.0
  0
LINE
  5
90
330
7E
100
AcDbEntity
  8
중심선
100
AcDbLine
 10
19.22039502424796
 20
13.00717430171391
 30
0.0
 11
19.22036997980202
 21
11.08717430171403
 31
0.0
  0
LINE
  5
91
330
7E
100
AcDbEntity
  8
중심선
100
AcDbLine
 10
19.22039502424796
 20
13.00717430171391
 30
0.0
 11
26.96566020931264
 21
13.00717430171391
 31
0.0
  0
LINE
  5
92
330
7E
100
AcDbEntity
  8
중심선
100
AcDbLine
 10
22.22332737316547
 20
13.45928029700563
 30
0.0
 11
24.52862924686651
 21
15.39360700705356
 31
0.0
  0
ATTDEF
  5
94
330
7E
100
AcDbEntity
  8
FORMAT
 62
     2
100
AcDbText
 10
-16.00558753126829
 20
2.075366912832191
 30
0.0
 40
4.233333333333333
  1
SEME350244SE [ 2 FLUTE ]
 41
0.75
  7
SLDTEXTSTYLE0
 11
-16.00558753126829
 21
-0.0412997538344756
 31
0.0
100
AcDbAttributeDefinition
  3

  2
AUTOATTR0
 70
     0
 74
     1
  0
ENDBLK
  5
80
330
7E
100
AcDbEntity
  8
0
100
AcDbBlockEnd
  0
BLOCK
  5
DD
330
DC
100
AcDbEntity
  8
0
100
AcDbBlockBegin
  2
_D
 70
     0
 10
0.0
 20
0.0
 30
0.0
  3
_D
  1

  0
LINE
  5
DF
330
DC
100
AcDbEntity
  8
치수문자_일반주서
 62
     0
370
    -2
100
AcDbLine
 10
11.9856406460551
 20
1.261485778275573
 30
0.0
 11
11.9856406460551
 21
13.44961966685335
 31
0.0
  0
LINE
  5
E0
330
DC
100
AcDbEntity
  8
치수문자_일반주서
 62
     0
370
    -2
100
AcDbLine
 10
5.985640646055093
 20
1.235279171882113
 30
0.0
 11
5.985640646055093
 21
13.44961966685335
 31
0.0
  0
LINE
  5
E1
330
DC
100
AcDbEntity
  8
치수문자_일반주서
 62
     0
370
    -2
100
AcDbLine
 10
8.683640646055096
 20
13.44961966685335
 30
0.0
 11
9.287640646055092
 21
13.44961966685335
 31
0.0
  0
SOLID
  5
E2
330
DC
100
AcDbEntity
  8
치수문자_일반주서
 62
     0
100
AcDbTrace
 10
8.683640646055096
 20
12.89928633352002
 30
0.0
 11
8.683640646055096
 21
13.99995300018669
 31
0.0
 12
11.9856406460551
 22
13.44961966685335
 32
0.0
 13
11.9856406460551
 23
13.44961966685335
 33
0.0
  0
SOLID
  5
E3
330
DC
100
AcDbEntity
  8
치수문자_일반주서
 62
     0
100
AcDbTrace
 10
9.287640646055092
 20
13.99995300018669
 30
0.0
 11
9.287640646055092
 21
12.89928633352002
 31
0.0
 12
5.985640646055093
 22
13.44961966685335
 32
0.0
 13
5.985640646055093
 23
13.44961966685335
 33
0.0
  0
MTEXT
  5
E4
330
DC
100
AcDbEntity
  8
치수문자_일반주서
 62
     0
100
AcDbMText
 10
8.985640646055092
 20
17.82461966685335
 30
0.0
 40
3.5
 41
0.0
 71
     2
 72
     1
  1
\A1;6
  7
SLDTEXTSTYLE0
 73
     1
 44
1.0
  0
POINT
  5
E5
330
DC
100
AcDbEntity
  8
Defpoints
 62
     0
100
AcDbPoint
 10
11.9856406460551
 20
1.198985778275573
 30
0.0
  0
POINT
  5
E6
330
DC
100
AcDbEntity
  8
Defpoints
 62
     0
100
AcDbPoint
 10
5.985640646055093
 20
1.172779171882113
 30
0.0
  0
POINT
  5
13D
330
DC
100
AcDbEntity
  8
Defpoints
 62
     0
100
AcDbPoint
 10
5.985640646055093
 20
13.44961966685335
 30
0.0
  0
ENDBLK
  5
DE
330
DC
100
AcDbEntity
  8
0
100
AcDbBlockEnd
  0
BLOCK
  5
EA
330
E9
100
AcDbEntity
  8
0
100
AcDbBlockBegin
  2
_D_1
 70
     0
 10
0.0
 20
0.0
 30
0.0
  3
_D_1
  1

  0
LINE
  5
EC
330
E9
100
AcDbEntity
  8
치수문자_일반주서
 62
     0
370
    -2
100
AcDbLine
 10
11.9856406460551
 20
0.9025000000000006
 30
0.0
 11
11.9856406460551
 21
23.62415911661226
 31
0.0
  0
LINE
  5
ED
330
E9
100
AcDbEntity
  8
치수문자_일반주서
 62
     0
370
    -2
100
AcDbLine
 10
-38.0143593539449
 20
1.632499999999994
 30
0.0
 11
-38.0143593539449
 21
23.62415911661226
 31
0.0
  0
LINE
  5
EE
330
E9
100
AcDbEntity
  8
치수문자_일반주서
 62
     0
370
    -2
100
AcDbLine
 10
8.683640646055096
 20
23.62415911661226
 30
0.0
 11
-34.7123593539449
 21
23.62415911661226
 31
0.0
  0
SOLID
  5
EF
330
E9
100
AcDbEntity
  8
치수문자_일반주서
 62
     0
100
AcDbTrace
 10
8.683640646055096
 20
23.07382578327893
 30
0.0
 11
8.683640646055096
 21
24.1744924499456
 31
0.0
 12
11.9856406460551
 22
23.62415911661226
 32
0.0
 13
11.9856406460551
 23
23.62415911661226
 33
0.0
  0
SOLID
  5
F0
330
E9
100
AcDbEntity
  8
치수문자_일반주서
 62
     0
100
AcDbTrace
 10
-34.7123593539449
 20
24.1744924499456
 30
0.0
 11
-34.7123593539449
 21
23.07382578327893
 31
0.0
 12
-38.0143593539449
 22
23.62415911661226
 32
0.0
 13
-38.0143593539449
 23
23.62415911661226
 33
0.0
  0
MTEXT
  5
F1
330
E9
100
AcDbEntity
  8
치수문자_일반주서
 62
     0
100
AcDbMText
 10
-13.0143593539449
 20
27.99915911661226
 30
0.0
 40
3.5
 41
0.0
 71
     2
 72
     1
  1
\A1;50
  7
SLDTEXTSTYLE0
 73
     1
 44
1.0
  0
POINT
  5
13E
330
E9
100
AcDbEntity
  8
Defpoints
 62
     0
100
AcDbPoint
 10
11.9856406460551
 20
0.8400000000000006
 30
0.0
  0
POINT
  5
13F
330
E9
100
AcDbEntity
  8
Defpoints
 62
     0
100
AcDbPoint
 10
-38.0143593539449
 20
1.569999999999994
 30
0.0
  0
POINT
  5
140
330
E9
100
AcDbEntity
  8
Defpoints
 62
     0
100
AcDbPoint
 10
-38.0143593539449
 20
23.62415911661226
 30
0.0
  0
ENDBLK
  5
EB
330
E9
100
AcDbEntity
  8
0
100
AcDbBlockEnd
  0
BLOCK
  5
F5
330
F4
100
AcDbEntity
  8
0
100
AcDbBlockBegin
  2
_D_2
 70
     0
 10
0.0
 20
0.0
 30
0.0
  3
_D_2
  1

  0
LINE
  5
F7
330
F4
100
AcDbEntity
  8
치수문자_일반주서
 62
     0
370
    -2
100
AcDbLine
 10
12.0481406460551
 20
1.198985778275573
 30
0.0
 11
27.55183095830137
 21
1.198985778275631
 31
0.0
  0
LINE
  5
F8
330
F4
100
AcDbEntity
  8
치수문자_일반주서
 62
     0
370
    -2
100
AcDbLine
 10
12.0481406460551
 20
-1.198985778275573
 30
0.0
 11
27.55183095830138
 21
-1.198985778275516
 31
0.0
  0
LINE
  5
F9
330
F4
100
AcDbEntity
  8
치수문자_일반주서
 62
     0
370
    -2
100
AcDbLine
 10
27.55183095830137
 20
1.198985778275631
 30
0.0
 11
27.55183095830132
 21
19.61548577827563
 31
0.0
  0
LINE
  5
FA
330
F4
100
AcDbEntity
  8
치수문자_일반주서
 62
     0
370
    -2
100
AcDbLine
 10
27.55183095830137
 20
1.198985778275631
 30
0.0
 11
27.55183095830138
 21
-1.198985778275516
 31
0.0
  0
LINE
  5
FB
330
F4
100
AcDbEntity
  8
치수문자_일반주서
 62
     0
370
    -2
100
AcDbLine
 10
27.55183095830136
 20
4.500985778275631
 30
0.0
 11
27.55183095830135
 21
7.80298577827563
 31
0.0
  0
LINE
  5
FC
330
F4
100
AcDbEntity
  8
치수문자_일반주서
 62
     0
370
    -2
100
AcDbLine
 10
27.55183095830139
 20
-4.500985778275515
 30
0.0
 11
27.5518309583014
 21
-7.802985778275515
 31
0.0
  0
SOLID
  5
FD
330
F4
100
AcDbEntity
  8
치수문자_일반주서
 62
     0
100
AcDbTrace
 10
27.00149762496802
 20
4.500985778275629
 30
0.0
 11
28.10216429163469
 21
4.500985778275632
 31
0.0
 12
27.55183095830137
 22
1.198985778275631
 32
0.0
 13
27.55183095830137
 23
1.198985778275631
 33
0.0
  0
SOLID
  5
FE
330
F4
100
AcDbEntity
  8
치수문자_일반주서
 62
     0
100
AcDbTrace
 10
28.10216429163472
 20
-4.500985778275513
 30
0.0
 11
27.00149762496805
 21
-4.500985778275517
 31
0.0
 12
27.55183095830138
 22
-1.198985778275516
 32
0.0
 13
27.55183095830138
 23
-1.198985778275516
 33
0.0
  0
MTEXT
  5
FF
330
F4
100
AcDbEntity
  8
치수문자_일반주서
 62
     0
100
AcDbMText
 10
23.17683095830133
 20
13.70923577827562
 30
0.0
 40
3.5
 41
0.0
 71
     2
 72
     1
  1
\A1;%%c2.40
  7
SLDTEXTSTYLE0
 11
-2.963099098564913E-15
 21
1.0
 31
0.0
 73
     1
 44
1.0
  0
POINT
  5
137
330
F4
100
AcDbEntity
  8
Defpoints
 62
     0
100
AcDbPoint
 10
11.9856406460551
 20
1.198985778275573
 30
0.0
  0
POINT
  5
138
330
F4
100
AcDbEntity
  8
Defpoints
 62
     0
100
AcDbPoint
 10
11.9856406460551
 20
-1.198985778275573
 30
0.0
  0
POINT
  5
139
330
F4
100
AcDbEntity
  8
Defpoints
 62
     0
100
AcDbPoint
 10
27.55183095830138
 20
-1.198985778275515
 30
0.0
  0
ENDBLK
  5
F6
330
F4
100
AcDbEntity
  8
0
100
AcDbBlockEnd
  0
BLOCK
  5
102
330
101
100
AcDbEntity
  8
0
100
AcDbBlockBegin
  2
_D_3
 70
     0
 10
0.0
 20
0.0
 30
0.0
  3
_D_3
  1

  0
LINE
  5
104
330
101
100
AcDbEntity
  8
치수문자_일반주서
 62
     0
370
    -2
100
AcDbLine
 10
-37.6468593539449
 20
1.999999999999995
 30
0.0
 11
-50.00391879933345
 21
1.999999999999948
 31
0.0
  0
LINE
  5
105
330
101
100
AcDbEntity
  8
치수문자_일반주서
 62
     0
370
    -2
100
AcDbLine
 10
-37.6468593539449
 20
-2.000000000000002
 30
0.0
 11
-50.00391879933343
 21
-2.000000000000048
 31
0.0
  0
LINE
  5
106
330
101
100
AcDbEntity
  8
치수문자_일반주서
 62
     0
370
    -2
100
AcDbLine
 10
-50.00391879933343
 20
-1.302000000000051
 30
0.0
 11
-50.00391879933345
 21
1.301999999999951
 31
0.0
  0
SOLID
  5
107
330
101
100
AcDbEntity
  8
치수문자_일반주서
 62
     0
100
AcDbTrace
 10
-49.4535854660001
 20
-1.302000000000049
 30
0.0
 11
-50.55425213266677
 21
-1.302000000000053
 31
0.0
 12
-50.00391879933345
 22
1.999999999999948
 32
0.0
 13
-50.00391879933345
 23
1.999999999999948
 33
0.0
  0
SOLID
  5
108
330
101
100
AcDbEntity
  8
치수문자_일반주서
 62
     0
100
AcDbTrace
 10
-50.55425213266678
 20
1.301999999999949
 30
0.0
 11
-49.45358546600011
 21
1.301999999999953
 31
0.0
 12
-50.00391879933343
 22
-2.000000000000048
 32
0.0
 13
-50.00391879933343
 23
-2.000000000000048
 33
0.0
  0
MTEXT
  5
109
330
101
100
AcDbEntity
  8
치수문자_일반주서
 62
     0
100
AcDbMText
 10
-54.37891879933344
 20
-0.0000000000000194
 30
0.0
 40
3.5
 41
0.0
 71
     2
 72
     1
  1
\A1;%%c4
  7
SLDTEXTSTYLE0
 11
-3.552713678800504E-15
 21
1.0
 31
0.0
 73
     1
 44
1.0
  0
POINT
  5
10A
330
101
100
AcDbEntity
  8
Defpoints
 62
     0
100
AcDbPoint
 10
-37.5843593539449
 20
1.999999999999995
 30
0.0
  0
POINT
  5
10B
330
101
100
AcDbEntity
  8
Defpoints
 62
     0
100
AcDbPoint
 10
-37.5843593539449
 20
-2.000000000000002
 30
0.0
  0
POINT
  5
10C
330
101
100
AcDbEntity
  8
Defpoints
 62
     0
100
AcDbPoint
 10
-50.00391879933344
 20
-2.000000000000048
 30
0.0
  0
ENDBLK
  5
103
330
101
100
AcDbEntity
  8
0
100
AcDbBlockEnd
  0
BLOCK
  5
10E
330
10D
100
AcDbEntity
  8
0
100
AcDbBlockBegin
  2
SW_DOWELSYMBOL_0
 70
     0
 10
0.0
 20
0.0
 30
0.0
  3
SW_DOWELSYMBOL_0
  1

  0
CIRCLE
  5
110
330
10D
100
AcDbEntity
  8
외형선
 62
     0
100
AcDbCircle
 10
0.0
 20
0.0
 30
0.0
 40
3.000000000000004
  0
HATCH
  5
111
330
10D
100
AcDbEntity
  8
0
  6
Continuous
 62
     0
370
    30
100
AcDbHatch
 10
0.0
 20
0.0
 30
0.0
210
0.0
220
0.0
230
1.0
  2
SOLID
 70
     1
 71
     0
 91
        1
 92
        0
 93
        3
 72
     2
 10
0.0000000000000087
 20
-0.0000000000000035
 40
3.000000000000004
 50
0.0
 51
90.0
 73
     1
 72
     1
 10
0.0000000000000087
 20
3.000000000000001
 11
0.0000000000000087
 21
-0.0000000000000036
 72
     1
 10
0.0000000000000087
 20
-0.0000000000000035
 11
3.000000000000013
 21
-0.0000000000000035
 97
        0
 75
     0
 76
     1
 98
        1
 10
0.0
 20
0.0
  0
HATCH
  5
112
330
10D
100
AcDbEntity
  8
0
  6
Continuous
 62
     0
370
    30
100
AcDbHatch
 10
0.0
 20
0.0
 30
0.0
210
0.0
220
0.0
230
1.0
  2
SOLID
 70
     1
 71
     0
 91
        1
 92
        0
 93
        3
 72
     2
 10
0.0000000000000087
 20
-0.0000000000000035
 40
3.000000000000004
 50
180.0
 51
270.0000000000008
 73
     1
 72
     1
 10
0.0000000000000087
 20
-3.000000000000008
 11
0.0000000000000087
 21
-0.0000000000000036
 72
     1
 10
0.0000000000000087
 20
-0.0000000000000035
 11
-2.999999999999996
 21
-0.0000000000000035
 97
        0
 75
     0
 76
     1
 98
        1
 10
0.0
 20
0.0
  0
ENDBLK
  5
10F
330
10D
100
AcDbEntity
  8
0
100
AcDbBlockEnd
  0
ENDSEC
  0
SECTION
  2
ENTITIES
  0
LINE
  5
95
330
1F
100
AcDbEntity
  8
0
  6
Continuous
 62
     4
370
    15
100
AcDbLine
 10
2.0
 20
1.999999999999998
 30
0.0
 11
-37.5843593539449
 21
1.999999999999995
 31
0.0
  0
LINE
  5
96
330
1F
100
AcDbEntity
  8
0
  6
Continuous
 62
     4
370
    15
100
AcDbLine
 10
-37.5843593539449
 20
-2.000000000000002
 30
0.0
 11
2.0
 21
-1.999999999999999
 31
0.0
  0
LINE
  5
97
330
1F
100
AcDbEntity
  8
0
  6
Continuous
 62
     4
370
    15
100
AcDbLine
 10
2.0
 20
-2.0
 30
0.0
 11
4.985640646055097
 21
-1.200000000000001
 31
0.0
  0
LINE
  5
98
330
1F
100
AcDbEntity
  8
0
  6
Continuous
 62
     4
370
    15
100
AcDbLine
 10
4.985640646055097
 20
1.199999999999999
 30
0.0
 11
2.0
 21
1.999999999999999
 31
0.0
  0
LINE
  5
99
330
1F
100
AcDbEntity
  8
0
  6
Continuous
 62
     4
370
    15
100
AcDbLine
 10
-37.5843593539449
 20
1.999999999999994
 30
0.0
 11
-38.0143593539449
 21
1.569999999999994
 31
0.0
  0
LINE
  5
9A
330
1F
100
AcDbEntity
  8
0
  6
Continuous
 62
     4
370
    15
100
AcDbLine
 10
-38.0143593539449
 20
-1.570000000000001
 30
0.0
 11
-37.5843593539449
 21
-2.000000000000001
 31
0.0
  0
LINE
  5
9B
330
1F
100
AcDbEntity
  8
0
  6
Continuous
 62
     4
370
    15
100
AcDbLine
 10
5.095642374529834
 20
1.199999999999999
 30
0.0
 11
4.985640646055097
 21
1.199999999999999
 31
0.0
1001
PE_URL
1000

  0
LINE
  5
9C
330
1F
100
AcDbEntity
  8
0
  6
Continuous
 62
     4
370
    15
100
AcDbLine
 10
5.985640646055097
 20
1.199999999999999
 30
0.0
 11
5.540968197418146
 21
1.199999999999999
 31
0.0
1001
PE_URL
1000

  0
LINE
  5
9D
330
1F
100
AcDbEntity
  8
0
  6
Continuous
 62
     4
370
    15
100
AcDbLine
 10
5.540968197418146
 20
-1.200000000000001
 30
0.0
 11
5.985640646055097
 21
-1.200000000000001
 31
0.0
1001
PE_URL
1000

  0
LINE
  5
9E
330
1F
100
AcDbEntity
  8
0
  6
Continuous
 62
     4
370
    15
100
AcDbLine
 10
4.985640646055097
 20
-1.200000000000001
 30
0.0
 11
5.095642374529834
 21
-1.200000000000001
 31
0.0
1001
PE_URL
1000

  0
LINE
  5
9F
330
1F
100
AcDbEntity
  8
0
  6
Continuous
 62
     1
370
    15
100
AcDbLine
 10
8.877330187743983
 20
0.3075103366389628
 30
0.0
 11
8.542978148403318
 21
0.4741014917569876
 31
0.0
  0
LINE
  5
A0
330
1F
100
AcDbEntity
  8
0
  6
Continuous
 62
     1
370
    15
100
AcDbLine
 10
8.251137069736323
 20
0.3173634542742622
 30
0.0
 11
8.200790599551311
 21
0.3450387885666928
 31
0.0
  0
LINE
  5
A1
330
1F
100
AcDbEntity
  8
0
  6
Continuous
 62
     1
370
    15
100
AcDbLine
 10
6.123107164439117
 20
1.2
 30
0.0
 11
5.985640646055097
 21
1.2
 31
0.0
1001
PE_URL
1000

  0
SPLINE
  5
A2
330
1F
100
AcDbEntity
  8
0
  6
Continuous
 62
     1
370
    15
100
AcDbSpline
210
0.0
220
0.0
230
1.0
 70
     8
 71
     3
 72
    14
 73
    10
 74
     0
 42
0.000000001
 43
0.00000001
 40
0.0
 40
0.0
 40
0.0
 40
0.0
 40
0.2423960499873764
 40
0.4132429579409621
 40
0.5272531539156418
 40
0.6480202281039199
 40
0.7865565065121038
 40
0.9268162905448414
 40
1.0
 40
1.0
 40
1.0
 40
1.0
 10
8.47903162706707
 20
0.9535492500509526
 30
0.0
 10
8.398287461292714
 20
0.9496849968179872
 30
0.0
 10
8.260632751561246
 20
0.9430971195142657
 30
0.0
 10
8.085226194371348
 20
0.9389221914065161
 30
0.0
 10
7.95019518428641
 20
0.9372284240667513
 30
0.0
 10
7.825884792321555
 20
0.936957135774626
 30
0.0
 10
7.692858095781134
 20
0.9382722544883306
 30
0.0
 10
7.575845736168747
 20
0.9405905309773405
 30
0.0
 10
7.504788971061621
 20
0.9432033751738985
 30
0.0
 10
7.480425625206252
 20
0.9440992452114799
 30
0.0
  0
SPLINE
  5
A3
330
1F
100
AcDbEntity
  8
0
  6
Continuous
 62
     1
370
    15
100
AcDbSpline
210
0.0
220
0.0
230
1.0
 70
     8
 71
     3
 72
    18
 73
    14
 74
     0
 42
0.000000001
 43
0.00000001
 40
0.0
 40
0.0
 40
0.0
 40
0.0
 40
0.1336145912554336
 40
0.2246481491883896
 40
0.2807623403307257
 40
0.334670477567745
 40
0.3907829039809355
 40
0.4533597301766337
 40
0.5398965099092502
 40
0.6280874746584588
 40
0.7182925801356026
 40
0.8403455112415489
 40
0.9999999999999999
 40
0.9999999999999999
 40
0.9999999999999999
 40
0.9999999999999999
 10
11.55778652035285
 20
0.8222917233063755
 30
0.0
 10
11.46297526754671
 20
0.8148306627298375
 30
0.0
 10
11.30356773379604
 20
0.8022862734250988
 30
0.0
 10
11.10538097013358
 20
0.7940041459108039
 30
0.0
 10
10.96382786604491
 20
0.7905816797147232
 30
0.0
 10
10.84688559713045
 20
0.7894395850457324
 30
0.0
 10
10.72542228008741
 20
0.789958468491837
 30
0.0
 10
10.58105462835659
 20
0.7927892997299439
 30
0.0
 10
10.41421535420498
 20
0.7993671564464946
 30
0.0
 10
10.22765704617878
 20
0.8107479083156005
 30
0.0
 10
10.01609429729492
 20
0.8283136877650559
 30
0.0
 10
9.75504598533631
 20
0.8565113536542333
 30
0.0
 10
9.556312352468382
 20
0.8858765906872645
 30
0.0
 10
9.443682317484175
 20
0.9025190060983891
 30
0.0
  0
SPLINE
  5
A4
330
1F
100
AcDbEntity
  8
0
  6
Continuous
 62
     1
370
    15
100
AcDbSpline
210
0.0
220
0.0
230
1.0
 70
     8
 71
     3
 72
    17
 73
    13
 74
     0
 42
0.000000001
 43
0.00000001
 40
0.0
 40
0.0
 40
0.0
 40
0.0
 40
0.1411099586484758
 40
0.2424324993439863
 40
0.3168317916084007
 40
0.398485050265697
 40
0.4867308094842984
 40
0.5644068510614972
 40
0.6584983092435024
 40
0.7387922932283999
 40
0.8383383176151168
 40
1.0
 40
1.0
 40
1.0
 40
1.0
 10
6.675682957297176
 20
-0.9985766353166547
 30
0.0
 10
6.760590625324846
 20
-0.9905107137476259
 30
0.0
 10
6.906465362803126
 20
-0.9766531409425515
 30
0.0
 10
7.096710426933819
 20
-0.9628746426121931
 30
0.0
 10
7.251474564563266
 20
-0.9536209870158473
 30
0.0
 10
7.398354059725025
 20
-0.9466029528812543
 30
0.0
 10
7.547187190230646
 20
-0.9414090954206342
 30
0.0
 10
7.703290775988884
 20
-0.9379829396379166
 30
0.0
 10
7.854836584060076
 20
-0.9367724553343743
 30
0.0
 10
8.019554018599688
 20
-0.9377885302351463
 30
0.0
 10
8.224708747131782
 20
-0.9416770507258008
 30
0.0
 10
8.381804762948764
 20
-0.9490105443282684
 30
0.0
 10
8.47903162706707
 20
-0.9535492500509536
 30
0.0
  0
SPLINE
  5
A5
330
1F
100
AcDbEntity
  8
0
  6
Continuous
 62
     1
370
    15
100
AcDbSpline
210
0.0
220
0.0
230
1.0
 70
     8
 71
     3
 72
    13
 73
     9
 74
     0
 42
0.000000001
 43
0.00000001
 40
0.0
 40
0.0
 40
0.0
 40
0.0
 40
0.2992709246813652
 40
0.504194853495706
 40
0.6332520130419338
 40
0.7580108462871343
 40
0.888123475426424
 40
1.0
 40
1.0
 40
1.0
 40
1.0
 10
9.443682317484175
 20
-0.9025190060983899
 30
0.0
 10
9.53471664531206
 20
-0.8889369601288303
 30
0.0
 10
9.688086170370756
 20
-0.8660546915453216
 30
0.0
 10
9.879650659565705
 20
-0.843078504174179
 30
0.0
 10
10.01883518450681
 20
-0.8287239857691376
 30
0.0
 10
10.13535708015828
 20
-0.8183509847094029
 30
0.0
 10
10.24667283160228
 20
-0.8097387132658199
 30
0.0
 10
10.32008927897111
 20
-0.8054294359279918
 30
0.0
 10
10.35403120096282
 20
-0.8034371690656844
 30
0.0
  0
LINE
  5
A7
330
1F
100
AcDbEntity
  8
0
  6
Continuous
 62
     4
370
    15
100
AcDbLine
 10
2.0
 20
1.999999999999999
 30
0.0
 11
2.0
 21
-1.999999999999999
 31
0.0
  0
LINE
  5
A8
330
1F
100
AcDbEntity
  8
0
  6
Continuous
 62
     4
370
    15
100
AcDbLine
 10
-37.5843593539449
 20
1.999999999999994
 30
0.0
 11
-37.5843593539449
 21
-2.000000000000002
 31
0.0
  0
LINE
  5
A9
330
1F
100
AcDbEntity
  8
0
  6
Continuous
 62
     4
370
    15
100
AcDbLine
 10
4.985640646055097
 20
1.199999999999999
 30
0.0
 11
4.985640646055097
 21
-1.200000000000001
 31
0.0
1001
PE_URL
1000

  0
LINE
  5
AA
330
1F
100
AcDbEntity
  8
0
  6
Continuous
 62
     4
370
    15
100
AcDbLine
 10
-38.0143593539449
 20
1.569999999999994
 30
0.0
 11
-38.0143593539449
 21
-1.570000000000002
 31
0.0
  0
LINE
  5
AB
330
1F
100
AcDbEntity
  8
0
  6
Continuous
 62
     4
370
    15
100
AcDbLine
 10
5.985640646055097
 20
1.199999999999999
 30
0.0
 11
5.985640646055097
 21
1.172779171882114
 31
0.0
1001
PE_URL
1000

  0
SPLINE
  5
AC
330
1F
100
AcDbEntity
  8
0
  6
Continuous
 62
     4
370
    15
100
AcDbSpline
210
0.0
220
0.0
230
1.0
 70
     8
 71
     3
 72
    10
 73
     6
 74
     0
 42
0.000000001
 43
0.00000001
 40
0.0
 40
0.0
 40
0.0
 40
0.0
 40
0.5
 40
0.5
 40
1.0
 40
1.0
 40
1.0
 40
1.0
 10
5.985640646055093
 20
1.172779171882113
 30
0.0
 10
5.837052772485513
 20
1.19091362415284
 30
0.0
 10
5.686556303449557
 20
1.200064649755597
 30
0.0
 10
5.391963885136232
 20
1.199934654764572
 30
0.0
 10
5.244945364461636
 20
1.190758043638652
 30
0.0
 10
5.095642374529834
 20
1.172504066193946
 30
0.0
1001
PE_URL
1000

  0
LINE
  5
AD
330
1F
100
AcDbEntity
  8
0
  6
Continuous
 62
     4
370
    15
100
AcDbLine
 10
5.095642374529834
 20
-1.05633714140943
 30
0.0
 11
5.095642374529834
 21
1.199999999999999
 31
0.0
1001
PE_URL
1000

  0
SPLINE
  5
AE
330
1F
100
AcDbEntity
  8
0
  6
Continuous
 62
     4
370
    15
100
AcDbSpline
210
0.0
220
0.0
230
1.0
 70
     8
 71
     3
 72
    10
 73
     6
 74
     0
 42
0.000000001
 43
0.00000001
 40
0.0
 40
0.0
 40
0.0
 40
0.0
 40
0.5
 40
0.5
 40
1.0
 40
1.0
 40
1.0
 40
1.0
 10
5.985640646055097
 20
-1.197354355462855
 30
0.0
 10
5.83705307355435
 20
-1.191671637555
 30
0.0
 10
5.686556913232175
 20
-1.176716441829885
 30
0.0
 10
5.391965066063668
 20
-1.129432262764266
 30
0.0
 10
5.244946876823351
 20
-1.097048817644634
 30
0.0
 10
5.095644189636649
 20
-1.056361540893316
 30
0.0
1001
PE_URL
1000

  0
LINE
  5
AF
330
1F
100
AcDbEntity
  8
0
  6
Continuous
 62
     4
370
    15
100
AcDbLine
 10
5.985640646055097
 20
-1.197354355462855
 30
0.0
 11
5.985640646055097
 21
-1.200000000000001
 31
0.0
1001
PE_URL
1000

  0
LINE
  5
B0
330
1F
100
AcDbEntity
  8
0
  6
Continuous
 62
     4
370
    15
100
AcDbLine
 10
5.095642374529834
 20
-1.172504066193948
 30
0.0
 11
5.540968197418146
 21
-1.196819707630951
 31
0.0
1001
PE_URL
1000

  0
LINE
  5
B1
330
1F
100
AcDbEntity
  8
0
  6
Continuous
 62
     4
370
    15
100
AcDbLine
 10
5.095642374529834
 20
-1.200000000000001
 30
0.0
 11
5.095642374529834
 21
-1.172416739613918
 31
0.0
1001
PE_URL
1000

  0
SPLINE
  5
B2
330
1F
100
AcDbEntity
  8
0
  6
Continuous
 62
     4
370
    15
100
AcDbSpline
210
0.0
220
0.0
230
1.0
 70
     8
 71
     3
 72
    10
 73
     6
 74
     0
 42
0.000000001
 43
0.00000001
 40
0.0
 40
0.0
 40
0.0
 40
0.0
 40
0.5
 40
0.5
 40
1.0
 40
1.0
 40
1.0
 40
1.0
 10
5.985640646055097
 20
-1.011820869778986
 30
0.0
 10
5.83705307355435
 20
-1.002622295806069
 30
0.0
 10
5.686556913232175
 20
-0.985569718497108
 30
0.0
 10
5.391965066063668
 20
-0.9370453330429337
 30
0.0
 10
5.244946876823351
 20
-0.9054982389640506
 30
0.0
 10
5.095644189636649
 20
-0.8671091138379464
 30
0.0
1001
PE_URL
1000

  0
SPLINE
  5
B3
330
1F
100
AcDbEntity
  8
0
  6
Continuous
 62
     4
370
    15
100
AcDbSpline
210
0.0
220
0.0
230
1.0
 70
     8
 71
     3
 72
    10
 73
     6
 74
     0
 42
0.000000001
 43
0.00000001
 40
0.0
 40
0.0
 40
0.0
 40
0.0
 40
0.4999999999999999
 40
0.4999999999999999
 40
1.0
 40
1.0
 40
1.0
 40
1.0
 10
5.985640646055097
 20
-0.2417091718113918
 30
0.0
 10
5.83705288234282
 20
-0.1754151078879206
 30
0.0
 10
5.68655652595374
 20
-0.1069777028691706
 30
0.0
 10
5.391964316045992
 20
0.0295154711888945
 30
0.0
 10
5.244945916308816
 20
0.098015868134702
 30
0.0
 10
5.095643036845952
 20
0.1655979081395086
 30
0.0
1001
PE_URL
1000

  0
SPLINE
  5
B4
330
1F
100
AcDbEntity
  8
0
  6
Continuous
 62
     4
370
    15
100
AcDbSpline
210
0.0
220
0.0
230
1.0
 70
    24
 71
     3
 72
    10
 73
     6
 74
     0
 42
0.000000001
 43
0.00000001
 40
0.0
 40
0.0
 40
0.0
 40
0.0
 40
0.5
 40
0.5
 40
1.0
 40
1.0
 40
1.0
 40
1.0
 10
5.985640646054983
 20
-0.2417091718113411
 30
0.0
 10
5.985640646054983
 20
-0.4142519468380998
 30
0.0
 10
5.985640646054983
 20
-0.5804123457880673
 30
0.0
 10
5.985640646054983
 20
-0.849604545217175
 30
0.0
 10
5.985640646054983
 20
-0.9514776372353541
 30
0.0
 10
5.985640646054983
 20
-1.011820869778979
 30
0.0
1001
PE_URL
1000

  0
SPLINE
  5
B5
330
1F
100
AcDbEntity
  8
0
  6
Continuous
 62
     4
370
    15
100
AcDbSpline
210
0.0
220
0.0
230
1.0
 70
     8
 71
     3
 72
    10
 73
     6
 74
     0
 42
0.000000001
 43
0.00000001
 40
0.0
 40
0.0
 40
0.0
 40
0.0
 40
0.5000000000000001
 40
0.5000000000000001
 40
1.0
 40
1.0
 40
1.0
 40
1.0
 10
5.985640646055097
 20
0.8129388923918482
 30
0.0
 10
5.837052844948372
 20
0.8280301727376378
 30
0.0
 10
5.686556450215297
 20
0.8369048965817514
 30
0.0
 10
5.391964169368141
 20
0.8417272721831458
 30
0.0
 10
5.244945728464951
 20
0.8377640781131066
 30
0.0
 10
5.095642811399439
 20
0.8274082997913076
 30
0.0
1001
PE_URL
1000

  0
SPLINE
  5
B6
330
1F
100
AcDbEntity
  8
0
  6
Continuous
 62
     4
370
    15
100
AcDbSpline
210
0.0
220
0.0
230
1.0
 70
    24
 71
     3
 72
    10
 73
     6
 74
     0
 42
0.000000001
 43
0.00000001
 40
0.0
 40
0.0
 40
0.0
 40
0.0
 40
0.5
 40
0.5
 40
1.0
 40
1.0
 40
1.0
 40
1.0
 10
5.985640646055097
 20
0.8129388923918484
 30
0.0
 10
5.985640646055097
 20
0.7168328095221371
 30
0.0
 10
5.985640646055097
 20
0.5654908126111444
 30
0.0
 10
5.985640646055097
 20
0.1906080772444315
 30
0.0
 10
5.985640646055093
 20
-0.0300280374430104
 30
0.0
 10
5.985640646055097
 20
-0.2417091718113917
 30
0.0
1001
PE_URL
1000

  0
SPLINE
  5
B7
330
1F
100
AcDbEntity
  8
0
  6
Continuous
 62
     4
370
    15
100
AcDbSpline
210
0.0
220
0.0
230
1.0
 70
    24
 71
     3
 72
     8
 73
     4
 74
     0
 42
0.000000001
 43
0.00000001
 40
0.0
 40
0.0
 40
0.0
 40
0.0
 40
1.0
 40
1.0
 40
1.0
 40
1.0
 10
5.985640646055097
 20
-1.011820869778986
 30
0.0
 10
5.985640646055097
 20
-1.074641693158762
 30
0.0
 10
5.985640646055097
 20
-1.13688799713895
 30
0.0
 10
5.985640646055097
 20
-1.197354355462548
 30
0.0
1001
PE_URL
1000

  0
SPLINE
  5
B8
330
1F
100
AcDbEntity
  8
0
  6
Continuous
 62
     4
370
    15
100
AcDbSpline
210
0.0
220
0.0
230
1.0
 70
    24
 71
     3
 72
    10
 73
     6
 74
     0
 42
0.000000001
 43
0.00000001
 40
0.0
 40
0.0
 40
0.0
 40
0.0
 40
0.4999999999999996
 40
0.4999999999999996
 40
1.0
 40
1.0
 40
1.0
 40
1.0
 10
5.985640646054958
 20
1.172779171882148
 30
0.0
 10
5.985640646054958
 20
1.118489319997402
 30
0.0
 10
5.985640646054958
 20
1.056836622212419
 30
0.0
 10
5.985640646054958
 20
0.9322304883091891
 30
0.0
 10
5.985640646054958
 20
0.8696190457751368
 30
0.0
 10
5.985640646054958
 20
0.8129388923918622
 30
0.0
1001
PE_URL
1000

  0
SPLINE
  5
B9
330
1F
100
AcDbEntity
  8
0
  6
Continuous
 62
     1
370
    15
100
AcDbSpline
210
0.0
220
0.0
230
1.0
 70
     8
 71
     3
 72
    16
 73
    12
 74
     0
 42
0.000000001
 43
0.00000001
 40
0.0
 40
0.0
 40
0.0
 40
0.0
 40
0.114731768219657
 40
0.2294202183686132
 40
0.3440726292776135
 40
0.4586963921626612
 40
0.5732989880344216
 40
0.6858324722033968
 40
0.7983594780859274
 40
0.9108939840138428
 40
1.0
 40
1.0
 40
1.0
 40
1.0
 10
11.9856406460551
 20
-1.13872904307828
 30
0.0
 10
11.76138540069724
 20
-1.086354765716369
 30
0.0
 10
11.31295957968307
 20
-0.981625985399279
 30
0.0
 10
10.640500273933
 20
-0.6910734377291093
 30
0.0
 10
9.968288594515641
 20
-0.3374026521091615
 30
0.0
 10
9.296284631467213
 20
0.053550153732127
 30
0.0
 10
8.628426389805721
 20
0.4357401336462803
 30
0.0
 10
7.964752774459279
 20
0.7723322194395043
 30
0.0
 10
7.305110023132557
 20
1.02598562742017
 30
0.0
 10
6.691243128963973
 20
1.179221852532938
 30
0.0
 10
6.297225600045851
 20
1.186740583729124
 30
0.0
 10
6.123107164439117
 20
1.2
 30
0.0
  0
SPLINE
  5
BA
330
1F
100
AcDbEntity
  8
0
  6
Continuous
 62
     1
370
    15
100
AcDbSpline
210
0.0
220
0.0
230
1.0
 70
     8
 71
     3
 72
    12
 73
     8
 74
     0
 42
0.000000001
 43
0.00000001
 40
0.0
 40
0.0
 40
0.0
 40
0.0
 40
0.2157052183307701
 40
0.4313253653403236
 40
0.6468747309772281
 40
0.8623678285731178
 40
1.0
 40
1.0
 40
1.0
 40
1.0
 10
11.9856406460551
 20
-0.946766717241859
 30
0.0
 10
11.76138625449348
 20
-0.8962543358612434
 30
0.0
 10
11.31296591437375
 20
-0.7952494945235874
 30
0.0
 10
10.64050449964209
 20
-0.5346393706927438
 30
0.0
 10
9.968293657097867
 20
-0.2269111744146484
 30
0.0
 10
9.377173551069578
 20
0.070164050647536
 30
0.0
 10
9.010122920429161
 20
0.2415621114321411
 30
0.0
 10
8.867063276302165
 20
0.3083652811668471
 30
0.0
  0
LINE
  5
BB
330
1F
100
AcDbEntity
  8
0
  6
Continuous
 62
     1
370
    15
100
AcDbLine
 10
11.9856406460551
 20
-1.138729043078281
 30
0.0
 11
11.9856406460551
 21
-0.946766717241859
 31
0.0
  0
SPLINE
  5
BC
330
1F
100
AcDbEntity
  8
0
  6
Continuous
 62
     1
370
    15
100
AcDbSpline
210
0.0
220
0.0
230
1.0
 70
     8
 71
     3
 72
    36
 73
    32
 74
     0
 42
0.000000001
 43
0.00000001
 40
0.0
 40
0.0
 40
0.0
 40
0.0
 40
0.125
 40
0.125
 40
0.1875
 40
0.1875
 40
0.25
 40
0.25
 40
0.3125
 40
0.3125
 40
0.375
 40
0.375
 40
0.4375
 40
0.4375
 40
0.5
 40
0.5
 40
0.5625
 40
0.5625
 40
0.625
 40
0.625
 40
0.6875
 40
0.6875
 40
0.75
 40
0.75
 40
0.8125
 40
0.8125
 40
0.875
 40
0.875
 40
0.9375
 40
0.9375
 40
1.0
 40
1.0
 40
1.0
 40
1.0
 10
11.9856406460551
 20
-1.198985778275573
 30
0.0
 10
11.73939756355848
 20
-1.193081812106785
 30
0.0
 10
11.48283580277383
 20
-1.160600041505045
 30
0.0
 10
11.11236052713933
 20
-1.076227685232753
 30
0.0
 10
10.98612097186656
 20
-1.041902731388194
 30
0.0
 10
10.73422518951571
 20
-0.9622893486278078
 30
0.0
 10
10.60983059603179
 20
-0.9171787071287247
 30
0.0
 10
10.36215641828425
 20
-0.8177438823142577
 30
0.0
 10
10.23576478051822
 20
-0.7629701036186054
 30
0.0
 10
9.98397541771806
 20
-0.6458247379856797
 30
0.0
 10
9.860226526694326
 20
-0.5837545566718462
 30
0.0
 10
9.611911937684887
 20
-0.4538819020465761
 30
0.0
 10
9.485395117654946
 20
-0.3857111341892333
 30
0.0
 10
9.233765290539719
 20
-0.2461479873466257
 30
0.0
 10
9.110536581930319
 20
-0.1751326626738485
 30
0.0
 10
8.861632273379772
 20
-0.0315245996934206
 30
0.0
 10
8.735017261110062
 20
0.0412560396880463
 30
0.0
 10
8.483599973599652
 20
0.1852367066497114
 30
0.0
 10
8.36076556621062
 20
0.2560630710004899
 30
0.0
 10
8.11132263839167
 20
0.3949027437277995
 30
0.0
 10
7.984636494418438
 20
0.4629059630587765
 30
0.0
 10
7.733484601071516
 20
0.5927445348703991
 30
0.0
 10
7.610918339705646
 20
0.6542911276612879
 30
0.0
 10
7.360988267079349
 20
0.7704464718397478
 30
0.0
 10
7.234258103061326
 20
0.8248982681344373
 30
0.0
 10
6.983424272148665
 20
0.9238733479952228
 30
0.0
 10
6.860999815148229
 20
0.9682476495741009
 30
0.0
 10
6.610634411457371
 20
1.046707581779402
 30
0.0
 10
6.483887370708493
 20
1.08058182733841
 30
0.0
 10
6.233424047560532
 20
1.135968241014972
 30
0.0
 10
6.111014954620926
 20
1.157477826220165
 30
0.0
 10
5.985640646055093
 20
1.172779171882115
 30
0.0
  0
SPLINE
  5
BD
330
1F
100
AcDbEntity
  8
0
  6
Continuous
 62
     1
370
    15
100
AcDbSpline
210
0.0
220
0.0
230
1.0
 70
     8
 71
     3
 72
    12
 73
     8
 74
     0
 42
0.000000001
 43
0.00000001
 40
0.0
 40
0.0
 40
0.0
 40
0.0
 40
0.1262975005410074
 40
0.3447141476910821
 40
0.5631171159203332
 40
0.7815359204956316
 40
0.9999999999999999
 40
0.9999999999999999
 40
0.9999999999999999
 40
0.9999999999999999
 10
9.005858520597489
 20
-0.1137487332175524
 30
0.0
 10
8.878703772557035
 20
-0.0629796850548465
 30
0.0
 10
8.531649868814828
 20
0.0755884504310365
 30
0.0
 10
7.964753820497909
 20
0.3044483331136136
 30
0.0
 10
7.3051086530032
 20
0.536868227756607
 30
0.0
 10
6.645416037415157
 20
0.7219527210836576
 30
0.0
 10
6.205580970131421
 20
0.7826080733494227
 30
0.0
 10
5.985640646055093
 20
0.8129388923918487
 30
0.0
  0
SPLINE
  5
BE
330
1F
100
AcDbEntity
  8
0
  6
Continuous
 62
     4
370
    15
100
AcDbSpline
210
0.0
220
0.0
230
1.0
 70
    24
 71
     3
 72
    10
 73
     6
 74
     0
 42
0.000000001
 43
0.00000001
 40
0.0
 40
0.0
 40
0.0
 40
0.0
 40
0.5
 40
0.5
 40
1.0
 40
1.0
 40
1.0
 40
1.0
 10
5.985640646054962
 20
1.172779171882149
 30
0.0
 10
5.985640646054962
 20
1.118489319997402
 30
0.0
 10
5.985640646054958
 20
1.05683662221242
 30
0.0
 10
5.985640646054958
 20
0.93223048830919
 30
0.0
 10
5.985640646054962
 20
0.8696190457751362
 30
0.0
 10
5.985640646054958
 20
0.8129388923918622
 30
0.0
1001
PE_URL
1000

  0
LINE
  5
BF
330
1F
100
AcDbEntity
  8
0
  6
Continuous
 62
     1
370
    15
100
AcDbLine
 10
11.9856406460551
 20
-1.198985778275573
 30
0.0
 11
11.9856406460551
 21
-1.138729043078281
 31
0.0
  0
SPLINE
  5
C0
330
1F
100
AcDbEntity
  8
0
  6
Continuous
 62
     1
370
    15
100
AcDbSpline
210
0.0
220
0.0
230
1.0
 70
     8
 71
     3
 72
     8
 73
     4
 74
     0
 42
0.000000001
 43
0.00000001
 40
0.0
 40
0.0
 40
0.0
 40
0.0
 40
1.0
 40
1.0
 40
1.0
 40
1.0
 10
11.24295710154348
 20
0.335848500049186
 30
0.0
 10
11.18914905699044
 20
0.3995423143043208
 30
0.0
 10
11.14247863544525
 20
0.4604192653472756
 30
0.0
 10
11.10566594604675
 20
0.5170237557567574
 30
0.0
  0
LINE
  5
C1
330
1F
100
AcDbEntity
  8
0
  6
Continuous
 62
     1
370
    15
100
AcDbLine
 10
11.10566594604675
 20
0.5170237557567566
 30
0.0
 11
11.9856406460551
 21
0.0000000000000002
 31
0.0
  0
LINE
  5
C2
330
1F
100
AcDbEntity
  8
0
  6
Continuous
 62
     1
370
    15
100
AcDbLine
 10
11.9856406460551
 20
0.0000000000000002
 30
0.0
 11
11.9856406460551
 21
-0.3206915352355735
 31
0.0
  0
SPLINE
  5
C3
330
1F
100
AcDbEntity
  8
0
  6
Continuous
 62
     1
370
    15
100
AcDbSpline
210
0.0
220
0.0
230
1.0
 70
     8
 71
     3
 72
    10
 73
     6
 74
     0
 42
0.000000001
 43
0.00000001
 40
0.0
 40
0.0
 40
0.0
 40
0.0
 40
0.5
 40
0.5
 40
1.0
 40
1.0
 40
1.0
 40
1.0
 10
11.9856406460551
 20
-0.3206915352355736
 30
0.0
 10
11.85707661156307
 20
-0.2196163897101628
 30
0.0
 10
11.73066193018366
 20
-0.1143937431907953
 30
0.0
 10
11.48223084636325
 20
0.1045386924032947
 30
0.0
 10
11.35904675400067
 20
0.2194001095145107
 30
0.0
 10
11.24295710154236
 20
0.3358485000465538
 30
0.0
  0
SPLINE
  5
C4
330
1F
100
AcDbEntity
  8
0
  6
Continuous
 62
     1
370
    15
100
AcDbSpline
210
0.0
220
0.0
230
1.0
 70
     8
 71
     3
 72
    11
 73
     7
 74
     0
 42
0.000000001
 43
0.00000001
 40
0.0
 40
0.0
 40
0.0
 40
0.0
 40
0.2662004091468291
 40
0.5324049617605471
 40
0.7986135317780135
 40
1.0
 40
1.0
 40
1.0
 40
1.0
 10
11.24295710154347
 20
0.3358485000491914
 30
0.0
 10
10.99762450529667
 20
0.4381129618787761
 30
0.0
 10
10.50695549414822
 20
0.6426434773063915
 30
0.0
 10
9.770944392843834
 20
0.8549266787749122
 30
0.0
 10
9.0946654507289
 20
0.9683821000090328
 30
0.0
 10
8.663722901335234
 20
0.9502201393841074
 30
0.0
 10
8.47812213372288
 20
0.9423980437519307
 30
0.0
  0
LINE
  5
C5
330
1F
100
AcDbEntity
  8
0
  6
Continuous
 62
     1
370
    15
100
AcDbLine
 10
11.9856406460551
 20
-0.9467667172418586
 30
0.0
 11
11.9856406460551
 21
-0.3206915352355736
 31
0.0
  0
LINE
  5
C6
330
1F
100
AcDbEntity
  8
0
  6
Continuous
 62
     1
370
    15
100
AcDbLine
 10
11.9856406460551
 20
0.84
 30
0.0
 11
11.55495373777858
 21
0.8121104989339272
 31
0.0
  0
SPLINE
  5
C7
330
1F
100
AcDbEntity
  8
0
  6
Continuous
 62
     1
370
    15
100
AcDbSpline
210
0.0
220
0.0
230
1.0
 70
     8
 71
     3
 72
     8
 73
     4
 74
     0
 42
0.000000001
 43
0.00000001
 40
0.0
 40
0.0
 40
0.0
 40
0.0
 40
1.0
 40
1.0
 40
1.0
 40
1.0
 10
11.9856406460551
 20
0.84
 30
0.0
 10
11.68697355105088
 20
0.7588234172540215
 30
0.0
 10
11.39120617588191
 20
0.6568233578070248
 30
0.0
 10
11.10566594604581
 20
0.5170237557574582
 30
0.0
  0
SPLINE
  5
C8
330
1F
100
AcDbEntity
  8
0
  6
Continuous
 62
     1
370
    15
100
AcDbSpline
210
0.0
220
0.0
230
1.0
 70
     8
 71
     3
 72
     9
 73
     5
 74
     0
 42
0.000000001
 43
0.00000001
 40
0.0
 40
0.0
 40
0.0
 40
0.0
 40
0.0444776242475607
 40
1.0
 40
1.0
 40
1.0
 40
1.0
 10
6.676170326583532
 20
-0.9963421675650334
 30
0.0
 10
6.665932916266075
 20
-0.9980910406057354
 30
0.0
 10
6.435763016442427
 20
-1.037411329633941
 30
0.0
 10
6.205582898859197
 20
-1.024325076992568
 30
0.0
 10
5.985640646055097
 20
-1.011820869778987
 30
0.0
  0
SPLINE
  5
C9
330
1F
100
AcDbEntity
  8
0
  6
Continuous
 62
     1
370
    15
100
AcDbSpline
210
0.0
220
0.0
230
1.0
 70
     8
 71
     3
 72
    13
 73
     9
 74
     0
 42
0.000000001
 43
0.00000001
 40
0.0
 40
0.0
 40
0.0
 40
0.0
 40
0.1199813678473794
 40
0.3323437489727147
 40
0.4996816600539651
 40
0.6666074174692609
 40
0.8332855337618076
 40
0.9999999999999999
 40
0.9999999999999999
 40
0.9999999999999999
 40
0.9999999999999999
 10
9.450771977327804
 20
-0.8875232856179969
 30
0.0
 10
9.312155642258961
 20
-0.9115041993809854
 30
0.0
 10
8.928193754741233
 20
-0.9779304031055578
 30
0.0
 10
8.350918377305408
 20
-0.9580497052601848
 30
0.0
 10
7.719345158201006
 20
-0.8626050619667646
 30
0.0
 10
7.140821694173723
 20
-0.7046084258338905
 30
0.0
 10
6.563136531400162
 20
-0.4946861272691369
 30
0.0
 10
6.178153266137238
 20
-0.3260409527841239
 30
0.0
 10
5.985640646055097
 20
-0.2417091718113918
 30
0.0
  0
SPLINE
  5
CA
330
1F
100
AcDbEntity
  8
0
  6
Continuous
 62
     4
370
    15
100
AcDbSpline
210
0.0
220
0.0
230
1.0
 70
    24
 71
     3
 72
    10
 73
     6
 74
     0
 42
0.000000001
 43
0.00000001
 40
0.0
 40
0.0
 40
0.0
 40
0.0
 40
0.5
 40
0.5
 40
1.0
 40
1.0
 40
1.0
 40
1.0
 10
5.985640646054983
 20
-0.2417091718113414
 30
0.0
 10
5.985640646054983
 20
-0.4142519468381001
 30
0.0
 10
5.985640646054983
 20
-0.5804123457880674
 30
0.0
 10
5.985640646054983
 20
-0.8496045452171748
 30
0.0
 10
5.985640646054983
 20
-0.9514776372353538
 30
0.0
 10
5.985640646054983
 20
-1.011820869778979
 30
0.0
1001
PE_URL
1000

  0
SPLINE
  5
CB
330
1F
100
AcDbEntity
  8
0
  6
Continuous
 62
     4
370
    15
100
AcDbSpline
210
0.0
220
0.0
230
1.0
 70
    24
 71
     3
 72
    10
 73
     6
 74
     0
 42
0.000000001
 43
0.00000001
 40
0.0
 40
0.0
 40
0.0
 40
0.0
 40
0.5
 40
0.5
 40
1.0
 40
1.0
 40
1.0
 40
1.0
 10
5.985640646055097
 20
0.8129388923918484
 30
0.0
 10
5.985640646055097
 20
0.7168328095221371
 30
0.0
 10
5.985640646055097
 20
0.5654908126111444
 30
0.0
 10
5.985640646055097
 20
0.1906080772444315
 30
0.0
 10
5.985640646055093
 20
-0.0300280374430104
 30
0.0
 10
5.985640646055097
 20
-0.2417091718113917
 30
0.0
1001
PE_URL
1000

  0
LINE
  5
CC
330
1F
100
AcDbEntity
  8
0
  6
Continuous
 62
     1
370
    15
100
AcDbLine
 10
11.9856406460551
 20
0.0000000000000002
 30
0.0
 11
11.9856406460551
 21
0.8400000000000006
 31
0.0
  0
SPLINE
  5
CD
330
1F
100
AcDbEntity
  8
0
  6
Continuous
 62
     1
370
    15
100
AcDbSpline
210
0.0
220
0.0
230
1.0
 70
     8
 71
     3
 72
    10
 73
     6
 74
     0
 42
0.000000001
 43
0.00000001
 40
0.0
 40
0.0
 40
0.0
 40
0.0
 40
0.1172784031865358
 40
0.5585971560187807
 40
0.9999999999999999
 40
0.9999999999999999
 40
0.9999999999999999
 40
0.9999999999999999
 10
7.480425625206252
 20
-0.9440992452114809
 30
0.0
 10
7.421991991572603
 20
-0.9671926801233307
 30
0.0
 10
7.143672533968105
 20
-1.077186734561012
 30
0.0
 10
6.645422189914528
 20
-1.183524338766403
 30
0.0
 10
6.205581794253551
 20
-1.192744057129829
 30
0.0
 10
5.985640646055264
 20
-1.197354355462862
 30
0.0
  0
SPLINE
  5
CE
330
1F
100
AcDbEntity
  8
0
  6
Continuous
 62
     4
370
    15
100
AcDbSpline
210
0.0
220
0.0
230
1.0
 70
    24
 71
     3
 72
     8
 73
     4
 74
     0
 42
0.000000001
 43
0.00000001
 40
0.0
 40
0.0
 40
0.0
 40
0.0
 40
1.0
 40
1.0
 40
1.0
 40
1.0
 10
5.985640646055097
 20
-1.011820869778987
 30
0.0
 10
5.985640646055097
 20
-1.074641693159086
 30
0.0
 10
5.985640646055097
 20
-1.136887997139593
 30
0.0
 10
5.985640646055097
 20
-1.197354355463485
 30
0.0
1001
PE_URL
1000

  0
SPLINE
  5
CF
330
1F
100
AcDbEntity
  8
0
  6
Continuous
 62
     1
370
    15
100
AcDbSpline
210
0.0
220
0.0
230
1.0
 70
     8
 71
     3
 72
    10
 73
     6
 74
     0
 42
0.000000001
 43
0.00000001
 40
0.0
 40
0.0
 40
0.0
 40
0.0
 40
0.1899460609478497
 40
0.5948606368513469
 40
1.0
 40
1.0
 40
1.0
 40
1.0
 10
10.35459962783841
 20
0.8036794971892827
 30
0.0
 10
10.45785660115229
 20
0.8494893395273203
 30
0.0
 10
10.78123002936832
 20
0.9929536043364062
 30
0.0
 10
11.32489501566522
 20
1.145611838427274
 30
0.0
 10
11.76535136087339
 20
1.181191173944137
 30
0.0
 10
11.9856406460551
 20
1.198985778275573
 30
0.0
  0
LINE
  5
D0
330
1F
100
AcDbEntity
  8
0
  6
Continuous
 62
     1
370
    15
100
AcDbLine
 10
11.9856406460551
 20
0.8400000000000006
 30
0.0
 11
11.9856406460551
 21
1.198985778275573
 31
0.0
  0
LINE
  5
D1
330
1F
100
AcDbEntity
  8
중심선
100
AcDbLine
 10
-41.01435935394489
 20
-0.0000000000000046
 30
0.0
 11
13.4856406460551
 21
0.0000000000000002
 31
0.0
  0
CIRCLE
  5
D2
330
1F
100
AcDbEntity
  8
외형선
100
AcDbCircle
 10
0.0000000000000089
 20
-0.0000000000000035
 30
0.0
 40
3.000000000000004
  0
INSERT
  5
D3
330
1F
100
AcDbEntity
  8
0
  6
Continuous
 62
     7
100
AcDbBlockReference
 66
     1
  2
블럭10
 10
-27.95263279345651
 20
-52.04717430164393
 30
0.0
  0
ATTRIB
  5
D4
330
D3
100
AcDbEntity
  8
FORMAT
 62
     2
100
AcDbText
 10
-43.9582203247248
 20
-49.97180738881174
 30
0.0
 40
4.233333333333333
  1
SEME350244SE [ 2 FLUTE ]
 41
0.75
  7
SLDTEXTSTYLE0
 11
-43.9582203247248
 21
-52.08847405547841
 31
0.0
100
AcDbAttribute
  2
AUTOATTR0
 70
     0
 74
     1
  0
SEQEND
  5
D5
330
D3
100
AcDbEntity
  8
0
  6
Continuous
 62
     7
  0
HATCH
  5
D6
330
1F
100
AcDbEntity
  8
중심선
100
AcDbHatch
 10
0.0
 20
0.0
 30
0.0
210
0.0
220
0.0
230
1.0
  2
SOLID
 70
     1
 71
     0
 91
        1
 92
        0
 93
        4
 72
     1
 10
-22.23772348907566
 20
-35.8
 11
-25.68399873291294
 21
-35.8
 72
     1
 10
-25.68399873291294
 20
-35.8
 11
-27.81222859211696
 21
-38.33632558057259
 72
     1
 10
-27.81222859211696
 20
-38.33632558057259
 11
-24.36592026316653
 21
-38.3362861512701
 72
     1
 10
-24.36592026316653
 20
-38.3362861512701
 11
-22.23772348907566
 21
-35.8
 97
        0
 75
     0
 76
     1
 98
        1
 10
-4.014359353944898
 20
-0.0000000000000011
  0
HATCH
  5
D7
330
1F
100
AcDbEntity
  8
중심선
100
AcDbHatch
 10
0.0
 20
0.0
 30
0.0
210
0.0
220
0.0
230
1.0
  2
SOLID
 70
     1
 71
     0
 91
        1
 92
        0
 93
        4
 72
     1
 10
-17.22495949803971
 20
-35.8
 11
-20.67123474187699
 21
-35.8
 72
     1
 10
-20.67123474187699
 20
-35.8
 11
-25.20237275023437
 21
-41.20000000000002
 72
     1
 10
-25.20237275023437
 20
-41.20000000000002
 11
-21.75609750639709
 21
-41.20000000000002
 72
     1
 10
-21.75609750639709
 20
-41.20000000000002
 11
-17.22495949803971
 21
-35.8
 97
        0
 75
     0
 76
     1
 98
        1
 10
-4.014359353944898
 20
-0.0000000000000011
  0
HATCH
  5
D8
330
1F
100
AcDbEntity
  8
중심선
100
AcDbHatch
 10
0.0
 20
0.0
 30
0.0
210
0.0
220
0.0
230
1.0
  2
SOLID
 70
     1
 71
     0
 91
        1
 92
        0
 93
        4
 72
     1
 10
-12.21219550700381
 20
-35.80000000000003
 11
-15.65847075084093
 21
-35.8
 72
     1
 10
-15.65847075084093
 20
-35.8
 11
-22.70690765273017
 21
-44.20000000000002
 72
     1
 10
-22.70690765273017
 20
-44.20000000000002
 11
-19.26063240889289
 21
-44.20000000000002
 72
     1
 10
-19.26063240889289
 20
-44.20000000000002
 11
-12.21219550700381
 21
-35.80000000000003
 97
        0
 75
     0
 76
     1
 98
        1
 10
-4.014359353944898
 20
-0.0000000000000011
  0
HATCH
  5
D9
330
1F
100
AcDbEntity
  8
중심선
100
AcDbHatch
 10
0.0
 20
0.0
 30
0.0
210
0.0
220
0.0
230
1.0
  2
SOLID
 70
     1
 71
     0
 91
        1
 92
        0
 93
        6
 72
     3
 10
-7.412305075991611
 20
-40.00000000005127
 11
3.960054785062283
 21
1.540882976769353E-10
 40
0.3939339440162628
 50
17.09539180608437
 51
320.0019657685079
 73
     0
 72
     1
 10
-5.729305420291016
 20
-38.5878940046383
 11
-3.424003546589979
 21
-36.65356729459038
 72
     3
 10
-7.412305076044458
 20
-40.00000000000015
 11
6.600054785286829
 21
-1.278976924368180E-13
 40
0.636358354079598
 50
39.99873849337411
 51
368.4976242363725
 73
     1
 72
     1
 10
-0.9869725841438486
 20
-39.03999999993002
 11
-8.732237769208535
 21
-39.03999999992999
 72
     1
 10
-8.732237769208535
 20
-39.03999999992999
 11
-8.732262813654469
 21
-40.95999999992991
 72
     1
 10
-8.732262813654469
 20
-40.95999999992991
 11
-4.290883044182432
 21
-40.95999999992988
 97
        0
 75
     0
 76
     1
 98
        1
 10
-4.014359353944898
 20
-0.0000000000000011
  0
DIMENSION
  5
DA
330
1F
100
AcDbEntity
  8
치수문자_일반주서
100
AcDbDimension
  2
_D
 10
5.985640646055093
 20
13.44961966685335
 30
0.0
 11
8.985640646055092
 21
13.44961966685335
 31
0.0
 70
   160
  1
<>
 71
     2
 42
6.000000000000003
  3
SLDDIMSTYLE0
100
AcDbAlignedDimension
 13
11.9856406460551
 23
1.198985778275573
 33
0.0
 14
5.985640646055093
 24
1.172779171882113
 34
0.0
100
AcDbRotatedDimension
  0
DIMENSION
  5
E7
330
1F
100
AcDbEntity
  8
치수문자_일반주서
100
AcDbDimension
  2
_D_1
 10
-38.0143593539449
 20
23.62415911661226
 30
0.0
 11
-13.0143593539449
 21
23.62415911661226
 31
0.0
 70
   160
  1
<>
 71
     2
 42
49.99999999999999
  3
SLDDIMSTYLE1
100
AcDbAlignedDimension
 13
11.9856406460551
 23
0.8400000000000006
 33
0.0
 14
-38.0143593539449
 24
1.569999999999994
 34
0.0
100
AcDbRotatedDimension
  0
DIMENSION
  5
F2
330
1F
100
AcDbEntity
  8
치수문자_일반주서
100
AcDbDimension
  2
_D_2
 10
27.55183095830138
 20
-1.198985778275516
 30
0.0
 11
27.55183095830133
 21
13.70923577827563
 31
0.0
 70
   160
  1
%%c<>
 71
     2
 42
2.397971556551146
 52
-270.0
  3
SLDDIMSTYLE2
100
AcDbAlignedDimension
 13
11.9856406460551
 23
1.198985778275573
 33
0.0
 14
11.9856406460551
 24
-1.198985778275573
 34
0.0
 50
90.0000000000002
100
AcDbRotatedDimension
  0
DIMENSION
  5
100
330
1F
100
AcDbEntity
  8
치수문자_일반주서
100
AcDbDimension
  2
_D_3
 10
-50.00391879933343
 20
-2.000000000000048
 30
0.0
 11
-50.00391879933344
 21
-0.000000000000004
 31
0.0
 70
   160
  1
%%c<>
 71
     2
 42
3.999999999999997
 52
-270.0
  3
SLDDIMSTYLE0
100
AcDbAlignedDimension
 13
-37.5843593539449
 23
1.999999999999995
 33
0.0
 14
-37.5843593539449
 24
-2.000000000000002
 34
0.0
 50
90.0000000000002
100
AcDbRotatedDimension
  0
INSERT
  5
113
330
1F
100
AcDbEntity
  8
외형선
100
AcDbBlockReference
  2
SW_DOWELSYMBOL_0
 10
0.0000000000000089
 20
-0.0000000000000035
 30
0.0
  0
LINE
  5
13C
330
1F
100
AcDbEntity
  8
0
  6
Continuous
 62
     4
370
    15
100
AcDbLine
 10
0.0
 20
1.999999999999999
 30
0.0
 11
0.0
 21
-1.999999999999999
 31
0.0
  0
ENDSEC
  0
SECTION
  2
OBJECTS
  0
DICTIONARY
  5
C
330
0
100
AcDbDictionary
281
     1
  3
ACAD_GROUP
350
D
  3
ACAD_LAYOUT
350
1A
  3
ACAD_MLINESTYLE
350
17
  3
ACAD_PLOTSETTINGS
350
19
  3
ACAD_PLOTSTYLENAME
350
E
  3
ACAD_SCALELIST
350
47
  3
APPDATA
350
135
  3
DWGPROPS
350
143
  0
DICTIONARY
  5
D
102
{ACAD_REACTORS
330
C
102
}
330
C
100
AcDbDictionary
281
     1
  0
DICTIONARY
  5
1A
102
{ACAD_REACTORS
330
C
102
}
330
C
100
AcDbDictionary
281
     1
  3
Layout1
350
1E
  3
Layout2
350
26
  3
Model
350
22
  0
DICTIONARY
  5
17
102
{ACAD_REACTORS
330
C
102
}
330
C
100
AcDbDictionary
281
     1
  3
Standard
350
18
  0
DICTIONARY
  5
19
102
{ACAD_REACTORS
330
C
102
}
330
C
100
AcDbDictionary
281
     1
  0
ACDBDICTIONARYWDFLT
  5
E
102
{ACAD_REACTORS
330
C
102
}
330
C
100
AcDbDictionary
281
     1
  3
Normal
350
F
100
AcDbDictionaryWithDefault
340
F
  0
DICTIONARY
  5
47
102
{ACAD_REACTORS
330
C
102
}
330
C
100
AcDbDictionary
281
     1
  3
A0
350
48
  3
A1
350
49
  3
A2
350
4A
  3
A3
350
4B
  3
A4
350
4C
  3
A5
350
4D
  3
A6
350
4E
  3
A7
350
4F
  3
A8
350
50
  3
A9
350
51
  3
B0
350
52
  3
B1
350
53
  3
B2
350
54
  3
B3
350
55
  3
B4
350
56
  3
B5
350
57
  3
B6
350
58
  3
B7
350
59
  3
B8
350
5A
  3
B9
350
5B
  3
C0
350
5C
  3
C1
350
5D
  3
C2
350
5E
  3
C3
350
5F
  3
C4
350
60
  3
C5
350
61
  3
C6
350
62
  3
C7
350
63
  3
C8
350
64
  3
C9
350
65
  3
D0
350
66
  3
D1
350
67
  3
D2
350
68
  0
DICTIONARY
  5
135
102
{ACAD_REACTORS
330
C
102
}
330
C
100
AcDbDictionary
281
     1
  0
XRECORD
  5
143
102
{ACAD_REACTORS
330
C
102
}
330
C
100
AcDbXrecord
280
     1
  1
DWGPROPS COOKIE
  2

  3

  4

  6

  7

  8
12011908
  9

300
=
301
=
302
=
303
=
304
=
305
=
306
=
307
=
308
=
309
=
 40
0.0
 41
2458250.111982164
 42
2458264.130696887
  1

 90
        0
  0
LAYOUT
  5
1E
102
{ACAD_REACTORS
330
1A
102
}
330
1A
100
AcDbPlotSettings
  1

  2
none_device
  4

  6

 40
0.0
 41
0.0
 42
0.0
 43
0.0
 44
0.0
 45
0.0
 46
0.0
 47
0.0
 48
0.0
 49
0.0
140
0.0
141
0.0
142
1.0
143
1.0
 70
   688
 72
     1
 73
     0
 74
     5
  7

 75
    16
147
1.0
148
0.0
149
0.0
100
AcDbLayout
  1
Layout1
 70
     1
 71
     1
 10
0.0
 20
0.0
 11
420.0
 21
297.0
 12
0.0
 22
0.0
 32
0.0
 14
1.000000000000000E+20
 24
1.000000000000000E+20
 34
1.000000000000000E+20
 15
-1.000000000000000E+20
 25
-1.000000000000000E+20
 35
-1.000000000000000E+20
146
0.0
 13
0.0
 23
0.0
 33
0.0
 16
1.0
 26
0.0
 36
0.0
 17
0.0
 27
1.0
 37
0.0
 76
     0
330
1B
  0
LAYOUT
  5
26
102
{ACAD_REACTORS
330
1A
102
}
330
1A
100
AcDbPlotSettings
  1

  2
none_device
  4

  6

 40
0.0
 41
0.0
 42
0.0
 43
0.0
 44
0.0
 45
0.0
 46
0.0
 47
0.0
 48
0.0
 49
0.0
140
0.0
141
0.0
142
1.0
143
1.0
 70
   688
 72
     1
 73
     0
 74
     5
  7

 75
    16
147
1.0
148
0.0
149
0.0
100
AcDbLayout
  1
Layout2
 70
     1
 71
     2
 10
0.0
 20
0.0
 11
0.0
 21
0.0
 12
0.0
 22
0.0
 32
0.0
 14
0.0
 24
0.0
 34
0.0
 15
0.0
 25
0.0
 35
0.0
146
0.0
 13
0.0
 23
0.0
 33
0.0
 16
1.0
 26
0.0
 36
0.0
 17
0.0
 27
1.0
 37
0.0
 76
     0
330
23
  0
LAYOUT
  5
22
102
{ACAD_REACTORS
330
1A
102
}
330
1A
100
AcDbPlotSettings
  1

  2
none_device
  4
ANSI_A_(11.00_x_8.50_Inches)
  6

 40
6.35
 41
19.05
 42
6.35000508
 43
19.05000254
 44
279.4
 45
215.9
 46
157.7258203381737
 47
119.5033173522412
 48
0.0
 49
0.0
140
0.0
141
0.0
142
0.1067193642172808
143
1.0
 70
  1696
 72
     0
 73
     0
 74
     0
  7

 75
     0
147
0.0235690232323232
148
0.0
149
0.0
100
AcDbLayout
  1
Model
 70
     1
 71
     0
 10
0.0
 20
0.0
 11
420.0
 21
297.0
 12
0.0
 22
0.0
 32
0.0
 14
-54.37891879933345
 24
-49.97180738881174
 34
0.0
 15
28.53761300860851
 25
27.99915911661226
 35
0.0
146
0.0
 13
0.0
 23
0.0
 33
0.0
 16
1.0
 26
0.0
 36
0.0
 17
0.0
 27
1.0
 37
0.0
 76
     0
330
1F
331
29
  0
MLINESTYLE
  5
18
102
{ACAD_REACTORS
330
17
102
}
330
17
100
AcDbMlineStyle
  2
Standard
 70
     0
  3

 62
   256
 51
90.0
 52
90.0
 71
     2
 49
0.5
 62
   256
  6
BYLAYER
 49
-0.5
 62
   256
  6
BYLAYER
  0
ACDBPLACEHOLDER
  5
F
102
{ACAD_REACTORS
330
E
102
}
330
E
  0
SCALE
  5
48
102
{ACAD_REACTORS
330
47
102
}
330
47
100
AcDbScale
 70
     0
300
1:1
140
1.0
141
1.0
290
     1
  0
SCALE
  5
49
102
{ACAD_REACTORS
330
47
102
}
330
47
100
AcDbScale
 70
     0
300
1:2
140
1.0
141
2.0
290
     0
  0
SCALE
  5
4A
102
{ACAD_REACTORS
330
47
102
}
330
47
100
AcDbScale
 70
     0
300
1:4
140
1.0
141
4.0
290
     0
  0
SCALE
  5
4B
102
{ACAD_REACTORS
330
47
102
}
330
47
100
AcDbScale
 70
     0
300
1:5
140
1.0
141
5.0
290
     0
  0
SCALE
  5
4C
102
{ACAD_REACTORS
330
47
102
}
330
47
100
AcDbScale
 70
     0
300
1:8
140
1.0
141
8.0
290
     0
  0
SCALE
  5
4D
102
{ACAD_REACTORS
330
47
102
}
330
47
100
AcDbScale
 70
     0
300
1:10
140
1.0
141
10.0
290
     0
  0
SCALE
  5
4E
102
{ACAD_REACTORS
330
47
102
}
330
47
100
AcDbScale
 70
     0
300
1:16
140
1.0
141
16.0
290
     0
  0
SCALE
  5
4F
102
{ACAD_REACTORS
330
47
102
}
330
47
100
AcDbScale
 70
     0
300
1:20
140
1.0
141
20.0
290
     0
  0
SCALE
  5
50
102
{ACAD_REACTORS
330
47
102
}
330
47
100
AcDbScale
 70
     0
300
1:30
140
1.0
141
30.0
290
     0
  0
SCALE
  5
51
102
{ACAD_REACTORS
330
47
102
}
330
47
100
AcDbScale
 70
     0
300
1:40
140
1.0
141
40.0
290
     0
  0
SCALE
  5
52
102
{ACAD_REACTORS
330
47
102
}
330
47
100
AcDbScale
 70
     0
300
1:50
140
1.0
141
50.0
290
     0
  0
SCALE
  5
53
102
{ACAD_REACTORS
330
47
102
}
330
47
100
AcDbScale
 70
     0
300
1:100
140
1.0
141
100.0
290
     0
  0
SCALE
  5
54
102
{ACAD_REACTORS
330
47
102
}
330
47
100
AcDbScale
 70
     0
300
2:1
140
2.0
141
1.0
290
     0
  0
SCALE
  5
55
102
{ACAD_REACTORS
330
47
102
}
330
47
100
AcDbScale
 70
     0
300
4:1
140
4.0
141
1.0
290
     0
  0
SCALE
  5
56
102
{ACAD_REACTORS
330
47
102
}
330
47
100
AcDbScale
 70
     0
300
8:1
140
8.0
141
1.0
290
     0
  0
SCALE
  5
57
102
{ACAD_REACTORS
330
47
102
}
330
47
100
AcDbScale
 70
     0
300
10:1
140
10.0
141
1.0
290
     0
  0
SCALE
  5
58
102
{ACAD_REACTORS
330
47
102
}
330
47
100
AcDbScale
 70
     0
300
100:1
140
100.0
141
1.0
290
     0
  0
SCALE
  5
59
102
{ACAD_REACTORS
330
47
102
}
330
47
100
AcDbScale
 70
     0
300
1/128" = 1'-0"
140
0.0078125
141
12.0
290
     0
  0
SCALE
  5
5A
102
{ACAD_REACTORS
330
47
102
}
330
47
100
AcDbScale
 70
     0
300
1/64" = 1'-0"
140
0.015625
141
12.0
290
     0
  0
SCALE
  5
5B
102
{ACAD_REACTORS
330
47
102
}
330
47
100
AcDbScale
 70
     0
300
1/32" = 1'-0"
140
0.03125
141
12.0
290
     0
  0
SCALE
  5
5C
102
{ACAD_REACTORS
330
47
102
}
330
47
100
AcDbScale
 70
     0
300
1/16" = 1'-0"
140
0.0625
141
12.0
290
     0
  0
SCALE
  5
5D
102
{ACAD_REACTORS
330
47
102
}
330
47
100
AcDbScale
 70
     0
300
3/32" = 1'-0"
140
0.09375
141
12.0
290
     0
  0
SCALE
  5
5E
102
{ACAD_REACTORS
330
47
102
}
330
47
100
AcDbScale
 70
     0
300
1/8" = 1'-0"
140
0.125
141
12.0
290
     0
  0
SCALE
  5
5F
102
{ACAD_REACTORS
330
47
102
}
330
47
100
AcDbScale
 70
     0
300
3/16" = 1'-0"
140
0.1875
141
12.0
290
     0
  0
SCALE
  5
60
102
{ACAD_REACTORS
330
47
102
}
330
47
100
AcDbScale
 70
     0
300
1/4" = 1'-0"
140
0.25
141
12.0
290
     0
  0
SCALE
  5
61
102
{ACAD_REACTORS
330
47
102
}
330
47
100
AcDbScale
 70
     0
300
3/8" = 1'-0"
140
0.375
141
12.0
290
     0
  0
SCALE
  5
62
102
{ACAD_REACTORS
330
47
102
}
330
47
100
AcDbScale
 70
     0
300
1/2" = 1'-0"
140
0.5
141
12.0
290
     0
  0
SCALE
  5
63
102
{ACAD_REACTORS
330
47
102
}
330
47
100
AcDbScale
 70
     0
300
3/4" = 1'-0"
140
0.75
141
12.0
290
     0
  0
SCALE
  5
64
102
{ACAD_REACTORS
330
47
102
}
330
47
100
AcDbScale
 70
     0
300
1" = 1'-0"
140
1.0
141
12.0
290
     0
  0
SCALE
  5
65
102
{ACAD_REACTORS
330
47
102
}
330
47
100
AcDbScale
 70
     0
300
1-1/2" = 1'-0"
140
1.5
141
12.0
290
     0
  0
SCALE
  5
66
102
{ACAD_REACTORS
330
47
102
}
330
47
100
AcDbScale
 70
     0
300
3" = 1'-0"
140
3.0
141
12.0
290
     0
  0
SCALE
  5
67
102
{ACAD_REACTORS
330
47
102
}
330
47
100
AcDbScale
 70
     0
300
6" = 1'-0"
140
6.0
141
12.0
290
     0
  0
SCALE
  5
68
102
{ACAD_REACTORS
330
47
102
}
330
47
100
AcDbScale
 70
     0
300
1'-0" = 1'-0"
140
12.0
141
12.0
290
     0
  0
ENDSEC
  0
EOF
